<?xml version="1.0" standalone="no"?>
<!DOCTYPE svg PUBLIC "-//W3C//DTD SVG 1.1//EN" "http://www.w3.org/Graphics/SVG/1.1/DTD/svg11.dtd" >
<svg xmlns="http://www.w3.org/2000/svg">
<metadata></metadata>
<defs>
<font id="eras_demiregular" horiz-adv-x="725" >
<font-face units-per-em="2048" ascent="1637" descent="-411" />
<missing-glyph horiz-adv-x="556" />
<glyph unicode="&#xd;" horiz-adv-x="556" />
<glyph unicode=" "  horiz-adv-x="556" />
<glyph unicode="&#x09;" horiz-adv-x="556" />
<glyph unicode="&#xa0;" horiz-adv-x="556" />
<glyph unicode="!" horiz-adv-x="533" d="M98 0l19 286h333l-12 -286h-340zM145 447q0 169 5 411.5t5 343.5l10 326h322l-12 -266q0 -134 -12.5 -270.5t-24.5 -272.5t-12 -272h-281z" />
<glyph unicode="&#x22;" horiz-adv-x="816" d="M141 1127l16 208l8 198h199q-5 -57 -9 -111.5t-4 -102.5q0 -35 -3.5 -95t-3.5 -97h-203zM543 1124q6 55 12 112t6 111l3 186h205l-13 -215l-7 -194h-206z" />
<glyph unicode="#" horiz-adv-x="1677" d="M115 366l50 218h198l83 365h-197l51 221h198l79 363h319l-83 -361h306l77 361h318l-78 -361h195l-52 -225h-195l-82 -360h192l-50 -223h-196l-87 -364h-318l87 363h-304l-86 -363h-317l83 366h-191zM677 587h307l75 359h-295z" />
<glyph unicode="$" horiz-adv-x="1016" d="M112 415q54 -42 132 -66q60 -18 117 -25q25 -2 51 -3t32 -1q48 0 88 12t65.5 44.5t25.5 73.5q0 46 -37 99q-25 35 -79 86l-178 169q-78 74 -121 151q-48 86 -48 170q0 35 9 73q26 106 137 178q86 57 166 65v90h244l2 -93l94 -13q35 -6 51 -10q32 -11 52 -16l12 -234 q-45 20 -91 34t-94.5 21.5t-95.5 7.5q-69 0 -108 -23q-49 -29 -49 -96q0 -49 46 -114q40 -55 108 -114l50 -46q101 -92 122 -112q63 -65 89 -116q34 -67 34 -152q0 -121 -89 -218q-83 -91 -205 -117v-122h-244v110q-74 0 -160 20q-38 9 -53.5 13.5t-61.5 23.5z" />
<glyph unicode="%" horiz-adv-x="2087" d="M141 1067q0 214 96 346q106 148 303 148q31 0 46 -2q152 -14 230 -151q73 -124 73 -316q0 -218 -80 -351q-100 -165 -311 -164q-200 0 -287 155q-69 121 -70 335zM344 1078q0 -201 47 -282q38 -68 113 -67q91 0 140 104q43 93 43 233q0 141 -32 230q-42 112 -128 112 q-83 0 -133 -101.5t-50 -228.5zM552 0q86 151 146 255q97 168 132 229q69 123 143 259l423 790h183l-829 -1533h-198zM1255 467q0 212 95 345q106 148 303 147q31 0 46 -1q151 -12 231 -151q70 -123 70 -315q0 -220 -80 -352q-98 -163 -310 -163q-200 0 -288 155 q-68 120 -67 335zM1458 477q0 -200 46 -282q38 -68 113 -67q89 0 139 106q43 94 43 232q0 146 -31 231q-40 112 -127 112q-85 0 -137 -106q-46 -95 -46 -226z" />
<glyph unicode="&#x26;" horiz-adv-x="1732" d="M117 420q0 152 101 280q74 92 191 164q88 54 105 54q-37 43 -56 72q-57 92 -57 186q0 26 5 57q32 172 168 258q118 75 295 76q92 0 187 -22l134 -27l3 -248l-44 17q-25 11 -74 21q-69 15 -126 16q-38 0 -74 -8.5t-63 -25.5q-42 -26 -61 -63.5t-19 -81.5q0 -74 49 -166 q62 -115 205 -266l204 -215q9 20 17.5 51t16.5 75q3 18 7.5 55t4.5 64h275q6 -15 -6 -97.5t-31 -148t-37.5 -106t-54.5 -102.5l260 -289h-354l-129 128l-29 -22q-101 -81 -243 -111q-97 -20 -243 -20q-194 0 -346 106q-181 126 -181 339zM421 427q0 -18 2 -27 q9 -95 100 -154q85 -54 201 -54q68 0 125 19.5t104 60.5l49 42l-356 398l-42 -26q-88 -57 -130 -111q-52 -66 -53 -148z" />
<glyph unicode="'" horiz-adv-x="405" d="M140 1124q6 60 10 109t4 97q0 37 3 100t3 103h206q-8 -66 -11.5 -117t-3.5 -106q0 -35 1.5 -93t1.5 -93h-214z" />
<glyph unicode="(" horiz-adv-x="667" d="M126 581q0 169 26 323q17 94 42 215q42 200 75 331q48 183 91 292h255q-58 -171 -109 -421q-40 -195 -63 -380t-23 -248q0 -189 5.5 -316.5t26 -290.5t58.5 -334h-252q-68 232 -100 440.5t-32 388.5z" />
<glyph unicode=")" horiz-adv-x="648" d="M92 -248q62 177 111 422q35 178 63 393q22 172 22 234q0 185 -5.5 322.5t-25 289t-60.5 329.5h253q66 -232 98.5 -442t32.5 -387q0 -169 -26 -323q-15 -88 -41 -215q-40 -191 -76 -332q-46 -183 -89 -291h-257z" />
<glyph unicode="*" horiz-adv-x="964" d="M137 1196l75 162l258 -117l-7 292h174l-33 -297l266 115l56 -158l-277 -81l180 -220l-140 -112l-165 246l-197 -246l-123 112l202 221z" />
<glyph unicode="+" horiz-adv-x="1436" d="M117 429l11 286h478l12 427h291l-16 -426h474l-9 -287h-480l-11 -429h-295l20 429h-475z" />
<glyph unicode="," horiz-adv-x="667" d="M62 -284l178 496h343l-300 -496h-221z" />
<glyph unicode="-" horiz-adv-x="784" d="M126 713l9 222h594l-13 -222h-590z" />
<glyph unicode="." horiz-adv-x="524" d="M109 0l14 301l318 -1l-20 -300h-312z" />
<glyph unicode="/" horiz-adv-x="1254" d="M-75 -518q57 100 207 390q126 243 248 480q138 269 204 394l423 790h185l-1069 -2054h-198z" />
<glyph unicode="0" horiz-adv-x="1406" d="M118 677v59t7 84q29 314 175 508q169 228 453 228h34t39 -3q278 -26 409 -285q103 -204 103 -522q0 -326 -156 -537q-177 -240 -509 -240q-294 0 -435 216q-120 181 -120 492zM440 655q0 -178 46 -288q58 -138 181 -156q28 -3 40 -3q137 0 219 175q59 129 84 341 q6 68 7 98t1 47q0 192 -54 307q-65 137 -192 137q-157 0 -240 -171q-63 -131 -86 -362q-3 -31 -4.5 -58t-1.5 -67z" />
<glyph unicode="1" horiz-adv-x="765" d="M161 1102v283q31 17 60.5 35.5t59.5 37t73 49.5q15 11 41 31h340l-55 -894l-19 -644h-355l35 595q0 108 19 397q9 145 9 247z" />
<glyph unicode="2" horiz-adv-x="1319" d="M111 0v235l379 375q121 121 170 174q98 108 152 192q68 106 67 179q0 37 -15 63q-31 54 -104.5 80t-167.5 26q-51 0 -102.5 -6t-105.5 -17l-190 -39l38 252l65 13q106 20 198 30t192 10q214 0 352 -54q163 -63 214 -198q17 -45 17 -100q0 -98 -58 -214 q-51 -101 -146 -218q-75 -94 -190 -208l-347 -349h430l251 11l-28 -237h-1071z" />
<glyph unicode="3" horiz-adv-x="1326" d="M109 294l111 -36q154 -49 292 -49q165 0 273 67t108 168q2 22 2 30q0 121 -128 178q-97 43 -243 43q-34 0 -67.5 -3t-53.5 -6l-51 -9l20 244l106 -8h48q132 0 207 30q120 46 137 167q3 28 3 39q0 103 -92 149q-71 35 -198 35q-46 0 -90 -4t-87 -11l-175 -28l46 240 l195 17q241 0 337 -9q186 -18 287 -79q125 -74 149 -223q5 -31 5 -60q0 -118 -67.5 -221t-189.5 -142l-78 -26l23 -4q137 -25 218 -103q94 -89 94 -228q0 -11 -1.5 -24t-1.5 -21q-28 -243 -243 -355q-163 -85 -412 -84q-112 0 -259 19t-202 44z" />
<glyph unicode="4" horiz-adv-x="1408" d="M125 460l1 267l308 411l273 395h418l-29 -486l-3 -352h239l-5 -238h-251l-6 -191l6 -266h-344l21 343l3 117h-631zM378 681h423l3 169l12 255l5 196z" />
<glyph unicode="5" horiz-adv-x="1300" d="M111 272l181 -44q72 -17 145 -17q154 0 270 60q128 65 143 169q3 14 3 27.5v21.5q0 140 -149 200q-103 42 -261 41q-42 0 -69 -1.5t-34 -2.5l-189 -25l72 833h969l-3 -136v-113l-117 5h-532l-36 -375l89 3q268 0 414 -63q173 -74 208 -246q11 -52 10 -105 q0 -237 -213 -389q-203 -145 -486 -144q-254 0 -397 57z" />
<glyph unicode="6" horiz-adv-x="1386" d="M126 447q0 197 95 423q83 198 253 442l152 221h410l-201 -252q-163 -203 -268 -418q-112 -229 -112 -386q0 -26 2 -40q5 -17 4 -23q14 -80 77 -134q75 -66 194 -66q118 0 186.5 80.5t68.5 209.5q0 89 -52 146q-66 72 -197 73q-42 0 -95 -10l-36 -6l120 216q38 12 72 16.5 t80 4.5q106 0 198.5 -35.5t135.5 -92.5q49 -66 74.5 -142t25.5 -157q0 -220 -158 -377q-171 -169 -448 -169q-284 0 -432.5 126t-148.5 350z" />
<glyph unicode="7" horiz-adv-x="1296" d="M155 1278l10 138l1 117h1089l-14 -237l-362 -739q-55 -115 -128.5 -280t-124.5 -277h-417l341 657q75 146 157 315q75 158 152 318h-453z" />
<glyph unicode="8" horiz-adv-x="1417" d="M121 395q0 131 91.5 241.5t233.5 143.5q-118 55 -174 130q-63 85 -63 215q0 194 168 317q155 114 370 114q229 0 374 -80q180 -98 180 -298q0 -185 -123 -300q-26 -25 -154 -98q132 -25 216.5 -107.5t84.5 -197.5q0 -254 -196 -390q-171 -118 -432 -119q-234 0 -383 86 q-192 111 -193 343zM438 424q0 -105 81.5 -172t200.5 -67q118 0 199 67q88 72 88 192q0 111 -91 173q-81 55 -196 55q-120 0 -201 -70t-81 -178zM506 1093q0 -108 74 -164q66 -51 170 -51q105 0 178.5 69t73.5 180q0 92 -69.5 148.5t-191.5 56.5q-97 0 -166 -68t-69 -171z " />
<glyph unicode="9" horiz-adv-x="1405" d="M141 1035q0 235 174.5 392.5t427.5 157.5q224 0 344 -53t194 -190q32 -58 47.5 -125.5t15.5 -137.5q0 -163 -80 -356q-66 -158 -195 -360l-233 -363h-424l195 258q171 226 282 442q123 238 123 367q0 148 -79 217q-68 60 -190 60q-114 0 -195.5 -75.5t-81.5 -195.5 q0 -22 1 -32q12 -111 99 -166q72 -46 170 -46q37 0 69.5 7t55.5 20l-143 -232q-63 -15 -135 -15q-148 0 -263 68q-121 72 -155 195q-23 86 -24 163z" />
<glyph unicode=":" horiz-adv-x="545" d="M105 0l6 301h321l-18 -301h-309zM157 838l8 303h322l-17 -303h-313z" />
<glyph unicode=";" horiz-adv-x="627" d="M15 -278l170 493h345l-299 -493h-216zM214 836l14 302h318l-14 -302h-318z" />
<glyph unicode="&#x3c;" horiz-adv-x="1345" d="M112 432l11 281l1165 420l-9 -284l-935 -279l875 -270l-10 -300z" />
<glyph unicode="=" horiz-adv-x="1160" d="M108 252l13 225h951l-16 -225h-948zM134 658l12 225h946l-10 -225h-948z" />
<glyph unicode="&#x3e;" horiz-adv-x="1339" d="M115 -5l10 279l919 281l-869 266l11 295l1089 -421l-10 -283z" />
<glyph unicode="?" horiz-adv-x="1210" d="M140 1264l41 260l125 21q58 11 116.5 15.5t127.5 4.5q254 0 412 -81q190 -97 190 -289q0 -92 -47 -171q-34 -57 -118 -145l-174 -176q-40 -42 -61.5 -79.5t-30.5 -80.5t-12 -86t-5 -59h-289q0 94 5 139q11 112 49 186q23 46 48 77q17 22 63 69l110 112q51 52 70 81 q29 46 29 94q0 17 -2 26q-11 71 -92.5 105.5t-197.5 34.5q-60 0 -116.5 -7t-119.5 -22zM369 0l14 278h340l-16 -278h-338z" />
<glyph unicode="@" horiz-adv-x="1920" d="M126 695q0 431 297 661q257 200 650 200q295 0 489 -140q152 -109 228 -289q55 -132 55 -246q0 -211 -97 -338q-78 -103 -223 -149q-106 -34 -241 -34q-65 0 -122 7q-20 2 -49 10l19 424l-25 -12q-109 -29 -183 -57q-141 -54 -141 -142q0 -43 34.5 -65t91.5 -22 q45 0 103 15l32 9l-55 -156l-34 -5q-32 -5 -64 -8t-65 -3q-145 0 -231 51q-105 62 -105 189q0 160 176 234q34 14 320 80q169 38 156 117q-6 38 -51 55.5t-118 17.5q-75 0 -160.5 -16.5t-152.5 -43.5l-39 -13l32 173l82 17q68 15 150 25.5t153 10.5q160 0 252 -47 q109 -55 109 -172v-38l-18 -383q-2 -29 -2 -45q0 -45 28 -41q88 11 143 89q62 88 61 228q0 278 -187 425q-166 131 -434 131q-286 0 -467 -200q-172 -191 -172 -467q0 -268 153 -437q166 -183 460 -183q121 0 228 37q126 43 223 134h266q-143 -175 -333 -252 q-171 -69 -412 -69q-334 0 -556 175q-254 200 -254 558z" />
<glyph unicode="A" horiz-adv-x="1905" d="M57 0l444 832q86 163 126 240q55 108 111 216q117 226 125 243h410l246 -685q74 -209 154.5 -422t160.5 -424h-361q-42 138 -98 301l-85 239h-597l-126 -257q-25 -49 -67 -142q-29 -63 -66 -141h-377zM793 783h431l-177 518z" />
<glyph unicode="B" horiz-adv-x="1446" d="M98 0l23 411q0 111 19 409q9 149 9 256q0 89 3 258.5t3 196.5h826q165 0 261 -89q105 -95 105 -269q0 -171 -112 -277q-69 -66 -166 -96q145 -45 213 -123q83 -94 83 -254q0 -201 -148 -312t-413 -111h-706zM435 223h315q135 0 211.5 64t76.5 173q0 120 -79 172 q-65 43 -176 43h-329zM463 899h324q86 0 151 51q81 65 81 182q0 98 -75 143q-58 35 -154 35h-316z" />
<glyph unicode="C" horiz-adv-x="1509" d="M135 727q0 414 288 635q251 194 641 194q123 0 224 -17l157 -25l13 -266l-93 27q-137 37 -266 37q-268 0 -433 -147q-180 -158 -180 -450q0 -255 169 -391q151 -120 392 -120q114 0 243 33l146 38l-34 -261l-177 -36q-118 -23 -236 -23q-357 0 -589 185 q-264 209 -265 587z" />
<glyph unicode="D" horiz-adv-x="1689" d="M111 -2l27 420q0 101 14 322q8 123 8 201l17 590h775q351 0 522 -224q147 -191 147 -514q0 -355 -228 -575t-607 -220h-675zM454 252h243q255 0 418 131q181 144 181 404q0 243 -104.5 378.5t-290.5 135.5h-411z" />
<glyph unicode="E" horiz-adv-x="1309" d="M101 0q18 181 37 363q25 277 25 487q0 197 1.5 361t3.5 320h1119l-8 -241l-189 11h-578l-20 -408h437l233 13l-15 -228h-669l-18 -426h576l197 17l-14 -269h-1118z" />
<glyph unicode="F" horiz-adv-x="1256" d="M131 0q12 97 20.5 209t8.5 183l21 564l8 577h1066l-14 -234l-143 2h-574l-14 -408h625l-13 -221l-167 6h-457l-14 -678h-353z" />
<glyph unicode="G" horiz-adv-x="1715" d="M128 740q0 364 240.5 591t623.5 227q178 0 355.5 -17t250.5 -47l9 -266q-17 11 -220 45q-235 40 -361 40q-291 0 -433 -184q-118 -155 -118 -411q0 -274 155 -400q125 -101 336 -101q131 0 215 9t120 25l23 396h-283l12 222h604l-46 -826q-52 -22 -252.5 -47t-376.5 -25 q-435 0 -655 217q-200 198 -199 552z" />
<glyph unicode="H" horiz-adv-x="1678" d="M106 -2q0 151 11 311q0 2 21 266q12 152 13 212q0 131 15 458q8 165 8 286h350l-20 -335q0 -60 -5 -146t-5 -121h762l11 283l5 319h356q0 -118 -24 -441q-12 -161 -13 -277q0 -275 -5 -422q-15 -371 -16 -393h-355q0 62 9 160.5t9 159.5q0 95 4.5 224.5t4.5 143.5h-761 q-5 -81 -6 -131q-6 -149 -6 -241q-5 -88 -8 -167t-3 -149h-352z" />
<glyph unicode="I" horiz-adv-x="659" d="M157 0l15 231q0 46 15.5 265.5t15.5 353.5q0 121 3 219q9 291 9 350v112h360q0 -129 -10 -256.5l-20 -255t-10 -183.5l-9 -355l-3 -481h-366z" />
<glyph unicode="J" horiz-adv-x="1134" d="M77 23v252q34 -17 143 -38.5t172 -21.5q57 0 101.5 10t80.5 35q69 49 92 147q17 71 17 199l24 649v276h352l-30 -512q0 -109 -6.5 -225.5t-10.5 -195.5v-114q0 -100 -13 -167q-22 -115 -76 -183q-75 -91 -207 -132q-108 -34 -249 -34q-100 0 -207 17q-92 18 -183 38z" />
<glyph unicode="K" horiz-adv-x="1591" d="M128 0q0 126 27 421q15 165 16 265q0 132 6 261t14 265v319h353l-3 -136q0 -121 -6 -214q-18 -275 -18 -331l-25 -586l-2 -264h-362zM541 818q128 151 145 172q9 12 170 219q55 71 120.5 157.5t121.5 164.5h401l-341 -407l-252 -301q60 -86 152 -213q66 -91 97 -132 q43 -58 157 -206q88 -115 146 -189q32 -41 64 -83h-413l-329 481z" />
<glyph unicode="L" horiz-adv-x="1259" d="M118 0l23 331l30 535q0 115 6 207q18 275 18 334l2 126h344l-9 -152l-31 -540q0 -100 -14 -341q-7 -119 -7 -222v-26h609l109 5l-13 -257h-1067z" />
<glyph unicode="M" horiz-adv-x="1978" d="M103 0l74 776l52 755h449l338 -1125l437 1125h460l-30 -911q0 -154 -1 -237q-6 -332 -6 -383h-311l28 586q0 72 7.5 186t7.5 186l-1 281l-257 -669l-217 -570h-310q-40 145 -79 297q-62 241 -77 298q-46 169 -118 404q-57 185 -77 254l-41 -592l-34 -661h-294z" />
<glyph unicode="N" horiz-adv-x="1702" d="M105 -3l52 775l23 759h423q45 -78 108.5 -183.5t109.5 -178.5q77 -126 123 -205q40 -65 132 -208q58 -94 119 -187q83 -132 129 -208l26 638q0 106 7.5 266t7.5 266h317q0 -97 -14 -228t-28.5 -279.5t-13.5 -274.5l-18 -749h-413l-371 597l-360 565l-23 -513l-10 -652 h-326z" />
<glyph unicode="O" horiz-adv-x="1941" d="M135 800q0 275 160 462q131 152 357 232q183 65 366 65q212 0 390 -72q211 -85 331 -252q138 -193 138 -477q0 -400 -266 -610q-235 -186 -615 -186q-378 0 -599 183q-261 215 -262 655zM475 735q0 -234 125 -375q138 -157 399 -157q243 0 389 161q140 156 140 400 q0 237 -110 377q-131 167 -403 167h-3q-237 0 -391 -172q-146 -165 -146 -401z" />
<glyph unicode="P" horiz-adv-x="1340" d="M101 0q0 154 11 277q26 300 26 364l28 892h726q195 0 298 -120q94 -109 94 -284q0 -234 -169 -371q-157 -126 -389 -126q-48 0 -106 8l-54 7l-54 220l43 -6q18 -3 36 -4.5t44 -1.5q137 0 224 58q103 69 103 200q0 11 -1.5 24t-1.5 21q-9 69 -56 104q-52 40 -156 40 l-281 -1l-31 -863l-9 -438h-325z" />
<glyph unicode="Q" horiz-adv-x="1989" d="M131 710q0 45 3 69.5t3 38.5q34 337 270 539t579 202q361 0 612 -161q279 -179 279 -483q0 -237 -61 -394q-71 -180 -238 -304q57 8 78 11q49 11 79 16t84 17q68 17 83 20l-46 -250q-100 -14 -142 -19q-118 -15 -221 -24q-266 -23 -368 -23h-199q-335 0 -555 189 q-240 206 -240 556zM477 718q0 -232 160 -377q152 -137 376 -137t376 159.5t152 403.5v26q0 11 -1.5 24t-1.5 21q-23 229 -173 357q-140 120 -355 120t-363.5 -157t-166.5 -382q-2 -15 -2.5 -32t-0.5 -26z" />
<glyph unicode="R" horiz-adv-x="1394" d="M103 0q17 178 37 392t20 408l20 731h607h21.5t27.5 2q257 0 385.5 -97t128.5 -274q0 -192 -129 -318q-148 -144 -290 -144h-2l183 -354l183 -346h-365q-48 125 -92.5 231.5t-97.5 225.5q-48 106 -90.5 194.5t-95.5 194.5l86 -8q14 -2 26 -2.5t31 -0.5q137 0 229 64 q104 73 104 204q0 110 -71.5 156t-222.5 46h-252l-12 -375l-32 -930h-337z" />
<glyph unicode="S" horiz-adv-x="1202" d="M118 301l122 -46q65 -23 137 -37t141 -14q97 0 165.5 31t89.5 97q5 15 7 23t1 23q0 52 -31.5 103t-85.5 93l-223 173q-128 98 -186 185q-74 108 -74 238q0 188 173 291q149 90 377 90h5q74 0 156 -12l181 -26l19 -261l-56 16q-145 43 -260 44q-120 0 -186 -46.5 t-66 -129.5q0 -62 43 -117q29 -38 102 -93l189 -148q121 -95 186 -177q80 -102 80 -197q0 -234 -171 -347q-143 -95 -386 -95q-75 0 -156.5 10t-158.5 28l-106 26z" />
<glyph unicode="T" horiz-adv-x="1445" d="M123 1284l11 247h1294l-9 -250l-166 20h-309l-28 -477q0 -178 -3.5 -301t-11.5 -314t-8 -209h-352l48 821l20 480h-341z" />
<glyph unicode="U" horiz-adv-x="1652" d="M134 478q0 55 11 302q6 140 6 199q0 97 6 219q14 272 14 335h350l-46 -790q0 -185 8 -245q17 -135 80 -203q77 -84 233 -84h4q177 0 276 80q85 68 117 196q23 94 23 256l43 790h346q0 -128 -32 -438q-17 -163 -17 -274v-77q0 -154 -9 -246t-46 -192q-68 -180 -283 -268 q-178 -72 -420 -72q-228 0 -406 88q-204 100 -246 273q-6 23 -9 64t-3 87z" />
<glyph unicode="V" horiz-adv-x="1846" d="M131 1531h350q15 -49 68 -221q63 -209 117 -359.5t112 -329.5q54 -169 109 -338l340 706l261 544h352l-379 -730q-66 -129 -139 -276q-60 -125 -120 -249q-40 -83 -136 -278l-402 -2q-20 58 -40 119q-72 217 -92 272q-43 126 -104 290.5t-107 296.5q-2 5 -89 262 q-5 15 -101 293z" />
<glyph unicode="W" horiz-adv-x="2679" d="M132 1531h349q52 -163 80 -243q112 -329 131 -385l243 -665l247 549q-28 89 -67 208q-32 98 -71 207q-28 80 -62 165q-45 109 -64 164h338l117 -392l178 392h316q-35 -74 -97.5 -191.5t-102.5 -198.5l-162 -341l199 -559l389 823q109 234 218 467h357q-62 -121 -170 -330 q-75 -146 -150 -291q-81 -158 -169 -332l-282 -578h-416l-151 447l-200 -447h-423q-72 195 -117 312l-104 280q-88 232 -117 312t-146 384q-29 77 -91 243z" />
<glyph unicode="X" horiz-adv-x="1674" d="M68 0l616 806l-469 727h391l309 -507l352 507h374l-557 -746l510 -787h-398l-341 566l-412 -566h-375z" />
<glyph unicode="Y" horiz-adv-x="1583" d="M128 1531h370l311 -621l378 621h380l-612 -911l-14 -320l-8 -300h-350q8 86 16 174.5t8 174.5l13 294z" />
<glyph unicode="Z" horiz-adv-x="1456" d="M112 -3l13 257l427 499q65 75 152 186q105 131 135 171q98 126 151 191h-579l-199 -13l9 245h1189v-251l-371 -439q-115 -137 -172 -205q-106 -125 -154 -180q-106 -125 -173 -206h403l404 17l-14 -272h-1221z" />
<glyph unicode="[" horiz-adv-x="708" d="M88 -358l64 1074l56 920h478l-14 -103h-189l-54 -818q0 -155 -14 -319t-27 -327.5t-13 -319.5h195l-6 -107h-476z" />
<glyph unicode="\" horiz-adv-x="1262" d="M155 1533h183l423 -790q100 -185 206.5 -371.5t214.5 -371.5h-198z" />
<glyph unicode="]" horiz-adv-x="702" d="M77 -358l12 106h189l51 901l54 884h-192l3 104h478l-60 -1000l-55 -995h-480z" />
<glyph unicode="^" horiz-adv-x="922" d="M151 1212l141 316h466l123 -316h-223l-134 181l-137 -181h-236z" />
<glyph unicode="_" horiz-adv-x="1417" d="M11 -288h1459v-70h-1459v70z" />
<glyph unicode="`" horiz-adv-x="751" d="M154 1527h420l130 -345h-295z" />
<glyph unicode="a" horiz-adv-x="1302" d="M109 294q0 128 91 221q83 86 220 120l326 83q100 26 140 65q32 32 32 76q0 69 -60 101.5t-160 32.5q-91 0 -186 -20t-189 -55l-60 -23l32 210l125 27q101 20 193.5 30.5t176.5 10.5q154 0 262.5 -38.5t154.5 -118.5q17 -28 23 -66t6 -87q0 -54 -14 -214q-7 -89 -7 -132 l-17 -517h-314l32 593l-38 -23q-6 -3 -300 -107q-167 -60 -167 -168q0 -10 5 -47t60.5 -65.5t135.5 -28.5q89 0 171 32l-54 -194l-94 -12q-40 -5 -58.5 -6.5t-56.5 -1.5q-158 0 -259 54q-120 65 -146 198q-3 15 -4.5 34t-1.5 36z" />
<glyph unicode="b" horiz-adv-x="1434" d="M92 -3l59 976q0 111 7.5 278.5t7.5 279.5h329q0 -40 -6 -93.5t-7 -95.5q0 -72 -4 -124q-8 -49 -9 -79q31 12 135.5 27.5t179.5 15.5q135 0 242 -35q146 -49 229 -160q103 -139 103 -363q0 -341 -194 -516q-155 -141 -377 -142q-117 0 -203.5 41t-151.5 134l-34 48v-192 h-306zM435 587q0 -172 55 -269q72 -126 237 -126q152 0 235 140q71 120 71 292q0 152 -90 248q-83 86 -225 86q-74 0 -171 -26q-69 -18 -93 -31z" />
<glyph unicode="c" horiz-adv-x="1127" d="M123 540q0 263 120 427q145 198 434 198q105 0 228.5 -16t147.5 -25l17 -248l-74 23q-106 34 -206 34q-158 0 -247 -84q-105 -98 -105 -305q0 -183 97 -269q80 -72 223 -72q71 0 143 17l129 28l-37 -236q-37 -15 -137.5 -30.5t-189.5 -15.5q-238 0 -382 134 q-161 151 -161 440z" />
<glyph unicode="d" horiz-adv-x="1437" d="M100 467q0 243 117.5 426t320.5 242q54 15 121.5 22t140.5 7q81 0 145.5 -5.5t83.5 -11.5q0 37 4.5 97t4.5 98l-3 189h327l-55 -973l-17 -560h-295l6 185q-60 -92 -176 -151.5t-265 -59.5q-174 0 -302 109q-158 135 -158 386zM417 524q0 -132 50 -216q57 -94 171 -108 q15 -2 27 -2.5t19 -0.5q163 0 249 141q81 134 82 355l4 228l-24 8q-72 23 -148 23q-163 0 -280 -91q-128 -100 -146 -264q-4 -31 -4 -61v-12z" />
<glyph unicode="e" horiz-adv-x="1345" d="M118 597q0 248 177 412t437 164q288 0 420 -144q121 -133 121 -402l-6 -70h-829q-3 -9 -3 -31q0 -51 14.5 -108.5t50.5 -108.5q46 -65 127.5 -95.5t188.5 -30.5q131 0 263 43l94 31l-41 -237q-66 -20 -182.5 -37.5t-202.5 -17.5q-29 0 -62 0.5t-87 11.5q-258 49 -377 223 q-103 149 -103 397zM452 712h521q0 121 -43 187q-55 85 -186 85q-132 0 -220 -103q-72 -85 -72 -169z" />
<glyph unicode="f" horiz-adv-x="985" d="M152 923l13 221h153v49v43v28q0 60 7 100t35 87q43 75 138 110q75 27 183 27h8q80 0 158.5 -13.5t101.5 -24.5l9 -214q-38 17 -97.5 31.5t-96.5 14.5q-66 0 -103 -27.5t-50 -79t-13 -100.5v-22q0 -3 2 -9h279l-6 -225h-273l-14 -425l-16 -494h-324l29 526q0 83 5 152 q14 209 14 245h-142z" />
<glyph unicode="g" horiz-adv-x="1422" d="M106 478q0 140 54 273t141 219q101 100 251.5 145.5t336.5 45.5t421 -43l60 -11l-6 -117l-48 -755q0 -48 3 -157t3 -110q0 -134 -21 -217q-28 -105 -97 -175.5t-200 -104.5t-286 -34q-100 0 -202 13t-192 36l-81 20l-20 246l41 -16q66 -26 173 -47t206 -21q94 0 167 20 t116 68.5t63.5 123t20.5 251.5v41l-29 -34q-68 -81 -168 -121t-207 -40q-89 0 -169 24.5t-140 67.5q-97 71 -144 178.5t-47 230.5zM426 490q0 -128 55 -204q65 -89 196 -89q195 0 285 160q77 135 77 373v179l-29 10q-68 25 -144 25q-125 0 -235 -60.5t-154 -159.5 q-23 -52 -37 -112t-14 -122z" />
<glyph unicode="h" horiz-adv-x="1422" d="M108 0l41 760l22 770h321l-18 -277l-16 -306l31 40q68 92 197 142q115 43 246 43q181 0 268.5 -67t118.5 -153q23 -63 23 -172q0 -25 -0.5 -49.5t-0.5 -50.5l-33 -683l-321 3l43 586q0 177 -52 247q-46 62 -142 80q-28 5 -53 5q-135 0 -231 -106q-100 -112 -100 -289 l-28 -397l2 -126h-318z" />
<glyph unicode="i" horiz-adv-x="630" d="M143 -2q15 177 25 294t15.5 221.5t5.5 242.5q0 74 3 218.5t3 166.5h331q0 -72 -17 -238q-9 -91 -9 -150q0 -158 -4 -267t-9 -244.5t-4 -243.5h-340zM203 1319v212h331l-10 -212h-321z" />
<glyph unicode="j" horiz-adv-x="630" d="M-301 -234q51 -20 104.5 -29t108.5 -9q89 0 131 23q100 54 117 307q6 91 6 263l25 855h323q-14 -185 -24 -369t-10 -307q0 -69 3 -230.5t3 -168.5q0 -231 -28 -345q-38 -157 -140 -216q-48 -29 -120 -43t-155 -14q-58 0 -125 8t-135 22l-63 13zM195 1350l6 181h331 l-15 -181h-322z" />
<glyph unicode="k" horiz-adv-x="1326" d="M123 0q0 145 10 291t21.5 303.5t11.5 280.5l19 658h321l-44 -744q0 -165 -4 -303q-14 -414 -14 -486h-321zM480 637q54 63 132 158q43 52 81 100q32 40 119 154q35 48 72 95h358q-55 -60 -124 -142q-62 -72 -123 -144q-52 -60 -119 -138q-46 -55 -72 -88 q71 -105 81 -118.5t101 -141.5q132 -186 147.5 -205.5t127.5 -168.5h-349l-202 303z" />
<glyph unicode="l" horiz-adv-x="611" d="M154 -2l49 845q0 128 17 424q9 161 9 266h329l-44 -686q0 -149 -8 -286.5t-16.5 -289t-8.5 -273.5h-327z" />
<glyph unicode="m" horiz-adv-x="1974" d="M98 0q0 118 25 387q14 152 14 243q0 112 5.5 277t5.5 234h298l-8 -182q54 94 158 152.5t237 58.5q120 0 199.5 -50.5t129.5 -158.5q115 206 376 206q40 0 84 -5q146 -17 217.5 -103.5t71.5 -251.5l-43 -807h-315l38 520q0 38 1.5 79.5t3.5 83.5q0 94 -18 143 q-25 65 -87 78q-15 5 -32.5 6.5t-37.5 1.5q-125 0 -194 -111q-60 -95 -60 -231l-29 -570h-317l38 546v58t2 60q0 101 -15 149q-23 69 -85 88q-38 11 -77 11q-118 0 -187 -112q-60 -98 -61 -233l-21 -567h-317z" />
<glyph unicode="n" horiz-adv-x="1428" d="M97 -2q0 111 35 405q18 152 19 250q0 97 6 245t6 246h318l-1 -174q66 111 187 165q106 47 240 47h6q78 0 156 -13q289 -52 289 -383l-26 -792h-337l43 515q4 42 4 86v18q0 112 -26 182q-32 86 -103.5 107.5t-131.5 21.5q-157 0 -246 -134q-78 -118 -78 -283l-28 -509 h-332z" />
<glyph unicode="o" horiz-adv-x="1452" d="M114 544q0 277 180.5 448.5t457.5 171.5q292 0 458 -154t166 -412q0 -286 -154 -450q-172 -185 -506 -185q-275 0 -438.5 162.5t-163.5 418.5zM495 298q78 -112 235 -112q149 0 239 111.5t90 288.5q0 157 -72 249q-83 106 -251 106q-143 0 -229 -125q-76 -110 -76 -266 q0 -158 64 -252z" />
<glyph unicode="p" horiz-adv-x="1416" d="M75 -517q0 132 36 489q17 171 17 308q0 174 6 313q18 418 18 506l65 13q126 25 251 41t230 16q208 0 344 -59q161 -68 236 -217q71 -137 70 -307q0 -248 -133 -423q-148 -194 -389 -194q-126 0 -240 57q-98 49 -163 123l-17 -341q0 -62 -4.5 -162t-4.5 -163h-322z M434 606q0 -168 52 -265q66 -123 214 -146q12 -2 23 -3h23q126 0 204 119q72 111 72 267q0 63 -12 121.5t-40 113.5q-31 63 -113 98t-180 35q-62 0 -118 -15t-99 -44l-14 -114q-5 -42 -6 -61q-6 -60 -6 -106z" />
<glyph unicode="q" horiz-adv-x="1405" d="M121 434q0 374 211 559q197 174 557 174q132 0 287 -16.5t183 -25.5l-49 -805q0 -148 -4.5 -282.5t-10 -293t-5.5 -261.5h-326l22 348q0 77 3 131q10 172 10 207v5q-71 -98 -178.5 -150t-239.5 -52q-200 0 -330 134.5t-130 327.5zM432 495q0 -135 58 -214q65 -87 193 -87 h3q145 0 230 123q74 106 91 275q6 65 11.5 157t5.5 144q0 25 -2 30q-8 3 -43 9q-83 14 -149 14q-29 0 -43 -2q-148 -17 -243 -124.5t-109 -262.5q-2 -15 -2.5 -34t-0.5 -28z" />
<glyph unicode="r" horiz-adv-x="939" d="M121 -2q0 105 22 360q11 128 11 226l14 557h295v-162q20 37 57 77q49 54 103 77q78 35 146 36q29 0 50.5 -3.5t52.5 -13.5v-259q-63 18 -120 19q-51 0 -95 -14q-97 -29 -148 -129q-43 -85 -59 -225q-9 -86 -9 -255l-1 -291h-319z" />
<glyph unicode="s" horiz-adv-x="1045" d="M111 251l127 -45q45 -15 99.5 -26t100.5 -11q71 0 115.5 21.5t59.5 72.5q3 9 4 26q0 42 -34 86q-26 34 -77 74l-186 146q-65 51 -105 121t-40 140q0 22 3 32.5t3 17.5q29 141 154 203q105 52 278 52q68 0 120.5 -4.5t150.5 -18.5l69 -11l14 -232l-37 15q-55 22 -112 33.5 t-109 11.5q-74 0 -124 -22.5t-61 -63.5q-2 -6 -1 -19q0 -34 26 -70q20 -28 60 -64l158 -130q98 -83 136 -131q58 -77 58 -166q0 -165 -152 -251q-129 -73 -336 -73h-6q-140 0 -272 33l-58 16z" />
<glyph unicode="t" horiz-adv-x="925" d="M100 909l14 223h166l12 212l294 63l-8 -275h283l-5 -222h-286l-20 -361q0 -37 -1.5 -77t-2.5 -78q0 -72 12 -116t51 -61q15 -8 35 -11t43 -3q55 0 133 20q12 3 30 9l-40 -229q-14 -8 -97.5 -24.5t-165.5 -16.5q-71 0 -127 11.5t-103.5 43.5t-65 95t-17.5 162 q0 37 3 123.5t3 94.5l23 417h-163z" />
<glyph unicode="u" horiz-adv-x="1360" d="M109 380l40 764h315l-37 -434q-5 -48 -6 -70q-6 -71 -6 -122q0 -112 26 -177q32 -81 111 -103q55 -15 108 -15q151 0 232 135q72 120 72 300l14 486h321q0 -101 -24 -394q-12 -146 -13 -247q0 -108 -3 -192q-9 -255 -9 -311h-307l-2 177q-62 -106 -175 -159 q-101 -46 -232 -46q-71 0 -131 11q-158 25 -229 129q-65 95 -65 268z" />
<glyph unicode="v" horiz-adv-x="1411" d="M128 1142h326l132 -424l138 -426l157 400l172 449h338l-239 -511q-68 -143 -140 -313q-132 -312 -134 -317h-344l-216 604z" />
<glyph unicode="w" horiz-adv-x="2175" d="M125 1142h306l116 -386l143 -445l156 439l138 392h312l105 -396l115 -440l169 437l155 401h299l-279 -649l-215 -495h-321l-112 452q-29 121 -45 180q-25 89 -48 180l-138 -383l-152 -429h-314l-243 727q-35 111 -89 255q-46 125 -58 160z" />
<glyph unicode="x" horiz-adv-x="1442" d="M98 -2l268 360l180 246q-51 86 -82 136q-43 66 -86 135t-84 132q-28 43 -90 134h371q23 -48 34 -71q5 -9 60 -115q32 -60 52 -94.5t55 -91.5l119 183l123 189h346l-231 -308l-164 -227q40 -68 80 -134q11 -17 100 -158q49 -80 99 -160q23 -35 105 -159h-367 q-20 40 -54 103t-56 102l-132 234l-155 -237l-129 -199h-362z" />
<glyph unicode="y" horiz-adv-x="1432" d="M55 -275q14 -9 50 -22q78 -27 144 -27h5q42 0 73 10q88 29 154 140q52 86 59 152l-263 763l-142 403h326l120 -404l140 -485l189 488l157 402h314l-294 -668l-203 -474q-62 -145 -88 -200q-55 -118 -93 -174q-55 -78 -117 -112t-135 -47t-153 -13q-69 0 -127.5 8.5 t-89.5 17.5z" />
<glyph unicode="z" horiz-adv-x="1131" d="M117 0l3 248l294 330l313 355h-273l-268 -18v227h890l-10 -263l-288 -318l-306 -350h340l227 10l-15 -221h-907z" />
<glyph unicode="{" horiz-adv-x="850" d="M126 547l11 177l37 5q65 8 97 34q42 37 41 90l26 595q0 45 14 82t39 58q31 26 67.5 40t99.5 14h248l-3 -106h-47q-32 0 -55.5 -5.5t-42.5 -22.5q-34 -32 -34 -109l-21 -524q0 -83 -57 -149q-26 -29 -63 -51q-31 -17 -66 -28q34 -15 60 -32q37 -25 55 -51q25 -34 36.5 -69 t11.5 -84l-20 -456q0 -86 5 -128t32 -62q11 -8 38.5 -11t48.5 -3h14h3h20l-3 -103h-234q-71 0 -112 14.5t-69 45.5q-20 22 -27 47t-7 60v27t2 27l23 508q0 40 -9.5 77.5t-28 56.5t-43 27t-61.5 8z" />
<glyph unicode="|" horiz-adv-x="318" d="M94 -515l72 2051h106l-69 -2051h-109z" />
<glyph unicode="}" horiz-adv-x="813" d="M72 -355l2 106h47q32 0 55.5 5.5t41.5 22.5q35 31 36 109l21 524q0 86 57 149q25 29 58 48.5t71 31.5q-31 11 -64 34t-51 48q-48 65 -48 153l20 456v29q0 68 -6 105.5t-32 54.5q-12 9 -38.5 12t-49.5 3h-17h-18l3 103h234q69 0 111 -14.5t70 -45.5q20 -23 26 -48.5 t6 -66.5v-46l-23 -508q0 -43 8.5 -78.5t28 -54.5t44 -27.5t59.5 -8.5l28 -1l-12 -177l-36 -3q-66 -11 -97 -36q-20 -17 -31.5 -39t-11.5 -51l-24 -595q0 -94 -54 -140q-29 -26 -66 -40t-100 -14h-248z" />
<glyph unicode="~" horiz-adv-x="1185" d="M155 1381q20 51 69 93q68 60 154 71q18 2 32 2.5t22 0.5q75 0 158 -38l120 -52q54 -22 90 -32.5t72 -10.5q32 0 54 10q43 20 69 58t44 64l105 -196q-20 -43 -57 -79q-46 -46 -103 -67q-29 -11 -56 -15.5t-58 -4.5q-71 0 -154 36l-141 61q-83 37 -144 37q-46 0 -76.5 -22 t-53.5 -49q-35 -42 -41 -59z" />
<glyph unicode="&#xa1;" horiz-adv-x="531" d="M89 -383l14 266q0 131 11.5 269.5t24 286t12.5 259.5h281q0 -180 -2.5 -278.5t-5.5 -236t-3 -240.5l-9 -326h-323zM126 859l12 286h340l-18 -286h-334z" />
<glyph unicode="&#xa2;" horiz-adv-x="1079" d="M129 733q0 200 99 353q106 163 292 207l40 9v232h244l-12 -216l95 -16l112 -23l17 -244l-18 7q-118 57 -231 57q-143 0 -232 -84q-97 -92 -97 -259q0 -191 92 -284q81 -83 228 -83q80 0 171 26l67 19l-34 -234l-115 -22l-103 -12v-171h-238l11 180l-48 13 q-174 45 -261 201q-78 140 -79 344z" />
<glyph unicode="&#xa3;" horiz-adv-x="1400" d="M120 653l41 223h133l-16 34q-25 55 -38 94q-29 80 -29 149v43q5 22 6 31q29 174 198 258q146 72 374 73q146 0 310 -31l46 -9l20 -271l-50 18q-65 23 -136.5 37t-140.5 14q-108 0 -181.5 -33t-99.5 -104q-6 -15 -9.5 -34.5t-3.5 -35.5q0 -52 23 -108.5t34 -81.5l17 -41 h478l-43 -225h-396q5 -17 8.5 -40t3.5 -61t-11 -92t-51 -120q-12 -22 -38 -56q18 0 73.5 -1.5t70.5 -1.5q148 -29 231 -43.5t177 -14.5q52 0 104 18q50 22 87 34l-27 -150l-21 -120q-45 -14 -88 -28q-46 -12 -115 -12q-103 0 -231 37q-292 85 -370 84q-38 0 -97 -10t-89 -21 q-9 -3 -113 -64l13 246q91 45 135 104q38 51 48 119q5 45 4 89q0 69 -7 104h-234z" />
<glyph unicode="&#xa5;" horiz-adv-x="1571" d="M121 454l16 223h489l-108 221h-384l17 220h243l-206 410h356l148 -329l134 -298l150 269l202 357h366l-269 -415h243l-14 -219h-374l-140 -221h498l-12 -222h-529q-6 -58 -12 -116.5t-6 -113.5q0 -42 -3 -109.5t-3 -110.5h-325q8 62 16.5 124t8.5 122q0 38 4.5 103 t4.5 105h-511z" />
<glyph unicode="&#xa7;" horiz-adv-x="1168" d="M88 593q0 22 1 33q0 89 62 180q55 81 158 158l28 22l-31 32q-40 43 -59 99t-19 115q0 58 16 109q42 112 160.5 168t276.5 56q132 0 257 -37l68 -20v-212l-24 11q-54 23 -113 37t-116 14q-85 0 -143 -32.5t-58 -98.5q-2 -15 -2 -22q0 -60 43 -113q38 -48 108 -88l152 -91 q105 -60 171 -137q72 -84 72 -161q0 -151 -46 -249t-160 -177l-26 -18q52 -60 76 -109.5t24 -112.5q0 -181 -134 -273q-115 -78 -304 -79q-65 0 -132.5 11t-130.5 29l-109 32v222l61 -28q57 -23 121.5 -39t117.5 -16q71 0 119 26t71 89q8 15 8 39q0 63 -78 133 q-34 31 -93 66l-169 102q-106 63 -161 140q-63 88 -63 190zM341 633q0 -66 57 -127q46 -49 134 -97l186 -101q109 50 131 179q2 9 1 27q0 83 -84 156q-40 35 -156 103l-120 73q-65 -23 -106 -78.5t-41 -112.5q-2 -15 -2 -22z" />
<glyph unicode="&#xa8;" horiz-adv-x="1025" d="M148 1278l15 252h315l-8 -252h-322zM646 1278l14 252h316l-7 -252h-323z" />
<glyph unicode="&#xa9;" horiz-adv-x="1682" d="M123 721q0 312 195 534q218 246 581 246q346 0 546 -223q180 -201 180 -498q0 -314 -195 -534q-218 -246 -583 -246q-344 0 -544 223q-180 201 -180 498zM203 724q0 -264 160 -444q178 -200 487 -200q323 0 518 220q175 198 176 476q0 264 -160 445q-179 200 -488 200 q-323 0 -518 -220q-175 -198 -175 -477zM480 744q0 194 107 331q117 149 308 149q132 0 224 -65q100 -71 117 -190l5 -36h-89l-7 29q-17 86 -89 133t-164 47q-161 0 -248 -124q-75 -108 -75 -272q0 -171 44 -256q62 -117 230 -136q9 -2 24 -2q97 0 177 71t105 175h89 q-31 -145 -141 -231.5t-262 -86.5q-194 0 -283 146q-72 118 -72 318z" />
<glyph unicode="&#xaa;" horiz-adv-x="808" d="M98 1067q0 72 48 121.5t125 67.5l179 46q45 11 67 26q31 22 30 54q0 38 -33 56t-88 18q-49 0 -103 -11.5t-106 -29.5l-34 -14l18 117l70 15q109 23 204 23q86 0 145.5 -21t86.5 -67q8 -14 12.5 -37t4.5 -47q0 -28 -6 -94t-6 -98l-9 -288h-176l19 329l-22 -12 q-5 -3 -167 -60q-92 -32 -93 -94q0 -11 4 -29.5t35 -33.5t75 -15q48 0 94 18l-31 -108l-52 -6q-32 -5 -65 -4q-86 0 -143 30q-66 35 -80 110q-3 14 -3 38zM117 683l9 113h584l-12 -113h-581z" />
<glyph unicode="&#xab;" horiz-adv-x="1188" d="M123 484l8 216l449 324l-8 -212l-318 -223l296 -215l-7 -225zM672 484l8 216l450 324l-8 -212l-319 -223l298 -215l-9 -225z" />
<glyph unicode="&#xac;" horiz-adv-x="1715" d="M128 524l4 116h1502l-21 -640h-125l19 524h-1379z" />
<glyph unicode="&#xad;" horiz-adv-x="784" d="M126 713l9 222h594l-13 -222h-590z" />
<glyph unicode="&#xae;" horiz-adv-x="1706" d="M125 721q0 314 195 534q219 246 583 246q346 0 545 -223q180 -201 180 -498q0 -314 -195 -534q-218 -246 -583 -246q-346 0 -546 223q-180 201 -179 498zM206 723q0 -264 160 -443q178 -200 486 -200q324 0 519 220q175 197 176 476q0 266 -160 445q-179 200 -488 200 q-324 0 -518 -220q-175 -198 -175 -478zM557 289l30 901h331q145 0 220 -41q101 -56 101 -194q0 -81 -40 -135t-115 -88q48 -28 57 -37q15 -15 26.5 -39t17 -52.5t5.5 -57.5q0 -17 -3 -57t-3 -63q0 -26 4 -52.5t11 -50.5q3 -8 6 -14q9 -12 14 -20h-94l-7 2q-11 23 -15 51.5 t-4 69.5v47t2 48q0 65 -11 99q-15 48 -57 71q-23 12 -44.5 16t-53.5 4h-37h-240l-14 -408h-87zM661 773h252q101 0 162 33q78 43 78 140q0 95 -71 136q-54 32 -152 33h-258z" />
<glyph unicode="&#xb0;" horiz-adv-x="665" d="M148 1368q0 97 66 166.5t160 69.5q100 0 170.5 -71t70.5 -171q0 -95 -70.5 -162.5t-167.5 -67.5q-95 0 -162 70t-67 166zM274 1368q0 -46 30 -77.5t74 -31.5q48 0 78.5 27.5t30.5 78.5q0 45 -33.5 77t-73.5 32t-73 -31.5t-33 -74.5z" />
<glyph unicode="&#xb1;" horiz-adv-x="1024" d="M98 0v165h820v-165h-820zM98 593v165h328v328h164v-328h328v-165h-328v-327h-164v327h-328z" />
<glyph unicode="&#xb4;" horiz-adv-x="742" d="M145 1312l132 344h420l-256 -344h-296z" />
<glyph unicode="&#xb5;" horiz-adv-x="1322" d="M34 -354q0 80 31 156q38 95 44 135q2 15 4 29t2 32l39 1095h184l-26 -753q0 -94 52.5 -164t138.5 -70q91 0 181 68q100 74 100 163l26 756h182l-31 -852q0 -68 29 -123.5t82 -55.5q11 0 17 1q38 8 62 31.5t36 65.5l18 58h40l-15 -67q-20 -81 -105 -140q-77 -54 -147 -54 q-12 0 -19 1q-72 11 -126 71q-58 65 -58 146l-59 -55q-72 -68 -149 -111t-133 -43q-55 0 -125 31q-80 35 -123 97l-1 -77q0 -63 19 -131q45 -152 45 -226q0 -55 -32 -99t-82 -44q-46 0 -73.5 38.5t-27.5 90.5z" />
<glyph unicode="&#xb6;" horiz-adv-x="1286" d="M145 1135q0 168 116 280q125 118 326 118h652l-52 -867l-25 -1178h-176l50 1247l20 675h-146l-24 -666q0 -209 -14 -498q-3 -63 -26 -454q-14 -234 -14 -309h-182q0 172 14 337.5t28.5 340t14.5 328.5l13 335q-38 -25 -87.5 -37t-98.5 -12q-128 0 -237 68.5t-137 175.5 q-15 55 -15 116zM394 1147q0 -103 48 -173.5t132 -70.5q17 0 26 1q42 6 64 15.5t57 35.5l23 452l-77 3q-125 0 -199 -70t-74 -193z" />
<glyph unicode="&#xb7;" horiz-adv-x="524" d="M109 623l14 301l318 -1l-20 -300h-312z" />
<glyph unicode="&#xba;" horiz-adv-x="902" d="M94 1204q0 157 101.5 253.5t258.5 96.5q168 0 260.5 -86.5t92.5 -232.5q0 -161 -87 -256q-97 -105 -286 -104q-155 0 -247.5 92t-92.5 237zM143 693l9 114h584l-12 -114h-581zM272 1205q0 -89 36 -141q43 -63 133 -63q85 0 135.5 63t50.5 163q0 89 -40 141 q-46 60 -141 60q-80 0 -127 -67.5t-47 -155.5z" />
<glyph unicode="&#xbb;" horiz-adv-x="1203" d="M115 149l10 225l312 215l-305 223l8 212l427 -324l-7 -216zM666 149l7 225l313 215l-303 223l7 212l426 -324l-7 -216z" />
<glyph unicode="&#xbf;" horiz-adv-x="1210" d="M105 -51q0 91 46 171q35 60 118 144l172 177q37 38 61 78.5t33 82.5t12 78t3 66h291v-25q0 -77 -8 -137q-12 -97 -46 -163q-23 -46 -47 -77q-17 -22 -63 -69l-111 -112q-51 -52 -71 -83q-29 -46 -29 -95q0 -15 1 -25q11 -72 97 -108q74 -31 194 -30q62 0 117 6.5 t120 22.5l121 29l-41 -260l-125 -21q-120 -22 -244 -22q-255 0 -414 82q-188 97 -187 290zM534 866l13 278h340l-14 -278h-339z" />
<glyph unicode="&#xc0;" horiz-adv-x="1949" d="M168 0l444 832q86 163 126 240q55 108 111 216q117 226 125 243h410l246 -685q74 -209 154.5 -422t160.5 -424h-361q-42 138 -98 301l-85 239h-597l-126 -257q-25 -49 -67 -142q-29 -63 -66 -141h-377zM892 2059h420l130 -345h-295zM904 783h431l-177 518z" />
<glyph unicode="&#xc1;" horiz-adv-x="1881" d="M57 0l444 832q86 163 126 240q55 108 111 216q117 226 125 243h410l246 -685q74 -209 154.5 -422t160.5 -424h-361q-42 138 -98 301l-85 239h-597l-126 -257q-25 -49 -67 -142q-29 -63 -66 -141h-377zM793 783h431l-177 518zM814 1704l132 344h420l-256 -344h-296z" />
<glyph unicode="&#xc2;" horiz-adv-x="1881" d="M57 0l444 832q86 163 126 240q55 108 111 216q117 226 125 243h410l246 -685q74 -209 154.5 -422t160.5 -424h-361q-42 138 -98 301l-85 239h-597l-126 -257q-25 -49 -67 -142q-29 -63 -66 -141h-377zM729 1704l141 316h466l123 -316h-223l-134 181l-137 -181h-236z M793 783h431l-177 518z" />
<glyph unicode="&#xc3;" horiz-adv-x="1943" d="M126 0l444 832q86 163 126 240q55 108 111 216q117 226 125 243h410l246 -685q74 -209 154.5 -422t160.5 -424h-361q-42 138 -98 301l-85 239h-597l-126 -257q-25 -49 -67 -142q-29 -63 -66 -141h-377zM627 1922q20 51 69 93q68 60 154 71q18 2 32 2.5t22 0.5 q75 0 158 -38l120 -52q54 -22 90 -32.5t72 -10.5q32 0 54 10q43 20 69 58t44 64l105 -196q-20 -43 -57 -79q-46 -46 -103 -67q-29 -11 -56 -15.5t-58 -4.5q-71 0 -154 36l-141 61q-83 37 -144 37q-46 0 -76.5 -22t-53.5 -49q-35 -42 -41 -59zM862 783h431l-177 518z" />
<glyph unicode="&#xc4;" horiz-adv-x="1969" d="M195 0l444 832q86 163 126 240q55 108 111 216q117 226 125 243h410l246 -685q74 -209 154.5 -422t160.5 -424h-361q-42 138 -98 301l-85 239h-597l-126 -257q-25 -49 -67 -142q-29 -63 -66 -141h-377zM831 1713l15 252h315l-8 -252h-322zM931 783h431l-177 518z M1329 1713l14 252h316l-7 -252h-323z" />
<glyph unicode="&#xc5;" horiz-adv-x="1952" d="M160 0l444 832q86 163 126 240q55 108 111 216q117 226 125 243h410l246 -685q74 -209 154.5 -422t160.5 -424h-361q-42 138 -98 301l-85 239h-597l-126 -257q-25 -49 -67 -142q-29 -63 -66 -141h-377zM896 783h431l-177 518zM940 1940q0 97 66 166.5t160 69.5 q100 0 170.5 -71t70.5 -171q0 -95 -70.5 -162.5t-167.5 -67.5q-95 0 -162 70t-67 166zM1066 1940q0 -46 30 -77.5t74 -31.5q48 0 78.5 27.5t30.5 78.5q0 45 -33.5 77t-73.5 32t-73 -31.5t-33 -74.5z" />
<glyph unicode="&#xc6;" horiz-adv-x="2569" d="M83 0l753 832q211 234 216 240q52 60 190 216q106 121 213 243l1085 2l-8 -243l-181 11h-557l-18 -408h420l224 13l-15 -228h-641l-19 -426h554l189 17l-14 -269h-730l-294 -6q5 38 21 144q12 77 13 145q0 45 6 135.5t6 121.5h-590l-222 -257q-68 -77 -121 -142 q-60 -71 -119 -141h-361zM1096 783h412l36 518z" />
<glyph unicode="&#xc7;" horiz-adv-x="1526" d="M135 727q0 414 288 635q251 194 641 194q123 0 224 -17l157 -25l13 -266l-93 27q-137 37 -266 37q-268 0 -433 -147q-180 -158 -180 -450q0 -255 169 -391q151 -120 392 -120q114 0 243 33l146 38l-34 -261l-177 -36q-118 -23 -236 -23q-357 0 -589 185 q-264 209 -265 587zM644 -520l243 411h157l-138 -411h-262z" />
<glyph unicode="&#xc8;" horiz-adv-x="1377" d="M101 0q18 181 37 363q25 277 25 487q0 197 1.5 361t3.5 320h1119l-8 -241l-189 11h-578l-20 -408h437l233 13l-15 -228h-669l-18 -426h576l197 17l-14 -269h-1118zM500 2057h420l130 -345h-295z" />
<glyph unicode="&#xc9;" horiz-adv-x="1337" d="M101 0q18 181 37 363q25 277 25 487q0 197 1.5 361t3.5 320h1119l-8 -241l-189 11h-578l-20 -408h437l233 13l-15 -228h-669l-18 -426h576l197 17l-14 -269h-1118zM523 1706l132 344h420l-256 -344h-296z" />
<glyph unicode="&#xca;" horiz-adv-x="1377" d="M101 0q18 181 37 363q25 277 25 487q0 197 1.5 361t3.5 320h1119l-8 -241l-189 11h-578l-20 -408h437l233 13l-15 -228h-669l-18 -426h576l197 17l-14 -269h-1118zM428 1696l141 316h466l123 -316h-223l-134 181l-137 -181h-236z" />
<glyph unicode="&#xcb;" horiz-adv-x="1365" d="M101 0q18 181 37 363q25 277 25 487q0 197 1.5 361t3.5 320h1119l-8 -241l-189 11h-578l-20 -408h437l233 13l-15 -228h-669l-18 -426h576l197 17l-14 -269h-1118zM356 1716l15 252h315l-8 -252h-322zM854 1716l14 252h316l-7 -252h-323z" />
<glyph unicode="&#xcc;" d="M157 0l15 231q0 46 15.5 265.5t15.5 353.5q0 121 3 219q9 291 9 350v112h360q0 -129 -10 -256.5l-20 -255t-10 -183.5l-9 -355l-3 -481h-366zM166 2056h420l130 -345h-295z" />
<glyph unicode="&#xcd;" d="M157 0l15 231q0 46 15.5 265.5t15.5 353.5q0 121 3 219q9 291 9 350v112h360q0 -129 -10 -256.5l-20 -255t-10 -183.5l-9 -355l-3 -481h-366zM214 1704l132 344h420l-256 -344h-296z" />
<glyph unicode="&#xce;" d="M22 1696l141 316h466l123 -316h-223l-134 181l-137 -181h-236zM157 0l15 231q0 46 15.5 265.5t15.5 353.5q0 121 3 219q9 291 9 350v112h360q0 -129 -10 -256.5l-20 -255t-10 -183.5l-9 -355l-3 -481h-366z" />
<glyph unicode="&#xcf;" d="M-24 1709l15 252h315l-8 -252h-322zM157 0l15 231q0 46 15.5 265.5t15.5 353.5q0 121 3 219q9 291 9 350v112h360q0 -129 -10 -256.5l-20 -255t-10 -183.5l-9 -355l-3 -481h-366zM474 1709l14 252h316l-7 -252h-323z" />
<glyph unicode="&#xd1;" horiz-adv-x="1729" d="M105 -3l52 775l23 759h423q45 -78 108.5 -183.5t109.5 -178.5q77 -126 123 -205q40 -65 132 -208q58 -94 119 -187q83 -132 129 -208l26 638q0 106 7.5 266t7.5 266h317q0 -97 -14 -228t-28.5 -279.5t-14.5 -274.5l-17 -749h-413l-371 597l-360 565l-23 -513l-10 -652 h-326zM470 1904q20 51 69 93q68 60 154 71q18 2 32 2.5t22 0.5q75 0 158 -38l120 -52q54 -22 90 -32.5t72 -10.5q32 0 54 10q43 20 69 58t44 64l105 -196q-20 -43 -57 -79q-46 -46 -103 -67q-29 -11 -56 -15.5t-58 -4.5q-71 0 -154 36l-141 61q-83 37 -144 37 q-46 0 -76.5 -22t-53.5 -49q-35 -42 -41 -59z" />
<glyph unicode="&#xd2;" horiz-adv-x="2004" d="M135 800q0 275 160 462q131 152 357 232q183 65 366 65q212 0 390 -72q211 -85 331 -252q138 -193 138 -477q0 -400 -266 -610q-235 -186 -615 -186q-378 0 -599 183q-261 215 -262 655zM475 735q0 -234 125 -375q138 -157 399 -157q243 0 389 161q140 156 140 400 q0 237 -110 377q-132 168 -406 167q-237 0 -391 -172q-146 -165 -146 -401zM781 2056h420l130 -345h-295z" />
<glyph unicode="&#xd3;" horiz-adv-x="2004" d="M135 800q0 275 160 462q131 152 357 232q183 65 366 65q212 0 390 -72q211 -85 331 -252q138 -193 138 -477q0 -400 -266 -610q-235 -186 -615 -186q-378 0 -599 183q-261 215 -262 655zM475 735q0 -234 125 -375q138 -157 399 -157q243 0 389 161q140 156 140 400 q0 237 -110 377q-132 168 -406 167q-237 0 -391 -172q-146 -165 -146 -401zM871 1706l132 344h420l-256 -344h-296z" />
<glyph unicode="&#xd4;" horiz-adv-x="2004" d="M135 800q0 275 160 462q131 152 357 232q183 65 366 65q212 0 390 -72q211 -85 331 -252q138 -193 138 -477q0 -400 -266 -610q-235 -186 -615 -186q-378 0 -599 183q-261 215 -262 655zM475 735q0 -234 125 -375q138 -157 399 -157q243 0 389 161q140 156 140 400 q0 237 -110 377q-132 168 -406 167q-237 0 -391 -172q-146 -165 -146 -401zM643 1704l141 316h466l123 -316h-223l-134 181l-137 -181h-236z" />
<glyph unicode="&#xd5;" horiz-adv-x="1937" d="M93 800q0 275 160 462q131 152 357 232q183 65 366 65q212 0 390 -72q211 -85 331 -252q138 -193 138 -477q0 -400 -266 -610q-235 -186 -615 -186q-378 0 -599 183q-261 215 -262 655zM433 735q0 -234 125 -375q138 -157 399 -157q243 0 389 161q140 156 140 400 q0 237 -110 377q-132 168 -406 167q-237 0 -391 -172q-146 -165 -146 -401zM495 1899q20 51 69 93q68 60 154 71q18 2 32 2.5t22 0.5q75 0 158 -38l120 -52q54 -22 90 -32.5t72 -10.5q32 0 54 10q43 20 69 58t44 64l105 -196q-20 -43 -57 -79q-46 -46 -103 -67 q-29 -11 -56 -15.5t-58 -4.5q-71 0 -154 36l-141 61q-83 37 -144 37q-46 0 -76.5 -22t-53.5 -49q-35 -42 -41 -59z" />
<glyph unicode="&#xd6;" horiz-adv-x="1949" d="M135 800q0 275 160 462q131 152 357 232q183 65 366 65q212 0 390 -72q211 -85 331 -252q138 -193 138 -477q0 -400 -266 -610q-235 -186 -615 -186q-378 0 -599 183q-261 215 -262 655zM475 735q0 -234 125 -375q138 -157 399 -157q243 0 389 161q140 156 140 400 q0 237 -110 377q-132 168 -406 167q-237 0 -391 -172q-146 -165 -146 -401zM643 1705l15 252h315l-8 -252h-322zM1141 1705l14 252h316l-7 -252h-323z" />
<glyph unicode="&#xd8;" horiz-adv-x="1946" d="M123 720q0 377 263 618q252 231 618 230q114 0 181 -10t163 -45l45 60h284l-116 -165q160 -128 233.5 -273t73.5 -343q0 -369 -204 -591q-223 -241 -638 -241q-105 0 -214 17.5t-160 36.5l-105 -169h-298l174 261q-155 129 -227.5 273.5t-72.5 340.5zM470 729 q0 -106 34 -204t106 -173l614 916q-108 40 -215 40q-145 0 -268.5 -65t-186.5 -182q-37 -68 -60.5 -156.5t-23.5 -175.5zM784 243q108 -40 214 -40q135 0 250.5 57.5t184.5 166.5q43 66 69 158.5t26 192.5q0 109 -32 205t-105 170z" />
<glyph unicode="&#xd9;" horiz-adv-x="1722" d="M134 478q0 55 11 302q6 140 6 199q0 97 6 219q14 272 14 335h350l-46 -790q0 -185 8 -245q17 -135 80 -203q78 -85 237 -84q177 0 276 80q85 68 117 196q23 94 23 256l43 790h346q0 -128 -32 -438q-17 -163 -17 -274v-77q0 -154 -9 -246t-46 -192q-68 -180 -283 -268 q-178 -72 -420 -72q-228 0 -406 88q-204 100 -246 273q-6 23 -9 64t-3 87zM646 2056h420l130 -345h-295z" />
<glyph unicode="&#xda;" horiz-adv-x="1722" d="M134 478q0 55 11 302q6 140 6 199q0 97 6 219q14 272 14 335h350l-46 -790q0 -185 8 -245q17 -135 80 -203q78 -85 237 -84q177 0 276 80q85 68 117 196q23 94 23 256l43 790h346q0 -128 -32 -438q-17 -163 -17 -274v-77q0 -154 -9 -246t-46 -192q-68 -180 -283 -268 q-178 -72 -420 -72q-228 0 -406 88q-204 100 -246 273q-6 23 -9 64t-3 87zM711 1706l132 344h420l-256 -344h-296z" />
<glyph unicode="&#xdb;" horiz-adv-x="1722" d="M134 478q0 55 11 302q6 140 6 199q0 97 6 219q14 272 14 335h350l-46 -790q0 -185 8 -245q17 -135 80 -203q78 -85 237 -84q177 0 276 80q85 68 117 196q23 94 23 256l43 790h346q0 -128 -32 -438q-17 -163 -17 -274v-77q0 -154 -9 -246t-46 -192q-68 -180 -283 -268 q-178 -72 -420 -72q-228 0 -406 88q-204 100 -246 273q-6 23 -9 64t-3 87zM557 1704l141 316h466l123 -316h-223l-134 181l-137 -181h-236z" />
<glyph unicode="&#xdc;" horiz-adv-x="1629" d="M92 423q0 55 11 302q6 140 6 199q0 97 6 219q14 272 14 335h350l-46 -790q0 -185 8 -245q17 -135 80 -203q78 -85 237 -84q177 0 276 80q85 68 117 196q23 94 23 256l43 790h346q0 -128 -32 -438q-17 -163 -17 -274v-77q0 -154 -9 -246t-46 -192q-68 -180 -283 -268 q-178 -72 -420 -72q-228 0 -406 88q-204 100 -246 273q-6 23 -9 64t-3 87zM500 1705l15 252h315l-8 -252h-322zM998 1705l14 252h316l-7 -252h-323z" />
<glyph unicode="&#xdf;" horiz-adv-x="1406" d="M100 -5l63 1071q0 140 34 226q40 105 141 169q72 45 168.5 68.5t205.5 23.5q148 0 264.5 -47t164.5 -141q32 -65 32 -141q0 -85 -38 -137q-25 -35 -162 -115q-51 -29 -63 -73q-3 -15 -3 -21q0 -54 106 -129q163 -115 200 -154q108 -112 108 -252q0 -183 -111.5 -280.5 t-340.5 -97.5q-65 0 -157 18q-23 5 -91 22l-18 246q37 -15 61 -23q77 -25 137 -25q37 0 72.5 10t62.5 31q63 52 63 136q0 123 -110 209l-122 97q-51 40 -79 90t-28 105q0 31 12 65q25 62 129 112q88 43 88 144q0 55 -42 97q-48 48 -135 48q-129 0 -189 -80q-51 -68 -51 -183 l-28 -357q0 -60 -3 -101q-11 -146 -10 -163q0 -101 -4 -186q-9 -252 -9 -282h-318z" />
<glyph unicode="&#xe0;" horiz-adv-x="1299" d="M109 294q0 128 91 221q83 86 220 120l326 83q100 26 140 65q32 32 32 76q0 69 -60 101.5t-160 32.5q-91 0 -186 -20t-189 -55l-60 -23l32 210l125 27q101 20 193.5 30.5t176.5 10.5q154 0 262.5 -38.5t154.5 -118.5q17 -28 23 -66t6 -87q0 -54 -14 -214q-7 -89 -7 -132 l-17 -517h-314l32 593l-38 -23q-6 -3 -300 -107q-168 -60 -167 -169q0 -9 5 -46t60.5 -65.5t135.5 -28.5q89 0 171 32l-54 -194l-94 -12q-40 -5 -58.5 -6.5t-56.5 -1.5q-158 0 -259 54q-120 65 -146 198q-3 15 -4.5 34t-1.5 36zM520 1696h420l130 -345h-295z" />
<glyph unicode="&#xe1;" horiz-adv-x="1297" d="M109 294q0 128 91 221q83 86 220 120l326 83q100 26 140 65q32 32 32 76q0 69 -60 101.5t-160 32.5q-91 0 -186 -20t-189 -55l-60 -23l32 210l125 27q101 20 193.5 30.5t176.5 10.5q154 0 262.5 -38.5t154.5 -118.5q17 -28 23 -66t6 -87q0 -54 -14 -214q-7 -89 -7 -132 l-17 -517h-314l32 593l-38 -23q-6 -3 -300 -107q-168 -60 -167 -169q0 -9 5 -46t60.5 -65.5t135.5 -28.5q89 0 171 32l-54 -194l-94 -12q-40 -5 -58.5 -6.5t-56.5 -1.5q-158 0 -259 54q-120 65 -146 198q-3 15 -4.5 34t-1.5 36zM572 1349l132 344h420l-256 -344h-296z" />
<glyph unicode="&#xe2;" horiz-adv-x="1308" d="M109 294q0 128 91 221q83 86 220 120l326 83q100 26 140 65q32 32 32 76q0 69 -60 101.5t-160 32.5q-91 0 -186 -20t-189 -55l-60 -23l32 210l125 27q101 20 193.5 30.5t176.5 10.5q154 0 262.5 -38.5t154.5 -118.5q17 -28 23 -66t6 -87q0 -54 -14 -214q-7 -89 -7 -132 l-17 -517h-314l32 593l-38 -23q-6 -3 -300 -107q-168 -60 -167 -169q0 -9 5 -46t60.5 -65.5t135.5 -28.5q89 0 171 32l-54 -194l-94 -12q-40 -5 -58.5 -6.5t-56.5 -1.5q-158 0 -259 54q-120 65 -146 198q-3 15 -4.5 34t-1.5 36zM480 1353l141 316h466l123 -316h-223 l-134 181l-137 -181h-236z" />
<glyph unicode="&#xe3;" horiz-adv-x="1296" d="M109 294q0 128 91 221q83 86 220 120l326 83q100 26 140 65q32 32 32 76q0 69 -60 101.5t-160 32.5q-91 0 -186 -20t-189 -55l-60 -23l32 210l125 27q101 20 193.5 30.5t176.5 10.5q154 0 262.5 -38.5t154.5 -118.5q17 -28 23 -66t6 -87q0 -54 -14 -214q-7 -89 -7 -132 l-17 -517h-314l32 593l-38 -23q-6 -3 -300 -107q-168 -60 -167 -169q0 -9 5 -46t60.5 -65.5t135.5 -28.5q89 0 171 32l-54 -194l-94 -12q-40 -5 -58.5 -6.5t-56.5 -1.5q-158 0 -259 54q-120 65 -146 198q-3 15 -4.5 34t-1.5 36zM349 1547q20 51 69 93q68 60 154 71 q18 2 32 2.5t22 0.5q75 0 158 -38l120 -52q54 -22 90 -32.5t72 -10.5q32 0 54 10q43 20 69 58t44 64l105 -196q-20 -43 -57 -79q-46 -46 -103 -67q-29 -11 -56 -15.5t-58 -4.5q-71 0 -154 36l-141 61q-83 37 -144 37q-46 0 -76.5 -22t-53.5 -49q-35 -42 -41 -59z" />
<glyph unicode="&#xe4;" horiz-adv-x="1300" d="M109 294q0 128 91 221q83 86 220 120l326 83q100 26 140 65q32 32 32 76q0 69 -60 101.5t-160 32.5q-91 0 -186 -20t-189 -55l-60 -23l32 210l125 27q101 20 193.5 30.5t176.5 10.5q154 0 262.5 -38.5t154.5 -118.5q17 -28 23 -66t6 -87q0 -54 -14 -214q-7 -89 -7 -132 l-17 -517h-314l32 593l-38 -23q-6 -3 -300 -107q-168 -60 -167 -169q0 -9 5 -46t60.5 -65.5t135.5 -28.5q89 0 171 32l-54 -194l-94 -12q-40 -5 -58.5 -6.5t-56.5 -1.5q-158 0 -259 54q-120 65 -146 198q-3 15 -4.5 34t-1.5 36zM434 1355l15 252h315l-8 -252h-322zM932 1355 l14 252h316l-7 -252h-323z" />
<glyph unicode="&#xe5;" horiz-adv-x="1314" d="M109 294q0 128 91 221q83 86 220 120l326 83q100 26 140 65q32 32 32 76q0 69 -60 101.5t-160 32.5q-91 0 -186 -20t-189 -55l-60 -23l32 210l125 27q101 20 193.5 30.5t176.5 10.5q154 0 262.5 -38.5t154.5 -118.5q17 -28 23 -66t6 -87q0 -54 -14 -214q-7 -89 -7 -132 l-17 -517h-314l32 593l-38 -23q-6 -3 -300 -107q-168 -60 -167 -169q0 -9 5 -46t60.5 -65.5t135.5 -28.5q89 0 171 32l-54 -194l-94 -12q-40 -5 -58.5 -6.5t-56.5 -1.5q-158 0 -259 54q-120 65 -146 198q-3 15 -4.5 34t-1.5 36zM579 1586q0 97 66 166.5t160 69.5 q100 0 170.5 -71t70.5 -171q0 -95 -70.5 -162.5t-167.5 -67.5q-95 0 -162 70t-67 166zM705 1586q0 -46 30 -77.5t74 -31.5q48 0 78.5 27.5t30.5 78.5q0 45 -33.5 77t-73.5 32t-73 -31.5t-33 -74.5z" />
<glyph unicode="&#xe6;" horiz-adv-x="2214" d="M106 303q0 121 94 214q86 85 220 118l326 83q100 26 140 65q32 32 32 76q0 69 -60 101.5t-160 32.5q-91 0 -186 -20t-189 -55l-60 -23l32 210q146 35 245 50q125 18 256 18q134 0 220 -23q108 -29 163 -95q98 60 145 78q101 40 237 40q288 0 419 -144q122 -133 122 -402 l-6 -70h-829q-3 -9 -3 -31q0 -51 14.5 -108.5t49.5 -108.5q46 -65 128 -95.5t189 -30.5q131 0 263 43l94 31l-42 -237q-72 -23 -183.5 -40t-198.5 -17q-57 0 -82.5 2.5t-68.5 11.5q-214 45 -341 154q-100 86 -145 210q-31 86 -31 182q0 26 1.5 42t4.5 28l-38 -23 q-42 -25 -304 -100q-171 -49 -171 -153q0 -20 1 -31q8 -51 90.5 -78.5t192.5 -27.5q65 0 117 7.5t99 26.5l-17 -194l-76 -17q-42 -9 -107.5 -17t-124.5 -8q-172 0 -287 51q-143 63 -176 195q-9 42 -9 79zM1281 712h521q0 121 -43 187q-55 85 -186 85q-132 0 -220 -103 q-72 -85 -72 -169z" />
<glyph unicode="&#xe7;" horiz-adv-x="1117" d="M111 530q0 263 120 428q145 198 433 198q105 0 228.5 -16t148.5 -25l17 -248l-74 23q-106 34 -206 34q-158 0 -248 -85q-105 -98 -104 -304q0 -183 97 -269q80 -72 223 -72q71 0 143 17l129 27l-37 -235q-37 -15 -137.5 -30.5t-190.5 -15.5q-238 0 -381 134 q-161 151 -161 439zM392 -514l245 409h156l-135 -409h-266z" />
<glyph unicode="&#xe8;" horiz-adv-x="1342" d="M118 597q0 248 177 412t437 164q288 0 420 -144q121 -133 121 -402l-6 -70h-829q-3 -9 -3 -31q0 -51 14.5 -108.5t50.5 -108.5q46 -65 127.5 -95.5t188.5 -30.5q131 0 263 43l94 31l-41 -237q-66 -20 -182.5 -37.5t-202.5 -17.5q-29 0 -62 0.5t-87 11.5q-258 49 -377 223 q-103 149 -103 397zM452 712h521q0 121 -43 187q-55 85 -186 85q-132 0 -220 -103q-72 -85 -72 -169zM517 1699h420l130 -345h-295z" />
<glyph unicode="&#xe9;" horiz-adv-x="1351" d="M118 597q0 248 177 412t437 164q288 0 420 -144q121 -133 121 -402l-6 -70h-829q-3 -9 -3 -31q0 -51 14.5 -108.5t50.5 -108.5q46 -65 127.5 -95.5t188.5 -30.5q131 0 263 43l94 31l-41 -237q-66 -20 -182.5 -37.5t-202.5 -17.5q-29 0 -62 0.5t-87 11.5q-258 49 -377 223 q-103 149 -103 397zM452 712h521q0 121 -43 187q-55 85 -186 85q-132 0 -220 -103q-72 -85 -72 -169zM557 1350l132 344h420l-256 -344h-296z" />
<glyph unicode="&#xea;" horiz-adv-x="1342" d="M118 597q0 248 177 412t437 164q288 0 420 -144q121 -133 121 -402l-6 -70h-829q-3 -9 -3 -31q0 -51 14.5 -108.5t50.5 -108.5q46 -65 127.5 -95.5t188.5 -30.5q131 0 263 43l94 31l-41 -237q-66 -20 -182.5 -37.5t-202.5 -17.5q-29 0 -62 0.5t-87 11.5q-258 49 -377 223 q-103 149 -103 397zM428 1353l141 316h466l123 -316h-223l-134 181l-137 -181h-236zM452 712h521q0 121 -43 187q-55 85 -186 85q-132 0 -220 -103q-72 -85 -72 -169z" />
<glyph unicode="&#xeb;" horiz-adv-x="1363" d="M138 597q0 248 177 412t437 164q288 0 420 -144q121 -133 121 -402l-6 -70h-829q-3 -9 -3 -31q0 -51 14.5 -108.5t50.5 -108.5q46 -65 127.5 -95.5t188.5 -30.5q131 0 263 43l94 31l-41 -237q-66 -20 -182.5 -37.5t-202.5 -17.5q-29 0 -62 0.5t-87 11.5q-258 49 -377 223 q-103 149 -103 397zM389 1355l15 252h315l-8 -252h-322zM472 712h521q0 121 -43 187q-55 85 -186 85q-132 0 -220 -103q-72 -85 -72 -169zM887 1355l14 252h316l-7 -252h-323z" />
<glyph unicode="&#xec;" horiz-adv-x="633" d="M85 1696h419l131 -345h-295zM161 0q15 172 25.5 290.5t16 224t5.5 241.5q0 95 3.5 224.5t3.5 161.5h329q0 -72 -17 -238q-9 -91 -9 -149q0 -158 -4 -267.5t-8.5 -244.5t-4.5 -243h-340z" />
<glyph unicode="&#xed;" horiz-adv-x="639" d="M158 0q15 172 25.5 290.5t15.5 224t5 241.5q0 75 3.5 220t3.5 166h330q0 -72 -17 -238q-9 -91 -9 -149q0 -158 -4 -267.5t-8.5 -244.5t-4.5 -243h-340zM192 1347l132 344h420l-255 -344h-297z" />
<glyph unicode="&#xee;" horiz-adv-x="633" d="M22 1356l141 317h466l123 -317h-223l-134 182l-137 -182h-236zM148 0q15 172 25 290.5t15.5 224t5.5 241.5q0 95 3.5 224.5t3.5 161.5h329q0 -72 -16 -238q-9 -91 -10 -149q0 -158 -3.5 -267.5t-8.5 -244.5t-5 -243h-339z" />
<glyph unicode="&#xef;" horiz-adv-x="633" d="M-38 1355l15 252h315l-8 -252h-322zM138 0q11 131 25 277t18.5 239.5t4.5 239.5q0 75 3 220t3 166h329q0 -75 -12 -193.5t-12 -193.5q0 -158 -5 -291q-14 -397 -14 -464h-340zM460 1355l14 252h316l-7 -252h-323z" />
<glyph unicode="&#xf1;" horiz-adv-x="1432" d="M97 -2q0 111 35 405q18 152 19 250q0 97 6 245t6 246h318l-1 -174q66 111 187 165q108 48 246 47q78 0 156 -13q289 -52 289 -383l-26 -792h-337l43 515q5 51 4 104q0 112 -26 182q-32 86 -103.5 107.5t-131.5 21.5q-157 0 -246 -134q-78 -118 -78 -283l-28 -509h-332z M301 1544q20 51 69 93q68 60 154 71q18 2 32 2.5t22 0.5q75 0 158 -38l120 -52q54 -22 90 -32.5t72 -10.5q32 0 54 10q43 20 69 58t44 64l105 -196q-20 -43 -57 -79q-46 -46 -103 -67q-29 -11 -56 -15.5t-58 -4.5q-71 0 -154 36l-141 61q-83 37 -144 37q-46 0 -76.5 -22 t-53.5 -49q-35 -42 -41 -59z" />
<glyph unicode="&#xf2;" horiz-adv-x="1451" d="M114 544q0 277 180.5 448.5t457.5 171.5q292 0 458 -154t166 -412q0 -286 -154 -450q-172 -185 -506 -185q-275 0 -438.5 162.5t-163.5 418.5zM431 546q0 -154 64 -248q78 -112 235 -112q149 0 239 111.5t90 288.5q0 157 -72 249q-83 106 -251 106q-143 0 -229 -125 q-77 -111 -76 -270zM486 1696h420l130 -345h-295z" />
<glyph unicode="&#xf3;" horiz-adv-x="1457" d="M114 544q0 277 180.5 448.5t457.5 171.5q292 0 458 -154t166 -412q0 -286 -154 -450q-172 -185 -506 -185q-275 0 -438.5 162.5t-163.5 418.5zM431 546q0 -154 64 -248q78 -112 235 -112q149 0 239 111.5t90 288.5q0 157 -72 249q-83 106 -251 106q-143 0 -229 -125 q-77 -111 -76 -270zM603 1349l132 344h420l-256 -344h-296z" />
<glyph unicode="&#xf4;" horiz-adv-x="1460" d="M134 544q0 277 180.5 448.5t457.5 171.5q292 0 458 -154t166 -412q0 -286 -154 -450q-172 -185 -506 -185q-275 0 -438.5 162.5t-163.5 418.5zM417 1341l141 316h466l123 -316h-223l-134 181l-137 -181h-236zM451 546q0 -154 64 -248q78 -112 235 -112q149 0 239 111.5 t90 288.5q0 157 -72 249q-83 106 -251 106q-143 0 -229 -125q-77 -111 -76 -270z" />
<glyph unicode="&#xf5;" horiz-adv-x="1457" d="M114 544q0 277 180.5 448.5t457.5 171.5q292 0 458 -154t166 -412q0 -286 -154 -450q-172 -185 -506 -185q-275 0 -438.5 162.5t-163.5 418.5zM281 1553q20 51 69 93q68 60 154 71q18 2 32 2.5t22 0.5q75 0 158 -38l120 -52q54 -22 90 -32.5t72 -10.5q32 0 54 10 q43 20 69 58t44 64l105 -196q-20 -43 -57 -79q-46 -46 -103 -67q-29 -11 -56 -15.5t-58 -4.5q-71 0 -154 36l-141 61q-83 37 -144 37q-46 0 -76.5 -22t-53.5 -49q-35 -42 -41 -59zM431 546q0 -154 64 -248q78 -112 235 -112q149 0 239 111.5t90 288.5q0 157 -72 249 q-83 106 -251 106q-143 0 -229 -125q-77 -111 -76 -270z" />
<glyph unicode="&#xf6;" horiz-adv-x="1442" d="M114 544q0 277 180.5 448.5t457.5 171.5q292 0 458 -154t166 -412q0 -286 -154 -450q-172 -185 -506 -185q-275 0 -438.5 162.5t-163.5 418.5zM366 1349l15 252h315l-8 -252h-322zM431 546q0 -154 64 -248q78 -112 235 -112q149 0 239 111.5t90 288.5q0 157 -72 249 q-83 106 -251 106q-143 0 -229 -125q-77 -111 -76 -270zM864 1349l14 252h316l-7 -252h-323z" />
<glyph unicode="&#xf7;" horiz-adv-x="1254" d="M117 455l12 251h1050l-17 -251h-1045zM490 109l13 255h270l-17 -255h-266zM518 801l12 257h271l-17 -257h-266z" />
<glyph unicode="&#xf8;" horiz-adv-x="1462" d="M117 535q0 57 9 112.5t31 113.5q66 185 227.5 293t358.5 108q117 0 216 -37l80 137h262l-125 -220q103 -78 159 -202t56 -266q0 -117 -40.5 -228.5t-119.5 -198.5t-210.5 -135.5t-271.5 -48.5q-60 0 -104.5 6t-97.5 25l-73 -131h-263l127 222q-109 78 -165 195t-56 255z M438 535q0 -60 14.5 -115.5t45.5 -98.5l366 606q-25 3 -52.5 6t-48.5 3q-89 0 -154 -35q-78 -43 -123 -138q-22 -45 -35 -104t-13 -124zM641 200q22 -3 48.5 -6t51.5 -3q88 0 149 30q81 40 126 134q20 40 37 107.5t17 140.5q0 60 -14.5 113.5t-46.5 96.5z" />
<glyph unicode="&#xf9;" horiz-adv-x="1360" d="M109 380l40 764h315l-37 -434q-5 -48 -6 -70q-6 -71 -6 -122q0 -112 26 -177q32 -81 111 -103q55 -15 108 -15q151 0 232 135q72 120 72 300l14 486h321q0 -101 -24 -394q-12 -146 -13 -247q0 -108 -3 -192q-9 -255 -9 -311h-307l-2 177q-62 -106 -175 -159 q-101 -46 -232 -46q-71 0 -131 11q-158 25 -229 129q-65 95 -65 268zM501 1696h420l130 -345h-295z" />
<glyph unicode="&#xfa;" horiz-adv-x="1363" d="M109 380l40 764h315l-37 -434q-5 -48 -6 -70q-6 -71 -6 -122q0 -112 26 -177q32 -81 111 -103q55 -15 108 -15q151 0 232 135q72 120 72 300l14 486h321q0 -101 -24 -394q-12 -146 -13 -247q0 -108 -3 -192q-9 -255 -9 -311h-307l-2 177q-62 -106 -175 -159 q-101 -46 -232 -46q-71 0 -131 11q-158 25 -229 129q-65 95 -65 268zM526 1352l132 344h420l-256 -344h-296z" />
<glyph unicode="&#xfb;" horiz-adv-x="1376" d="M131 380l40 764h315l-37 -434q-5 -48 -6 -70q-6 -71 -6 -122q0 -112 26 -177q32 -81 111 -103q55 -15 108 -15q151 0 232 135q72 120 72 300l14 486h321q0 -101 -24 -394q-12 -146 -13 -247q0 -108 -3 -192q-9 -255 -9 -311h-307l-2 177q-62 -106 -175 -159 q-101 -46 -232 -46q-71 0 -131 11q-158 25 -229 129q-65 95 -65 268zM437 1369l141 316h466l123 -316h-223l-134 181l-137 -181h-236z" />
<glyph unicode="&#xfc;" horiz-adv-x="1373" d="M151 380l40 764h315l-37 -434q-5 -48 -6 -70q-6 -71 -6 -122q0 -112 26 -177q32 -81 111 -103q55 -15 108 -15q151 0 232 135q72 120 72 300l14 486h321q0 -101 -24 -394q-12 -146 -13 -247q0 -108 -3 -192q-9 -255 -9 -311h-307l-2 177q-62 -106 -175 -159 q-101 -46 -232 -46q-71 0 -131 11q-158 25 -229 129q-65 95 -65 268zM399 1349l15 252h315l-8 -252h-322zM897 1349l14 252h316l-7 -252h-323z" />
<glyph unicode="&#xfd;" horiz-adv-x="0" />
<glyph unicode="&#xff;" horiz-adv-x="1425" d="M55 -275q14 -9 50 -22q81 -28 149 -27q42 0 73 10q88 29 154 140q52 86 59 152l-263 763l-142 403h326l120 -404l140 -485l189 488l157 402h314l-294 -668l-203 -474q-62 -145 -88 -200q-55 -118 -93 -174q-55 -78 -117 -112t-135 -47t-153 -13q-69 0 -127.5 8.5 t-89.5 17.5zM394 1352l15 252h315l-8 -252h-322zM892 1352l14 252h316l-7 -252h-323z" />
<glyph unicode="&#x152;" horiz-adv-x="2739" d="M135 800q0 275 160 462q131 152 357 232q183 65 366 65q186 0 326 -45q77 -25 201 -90v109h1120l-8 -243l-189 11h-578l-20 -408h436l234 13l-15 -228h-669l-19 -426h577l197 17l-14 -269h-1118l6 65q-195 -71 -230 -79q-117 -25 -259 -24q-378 0 -599 183 q-261 215 -262 655zM475 735q0 -234 125 -375q138 -157 399 -157q243 0 389 161q140 156 140 400q0 237 -110 377q-132 168 -406 167q-237 0 -391 -172q-146 -165 -146 -401z" />
<glyph unicode="&#x153;" horiz-adv-x="2355" d="M114 544q0 277 180.5 448.5t457.5 171.5q177 0 287.5 -42.5t201.5 -142.5q89 103 206.5 148.5t253.5 45.5q288 0 419 -144q122 -133 122 -402l-6 -70h-829q-3 -9 -3 -31q0 -51 14.5 -108.5t49.5 -108.5q46 -65 127.5 -95.5t189.5 -30.5q131 0 263 43l94 31l-42 -237 q-66 -20 -182 -37.5t-204 -17.5q-28 0 -60.5 0.5t-86.5 11.5q-148 29 -235 83q-54 32 -108 97q-85 -101 -214 -147.5t-294 -46.5q-275 0 -438.5 162.5t-163.5 418.5zM431 546q0 -154 64 -248q78 -112 235 -112q149 0 239 111.5t90 288.5q0 157 -72 249q-83 106 -251 106 q-143 0 -229 -125q-77 -111 -76 -270zM1421 712h521q0 121 -43 187q-55 85 -186 85q-132 0 -220 -103q-72 -85 -72 -169z" />
<glyph unicode="&#x178;" horiz-adv-x="1672" d="M128 1531h370l311 -621l378 621h380l-612 -911l-14 -320l-8 -300h-350q8 86 16 174.5t8 174.5l13 294zM492 1709l15 252h315l-8 -252h-322zM990 1709l14 252h316l-7 -252h-323z" />
<glyph unicode="&#x2000;" horiz-adv-x="1088" />
<glyph unicode="&#x2001;" horiz-adv-x="2176" />
<glyph unicode="&#x2002;" horiz-adv-x="1088" />
<glyph unicode="&#x2003;" horiz-adv-x="2176" />
<glyph unicode="&#x2004;" />
<glyph unicode="&#x2005;" horiz-adv-x="544" />
<glyph unicode="&#x2006;" horiz-adv-x="362" />
<glyph unicode="&#x2007;" horiz-adv-x="362" />
<glyph unicode="&#x2008;" horiz-adv-x="272" />
<glyph unicode="&#x2009;" horiz-adv-x="435" />
<glyph unicode="&#x200a;" horiz-adv-x="120" />
<glyph unicode="&#x2010;" horiz-adv-x="784" d="M126 713l9 222h594l-13 -222h-590z" />
<glyph unicode="&#x2011;" horiz-adv-x="784" d="M126 713l9 222h594l-13 -222h-590z" />
<glyph unicode="&#x2012;" horiz-adv-x="784" d="M126 713l9 222h594l-13 -222h-590z" />
<glyph unicode="&#x2013;" horiz-adv-x="953" d="M126 716l14 220h766l-16 -220h-764z" />
<glyph unicode="&#x2014;" horiz-adv-x="1718" d="M126 713l8 222h1533l-19 -222h-1522z" />
<glyph unicode="&#x2018;" horiz-adv-x="604" d="M161 1533h265l135 -409h-158z" />
<glyph unicode="&#x2019;" horiz-adv-x="596" d="M141 1125l133 406h266l-242 -406h-157z" />
<glyph unicode="&#x201a;" horiz-adv-x="596" d="M141 -286l133 406h266l-242 -406h-157z" />
<glyph unicode="&#x201c;" horiz-adv-x="960" d="M146 1530h157l238 -405h-263zM500 1530h264l135 -408h-158z" />
<glyph unicode="&#x201d;" horiz-adv-x="951" d="M145 1125l132 406h266l-242 -406h-156zM498 1127l240 406h158l-132 -406h-266z" />
<glyph unicode="&#x201e;" horiz-adv-x="951" d="M145 -286l132 406h266l-242 -406h-156zM498 -284l240 405h158l-132 -405h-266z" />
<glyph unicode="&#x2022;" horiz-adv-x="797" d="M111 524l17 288q0 83 5 178.5t5 134.5h603l-17 -305l-12 -296h-601z" />
<glyph unicode="&#x2026;" horiz-adv-x="1591" d="M95 -5l10 253h315l-8 -253h-317zM632 -5l14 253h316l-9 -253h-321zM1170 -5l14 253h318l-9 -253h-323z" />
<glyph unicode="&#x202f;" horiz-adv-x="435" />
<glyph unicode="&#x205f;" horiz-adv-x="544" />
<glyph unicode="&#x2122;" horiz-adv-x="1516" d="M161 1470l4 61h539l-1 -63h-236l-24 -687h-72l24 689h-234zM735 786l25 745h115l212 -655l266 657l106 -2l-26 -745h-72l23 664l-271 -664h-66l-215 665l-23 -665h-74z" />
<glyph unicode="&#x25fc;" horiz-adv-x="1137" d="M0 0v1138h1138v-1138h-1138z" />
</font>
</defs>
</svg>
