<?xml version="1.0" standalone="no"?>
<!DOCTYPE svg PUBLIC "-//W3C//DTD SVG 1.1//EN" "http://www.w3.org/Graphics/SVG/1.1/DTD/svg11.dtd" >
<svg xmlns="http://www.w3.org/2000/svg">
<metadata></metadata>
<defs>
<font id="magic_lantern_nfregular" horiz-adv-x="1382" >
<font-face units-per-em="2048" ascent="1587" descent="-461" />
<missing-glyph horiz-adv-x="487" />
<glyph horiz-adv-x="2048" />
<glyph horiz-adv-x="2048" />
<glyph unicode="&#xd;" horiz-adv-x="2048" />
<glyph unicode=" "  horiz-adv-x="487" />
<glyph unicode="&#x09;" horiz-adv-x="487" />
<glyph unicode="&#xa0;" horiz-adv-x="487" />
<glyph unicode="!" horiz-adv-x="673" d="M37 1516q0 29 29 28h542q29 1 29 -28t-29 -29h-30l-80 -977h24q31 0 31 -29t-31 -28h-370q-31 0 -31 28q0 29 31 29h26l-82 977h-30q-29 0 -29 29zM121 184q0 86 58.5 145.5t144.5 59.5t144 -59.5t58 -145.5q0 -41 -15 -77.5t-43 -64.5t-64.5 -44t-79.5 -16 q-86 0 -144.5 58t-58.5 144z" />
<glyph unicode="&#x22;" horiz-adv-x="774" d="M37 1565q0 18 18 18h664q18 0 18 -18t-18 -19h-19l-49 -340h15q20 0 20 -16q0 -18 -20 -19h-230q-18 0 -18 19q0 16 18 16h17l-52 340h-28l-49 -340h14q20 0 20 -16q0 -18 -20 -19h-229q-18 0 -19 19q0 16 19 16h16l-51 340h-19q-18 0 -18 19z" />
<glyph unicode="#" horiz-adv-x="1136" d="M37 717l47 155h221l55 177h-223l47 155h222l83 279h158l-84 -279h156l84 279h158l-84 -279h223l-47 -155h-224l-53 -177h223l-47 -155h-221l-104 -348h-158l104 348h-155l-105 -348h-157l104 348h-223zM463 872h155l54 177h-156z" />
<glyph unicode="$" horiz-adv-x="954" d="M37 356q0 6 2 11l127 315q8 20 24 20t23.5 -8t7.5 -18t-2 -14l-8 -19q6 -23 25.5 -48.5t50 -48t72.5 -37.5t94 -15q35 0 59.5 15t24.5 44q0 47 -84 106q-55 39 -110.5 81t-99.5 89.5t-73 103.5t-29 128q0 96 46 176t139 131v119h-29q-31 0 -31 29t31 28h373q29 0 28 -28 q0 -29 -28 -29h-29v-64q82 -12 145 -49q4 23 27 23q29 0 29 -29v-319q0 -31 -29 -31t-29 33q-66 66 -172 65q-27 0 -59.5 -13t-32.5 -36q0 -25 33 -45q102 -72 172 -123t113 -100t61.5 -105.5t18.5 -136.5q0 -68 -20.5 -128t-56.5 -111.5t-87.5 -90.5t-112.5 -59v-113h29 q29 0 28 -28q0 -27 -28 -27h-373q-31 0 -31 27q0 29 31 28h29v111q-141 41 -273 162q-16 16 -16 28z" />
<glyph unicode="%" horiz-adv-x="1767" d="M37 1067q0 96 28.5 182t78 151.5t116 104.5t139.5 39q76 0 141.5 -39t115 -105.5t78 -152.5t28.5 -180q0 -92 -27.5 -179t-77 -152.5t-116 -105.5t-142.5 -40q-78 0 -143.5 39t-114.5 104.5t-76.5 151.5t-27.5 182zM276 1067q0 -47 9.5 -90t26 -75t39 -51.5t48.5 -19.5 q27 0 49.5 19.5t40 51.5t26.5 75t9 90q0 45 -9 88t-26.5 76t-40 52.5t-49.5 19.5t-49 -19.5t-38.5 -52.5t-26 -76t-9.5 -88zM324 0l864 1544h256l-864 -1544h-256zM1008 477q0 94 27.5 181t76.5 153t114.5 104.5t141.5 38.5t141.5 -38.5t114.5 -105.5t78 -153t29 -180 t-28 -180t-77 -152.5t-115.5 -105.5t-142.5 -39q-78 0 -143.5 39t-113.5 105.5t-75.5 152.5t-27.5 180zM1245 477q0 -47 9.5 -90t25.5 -74.5t38.5 -51t49.5 -19.5t49.5 19.5t40 51t26.5 74.5t9 90q0 45 -9 88t-26.5 76t-40 52.5t-49.5 19.5t-49.5 -19.5t-38.5 -52.5 t-25.5 -76t-9.5 -88z" />
<glyph unicode="&#x26;" horiz-adv-x="1650" d="M37 600q0 84 24.5 162t68.5 146.5t105.5 123.5t135.5 94q-2 14 -3 27.5t-1 28.5q0 82 33.5 155.5t92 129t136.5 87t164 31.5q215 0 342 -166q6 -10 6 -16t-2 -10l-119 -291q-6 -12 -23 -17q-10 0 -20 10.5t-24.5 21.5t-33 21.5t-42.5 10.5q-23 0 -40.5 -10.5t-17.5 -32.5 q0 -29 17.5 -47.5t39 -32.5t40 -25.5t18.5 -21.5q0 -8 -2 -12l-113 -277q-10 -20 -24 -20q-16 0 -38 9t-45.5 23.5t-44 28.5t-32.5 25q-123 -47 -123 -156q0 -76 57.5 -120t135.5 -44q279 0 380 369q2 18 27 18q16 0 27 -16q27 -68 75 -133.5t106 -115.5t119.5 -82 t116.5 -32h13.5t13.5 2q10 0 20.5 -8t10.5 -20q0 -8 -2 -10l-164 -371q-12 -16 -27 -17q-180 0 -299 138q-193 -158 -436 -158q-133 0 -251 47t-206 129t-140 191.5t-52 232.5z" />
<glyph unicode="'" horiz-adv-x="446" d="M37 1565q0 18 18 18h336q19 0 19 -18t-19 -19h-18l-49 -340h14q20 0 20 -16q0 -18 -20 -19h-229q-18 0 -19 19q0 16 19 16h16l-51 340h-19q-18 0 -18 19z" />
<glyph unicode="(" horiz-adv-x="667" d="M37 596q0 150 22.5 297t65.5 282.5t105.5 253t142.5 209.5l258 -219q-61 -74 -109.5 -168t-81 -200.5t-49 -222t-16.5 -232.5q0 -113 16.5 -224.5t46 -216t72.5 -196.5t98 -164l-268 -205q-72 92 -128 208t-95 246t-59.5 270.5t-20.5 281.5z" />
<glyph unicode=")" horiz-adv-x="667" d="M37 1419l258 219q78 -92 140.5 -209.5t105.5 -253t66.5 -283t23.5 -296.5q0 -143 -20.5 -283.5t-59.5 -269.5t-95.5 -244.5t-127.5 -208.5l-269 205q55 72 98.5 164t74 195.5t47 216t16.5 225.5q0 117 -17.5 231.5t-50 221t-81 201.5t-109.5 169z" />
<glyph unicode="*" horiz-adv-x="925" d="M37 1124q0 10 10 20.5t23 10.5q12 0 22 -18l14 -25l127 72l-127 73l-14 -24q-10 -16 -24 -16q-10 0 -19.5 8t-9.5 18q0 6 4 19l143 247q10 16 25 17q14 0 22.5 -8.5t8.5 -18.5t-6 -18l-15 -25l125 -72v146h-29q-31 0 -30 26q0 29 30 29h287q31 0 31 -29q0 -27 -31 -26 h-29v-148l127 74l-14 25q-4 12 -4 16q0 10 8 19.5t21 9.5q14 0 24 -17l144 -247q6 -12 6 -21q0 -10 -9.5 -17t-21.5 -7q-14 0 -25 16l-14 24l-125 -73l127 -72l15 25q10 16 24 16q12 0 21.5 -9t9.5 -20q0 -8 -6 -16l-144 -248q-10 -18 -24 -18q-10 0 -20.5 8t-10.5 18 q0 6 6 19l15 26l-130 74v-147h29q31 0 31 -29t-31 -29h-287q-31 0 -30 29q0 29 30 29h29v145l-125 -72l15 -26q6 -10 6 -19q0 -10 -11.5 -18t-21.5 -8q-14 0 -23 18l-143 248q-6 8 -6 16z" />
<glyph unicode="+" horiz-adv-x="1091" d="M37 549v242h389v387h240v-387h389v-242h-389v-389h-240v389h-389z" />
<glyph unicode="," horiz-adv-x="501" d="M37 184q0 86 59.5 145.5t145.5 59.5q111 0 167 -76.5t56 -189.5q0 -236 -176 -387q-14 -10 -21 -10q-12 0 -20 14l-66 98q-6 8 -6 17q0 4 10.5 16t24.5 29.5t28.5 39t22.5 44.5q-4 -2 -20 -2q-86 0 -145.5 58t-59.5 144z" />
<glyph unicode="-" horiz-adv-x="681" d="M37 631v456q0 27 29 27q27 0 26 -27v-28h496v28q0 27 28 27q29 0 29 -27v-456q0 -29 -29 -29t-28 29v28h-496v-28q0 -29 -26 -29q-29 0 -29 29z" />
<glyph unicode="." horiz-adv-x="479" d="M37 184q0 86 58.5 145.5t144.5 59.5t144 -59.5t58 -145.5q0 -41 -15 -77.5t-43 -64.5t-64.5 -44t-79.5 -16q-86 0 -144.5 58t-58.5 144z" />
<glyph unicode="/" horiz-adv-x="1011" d="M37 -268l700 1781l238 -92l-701 -1781z" />
<glyph unicode="0" d="M37 774q0 172 50 317.5t138 250t208 164t257 59.5q141 0 262 -62.5t208 -170t136.5 -251t49.5 -307.5q0 -162 -49.5 -305t-136.5 -250.5t-206.5 -170t-263.5 -62.5q-145 0 -265 62.5t-206 169t-134 249.5t-48 307zM446 772q0 -74 18.5 -141.5t51.5 -117.5t77 -80t95 -30 q57 0 103.5 30t77 80t47 115.5t16.5 139.5q0 53 -11.5 118.5t-39 123t-73.5 96.5t-118 39q-57 0 -102 -31t-77 -82t-48.5 -118.5t-16.5 -141.5z" />
<glyph unicode="1" horiz-adv-x="645" d="M37 1200q0 8 6 21l203 309q8 12 24 12h308q31 0 30 -26q0 -29 -30 -29h-29v-1432h29q30 1 30 -28q0 -27 -30 -27h-457q-31 0 -31 27q0 29 31 28h29v1131q0 27 -21 26q-20 0 -32.5 -18t-30.5 -18q-12 0 -20.5 7t-8.5 17z" />
<glyph unicode="2" horiz-adv-x="1161" d="M37 1167q14 82 61 150.5t115 119t153 78t175 27.5q94 0 186 -33.5t165 -93t117 -141.5t44 -178q0 -104 -60 -207l-282 -486h258q39 0 57 20.5t28.5 44.5t17.5 44t24 20q29 0 28 -30v-475q0 -27 -28 -27h-975q-27 0 -27 25q0 102 62.5 242.5t167.5 303.5l270 420 q25 39 24 74q0 39 -28.5 66.5t-69.5 27.5q-100 0 -114 -149q-4 -27 -29 -27q-8 0 -10 2l-316 152q-14 6 -14 30z" />
<glyph unicode="3" horiz-adv-x="1232" d="M37 272q0 10 4 17l182 289q8 12 25 12q16 0 24 -15q92 -178 260 -178q39 0 75 13.5t63.5 38t44 57.5t16.5 72t-16.5 71.5t-44 56t-64.5 37t-76 13.5q-23 0 -47 -11.5t-47 -11.5q-10 0 -20 15l-103 137q-6 8 -6 16q0 10 4 17l158 221h-252q-43 0 -70.5 -29t-27.5 -70 q0 -31 -29 -30q-29 0 -29 30v476q0 27 29 26h1000q10 0 18 -8t8 -21q0 -6 -4 -14l-266 -420q78 -35 142.5 -90t110.5 -122.5t71.5 -145.5t25.5 -158q0 -119 -51 -222t-137 -179t-200 -119t-241 -43q-160 0 -300 68.5t-226 189.5q-4 4 -4 14z" />
<glyph unicode="4" horiz-adv-x="1370" d="M37 274q0 8 2 13l661 1241q2 14 25 14h346q10 0 18.5 -9t8.5 -20q0 -8 -2 -10l-279 -561h361q31 0 30 -27q0 -29 -30 -28h-27v-242h127v29q0 29 29 28q27 0 26 -28v-400q0 -29 -26 -28h-156v-191h29q29 0 28 -28q0 -27 -28 -27h-457q-31 0 -31 27q0 29 31 28h29v191h-689 q-10 0 -18 9t-8 19zM670 645h82v164z" />
<glyph unicode="5" horiz-adv-x="1247" d="M37 330q0 14 73.5 74.5t213.5 177.5q6 6 16 6q25 0 29 -21q18 -80 79.5 -128t143.5 -48q78 0 122 47t44 117q0 78 -55.5 125t-137.5 47q-115 0 -172 -86q-10 -14 -22 -14q-6 0 -15 6l-215 129q-12 12 -12 24v730q0 27 27 26h884q29 0 29 -26v-455q0 -29 -29 -29 q-18 0 -23 16.5t-11.5 37t-20.5 37t-49 16.5h-379v-23h39q123 0 234.5 -44t195.5 -118.5t134 -176t50 -218.5t-50 -219t-134 -178t-195.5 -119t-234.5 -43q-86 0 -170 22.5t-156.5 63.5t-132 99.5t-96.5 129.5q-4 8 -4 15z" />
<glyph unicode="6" horiz-adv-x="1228" d="M37 690q0 172 50 329t140 276.5t212 190t268 70.5q217 0 380 -137q8 -6 9 -26l-78 -330q-8 -23 -29 -23q-14 0 -20 10.5t-6 20.5v5t4 14q-98 92 -226 92q-143 0 -243 -113q82 35 194 35q104 0 195.5 -42t159 -113.5t106.5 -166t39 -200.5q0 -119 -44 -225.5t-121 -187.5 t-179.5 -128t-220.5 -49q-133 0 -243 49t-186.5 140t-118.5 220t-42 289zM500 547q0 -63 39 -107.5t90 -44.5q53 0 90 45.5t37 106.5q0 57 -35 103t-92 46q-55 0 -92 -46t-37 -103z" />
<glyph unicode="7" horiz-adv-x="1200" d="M37 1040v476q0 27 29 26h1069q29 0 28 -26v-197q0 -12 -6 -19q-100 -121 -190 -257t-176 -289q-209 -385 -209 -617q0 -33 9 -60.5t9 -47.5q0 -12 -9 -20.5t-20 -8.5h-383q-12 0 -20 6t-8 25q10 137 45 283.5t90 290t129 279.5t162 255h-393q-41 0 -70 -29t-29 -70 q0 -31 -28 -30q-29 0 -29 30z" />
<glyph unicode="8" horiz-adv-x="1341" d="M37 512q0 121 63.5 228.5t173.5 179.5q-82 102 -81 223q0 84 38.5 156.5t104 127t151.5 85t183 30.5q96 0 183 -30.5t152.5 -85t104.5 -128t39 -157.5q0 -119 -82 -221q102 -66 170 -171.5t68 -234.5q0 -111 -51.5 -207t-137.5 -167.5t-200.5 -112.5t-243.5 -41t-245 41 t-202 112.5t-137 166.5t-51 206zM455 524q0 -33 16 -62.5t46 -53t69 -37t86 -13.5q45 0 84 13.5t68.5 36t46 52t16.5 64.5q0 33 -16.5 63.5t-46 53.5t-68.5 36t-84 13q-47 0 -86 -13t-69 -37t-46 -53.5t-16 -62.5zM578 1112q0 -29 28.5 -49.5t65.5 -20.5q35 0 63.5 19.5 t28.5 50.5q0 33 -28.5 52.5t-63.5 19.5q-37 0 -65.5 -21.5t-28.5 -50.5z" />
<glyph unicode="9" horiz-adv-x="1230" d="M37 950q0 147 47 260t124 188t176 112.5t204 37.5q113 0 221.5 -44t194.5 -131t138 -220t52 -311q0 -170 -51 -327t-140.5 -276.5t-213 -191.5t-267.5 -72q-111 0 -204 33t-177 105q-8 6 -8 26l78 330q8 23 29 23q14 0 20 -8.5t6 -18.5v-7t-4 -16q98 -92 225 -92 q145 0 244 113q-86 -35 -194 -35q-104 0 -195.5 42t-159 112.5t-106.5 166t-39 201.5zM473 985q0 -57 36 -103t91 -46q57 0 93 46t36 103q0 59 -36 105.5t-93 46.5q-55 0 -91 -46.5t-36 -105.5z" />
<glyph unicode=":" horiz-adv-x="479" d="M37 184q0 86 58.5 145.5t144.5 59.5t144 -59.5t58 -145.5q0 -41 -15 -77.5t-43 -64.5t-64.5 -44t-79.5 -16q-86 0 -144.5 58t-58.5 144zM37 819q0 86 58.5 145.5t144.5 59.5t144 -59.5t58 -145.5q0 -41 -15 -77.5t-43 -64.5t-64.5 -44.5t-79.5 -16.5q-86 0 -144.5 58.5 t-58.5 144.5z" />
<glyph unicode=";" horiz-adv-x="501" d="M37 184q0 86 59.5 145.5t145.5 59.5q111 0 167 -76.5t56 -189.5q0 -236 -176 -387q-14 -10 -21 -10q-12 0 -20 14l-66 98q-6 8 -6 17q0 4 10.5 16t24.5 29.5t28.5 39t22.5 44.5q-4 -2 -20 -2q-86 0 -145.5 58t-59.5 144zM47 819q0 86 58.5 145.5t144.5 59.5t144.5 -59.5 t58.5 -145.5q0 -41 -15.5 -77.5t-43 -64.5t-64.5 -44.5t-80 -16.5q-86 0 -144.5 58.5t-58.5 144.5z" />
<glyph unicode="&#x3c;" horiz-adv-x="1185" d="M37 424v217l1014 424l98 -234l-711 -299l711 -296l-98 -236z" />
<glyph unicode="=" horiz-adv-x="1091" d="M37 342v242h1018v-242h-1018zM37 745v242h1018v-242h-1018z" />
<glyph unicode="&#x3e;" horiz-adv-x="1185" d="M37 236l711 296l-711 299l98 234l1014 -424v-217l-1014 -424z" />
<glyph unicode="?" horiz-adv-x="1058" d="M37 1303q0 14 14 28q207 213 488 213q88 0 175 -35.5t155.5 -100.5t110.5 -153t42 -190q0 -63 -12.5 -113.5t-45 -97.5t-91 -98t-152.5 -115q-10 -6 -30.5 -19.5t-42 -30t-38 -35.5t-16.5 -40h18q29 0 29 -29q0 -27 -29 -26h-417q-29 0 -29 26q0 29 29 29h14 q0 190 147 318l164 139q88 74 88 117q0 33 -29.5 52t-70.5 19q-43 0 -88 -16.5t-82 -41t-61.5 -53t-30.5 -53.5l10 -22q6 -10 6 -19q0 -8 -8 -16t-23 -8q-16 0 -24 18l-168 340q-2 4 -2 13zM211 184q0 86 58.5 145.5t144.5 59.5q43 0 79.5 -16.5t64.5 -44t43 -64.5t15 -80 t-15 -79.5t-43 -64.5t-64.5 -43t-79.5 -15q-86 0 -144.5 58t-58.5 144z" />
<glyph unicode="@" horiz-adv-x="1771" d="M37 791q0 174 67.5 327.5t182 269t269.5 183t331 67.5q172 0 326.5 -67.5t270 -183t183.5 -270t68 -326.5q0 -188 -121 -443h-498q-55 0 -100 49q-82 -51 -185 -51q-70 0 -130 24.5t-105 67.5t-71.5 100.5t-26.5 123.5q0 53 19.5 104t55 93t86 72t109.5 40l-96 217 q-2 4 -2 14t7 17.5t21 7.5q12 0 23 -17q33 33 89 46.5t103 13.5q66 0 127.5 -24.5t108.5 -67.5t74.5 -101.5t27.5 -126.5v-332h189q25 82 24 173q0 119 -46 224t-125 184t-184 125t-222 46q-119 0 -224.5 -46t-184.5 -125t-125 -184.5t-46 -223.5q0 -119 46 -224.5 t125 -184.5t184.5 -125t224.5 -46q184 0 336 108l157 -217q-221 -160 -493 -159q-176 0 -331 67.5t-270.5 182t-182 269t-66.5 329.5zM764 662q0 -18 21.5 -33t45.5 -15q31 1 54 19q14 12 14 29q0 20 -21.5 33.5t-46.5 13.5q-29 0 -48 -15.5t-19 -31.5zM856 977 q72 -6 125 -33q0 55 -68 55q-39 0 -57 -22z" />
<glyph unicode="A" horiz-adv-x="1361" d="M37 27q0 29 31 28h45l540 1483q6 18 27 18q20 0 27 -18l540 -1483h49q29 1 29 -28q0 -27 -29 -27h-469q-31 0 -30 27q0 29 30 28h27l-25 70h-333l-25 -70h43q31 0 31 -28q0 -27 -31 -27h-446q-31 0 -31 27zM616 463h93l-45 129z" />
<glyph unicode="B" horiz-adv-x="1228" d="M37 27q0 29 31 28h43v1430h-43q-31 0 -31 28q0 29 31 29h505q88 0 169 -32.5t142.5 -90t97.5 -135.5t36 -168q0 -147 -96 -262q123 -55 196.5 -164.5t73.5 -240.5q0 -94 -39 -176.5t-104.5 -142.5t-152.5 -95t-181 -35h-647q-31 0 -31 27zM502 393h45q176 0 176 109 q0 108 -173 108h-3h-45v-217zM502 1001q84 0 106.5 22.5t22.5 49.5q0 29 -22.5 50.5t-106.5 21.5v-144z" />
<glyph unicode="C" horiz-adv-x="1056" d="M37 762q0 156 51 297t142.5 248.5t213 172t263.5 64.5q129 0 256 -61v10q0 31 28 31q29 0 29 -31v-469q0 -29 -29 -29t-28 29v45q-84 74 -195 74q-70 0 -130 -32t-104.5 -84t-69 -120.5t-24.5 -144.5t26 -145.5t70 -122t103 -84t129 -31.5q111 0 195 76v43q0 31 28 30 q29 0 29 -30v-467q0 -31 -29 -31t-28 31v8q-125 -59 -256 -59q-141 0 -263 64.5t-213.5 172t-142.5 248.5t-51 297z" />
<glyph unicode="D" horiz-adv-x="1239" d="M37 27q0 29 31 28h43v1432h-43q-31 0 -31 29q0 26 29 26h2h573q125 0 227.5 -58.5t176 -162.5t114.5 -247.5t43 -311.5q0 -168 -39 -308.5t-107.5 -240.5t-163.5 -156.5t-206 -56.5h-618q-31 0 -31 27zM545 418h51q37 0 67.5 27.5t52 75.5t34 112.5t12.5 138.5 q0 72 -12.5 136.5t-34 112.5t-52 76.5t-67.5 28.5h-51v-708z" />
<glyph unicode="E" horiz-adv-x="1110" d="M37 1516q0 26 29 26h2h921q27 0 27 -26v-476q0 -31 -27 -30q-29 0 -28 30q0 41 -29 70t-70 29h-321v-119h114v29q0 29 29 28q29 0 29 -28v-519q0 -29 -29 -28q-29 0 -29 28v29h-114v-129h379q41 0 68.5 28.5t27.5 69.5q0 29 28 29q29 0 29 -29v-501q0 -27 -29 -27h-964 q-31 0 -31 27q0 29 31 28h31v1432h-43q-31 0 -31 29z" />
<glyph unicode="F" horiz-adv-x="1052" d="M37 1516q0 26 29 26h2h919q29 0 29 -26v-476q0 -31 -29 -30q-29 0 -29 30q0 41 -27.5 70t-68.5 29h-323v-119h116v29q0 29 27 28q29 0 29 -28v-519q0 -29 -29 -28q-27 0 -27 28v29h-116v-504h53q31 0 31 -28q0 -27 -31 -27h-514q-29 0 -29 27q0 29 29 28h33v1432h-43 q-31 0 -31 29z" />
<glyph unicode="G" horiz-adv-x="1097" d="M37 762q0 160 47 301t132 248.5t203 170t259 62.5q139 0 256 -45q0 45 29 45t28 -31v-526q0 -29 -28 -29q-20 0 -24.5 12.5t-4.5 69.5q-84 80 -186 80q-68 0 -122.5 -28.5t-92 -78.5t-58 -119t-20.5 -151q0 -70 13 -129t40 -103t64.5 -68.5t84.5 -24.5q4 0 9 2v334 q-72 0 -72 28q0 29 31 29h407q29 0 29 -29v-628q-168 -174 -426 -174q-129 0 -238.5 64.5t-189.5 172t-125 249.5t-45 296z" />
<glyph unicode="H" horiz-adv-x="1320" d="M37 27q0 29 31 28h28v1432h-28q-31 0 -31 29q0 26 29 26h2h456q31 0 31 -26q0 -29 -31 -29h-28v-393h329v393h-28q-29 0 -29 29q0 26 27 26h2h456q31 0 31 -26q0 -29 -31 -29h-28v-1432h28q31 1 31 -28q0 -27 -31 -27h-456q-29 0 -29 27q0 29 29 28h28v666h-329v-666h28 q31 0 31 -28q0 -27 -31 -27h-456q-31 0 -31 27z" />
<glyph unicode="I" horiz-adv-x="589" d="M37 27q0 29 29 28h28v1432h-28q-29 0 -29 29q0 26 27 26h2h456q31 0 31 -26q0 -29 -31 -29h-28v-1432h28q31 1 31 -28q0 -27 -31 -27h-456q-29 0 -29 27z" />
<glyph unicode="J" horiz-adv-x="942" d="M37 236q0 10 8 18t23 8q18 0 24 -24l10 -33q72 0 135.5 38t110.5 100.5t74 143t27 166.5v834h-29q-31 0 -31 29q0 26 29 26h2h457h2q26 0 26 -26q0 -29 -28 -29h-29v-795q0 -297 -170 -551q-98 -145 -217 -212.5t-266 -67.5l6 -23q2 -4 2 -12q0 -10 -8.5 -17.5 t-24.5 -7.5t-23 23l-108 399q-2 4 -2 13z" />
<glyph unicode="K" horiz-adv-x="1327" d="M37 27q0 29 29 28h28v1432h-28q-29 0 -29 29q0 26 27 26h2h456q31 0 31 -26q0 -29 -31 -29h-28v-289l196 289q-33 0 -33 29q0 26 29 26h2h535q29 0 28 -26q0 -29 -28 -29h-43l-398 -574l408 -727l55 35q8 6 17 6q12 0 22 -14q6 -10 6 -18q0 -12 -16 -23l-397 -244 q-10 -6 -17 -6q-14 0 -22 19l-344 628v-514h28q31 0 31 -28q0 -27 -31 -27h-456q-29 0 -29 27z" />
<glyph unicode="L" horiz-adv-x="1054" d="M37 27q0 29 31 28h59v1432h-35q-31 0 -31 29q0 26 29 26h2h498q29 0 28 -26q0 -29 -28 -29h-35v-1057h307q43 0 71 28.5t28 69.5q0 29 28 29q29 0 29 -29v-501q0 -27 -29 -27h-921q-31 0 -31 27z" />
<glyph unicode="M" horiz-adv-x="1814" d="M37 27q0 29 31 28h36l428 1518q2 18 27 18q16 0 25 -14l323 -659l324 659q6 14 24 14q23 0 29 -18l428 -1518h35q31 1 31 -28q0 -27 -31 -27h-457q-31 0 -30 27q0 29 30 28h21l-156 545l-223 -428q-8 -14 -25 -14q-18 0 -24 14l-224 428l-155 -545h20q31 0 31 -28 q0 -27 -31 -27h-456q-31 0 -31 27z" />
<glyph unicode="N" horiz-adv-x="1144" d="M37 27q0 29 31 28h28v1495q0 27 29 27q12 0 20 -8l506 -578v496h-28q-31 0 -31 29q0 27 31 26h456q29 1 29 -26q0 -29 -29 -29h-28v-1495q0 -27 -29 -27q-12 0 -21 8l-501 555v-473h24q29 0 29 -28q0 -27 -29 -27h-456q-31 0 -31 27z" />
<glyph unicode="O" d="M37 774q0 174 51 319.5t139 250t208 163t255 58.5q141 0 262 -62.5t208 -170t136.5 -251t49.5 -307.5t-49.5 -307t-136.5 -249.5t-206.5 -169t-263.5 -62.5q-145 0 -265 62.5t-206 169t-134 249.5t-48 307zM449 772q0 -76 18 -142.5t50 -116.5t76 -80t95 -30 q57 0 103.5 30t78 80t48 115.5t16.5 139.5q0 53 -11.5 118.5t-39 123t-74.5 96.5t-119 39q-55 0 -100 -30t-76 -81t-48 -118.5t-17 -143.5z" />
<glyph unicode="P" horiz-adv-x="1249" d="M37 1516q0 26 27 26h2h624q109 0 204 -53t165.5 -143.5t111.5 -209t41 -251.5t-39.5 -252t-110.5 -208t-166 -142.5t-206 -53.5h-194v-174h28q31 0 31 -28q0 -27 -31 -27h-456q-29 0 -29 27q0 29 29 28h28v1432h-30q-29 0 -29 29zM496 627h133q78 8 124 84t46 180 q0 117 -52.5 185.5t-125.5 68.5h-125v-518z" />
<glyph unicode="Q" horiz-adv-x="1386" d="M37 774q0 166 49 309.5t137 251t208 169t261 61.5t261 -61.5t208 -169t137.5 -251t49.5 -309.5q0 -313 -164 -532q35 -35 76 -35q25 0 38 14.5t23 14.5q29 0 29 -29q0 -10 -11 -21l-364 -348q-10 -10 -23 -10q-27 0 -26 29q0 14 26 34q-72 31 -131 82.5t-102 116 t-66.5 138t-23.5 151.5q0 29 28 29h10.5t26.5 -2q57 0 101.5 31.5t75 83.5t47 120t16.5 137q0 76 -17.5 143.5t-49 116.5t-75.5 78t-98 29q-53 0 -98 -30t-78 -80t-50 -116.5t-17 -142.5q0 -111 30.5 -193.5t89.5 -129.5q23 -16 40.5 -26.5t17.5 -29.5q0 -6 -2 -10 q-61 -133 -62 -262q0 -14 3 -44t3 -44q0 -31 -28 -31q-80 0 -207 103q-160 129 -229.5 293.5t-69.5 371.5z" />
<glyph unicode="R" horiz-adv-x="1398" d="M37 1516q0 26 29 26h2h624q106 0 200.5 -46t165 -125t111.5 -181.5t41 -214.5q0 -143 -63.5 -264t-175.5 -207q184 -176 323 -230l25 15q8 6 16 6q10 0 18.5 -7t8.5 -22q0 -16 -14 -24l-433 -267q-10 -6 -16 -6q-12 0 -20 13l-381 428v-355h63q31 0 31 -28q0 -27 -31 -27 h-491q-31 0 -31 27q0 29 31 28h28v1432h-30q-31 0 -31 29zM498 688q123 18 191.5 91t72.5 167q0 76 -43 132.5t-115 56.5h-106v-447z" />
<glyph unicode="S" horiz-adv-x="1150" d="M37 244q0 4 4 12l143 373q6 20 25 20q14 0 21.5 -7t7.5 -17q0 -4 -1 -9.5t-8 -21.5q8 -35 40 -71t77 -64.5t97.5 -47t101.5 -18.5q51 0 88 24.5t37 65.5q0 61 -111 146l-211 157q-174 131 -174 332q0 92 41 174t110.5 142.5t162 95.5t194.5 35q156 0 289 -78v14 q0 29 26 29q29 0 29 -29v-397q0 -31 -29 -31q-27 0 -26 31v16q-88 82 -223 82q-47 0 -89.5 -21.5t-42.5 -56.5q0 -39 48 -67q137 -96 224 -164t137 -128t69.5 -125t19.5 -153q0 -104 -41 -195t-110.5 -158.5t-162.5 -107.5t-200 -40q-332 0 -553 239q-10 10 -10 19z" />
<glyph unicode="T" horiz-adv-x="1271" d="M37 1040v476q0 26 27 26h2h1142q27 0 27 -26v-476q0 -31 -29 -30q-14 0 -21 20.5t-18.5 44t-30 44t-55.5 20.5h-229v-1084q61 0 61 -28q0 -27 -28 -27h-494q-31 0 -31 27q0 28 58 28h4v1084h-229q-41 0 -70 -29t-29 -70q0 -31 -28 -30q-29 0 -29 30z" />
<glyph unicode="U" horiz-adv-x="1290" d="M37 1516q0 26 27 26h2h456q31 0 31 -26q0 -29 -31 -29h-28v-924q0 -59 45 -98t106 -39q59 0 104.5 40t45.5 97v924h-29q-31 0 -31 29q0 26 29 26h2h457h2q28 0 28 -26q0 -29 -30 -29h-29v-1002q0 -102 -45 -190t-121 -153.5t-175 -103.5t-208 -38q-111 0 -210 38 t-175 103.5t-121 153.5t-45 190v1002h-28q-29 0 -29 29z" />
<glyph unicode="V" horiz-adv-x="1421" d="M37 1516q0 26 29 26h2h505q29 0 29 -26q0 -29 -29 -29h-18l156 -471l155 471h-16q-31 0 -31 29q0 26 29 26h2h506h2q26 0 26 -26q0 -29 -28 -29h-60l-559 -1505q-6 -16 -26 -17q-20 0 -27 17l-559 1505h-57q-31 0 -31 29z" />
<glyph unicode="W" horiz-adv-x="1744" d="M37 1516q0 27 29 26h507q29 0 29 -26q0 -29 -29 -29h-20l125 -443l168 523q6 16 26 16t27 -16l170 -523l123 443h-18q-31 0 -31 29q0 27 31 26h505q29 1 29 -26q0 -29 -29 -29h-57l-455 -1503q-6 -18 -26 -19q-20 0 -27 17l-242 593l-241 -593q-6 -16 -27 -17 q-20 0 -26 19l-455 1503h-57q-29 0 -29 29z" />
<glyph unicode="X" horiz-adv-x="1411" d="M37 27q0 29 29 28h38l381 799l-303 633h-39q-29 0 -28 29q0 26 26 26h2h494q29 0 29 -26q0 -29 -29 -29h-14l82 -170l81 170h-12q-31 0 -31 29q0 26 29 26h2h492q31 0 30 -26q0 -29 -30 -29h-39l-301 -633l379 -799h38q31 1 31 -28q0 -27 -31 -27h-491q-31 0 -31 27 q0 29 31 28h12l-159 334l-160 -334h14q29 0 29 -28q0 -27 -29 -27h-493q-29 0 -29 27z" />
<glyph unicode="Y" horiz-adv-x="1421" d="M37 1516q0 26 29 26h2h505q29 0 29 -26q0 -29 -29 -29h-14l152 -365l153 365h-14q-31 0 -31 29q0 26 29 26h2h506h2q26 0 26 -26q0 -29 -28 -29h-62l-383 -819v-613h29q29 0 29 -28q0 -27 -29 -27h-457q-31 0 -30 27q0 29 30 28h29v613l-385 819h-59q-31 0 -31 29z" />
<glyph unicode="Z" horiz-adv-x="1210" d="M39 39l518 1100h-367q-39 0 -68.5 -29t-29.5 -70q0 -31 -26 -30q-29 0 -29 30v476q0 26 27 26h2h1067q10 0 18 -9t8 -20q0 -6 -2 -10l-516 -1100h379q39 0 57.5 20.5t28.5 44.5t17 44t22 20q29 0 29 -30v-475q0 -27 -29 -27h-1082q-26 0 -26 27q0 8 2 12z" />
<glyph unicode="[" horiz-adv-x="587" d="M37 -410v2048h514v-344h-170v-1360h170v-344h-514z" />
<glyph unicode="\" horiz-adv-x="1011" d="M37 1421l237 92l701 -1781l-238 -92z" />
<glyph unicode="]" horiz-adv-x="587" d="M37 -66h170v1360h-170v344h514v-2048h-514v344z" />
<glyph unicode="^" horiz-adv-x="1058" d="M37 541l399 729h187l399 -729l-211 -115l-283 514l-280 -514z" />
<glyph unicode="_" horiz-adv-x="1024" d="M0 -39h1024v-162h-1024v162z" />
<glyph unicode="`" horiz-adv-x="649" d="M37 1503l162 285l413 -313l-96 -170z" />
<glyph unicode="a" horiz-adv-x="1142" d="M61 45h37l451 1231q6 14 22 14q14 0 21 -14l448 -1231h41q25 1 25 -22t-25 -23h-389q-25 0 -24 23q0 23 24 22h23l-21 59h-276l-21 -59h35q27 0 27 -22q0 -23 -27 -23h-371q-24 0 -24 21q0 25 24 24zM518 385h76l-37 107z" />
<glyph unicode="b" horiz-adv-x="1032" d="M63 45h35v1188h-35q-27 0 -26 22q0 25 26 25h420q74 0 141.5 -27.5t118 -76t80 -113t29.5 -137.5q0 -123 -80 -217q100 -47 161.5 -136t61.5 -200q0 -80 -32.5 -147.5t-87 -118t-126 -79t-149.5 -28.5h-537q-26 0 -26 21q0 25 26 24zM424 326h37q145 0 145 90t-145 90 h-37v-180zM424 831q70 0 88 18.5t18 41.5q0 25 -19 42t-87 17v-119z" />
<glyph unicode="c" horiz-adv-x="888" d="M37 649q0 129 43 246t117.5 207t176 143t218.5 53q113 0 213 -51v8q0 27 24 27q23 0 23 -27v-389q0 -23 -23 -22q-25 0 -24 22v39q-66 59 -162 60q-57 0 -106.5 -26t-86 -69t-58 -100t-21.5 -121q0 -63 20.5 -120.5t57 -101.5t87 -69.5t107.5 -25.5q96 0 162 63v35 q0 25 24 25q23 0 23 -25v-387q0 -27 -23 -27q-25 0 -24 33q-98 -49 -213 -49q-117 0 -218.5 53t-176 143.5t-117.5 207t-43 245.5z" />
<glyph unicode="d" horiz-adv-x="1042" d="M63 45h35v1190h-35q-27 0 -26 22q0 23 26 23h476q104 0 189 -49t146.5 -136t95.5 -206t36 -256q0 -141 -33 -258t-91.5 -200t-137 -129t-169.5 -46h-512q-26 0 -26 21q0 25 26 24zM459 346h43q31 0 56.5 22.5t44 62.5t28.5 94.5t10 115.5q0 59 -10 113.5t-28.5 94.5 t-44.5 63.5t-56 23.5h-43v-590z" />
<glyph unicode="e" horiz-adv-x="933" d="M37 1257q0 23 24 23h766q20 0 21 -23v-393q0 -27 -21 -26q-12 0 -19 16t-15.5 36.5t-24.5 37t-47 16.5h-266v-98h94v24q0 25 24 25q25 0 25 -25v-430q0 -25 -25 -24q-25 0 -24 24v25h-94v-109h313q33 0 47 16.5t22.5 37t14.5 37t20 16.5q25 0 25 -25v-415q0 -23 -25 -23 h-800q-25 0 -25 23t25 22h26v1190h-37q-25 0 -24 22z" />
<glyph unicode="f" horiz-adv-x="886" d="M37 1257q0 23 24 23h764q25 0 25 -23v-393q0 -27 -25 -26q-12 0 -18 16t-15.5 36.5t-24.5 37t-46 16.5h-268v-98h98v24q0 25 20 25q25 0 25 -25v-430q0 -25 -25 -24q-20 0 -20 24v25h-98v-420h45q25 0 24 -22q0 -23 -24 -23h-426q-25 0 -25 23t25 22h26v1190h-37 q-25 0 -24 22z" />
<glyph unicode="g" horiz-adv-x="923" d="M37 649q0 133 39 252t109.5 207t169 139t214.5 51q109 0 211 -36q0 36 24 36h1q25 0 24 -24v-438q0 -23 -24 -23q-18 0 -21.5 10.5t-3.5 57.5q-65 65 -150 65h-3q-57 0 -102.5 -23.5t-77 -65.5t-48 -98.5t-16.5 -123.5q0 -117 45 -193.5t123 -76.5h8v278q-59 0 -59 23 q0 25 24 24h338q25 0 25 -24v-521q-141 -145 -355 -145q-106 0 -197 53t-156.5 143.5t-103.5 208t-38 244.5z" />
<glyph unicode="h" horiz-adv-x="1107" d="M61 45h25v1190h-25q-25 0 -24 22q0 23 24 23h379q27 0 27 -23t-27 -22h-22v-328h272v328h-22q-25 0 -25 22q0 23 25 23h379q24 0 24 -21v-2q0 -23 -24 -22h-25v-1190h25q24 1 24 -22t-24 -23h-379q-25 0 -25 23t25 22h22v553h-272v-553h22q27 0 27 -22q0 -23 -27 -23 h-379q-24 0 -24 21q0 25 24 24z" />
<glyph unicode="i" horiz-adv-x="501" d="M59 45h25v1190h-25q-23 0 -22 22q0 23 22 23h381q25 0 25 -23t-25 -22h-24v-1190h24q25 1 25 -22t-25 -23h-381q-22 0 -22 21q0 25 22 24z" />
<glyph unicode="j" horiz-adv-x="794" d="M37 27q0 18 26 18q10 0 21 -18l8 -27q61 0 113.5 31.5t91.5 84t60.5 119t21.5 138.5v862h-23q-27 0 -26 22q0 23 26 23h379q23 0 23 -23t-23 -22h-24v-829q0 -133 -42 -257t-116 -220.5t-173 -155t-212 -58.5q4 -18 5 -22t1 -6q0 -6 -6 -13.5t-16 -7.5q-16 0 -23 19 l-90 329q-2 4 -2 13z" />
<glyph unicode="k" horiz-adv-x="1114" d="M59 45h25v1190h-25q-23 0 -22 22q0 23 22 23h379q27 0 27 -23t-27 -22h-22v-240l164 240q-29 0 -29 22q0 23 27 23h442q25 0 24 -23q0 -23 -24 -22h-35l-330 -477l338 -602l45 28q8 6 15 6q10 0 18 -14q6 -6 6 -14t-14 -19l-330 -202q-8 -4 -12 -4q-12 0 -21 14l-284 522 v-428h22q27 0 27 -22q0 -23 -27 -23h-379q-22 0 -22 21q0 25 22 24z" />
<glyph unicode="l" horiz-adv-x="886" d="M61 45h50v1190h-29q-25 0 -25 22q0 23 25 23h414q25 0 24 -23q0 -23 -24 -22h-29v-879h254q33 0 48 16.5t23.5 37t14.5 37t20 16.5q23 0 23 -25v-415q0 -23 -23 -23h-766q-24 0 -24 21q0 25 24 24z" />
<glyph unicode="m" horiz-adv-x="1517" d="M61 45h31l357 1260q4 16 22 16q12 0 18 -12l271 -547l268 547q6 12 16 12q23 0 27 -16l356 -1260h29q25 1 25 -22t-25 -23h-379q-27 0 -26 23q0 23 26 22h17l-129 453l-185 -355q-8 -14 -20 -14q-14 0 -21 14l-186 355l-129 -453h16q27 0 27 -22q0 -23 -27 -23h-379 q-24 0 -24 21q0 25 24 24z" />
<glyph unicode="n" horiz-adv-x="962" d="M61 45h25v1241q0 10 7 17.5t20 7.5q8 0 14 -8l420 -480v412h-25q-25 0 -24 22q0 23 24 23h379q25 0 25 -23t-25 -22h-24v-1241q0 -23 -25 -23q-8 0 -14 6l-418 461v-393h20q25 0 25 -22q0 -23 -25 -23h-379q-24 0 -24 21q0 25 24 24z" />
<glyph unicode="o" horiz-adv-x="1159" d="M37 643q0 135 40 255t111.5 209t171 140t218.5 51q117 0 216 -51t172.5 -140t114.5 -208t41 -256t-41 -257t-114.5 -208t-173 -139t-215.5 -51q-117 0 -216.5 49t-171 137t-112.5 208t-41 261zM377 641q0 -61 15.5 -116.5t42 -98.5t63.5 -67.5t80 -24.5q49 0 86.5 24.5 t63.5 66.5t39 97.5t13 116.5q0 45 -9 99.5t-32.5 101.5t-62.5 78.5t-98 31.5q-49 0 -87 -26.5t-63 -69.5t-38 -99.5t-13 -113.5z" />
<glyph unicode="p" horiz-adv-x="1048" d="M37 1257q0 23 24 23h519q90 0 168.5 -44t137 -118t92.5 -173t34 -210q0 -109 -33 -208t-91.5 -173.5t-137 -119t-170.5 -44.5h-162v-145h24q25 0 25 -22q0 -23 -25 -23h-379q-25 0 -24 23q0 23 24 22h23v1190h-25q-25 0 -24 22zM418 520h110q37 6 63.5 26.5t43 51.5 t25 67.5t8.5 73.5q0 92 -41 151.5t-105 59.5h-104v-430z" />
<glyph unicode="q" horiz-adv-x="1163" d="M37 643q0 135 41 254t113.5 208t172 141t218.5 52q117 0 217 -51t172.5 -140t113.5 -210t41 -258q0 -252 -137 -438q29 -29 62 -29q23 0 36 12.5t17 12.5q22 0 22 -21q0 -12 -8 -20l-301 -291q-8 -8 -18 -8q-23 0 -23 24q0 10 23 29q-61 25 -110.5 66.5t-85.5 96 t-55.5 116t-19.5 126.5q0 23 23 23q16 -2 22.5 -2h8.5q45 0 81.5 25.5t63.5 67.5t41 98.5t14 117.5q0 63 -14 118.5t-40 96.5t-62.5 65.5t-81.5 24.5t-83 -25.5t-64.5 -68.5t-41 -98.5t-14.5 -114.5q0 -92 23.5 -158.5t76.5 -107.5q16 -12 32.5 -21.5t16.5 -25.5 q-16 -47 -26 -90q-10 -37 -18.5 -74t-8.5 -60q0 -12 2 -37.5t2 -37.5q0 -27 -28 -27q-4 0 -47 16q-84 33 -153 94.5t-117 142.5t-73.5 179.5t-25.5 206.5z" />
<glyph unicode="r" horiz-adv-x="1173" d="M63 45h23v1190h-25q-25 0 -24 22q0 23 24 23h519q88 0 166.5 -39t138 -103.5t93.5 -149.5t34 -177q0 -233 -201 -393q160 -147 268 -191l21 13q12 4 14 4q8 0 15.5 -6.5t7.5 -16.5q0 -12 -13 -20l-358 -221q-12 -4 -14 -5q-10 0 -17 11l-317 354v-295h53q25 0 25 -22 q0 -23 -25 -23h-408q-26 0 -26 21q0 25 26 24zM418 571q49 6 89 25.5t68.5 48.5t45 64.5t16.5 74.5q0 63 -35 110.5t-96 47.5h-88v-371z" />
<glyph unicode="s" horiz-adv-x="966" d="M37 205q0 2 1 4t1 4l121 309q2 18 16 19q8 0 18.5 -5.5t10.5 -13.5q0 -4 -8 -28q6 -31 33.5 -61t64.5 -53.5t80 -38.5t82 -15q41 0 72.5 19.5t31.5 55.5q0 12 -8 28.5t-36 44.5t-81 70t-141 109q-145 109 -145 277q0 78 33.5 145.5t92 116.5t135 77.5t160.5 28.5 q131 0 240 -63v10q0 25 23 25q25 0 24 -25v-330q0 -25 -24 -24q-23 0 -23 24v15q-73 67 -181 67h-3q-45 0 -78 -19.5t-33 -43.5q0 -29 41 -57q121 -86 194.5 -142.5t113.5 -105.5t52.5 -99t12.5 -124q0 -86 -34 -162t-92.5 -133.5t-136 -90t-163.5 -32.5q-274 0 -459 198 q-8 8 -8 19z" />
<glyph unicode="t" horiz-adv-x="1069" d="M37 864v393q0 23 24 23h949q23 0 22 -23v-393q0 -27 -24 -26q-12 0 -18.5 16t-15.5 36.5t-24.5 37t-46.5 16.5h-190v-899q51 0 51 -22q0 -23 -23 -23h-409q-27 0 -27 23t51 22v899h-190q-33 0 -48.5 -16.5t-24.5 -37t-14 -36.5t-18 -16q-25 0 -24 26z" />
<glyph unicode="u" horiz-adv-x="1083" d="M37 1257q0 23 24 23h379q25 0 25 -23t-25 -22h-24v-768q0 -49 38 -81t87 -32t87 33t38 80v768h-25q-25 0 -25 22q0 23 25 23h379q27 0 27 -23t-27 -22h-23v-832q0 -86 -37.5 -159.5t-100 -128t-145.5 -85t-173 -30.5q-92 0 -174 30.5t-145.5 85t-100.5 128t-37 159.5v832 h-23q-25 0 -24 22z" />
<glyph unicode="v" horiz-adv-x="1193" d="M37 1257q0 23 26 23h420q23 0 23 -23t-23 -22h-16l129 -391l131 391h-14q-27 0 -27 22q0 23 27 23h420q24 0 24 -23t-24 -22h-50l-465 -1249q-4 -14 -24 -15q-12 0 -19 15l-464 1249h-48q-27 0 -26 22z" />
<glyph unicode="w" horiz-adv-x="1460" d="M37 1257q0 23 24 23h420q25 0 25 -23t-25 -22h-16l104 -369l140 434q2 14 20 15q20 0 23 -15l141 -434l102 369h-14q-27 0 -27 22q0 23 27 23h420q22 0 22 -23t-22 -22h-49l-377 -1249q-2 -14 -21 -15q-16 0 -22 15l-201 491l-201 -491q-6 -14 -22 -15q-20 0 -23 15 l-376 1249h-48q-25 0 -24 22z" />
<glyph unicode="x" horiz-adv-x="1183" d="M61 45h33l316 664l-252 526h-31q-25 0 -25 22q0 23 25 23h410q23 0 22 -23q0 -23 -22 -22h-13l68 -141l67 141h-10q-25 0 -24 22q0 23 24 23h408q27 0 26 -23q0 -23 -26 -22h-31l-250 -526l314 -664h32q25 1 25 -22t-25 -23h-407q-27 0 -27 23t27 22h10l-133 279 l-133 -279h12q25 0 25 -22q0 -23 -25 -23h-410q-24 0 -24 21q0 25 24 24z" />
<glyph unicode="y" horiz-adv-x="1193" d="M37 1257q0 23 26 23h420q23 0 23 -23t-23 -22h-12l125 -303l129 303h-12q-27 0 -27 22q0 23 27 23h420q24 0 24 -23t-24 -22h-52l-317 -680v-510h22q25 0 25 -22q0 -23 -25 -23h-378q-25 0 -25 23t25 22h24v510l-319 680h-50q-27 0 -26 22z" />
<glyph unicode="z" horiz-adv-x="1017" d="M39 33l430 911h-305q-31 0 -47.5 -16.5t-24.5 -37t-13 -36.5t-18 -16q-25 0 -24 26v393q0 23 24 23h885q25 0 25 -16q0 -4 -4 -17l-428 -911h315q31 0 46 16.5t23.5 37t14.5 36.5t18 16q25 0 25 -26v-393q0 -23 -25 -23h-897q-22 0 -22 21q0 8 2 12z" />
<glyph unicode="{" horiz-adv-x="659" d="M37 614l131 109v727q0 39 14.5 74t40 60.5t60 39.5t73.5 14h267v-333h-121v-500q0 -106 -90 -191q90 -84 90 -190v-500h121v-334h-267q-39 0 -73.5 14.5t-60 40t-40 60.5t-14.5 74v727z" />
<glyph unicode="|" horiz-adv-x="315" d="M37 -459v2048h242v-2048h-242z" />
<glyph unicode="}" horiz-adv-x="659" d="M37 -76h121v500q0 106 90 190q-90 84 -90 191v500h-121v333h266q39 0 74 -14t60.5 -39.5t40 -60.5t14.5 -74v-727l131 -109l-131 -108v-727q0 -39 -14.5 -74t-40 -60.5t-60.5 -40t-74 -14.5h-266v334z" />
<glyph unicode="~" horiz-adv-x="1083" d="M37 555q0 61 22.5 117.5t63.5 99.5t99.5 69.5t129.5 26.5q57 0 119 -22l231 -94q12 -6 27 -7q31 0 53.5 20.5t22.5 53.5h242q0 -61 -24 -118.5t-67 -100.5t-101 -68.5t-128 -25.5q-57 0 -115 22l-231 95q-6 4 -13.5 4h-13.5q-29 0 -53.5 -20.5t-24.5 -51.5h-239z" />
<glyph unicode="&#xa1;" horiz-adv-x="673" d="M37 -258q0 29 29 29h30l80 977h-24q-31 0 -31 28q0 29 31 29h370q31 0 31 -29t-31 -28h-26l82 -977h30q29 0 29 -29t-29 -29h-542q-29 0 -29 29zM147 1073q0 86 58.5 144.5t144.5 58.5t144.5 -58.5t58.5 -144.5t-58.5 -145.5t-144.5 -59.5t-144.5 59.5t-58.5 145.5z" />
<glyph unicode="&#xa2;" horiz-adv-x="1001" d="M37 831q0 80 22.5 157t65.5 143.5t106.5 119t145.5 84.5v152h-29q-31 0 -31 29t31 28h371q31 0 31 -28q0 -29 -31 -29h-29v-119q55 -10 102.5 -27.5t86.5 -44.5q8 8 20 9q29 0 29 -21q0 -10 -2 -14l-74 -299q-6 -25 -25 -25q-16 0 -24 9.5t-8 19.5q0 6 2 10l4 16 q-78 96 -209 97q-55 0 -105.5 -20.5t-88.5 -57.5t-59.5 -85t-21.5 -104q0 -55 21.5 -103t59.5 -85t88.5 -57.5t105.5 -20.5q106 0 184 72l189 -209q-115 -106 -275 -133v-240h29q31 0 31 -28q0 -27 -31 -27h-371q-31 0 -31 27q0 29 31 28h29v273q-82 33 -145.5 85 t-106.5 118.5t-65.5 143.5t-22.5 156z" />
<glyph unicode="&#xa3;" horiz-adv-x="1077" d="M37 672v168h123v219q0 98 38 185t103.5 153.5t153.5 104.5t186 38q100 0 186 -39q10 29 16.5 37t16.5 8q16 0 23.5 -8t7.5 -18q0 -8 -2 -13l-123 -366q-6 -20 -23 -21q-16 0 -25 7.5t-9 17.5q0 4 2 9t10 26q-41 23 -80 22q-59 0 -101 -42t-42 -101v-219h133v-168h-133 v-160q0 -94 -31 -176h129q55 0 98 36t54 89q-14 18 -18.5 25.5t-4.5 13.5q0 10 10 17t21 7q10 0 22 -12l254 -322q8 -8 8 -18t-9 -19.5t-19 -9.5q-6 0 -14.5 5.5t-24.5 27.5q-147 -176 -377 -176h-457l-71 334q92 76 92 178v160h-123z" />
<glyph unicode="&#xa4;" horiz-adv-x="1202" d="M37 567l94 168h51v43h-131l96 170h54q27 129 87 239.5t146 191.5t192.5 127t223.5 46q131 0 258 -61v10q0 31 29 31t28 -31v-467q0 -31 -28 -30q-29 0 -29 30v43q-82 76 -195 76q-209 0 -290 -205h446l-96 -170h-383q0 -33 2 -43h354l-94 -168h-217q88 -180 278 -180 q113 0 195 76v43q0 31 29 31t28 -31v-467q0 -31 -28 -31q-29 0 -29 31v10q-121 -61 -258 -61q-115 0 -218.5 43t-188.5 119.5t-145 183t-91 233.5h-170z" />
<glyph unicode="&#xa5;" horiz-adv-x="1421" d="M37 1516q0 27 31 26h505q29 0 29 -26q0 -29 -29 -29h-14l152 -365l153 365h-14q-31 0 -31 29q0 27 31 26h506q28 1 28 -26q0 -29 -28 -29h-62l-252 -539h164v-170h-243l-21 -43h264v-168h-295v-512h29q29 0 29 -28q0 -27 -29 -27h-457q-31 0 -30 27q0 29 30 28h29v512 h-297v168h264l-20 43h-244v170h166l-254 539h-59q-31 0 -31 29z" />
<glyph unicode="&#xa6;" horiz-adv-x="313" />
<glyph unicode="&#xa7;" horiz-adv-x="2469" d="M31 123v211q0 41 28.5 68.5t67.5 27.5h334v-80h-334q-16 0 -16 -16v-19h350v-77h-350v-115h-80zM31 1241v166h262v-563h-166v397h-96zM262 483v211q0 41 27.5 69t68.5 28h334v-80h-334q-16 0 -16 -17v-18h350v-78h-350v-115h-80zM408 844v260q0 63 23.5 118.5t65.5 96.5 t97 64.5t117 23.5h467v-260q0 -63 -24 -118.5t-64.5 -96.5t-96 -64.5t-119.5 -23.5h-466zM506 123v141q0 70 48 118t118 48h260v-141q0 -68 -49 -117t-117 -49h-260zM573 1010h301q57 0 97.5 38.5t40.5 98.5v94h-301q-57 0 -97.5 -40t-40.5 -97v-94zM586 203h180 q37 0 61.5 25.5t24.5 60.5v59h-180q-35 0 -60.5 -24.5t-25.5 -59.5v-61zM766 483v308h451v-107q0 -47 -32 -82t-79 -41l74 -78h-109l-72 78h-116v82h211q18 0 30.5 11.5t12.5 29.5v25h-291v-226h-80zM1004 123v307h45q57 0 110 -19.5t98 -54.5q33 -25 57.5 -54.5t45.5 -63.5 v192h78v-307h-117q-14 53 -40 94t-73 76q-51 43 -123 55v-225h-81zM1282 580q0 29 18 57q-8 10 -13 25.5t-5 31.5q0 41 28.5 69t69.5 28h332v-80h-332q-16 0 -16 -17q0 -18 16 -18h332v-78h-332q-16 0 -16 -18q0 -16 16 -17h332v-80h-332q-41 0 -69.5 28t-28.5 69zM1292 844 v260q0 63 23.5 118.5t64.5 96.5t96.5 64.5t118.5 23.5h467v-260q0 -63 -23.5 -118.5t-64.5 -96.5t-96 -64.5t-119 -23.5h-467zM1458 1010h301q57 0 97 38.5t40 98.5v94h-301q-57 0 -97 -40t-40 -97v-94zM1505 350v80h445v-80h-226v-147h95v-80h-177v227h-137zM1780 580 q0 33 18 57q-18 20 -18 57q0 41 27.5 69t68.5 28h332v-80h-332q-18 0 -18 -17q0 -18 18 -18h332v-78h-332q-18 0 -18 -18q0 -16 18 -17h332v-80h-332q-41 0 -68.5 28t-27.5 69zM2003 123v80h281q39 0 63 35h-344v38q0 66 46 110t110 44h278v-80h-278q-41 0 -64 -35h342v-39 q0 -63 -44 -108t-109 -45h-281zM2175 1241v166h262v-563h-164v397h-98z" />
<glyph unicode="&#xa8;" horiz-adv-x="667" d="M37 1483q0 55 39 95t94 40q53 0 93 -40t40 -95q0 -53 -40 -93t-93 -40q-55 0 -94 40t-39 93zM362 1483q0 55 39 95t95 40q55 0 95 -40t40 -95q0 -53 -40 -93t-95 -40t-94.5 40t-39.5 93z" />
<glyph unicode="&#xa9;" horiz-adv-x="1652" d="M37 774q0 162 62.5 306.5t170 252t251 170t304.5 62.5q162 0 306.5 -62.5t252 -170t170 -252t62.5 -306.5t-62.5 -305t-170 -250.5t-251 -171t-307.5 -63.5q-162 0 -305 62.5t-250.5 170t-170 251.5t-62.5 306zM147 774q0 -139 54.5 -262t146.5 -215t215 -146.5 t262 -54.5q141 0 264 54.5t215.5 146.5t145.5 215t53 262q0 137 -54 261t-146.5 216t-216 146.5t-261.5 54.5q-139 0 -262 -54.5t-215 -146.5t-146.5 -215t-54.5 -262zM397 774q0 111 37 212t101.5 178t151.5 123t187 46q92 0 185 -43q0 27 20 27t21 -21v-333q0 -23 -21 -23 q-20 0 -20 23v30q-59 53 -139 54q-51 0 -94.5 -24t-74 -61.5t-48 -87t-17.5 -100.5q0 -53 18.5 -102t50 -87t73.5 -60.5t92 -22.5q76 0 139 53v31q0 23 20 22q20 0 21 -22v-334q0 -20 -21 -21q-20 0 -20 29q-86 -43 -185 -43q-100 0 -187 45t-151.5 122t-101.5 178.5 t-37 211.5z" />
<glyph unicode="&#xaa;" horiz-adv-x="735" d="M37 752q0 14 14 14h23l280 762q4 10 13 10q10 0 14 -10l276 -762h27q14 0 14 -14t-14 -15h-242q-14 0 -14 15q0 14 14 14h15l-13 37h-172l-12 -37h21q16 0 16 -14t-16 -15h-230q-14 0 -14 15zM334 977h47l-23 65z" />
<glyph unicode="&#xab;" horiz-adv-x="870" d="M37 756l334 379l114 -107l-133 -272l133 -273l-114 -104zM385 756l334 379l115 -107l-134 -272l134 -273l-115 -104z" />
<glyph unicode="&#xac;" horiz-adv-x="1017" d="M37 631v241h944v-548h-242v307h-702z" />
<glyph unicode="&#xad;" horiz-adv-x="681" d="M37 631v456q0 27 29 27q27 0 26 -27v-28h496v28q0 27 28 27q29 0 29 -27v-456q0 -29 -29 -29t-28 29v28h-496v-28q0 -29 -26 -29q-29 0 -29 29z" />
<glyph unicode="&#xae;" horiz-adv-x="747" d="M37 1200q0 70 27.5 131.5t73.5 106.5t107.5 71.5t129.5 26.5q70 0 130 -26.5t106 -72.5t73 -106.5t27 -130.5q0 -68 -27 -129t-72 -107t-106.5 -74t-130.5 -28q-70 0 -131.5 26.5t-107.5 73t-72.5 107.5t-26.5 131zM102 1200q0 -57 22.5 -106.5t59.5 -86t86 -58 t105 -21.5q55 0 105 21.5t87 58t58.5 87t21.5 105.5t-21.5 105.5t-58.5 87.5t-87 58.5t-105 21.5t-104.5 -21.5t-86.5 -58.5t-59.5 -86.5t-22.5 -106.5zM229 1010q2 6 9 6h8v379h-8q-8 0 -9 8q0 6 9 6h165q59 0 98.5 -46t39.5 -106q0 -39 -20.5 -71.5t-43.5 -50.5 q55 -48 84 -62q6 6 12 6q8 0 9 -8q0 -2 -4 -6l-115 -70q-2 -2 -6 -2t-4 4l-101 113v-94h17q8 0 8 -6q0 -8 -8 -9h-131q-8 0 -9 9zM352 1184q27 2 48.5 20t21.5 47q0 51 -43 52h-27v-119z" />
<glyph unicode="&#xaf;" horiz-adv-x="507" d="M37 1284v160h434v-160h-434z" />
<glyph unicode="&#xb0;" horiz-adv-x="487" d="M37 1352q0 43 16.5 79.5t44 65.5t65.5 45.5t81 16.5q41 0 78.5 -16.5t66.5 -45.5t45.5 -66.5t16.5 -78.5t-16.5 -79t-45.5 -66.5t-66.5 -45t-78.5 -16.5q-43 0 -81 16.5t-65.5 45t-44 65.5t-16.5 80zM121 1352q0 -47 37 -85t86 -38q51 0 87 38t36 85q0 51 -36 87t-87 36 q-49 0 -86 -36t-37 -87z" />
<glyph unicode="&#xb1;" horiz-adv-x="1091" d="M37 0v242h1018v-242h-1018zM37 618v242h389v316h240v-316h389v-242h-389v-315h-240v315h-389z" />
<glyph unicode="&#xb2;" horiz-adv-x="618" d="M37 1335q0 43 25.5 78t63.5 60.5t82 40t81 14.5q49 0 95 -16.5t82 -45t57.5 -69.5t21.5 -92q0 -57 -29 -105l-141 -242h129q20 0 29.5 10.5t14.5 21.5t7 21.5t12 10.5q14 0 15 -14v-238q0 -14 -15 -14h-487q-14 0 -14 14q10 111 114 272l135 209q12 18 13 37 q0 23 -14.5 35t-30.5 12t-28.5 -13t-21 -30.5t-14.5 -31t-8 -13.5q-6 0 -8 2l-158 76q-8 2 -8 10z" />
<glyph unicode="&#xb3;" horiz-adv-x="653" d="M37 891q0 6 2 10l90 143q6 10 14 11q4 0 11 -11q47 -90 131 -90q39 0 68.5 26t29.5 64q0 39 -29.5 65t-70.5 26q-10 0 -22.5 -6.5t-22.5 -6.5q-4 0 -13 8l-51 68q-2 2 -2 8q0 4 2 8l78 111h-125q-23 0 -31 -10t-13 -21.5t-8 -21.5t-12 -10q-14 0 -14 14v237q0 14 14 15 h500q16 0 17 -10q0 -6 -7 -13l-133 -209q80 -37 128 -104.5t48 -153.5q0 -61 -26.5 -113.5t-69.5 -90t-100.5 -58t-118.5 -20.5q-168 0 -262 129q-2 2 -2 6z" />
<glyph unicode="&#xb4;" horiz-adv-x="649" d="M37 1475l414 313l161 -285l-479 -198z" />
<glyph unicode="&#xb6;" horiz-adv-x="1239" d="M37 1055q0 100 33.5 189t93 155.5t140.5 105.5t173 39h309v-1847q0 -29 -30 -29h-271q-33 0 -32 29q0 29 32 29h76v839h-84q-90 0 -170 38t-140.5 103.5t-95 155.5t-34.5 193zM864 -303v1819q0 29 31 28h276q31 1 31 -28t-31 -29h-81v-1761h75q29 0 29 -29t-29 -29h-270 q-31 0 -31 29z" />
<glyph unicode="&#xb7;" horiz-adv-x="479" d="M37 778q0 43 15.5 80t43 64.5t64.5 44t80 16.5q41 0 77.5 -16.5t64.5 -45t44 -65.5t16 -78t-16 -77.5t-44 -64.5t-64.5 -44.5t-77.5 -16.5q-86 0 -144.5 58.5t-58.5 144.5z" />
<glyph unicode="&#xb8;" horiz-adv-x="485" d="M37 -236l156 310h131l-78 -150q78 -41 114.5 -93t36.5 -105q0 -76 -67.5 -132.5t-192.5 -56.5q-23 0 -45 3t-45 7v62h33q41 0 62.5 20.5t21.5 46.5q0 31 -31 57.5t-96 30.5z" />
<glyph unicode="&#xb9;" horiz-adv-x="360" d="M37 1362q0 6 4 10l100 156q2 6 13 6h153q16 0 17 -14q0 -14 -17 -15h-14v-714h14q17 -1 17 -15t-17 -14h-227q-16 0 -17 14q0 14 17 15h14v565q0 12 -8 12q-10 0 -18.5 -9t-18.5 -9q-6 0 -9 4t-3 8z" />
<glyph unicode="&#xba;" horiz-adv-x="745" d="M37 1137q0 86 24.5 160.5t69.5 129t106.5 85t133.5 30.5q74 0 136 -31.5t107 -87t70 -129t25 -157.5q0 -86 -26 -160t-70 -129t-106.5 -87t-135.5 -32q-74 0 -135.5 32t-105.5 86t-68.5 129t-24.5 161zM246 1135q0 -39 10 -74t26.5 -60.5t40 -41t48.5 -15.5q61 0 94 56.5 t33 132.5q-1 36 -11 77q-29 117 -116 117q-53 0 -89 -49t-36 -143z" />
<glyph unicode="&#xbb;" horiz-adv-x="870" d="M37 483l133 273l-133 272l115 107l333 -379l-333 -377zM385 483l133 273l-133 272l115 107l334 -379l-334 -377z" />
<glyph unicode="&#xbc;" horiz-adv-x="1556" d="M37 1298q0 6 6 13l135 209q6 8 17 8h206q20 0 21 -19q0 -20 -21 -20h-20v-959h20q21 0 21 -18t-21 -18h-307q-20 0 -20 18t20 18h21v758q0 18 -13 19q-14 0 -23 -12.5t-24 -12.5q-18 0 -18 16zM141 -205l865 1790h256l-865 -1790h-256zM649 182q0 2 4 11l443 831 q2 8 16 8h231q6 0 12.5 -4t6.5 -14q0 -6 -2 -8l-186 -375h241q20 0 21 -19q0 -18 -21 -18h-16v-162h84v19q0 20 18 20t19 -20v-267q0 -20 -19 -20h-102v-127h18q18 0 19 -21q0 -16 -19 -16h-305q-20 0 -20 16q0 20 20 21h18v127h-460q-6 0 -13.5 6t-7.5 12zM1075 432h55v109 z" />
<glyph unicode="&#xbd;" horiz-adv-x="1699" d="M37 1298q0 6 6 13l135 209q6 8 17 8h206q20 0 21 -19q0 -20 -21 -20h-20v-959h20q21 0 21 -18t-21 -18h-307q-20 0 -20 18t20 18h21v758q0 18 -13 19q-14 0 -23 -12.5t-24 -12.5q-18 0 -18 16zM141 -205l865 1790h256l-865 -1790h-256zM936 782q10 57 42 103.5t78 79 t101 51t115 18.5q63 0 124.5 -21.5t109.5 -60.5t78 -94t30 -123q0 -74 -39 -139l-189 -326h173q25 0 38 13.5t21 30t12 29.5t15 13q18 0 18 -20v-318q0 -18 -18 -18h-654q-18 0 -18 18q6 72 44 163t109 202l183 281q14 23 14 49q0 31 -18.5 48t-38.5 17q-72 0 -84 -102 q-2 -18 -15 -19q-8 0 -12 2l-211 103q-8 2 -8 20z" />
<glyph unicode="&#xbe;" horiz-adv-x="1785" d="M37 676q0 4 4 12l121 193q6 8 16 8q12 0 17 -10q63 -119 174 -119q53 0 93 34.5t40 86.5q0 53 -40 85.5t-93 32.5q-16 0 -30.5 -6t-31.5 -6q-10 0 -16 8l-68 90q-6 6 -6 13q0 2 4 10l107 149h-170q-29 0 -41.5 -13t-18.5 -30.5t-9 -31t-15 -13.5q-20 0 -21 21v319 q0 18 21 19h669q16 0 17 -21q0 -8 -2 -10l-178 -280q106 -47 170.5 -142.5t64.5 -204.5q0 -80 -33.5 -148.5t-92 -118.5t-134.5 -79.5t-162 -29.5q-227 0 -352 172q-4 4 -4 10zM387 -205l864 1790h256l-864 -1790h-256zM879 182q0 2 4 11l442 831q4 10 16 10h232q6 0 12 -5 t6 -13q0 -2 -1 -4t-1 -4l-186 -377h242q20 0 20 -17q0 -20 -20 -20h-19v-162h86v19q0 20 19 20q18 0 18 -20v-267q0 -20 -18 -20h-105v-127h21q18 0 18 -19q0 -18 -18 -18h-308q-20 0 -20 18t20 19h21v127h-461q-6 0 -13 6t-7 12zM1305 432h55v111z" />
<glyph unicode="&#xbf;" horiz-adv-x="1060" d="M37 193q0 61 12 111t46 98.5t92.5 98.5t152.5 115q8 6 29.5 18.5t43 30t38 37t16.5 39.5h-18q-29 0 -29 29q0 27 29 27h417q29 0 29 -27q0 -29 -29 -29h-14q0 -193 -147 -317l-164 -139q-88 -76 -88 -117q0 -33 29.5 -52.5t70.5 -19.5q43 0 88 16.5t82 41t61.5 53.5 t30.5 53q-10 23 -13 30t-3 11q0 8 8 16.5t22 8.5q12 0 25 -19l168 -340q2 -4 2 -12q0 -14 -14 -29q-207 -213 -488 -213q-94 0 -179 35t-151.5 96.5t-107.5 144.5t-45 177q0 6 -1 13t-1 14zM444 1073q0 43 15.5 80t43 64.5t64.5 43t80 15.5q86 0 144.5 -58.5t58.5 -144.5 t-58.5 -145.5t-144.5 -59.5q-43 0 -80 16.5t-64.5 44t-43 64.5t-15.5 80z" />
<glyph unicode="&#xc0;" horiz-adv-x="1361" d="M37 27q0 29 31 28h45l540 1483q6 18 27 18q20 0 27 -18l540 -1483h49q29 1 29 -28q0 -27 -29 -27h-469q-31 0 -30 27q0 29 30 28h27l-25 70h-333l-25 -70h43q31 0 31 -28q0 -27 -31 -27h-446q-31 0 -31 27zM393 1730l162 285l413 -313l-96 -170zM616 463h93l-45 129z" />
<glyph unicode="&#xc1;" horiz-adv-x="1361" d="M37 27q0 29 31 28h45l540 1483q6 18 27 18q20 0 27 -18l540 -1483h49q29 1 29 -28q0 -27 -29 -27h-469q-31 0 -30 27q0 29 30 28h27l-25 70h-333l-25 -70h43q31 0 31 -28q0 -27 -31 -27h-446q-31 0 -31 27zM393 1702l414 313l161 -285l-479 -198zM616 463h93l-45 129z " />
<glyph unicode="&#xc2;" horiz-adv-x="1361" d="M37 27q0 29 31 28h45l540 1483q6 18 27 18q20 0 27 -18l540 -1483h49q29 1 29 -28q0 -27 -29 -27h-469q-31 0 -30 27q0 29 30 28h27l-25 70h-333l-25 -70h43q31 0 31 -28q0 -27 -31 -27h-446q-31 0 -31 27zM320 1542l358 364l363 -364h-266l-97 63l-94 -63h-264zM616 463 h93l-45 129z" />
<glyph unicode="&#xc3;" horiz-adv-x="1361" d="M37 27q0 29 31 28h45l540 1483q6 18 27 18q20 0 27 -18l540 -1483h49q29 1 29 -28q0 -27 -29 -27h-469q-31 0 -30 27q0 29 30 28h27l-25 70h-333l-25 -70h43q31 0 31 -28q0 -27 -31 -27h-446q-31 0 -31 27zM338 1620q0 121 56.5 196.5t162.5 75.5q31 0 62.5 -9 t62.5 -19.5t59.5 -19.5t51.5 -9q25 0 45 16t36 62q33 -14 71 -28t79 -28q-4 -133 -61.5 -204.5t-167.5 -71.5q-29 0 -61 7t-62.5 14t-58 14.5t-46.5 7.5q-25 0 -46 -15.5t-44 -58.5l-137 35q0 10 -1 17t-1 18zM616 463h93l-45 129z" />
<glyph unicode="&#xc4;" horiz-adv-x="1361" d="M37 27q0 29 31 28h45l540 1483q6 18 27 18q20 0 27 -18l540 -1483h49q29 1 29 -28q0 -27 -29 -27h-469q-31 0 -30 27q0 29 30 28h27l-25 70h-333l-25 -70h43q31 0 31 -28q0 -27 -31 -27h-446q-31 0 -31 27zM383 1684q0 55 39 95t94 40q53 0 93 -40t40 -95q0 -53 -40 -93 t-93 -40q-55 0 -94 40t-39 93zM616 463h93l-45 129zM708 1684q0 55 39 95t95 40q55 0 95 -40t40 -95q0 -53 -40 -93t-95 -40t-94.5 40t-39.5 93z" />
<glyph unicode="&#xc5;" horiz-adv-x="1361" d="M37 27q0 29 31 28h45l540 1483q6 18 27 18q20 0 27 -18l540 -1483h49q29 1 29 -28q0 -27 -29 -27h-469q-31 0 -30 27q0 29 30 28h27l-25 70h-333l-25 -70h43q31 0 31 -28q0 -27 -31 -27h-446q-31 0 -31 27zM493 1677q0 39 15.5 73t41 59.5t59.5 40t71 14.5t70.5 -15.5 t59 -41t41 -59.5t15.5 -71t-14.5 -70.5t-40 -59t-59 -41t-72.5 -15.5q-78 0 -132.5 54.5t-54.5 131.5zM561 1677q0 -47 36 -81.5t83 -34.5q49 0 82.5 34.5t33.5 81.5q0 49 -33.5 84t-82.5 35q-47 0 -83 -34.5t-36 -84.5zM616 463h93l-45 129z" />
<glyph unicode="&#xc6;" horiz-adv-x="1978" d="M37 27q0 29 29 28h49l817 1432h-37q-31 0 -31 29q0 27 31 26h963q29 0 28 -26v-476q0 -31 -28 -30q-29 0 -29 30q0 41 -28.5 70t-69.5 29h-322v-119h115v29q0 29 28 28q29 0 29 -28v-519q0 -29 -29 -28q-29 0 -28 28v29h-115v-129h379q41 0 69.5 28.5t28.5 69.5 q0 29 27 29q29 0 29 -29v-501q0 -27 -29 -27h-965q-31 0 -30 27q0 29 30 28h33v135h-336l-76 -135h29q29 0 29 -28q0 -27 -29 -27h-532q-29 0 -29 27zM885 616h96v168z" />
<glyph unicode="&#xc7;" horiz-adv-x="1056" d="M37 762q0 156 51 297t142.5 248.5t213 172t263.5 64.5q129 0 256 -61v10q0 31 28 31q29 0 29 -31v-469q0 -29 -29 -29t-28 29v45q-84 74 -195 74q-70 0 -130 -32t-104.5 -84t-69 -120.5t-24.5 -144.5t26 -145.5t70 -122t103 -84t129 -31.5q111 0 195 76v43q0 31 28 30 q29 0 29 -30v-467q0 -31 -29 -31t-28 31v8q-125 -59 -256 -59q-141 0 -263 64.5t-213.5 172t-142.5 248.5t-51 297zM389 -216l156 310h131l-78 -150q78 -41 114.5 -93t36.5 -105q0 -76 -67.5 -132.5t-192.5 -56.5q-23 0 -45 3t-45 7v62h33q41 0 62.5 20.5t21.5 46.5 q0 31 -31 57.5t-96 30.5z" />
<glyph unicode="&#xc8;" horiz-adv-x="1110" d="M37 1516q0 27 31 26h921q27 0 27 -26v-476q0 -31 -27 -30q-29 0 -28 30q0 41 -29 70t-70 29h-321v-119h114v29q0 29 29 28q29 0 29 -28v-519q0 -29 -29 -28q-29 0 -29 28v29h-114v-129h379q41 0 68.5 28.5t27.5 69.5q0 29 28 29q29 0 29 -29v-501q0 -27 -29 -27h-964 q-31 0 -31 27q0 29 31 28h31v1432h-43q-31 0 -31 29zM238 1775l162 285l413 -313l-96 -170z" />
<glyph unicode="&#xc9;" horiz-adv-x="1110" d="M37 1516q0 27 31 26h921q27 0 27 -26v-476q0 -31 -27 -30q-29 0 -28 30q0 41 -29 70t-70 29h-321v-119h114v29q0 29 29 28q29 0 29 -28v-519q0 -29 -29 -28q-29 0 -29 28v29h-114v-129h379q41 0 68.5 28.5t27.5 69.5q0 29 28 29q29 0 29 -29v-501q0 -27 -29 -27h-964 q-31 0 -31 27q0 29 31 28h31v1432h-43q-31 0 -31 29zM340 1756l414 313l161 -285l-479 -198z" />
<glyph unicode="&#xca;" horiz-adv-x="1110" d="M37 1516q0 27 31 26h921q27 0 27 -26v-476q0 -31 -27 -30q-29 0 -28 30q0 41 -29 70t-70 29h-321v-119h114v29q0 29 29 28q29 0 29 -28v-519q0 -29 -29 -28q-29 0 -29 28v29h-114v-129h379q41 0 68.5 28.5t27.5 69.5q0 29 28 29q29 0 29 -29v-501q0 -27 -29 -27h-964 q-31 0 -31 27q0 29 31 28h31v1432h-43q-31 0 -31 29zM195 1589l358 364l363 -364h-266l-97 63l-94 -63h-264z" />
<glyph unicode="&#xcb;" horiz-adv-x="1110" d="M37 1516q0 27 31 26h921q27 0 27 -26v-476q0 -31 -27 -30q-29 0 -28 30q0 41 -29 70t-70 29h-321v-119h114v29q0 29 29 28q29 0 29 -28v-519q0 -29 -29 -28q-29 0 -29 28v29h-114v-129h379q41 0 68.5 28.5t27.5 69.5q0 29 28 29q29 0 29 -29v-501q0 -27 -29 -27h-964 q-31 0 -31 27q0 29 31 28h31v1432h-43q-31 0 -31 29zM258 1710q0 55 39 95t94 40q53 0 93 -40t40 -95q0 -53 -40 -93t-93 -40q-55 0 -94 40t-39 93zM583 1710q0 55 39 95t95 40q55 0 95 -40t40 -95q0 -53 -40 -93t-95 -40t-94.5 40t-39.5 93z" />
<glyph unicode="&#xcc;" horiz-adv-x="589" d="M14 1767l162 285l413 -313l-96 -170zM37 27q0 29 29 28h28v1432h-28q-29 0 -29 29q0 27 29 26h456q31 0 31 -26q0 -29 -31 -29h-28v-1432h28q31 1 31 -28q0 -27 -31 -27h-456q-29 0 -29 27z" />
<glyph unicode="&#xcd;" horiz-adv-x="589" d="M19 1747l414 313l161 -285l-479 -198zM37 27q0 29 29 28h28v1432h-28q-29 0 -29 29q0 27 29 26h456q31 0 31 -26q0 -29 -31 -29h-28v-1432h28q31 1 31 -28q0 -27 -31 -27h-456q-29 0 -29 27z" />
<glyph unicode="&#xce;" horiz-adv-x="589" d="M-57 1591l358 364l363 -364h-266l-97 63l-94 -63h-264zM37 27q0 29 29 28h28v1432h-28q-29 0 -29 29q0 27 29 26h456q31 0 31 -26q0 -29 -31 -29h-28v-1432h28q31 1 31 -28q0 -27 -31 -27h-456q-29 0 -29 27z" />
<glyph unicode="&#xcf;" horiz-adv-x="589" d="M0 1710q0 55 39 95t94 40q53 0 93 -40t40 -95q0 -53 -40 -93t-93 -40q-55 0 -94 40t-39 93zM37 27q0 29 29 28h28v1432h-28q-29 0 -29 29q0 27 29 26h456q31 0 31 -26q0 -29 -31 -29h-28v-1432h28q31 1 31 -28q0 -27 -31 -27h-456q-29 0 -29 27zM325 1710q0 55 39 95 t95 40q55 0 95 -40t40 -95q0 -53 -40 -93t-95 -40t-94.5 40t-39.5 93z" />
<glyph unicode="&#xd0;" horiz-adv-x="1259" d="M37 713v135h94v639h-43q-31 0 -31 29q0 27 31 26h574q125 0 227 -58.5t176 -162.5t115 -247.5t43 -311.5q0 -170 -39 -310.5t-107.5 -240.5t-163 -155.5t-206.5 -55.5h-619q-31 0 -31 27q0 29 31 28h43v658h-94zM565 418h51q37 0 68 27.5t53.5 75.5t34.5 112.5t12 138.5 q0 70 -12 134.5t-34.5 113.5t-53.5 77.5t-68 28.5h-51v-278h97v-135h-97v-295z" />
<glyph unicode="&#xd1;" horiz-adv-x="1144" d="M37 27q0 29 31 28h28v1495q0 27 29 27q12 0 20 -8l506 -578v496h-28q-31 0 -31 29q0 27 31 26h456q29 1 29 -26q0 -29 -29 -29h-28v-1495q0 -27 -29 -27q-12 0 -21 8l-501 555v-473h24q29 0 29 -28q0 -27 -29 -27h-456q-31 0 -31 27zM230 1620q0 121 56.5 196.5 t162.5 75.5q31 0 62.5 -9t62.5 -19.5t59.5 -19.5t51.5 -9q25 0 45 16t36 62q33 -14 71 -28t79 -28q-4 -133 -61.5 -204.5t-167.5 -71.5q-29 0 -61 7t-62.5 14t-58 14.5t-46.5 7.5q-25 0 -46 -15.5t-44 -58.5l-137 35q0 10 -1 17t-1 18z" />
<glyph unicode="&#xd2;" d="M37 774q0 174 51 319.5t139 250t208 163t255 58.5q141 0 262 -62.5t208 -170t136.5 -251t49.5 -307.5t-49.5 -307t-136.5 -249.5t-206.5 -169t-263.5 -62.5q-145 0 -265 62.5t-206 169t-134 249.5t-48 307zM389 1790l162 285l413 -313l-96 -170zM449 772q0 -76 18 -142.5 t50 -116.5t76 -80t95 -30q57 0 103.5 30t78 80t48 115.5t16.5 139.5q0 53 -11.5 118.5t-39 123t-74.5 96.5t-119 39q-55 0 -100 -30t-76 -81t-48 -118.5t-17 -143.5z" />
<glyph unicode="&#xd3;" d="M37 774q0 174 51 319.5t139 250t208 163t255 58.5q141 0 262 -62.5t208 -170t136.5 -251t49.5 -307.5t-49.5 -307t-136.5 -249.5t-206.5 -169t-263.5 -62.5q-145 0 -265 62.5t-206 169t-134 249.5t-48 307zM430 1751l414 313l161 -285l-479 -198zM449 772 q0 -76 18 -142.5t50 -116.5t76 -80t95 -30q57 0 103.5 30t78 80t48 115.5t16.5 139.5q0 53 -11.5 118.5t-39 123t-74.5 96.5t-119 39q-55 0 -100 -30t-76 -81t-48 -118.5t-17 -143.5z" />
<glyph unicode="&#xd4;" d="M37 774q0 174 51 319.5t139 250t208 163t255 58.5q141 0 262 -62.5t208 -170t136.5 -251t49.5 -307.5t-49.5 -307t-136.5 -249.5t-206.5 -169t-263.5 -62.5q-145 0 -265 62.5t-206 169t-134 249.5t-48 307zM334 1587l358 364l363 -364h-266l-97 63l-94 -63h-264zM449 772 q0 -76 18 -142.5t50 -116.5t76 -80t95 -30q57 0 103.5 30t78 80t48 115.5t16.5 139.5q0 53 -11.5 118.5t-39 123t-74.5 96.5t-119 39q-55 0 -100 -30t-76 -81t-48 -118.5t-17 -143.5z" />
<glyph unicode="&#xd5;" d="M37 774q0 174 51 319.5t139 250t208 163t255 58.5q141 0 262 -62.5t208 -170t136.5 -251t49.5 -307.5t-49.5 -307t-136.5 -249.5t-206.5 -169t-263.5 -62.5q-145 0 -265 62.5t-206 169t-134 249.5t-48 307zM344 1659q0 121 56.5 196.5t162.5 75.5q31 0 62.5 -9 t62.5 -19.5t59.5 -19.5t51.5 -9q25 0 45 16t36 62q33 -14 71 -28t79 -28q-4 -133 -61.5 -204.5t-167.5 -71.5q-29 0 -61 7t-62.5 14t-58 14.5t-46.5 7.5q-25 0 -46 -15.5t-44 -58.5l-137 35q0 10 -1 17t-1 18zM449 772q0 -76 18 -142.5t50 -116.5t76 -80t95 -30 q57 0 103.5 30t78 80t48 115.5t16.5 139.5q0 53 -11.5 118.5t-39 123t-74.5 96.5t-119 39q-55 0 -100 -30t-76 -81t-48 -118.5t-17 -143.5z" />
<glyph unicode="&#xd6;" d="M37 774q0 174 51 319.5t139 250t208 163t255 58.5q141 0 262 -62.5t208 -170t136.5 -251t49.5 -307.5t-49.5 -307t-136.5 -249.5t-206.5 -169t-263.5 -62.5q-145 0 -265 62.5t-206 169t-134 249.5t-48 307zM393 1725q0 55 39 95t94 40q53 0 93 -40t40 -95q0 -53 -40 -93 t-93 -40q-55 0 -94 40t-39 93zM449 772q0 -76 18 -142.5t50 -116.5t76 -80t95 -30q57 0 103.5 30t78 80t48 115.5t16.5 139.5q0 53 -11.5 118.5t-39 123t-74.5 96.5t-119 39q-55 0 -100 -30t-76 -81t-48 -118.5t-17 -143.5zM718 1725q0 55 39 95t95 40q55 0 95 -40t40 -95 q0 -53 -40 -93t-95 -40t-94.5 40t-39.5 93z" />
<glyph unicode="&#xd7;" horiz-adv-x="1079" d="M37 334l332 332l-330 331l170 170l332 -331l329 331l172 -170l-331 -331l331 -332l-172 -170l-329 332l-332 -332z" />
<glyph unicode="&#xd8;" d="M37 774q0 174 51 319.5t140 250t208 163t254 58.5q162 0 299 -82l62 104l192 -117l-82 -135q185 -225 185 -561q0 -164 -49.5 -307t-136.5 -249.5t-206.5 -169t-263.5 -62.5q-156 0 -297 80l-63 -103l-191 117l80 135q-182 223 -182 559zM449 776q0 -84 20 -151l303 499 q-39 20 -82 21q-53 0 -98 -29t-77 -79t-49 -117.5t-17 -143.5zM610 426q39 -20 82 -20q57 0 102.5 28.5t76 78.5t47 115.5t16.5 139.5q0 84 -21 158z" />
<glyph unicode="&#xd9;" horiz-adv-x="1290" d="M37 1516q0 27 29 26h456q31 0 31 -26q0 -29 -31 -29h-28v-924q0 -59 45 -98t106 -39q59 0 104.5 40t45.5 97v924h-29q-31 0 -31 29q0 27 31 26h457q30 1 30 -26q0 -29 -30 -29h-29v-1002q0 -102 -45 -190t-121 -153.5t-175 -103.5t-208 -38q-111 0 -210 38t-175 103.5 t-121 153.5t-45 190v1002h-28q-29 0 -29 29zM348 1769l162 285l413 -313l-96 -170z" />
<glyph unicode="&#xda;" horiz-adv-x="1290" d="M37 1516q0 27 29 26h456q31 0 31 -26q0 -29 -31 -29h-28v-924q0 -59 45 -98t106 -39q59 0 104.5 40t45.5 97v924h-29q-31 0 -31 29q0 27 31 26h457q30 1 30 -26q0 -29 -30 -29h-29v-1002q0 -102 -45 -190t-121 -153.5t-175 -103.5t-208 -38q-111 0 -210 38t-175 103.5 t-121 153.5t-45 190v1002h-28q-29 0 -29 29zM408 1758l414 313l161 -285l-479 -198z" />
<glyph unicode="&#xdb;" horiz-adv-x="1290" d="M37 1516q0 27 29 26h456q31 0 31 -26q0 -29 -31 -29h-28v-924q0 -59 45 -98t106 -39q59 0 104.5 40t45.5 97v924h-29q-31 0 -31 29q0 27 31 26h457q30 1 30 -26q0 -29 -30 -29h-29v-1002q0 -102 -45 -190t-121 -153.5t-175 -103.5t-208 -38q-111 0 -210 38t-175 103.5 t-121 153.5t-45 190v1002h-28q-29 0 -29 29zM295 1581l358 364l363 -364h-266l-97 63l-94 -63h-264z" />
<glyph unicode="&#xdc;" horiz-adv-x="1290" d="M37 1516q0 27 29 26h456q31 0 31 -26q0 -29 -31 -29h-28v-924q0 -59 45 -98t106 -39q59 0 104.5 40t45.5 97v924h-29q-31 0 -31 29q0 27 31 26h457q30 1 30 -26q0 -29 -30 -29h-29v-1002q0 -102 -45 -190t-121 -153.5t-175 -103.5t-208 -38q-111 0 -210 38t-175 103.5 t-121 153.5t-45 190v1002h-28q-29 0 -29 29zM348 1710q0 55 39 95t94 40q53 0 93 -40t40 -95q0 -53 -40 -93t-93 -40q-55 0 -94 40t-39 93zM673 1710q0 55 39 95t95 40q55 0 95 -40t40 -95q0 -53 -40 -93t-95 -40t-94.5 40t-39.5 93z" />
<glyph unicode="&#xdd;" horiz-adv-x="1421" d="M37 1516q0 27 31 26h505q29 0 29 -26q0 -29 -29 -29h-14l152 -365l153 365h-14q-31 0 -31 29q0 27 31 26h506q28 1 28 -26q0 -29 -28 -29h-62l-383 -819v-613h29q29 0 29 -28q0 -27 -29 -27h-457q-31 0 -30 27q0 29 30 28h29v613l-385 819h-59q-31 0 -31 29zM459 1749 l414 313l161 -285l-479 -198z" />
<glyph unicode="&#xde;" horiz-adv-x="1241" d="M37 29q0 27 31 26h28v1432h-28q-31 0 -31 29q0 27 31 26h456q31 0 31 -26q0 -29 -31 -29h-28v-137h45q78 0 141 -5.5t113 -17.5q98 -25 173.5 -79t128 -126.5t80 -161t27.5 -182.5q1 -233 -151 -401q-141 -158 -375 -166q4 -16 4 -21q0 -27 -27 -26q-23 0 -28 22 l-109 414q-2 4 -2 10q0 10 7 18.5t22 8.5q10 0 17 -7t16 -34q100 0 155 45t55 143q0 176 -239 177h-53v-906h28q31 0 31 -26q0 -29 -31 -29h-456q-31 0 -31 29z" />
<glyph unicode="&#xdf;" horiz-adv-x="1581" d="M37 205q0 2 1 4t1 4l121 309q2 18 16 19q8 0 18.5 -5.5t10.5 -13.5q0 -4 -8 -28q6 -31 33.5 -61t64.5 -53.5t80 -38.5t82 -15q41 0 72.5 19.5t31.5 55.5q0 49 -92 121l-174 131q-145 109 -145 277q0 78 33.5 145.5t92 116.5t135 77.5t160.5 28.5q131 0 240 -63v10 q0 25 23 25q25 0 24 -25v-84q125 137 328 137q131 0 239 -63v10q0 25 23 25q25 0 25 -25v-330q0 -25 -25 -24q-23 0 -23 24v15q-74 68 -184 67q-45 0 -78 -19.5t-33 -43.5q0 -29 41 -57q121 -86 195 -145.5t114 -111t52 -101.5t12 -113q0 -86 -33.5 -162t-92 -133.5 t-136.5 -90t-164 -32.5q-184 0 -340 98q-121 -98 -274 -98q-274 0 -459 198q-8 8 -8 19zM516 934q0 -29 41 -57q121 -86 194.5 -145.5t113.5 -111t52.5 -101.5t12.5 -113q0 -29 -2 -37q86 -41 145 -41q31 0 67 16t36 57q0 49 -93 121l-174 131q-145 109 -145 271v19t2 20 q-66 35 -139 34q-45 0 -78 -19.5t-33 -43.5z" />
<glyph unicode="&#xe0;" horiz-adv-x="1142" d="M37 23q0 23 24 22h37l451 1231q6 14 22 14q14 0 21 -14l448 -1231h41q25 1 25 -22t-25 -23h-389q-25 0 -24 23q0 23 24 22h23l-21 59h-276l-21 -59h35q27 0 27 -22q0 -23 -27 -23h-371q-25 0 -24 23zM283 1503l162 285l413 -313l-96 -170zM518 385h76l-37 107z" />
<glyph unicode="&#xe1;" horiz-adv-x="1142" d="M37 23q0 23 24 22h37l451 1231q6 14 22 14q14 0 21 -14l448 -1231h41q25 1 25 -22t-25 -23h-389q-25 0 -24 23q0 23 24 22h23l-21 59h-276l-21 -59h35q27 0 27 -22q0 -23 -27 -23h-371q-25 0 -24 23zM283 1475l414 313l161 -285l-479 -198zM518 385h76l-37 107z" />
<glyph unicode="&#xe2;" horiz-adv-x="1142" d="M37 23q0 23 24 22h37l451 1231q6 14 22 14q14 0 21 -14l448 -1231h41q25 1 25 -22t-25 -23h-389q-25 0 -24 23q0 23 24 22h23l-21 59h-276l-21 -59h35q27 0 27 -22q0 -23 -27 -23h-371q-25 0 -24 23zM211 1315l358 364l363 -364h-266l-97 63l-94 -63h-264zM518 385h76 l-37 107z" />
<glyph unicode="&#xe3;" horiz-adv-x="1142" d="M37 23q0 23 24 22h37l451 1231q6 14 22 14q14 0 21 -14l448 -1231h41q25 1 25 -22t-25 -23h-389q-25 0 -24 23q0 23 24 22h23l-21 59h-276l-21 -59h35q27 0 27 -22q0 -23 -27 -23h-371q-25 0 -24 23zM227 1364q0 121 56.5 196.5t162.5 75.5q31 0 62.5 -9t62.5 -19.5 t59.5 -19.5t51.5 -9q25 0 45 16t36 62q33 -14 71 -28t79 -28q-4 -133 -61.5 -204.5t-167.5 -71.5q-29 0 -61 7t-62.5 14t-58 14.5t-46.5 7.5q-25 0 -46 -15.5t-44 -58.5l-137 35q0 10 -1 17t-1 18zM518 385h76l-37 107z" />
<glyph unicode="&#xe4;" horiz-adv-x="1142" d="M37 23q0 23 24 22h37l451 1231q6 14 22 14q14 0 21 -14l448 -1231h41q25 1 25 -22t-25 -23h-389q-25 0 -24 23q0 23 24 22h23l-21 59h-276l-21 -59h35q27 0 27 -22q0 -23 -27 -23h-371q-25 0 -24 23zM275 1417q0 55 39 95t94 40q53 0 93 -40t40 -95q0 -53 -40 -93 t-93 -40q-55 0 -94 40t-39 93zM518 385h76l-37 107zM600 1417q0 55 39 95t95 40q55 0 95 -40t40 -95q0 -53 -40 -93t-95 -40t-94.5 40t-39.5 93z" />
<glyph unicode="&#xe5;" horiz-adv-x="1142" d="M37 23q0 23 24 22h37l451 1231q6 14 22 14q14 0 21 -14l448 -1231h41q25 1 25 -22t-25 -23h-389q-25 0 -24 23q0 23 24 22h23l-21 59h-276l-21 -59h35q27 0 27 -22q0 -23 -27 -23h-371q-25 0 -24 23zM387 1413q0 39 15.5 73t41 59.5t59.5 40t71 14.5t70.5 -15.5t59 -41 t41 -59.5t15.5 -71t-14.5 -70.5t-40 -59t-59 -41t-72.5 -15.5q-78 0 -132.5 54.5t-54.5 131.5zM455 1413q0 -47 36 -81.5t83 -34.5q49 0 82.5 34.5t33.5 81.5q0 49 -33.5 84t-82.5 35q-47 0 -83 -34.5t-36 -84.5zM518 385h76l-37 107z" />
<glyph unicode="&#xe6;" horiz-adv-x="1654" d="M37 23q0 23 24 22h41l678 1190h-30q-27 0 -27 22q0 23 27 23h798q25 0 25 -23v-393q0 -27 -25 -26q-12 0 -18 16t-14.5 36.5t-24.5 37t-49 16.5h-266v-98h96v24q0 25 22 25q25 0 25 -25v-430q0 -25 -25 -24q-23 0 -22 24v25h-96v-109h315q31 0 46 16.5t24.5 37t15.5 37 t16 16.5q25 0 25 -25v-415q0 -23 -25 -23h-800q-25 0 -25 23t25 22h28v113h-278l-64 -113h23q25 0 24 -22q0 -23 -24 -23h-441q-25 0 -24 23zM741 512h80v139z" />
<glyph unicode="&#xe7;" horiz-adv-x="888" d="M37 649q0 129 43 246t117.5 207t176 143t218.5 53q113 0 213 -51v8q0 27 24 27q23 0 23 -27v-389q0 -23 -23 -22q-25 0 -24 22v39q-66 59 -162 60q-57 0 -106.5 -26t-86 -69t-58 -100t-21.5 -121q0 -63 20.5 -120.5t57 -101.5t87 -69.5t107.5 -25.5q96 0 162 63v35 q0 25 24 25q23 0 23 -25v-387q0 -27 -23 -27q-25 0 -24 33q-98 -49 -213 -49q-117 0 -218.5 53t-176 143.5t-117.5 207t-43 245.5zM287 -181l156 310h131l-78 -150q78 -41 114.5 -93t36.5 -105q0 -76 -67.5 -132.5t-192.5 -56.5q-23 0 -45 3t-45 7v62h33q41 0 62.5 20.5 t21.5 46.5q0 31 -31 57.5t-96 30.5z" />
<glyph unicode="&#xe8;" horiz-adv-x="933" d="M37 1257q0 23 24 23h766q20 0 21 -23v-393q0 -27 -21 -26q-12 0 -19 16t-15.5 36.5t-24.5 37t-47 16.5h-266v-98h94v24q0 25 24 25q25 0 25 -25v-430q0 -25 -25 -24q-25 0 -24 24v25h-94v-109h313q33 0 47 16.5t22.5 37t14.5 37t20 16.5q25 0 25 -25v-415q0 -23 -25 -23 h-800q-25 0 -25 23t25 22h26v1190h-37q-25 0 -24 22zM178 1503l162 285l413 -313l-96 -170z" />
<glyph unicode="&#xe9;" horiz-adv-x="933" d="M37 1257q0 23 24 23h766q20 0 21 -23v-393q0 -27 -21 -26q-12 0 -19 16t-15.5 36.5t-24.5 37t-47 16.5h-266v-98h94v24q0 25 24 25q25 0 25 -25v-430q0 -25 -25 -24q-25 0 -24 24v25h-94v-109h313q33 0 47 16.5t22.5 37t14.5 37t20 16.5q25 0 25 -25v-415q0 -23 -25 -23 h-800q-25 0 -25 23t25 22h26v1190h-37q-25 0 -24 22zM217 1475l414 313l161 -285l-479 -198z" />
<glyph unicode="&#xea;" horiz-adv-x="933" d="M37 1257q0 23 24 23h766q20 0 21 -23v-393q0 -27 -21 -26q-12 0 -19 16t-15.5 36.5t-24.5 37t-47 16.5h-266v-98h94v24q0 25 24 25q25 0 25 -25v-430q0 -25 -25 -24q-25 0 -24 24v25h-94v-109h313q33 0 47 16.5t22.5 37t14.5 37t20 16.5q25 0 25 -25v-415q0 -23 -25 -23 h-800q-25 0 -25 23t25 22h26v1190h-37q-25 0 -24 22zM107 1315l358 364l363 -364h-266l-97 63l-94 -63h-264z" />
<glyph unicode="&#xeb;" horiz-adv-x="933" d="M37 1257q0 23 24 23h766q20 0 21 -23v-393q0 -27 -21 -26q-12 0 -19 16t-15.5 36.5t-24.5 37t-47 16.5h-266v-98h94v24q0 25 24 25q25 0 25 -25v-430q0 -25 -25 -24q-25 0 -24 24v25h-94v-109h313q33 0 47 16.5t22.5 37t14.5 37t20 16.5q25 0 25 -25v-415q0 -23 -25 -23 h-800q-25 0 -25 23t25 22h26v1190h-37q-25 0 -24 22zM170 1483q0 55 39 95t94 40q53 0 93 -40t40 -95q0 -53 -40 -93t-93 -40q-55 0 -94 40t-39 93zM495 1483q0 55 39 95t95 40q55 0 95 -40t40 -95q0 -53 -40 -93t-95 -40t-94.5 40t-39.5 93z" />
<glyph unicode="&#xec;" horiz-adv-x="501" d="M-35 1503l162 285l413 -313l-96 -170zM37 23q0 23 22 22h25v1190h-25q-23 0 -22 22q0 23 22 23h381q25 0 25 -23t-25 -22h-24v-1190h24q25 1 25 -22t-25 -23h-381q-23 0 -22 23z" />
<glyph unicode="&#xed;" horiz-adv-x="501" d="M-35 1475l414 313l161 -285l-479 -198zM37 23q0 23 22 22h25v1190h-25q-23 0 -22 22q0 23 22 23h381q25 0 25 -23t-25 -22h-24v-1190h24q25 1 25 -22t-25 -23h-381q-23 0 -22 23z" />
<glyph unicode="&#xee;" horiz-adv-x="501" d="M-106 1315l358 364l363 -364h-266l-97 63l-94 -63h-264zM37 23q0 23 22 22h25v1190h-25q-23 0 -22 22q0 23 22 23h381q25 0 25 -23t-25 -22h-24v-1190h24q25 1 25 -22t-25 -23h-381q-23 0 -22 23z" />
<glyph unicode="&#xef;" horiz-adv-x="501" d="M-43 1483q0 55 39 95t94 40q53 0 93 -40t40 -95q0 -53 -40 -93t-93 -40q-55 0 -94 40t-39 93zM37 23q0 23 22 22h25v1190h-25q-23 0 -22 22q0 23 22 23h381q25 0 25 -23t-25 -22h-24v-1190h24q25 1 25 -22t-25 -23h-381q-23 0 -22 23zM282 1483q0 55 39 95t95 40 q55 0 95 -40t40 -95q0 -53 -40 -93t-95 -40t-94.5 40t-39.5 93z" />
<glyph unicode="&#xf0;" horiz-adv-x="1058" d="M37 592v113h78v530h-35q-27 0 -27 22q0 23 27 23h475q104 0 189 -49t146.5 -136t95.5 -206t36 -256q0 -141 -33 -258t-91 -200t-137 -129t-169 -46h-512q-27 0 -27 23t27 22h35v547h-78zM475 346h43q31 0 56.5 22.5t44 62.5t28.5 94.5t10 115.5q0 59 -10 113.5 t-28.5 94.5t-44 63.5t-56.5 23.5h-43v-231h80v-113h-80v-246z" />
<glyph unicode="&#xf1;" horiz-adv-x="962" d="M37 23q0 23 24 22h25v1241q0 10 7 17.5t20 7.5q8 0 14 -8l420 -480v412h-25q-25 0 -24 22q0 23 24 23h379q25 0 25 -23t-25 -22h-24v-1241q0 -23 -25 -23q-8 0 -14 6l-418 461v-393h20q25 0 25 -22q0 -23 -25 -23h-379q-25 0 -24 23zM162 1379q0 121 56.5 196.5 t162.5 75.5q31 0 62.5 -9t62.5 -19.5t59.5 -19.5t51.5 -9q25 0 45 16t36 62q33 -14 71 -28t79 -28q-4 -133 -61.5 -204.5t-167.5 -71.5q-29 0 -61 7t-62.5 14t-58 14.5t-46.5 7.5q-25 0 -46 -15.5t-44 -58.5l-137 35q0 10 -1 17t-1 18z" />
<glyph unicode="&#xf2;" horiz-adv-x="1159" d="M37 643q0 135 40 255t111.5 209t171 140t218.5 51q117 0 216 -51t172.5 -140t114.5 -208t41 -256t-41 -257t-114.5 -208t-173 -139t-215.5 -51q-117 0 -216.5 49t-171 137t-112.5 208t-41 261zM291 1503l162 285l413 -313l-96 -170zM377 641q0 -61 15.5 -116.5t42 -98.5 t63.5 -67.5t80 -24.5q49 0 86.5 24.5t63.5 66.5t39 97.5t13 116.5q0 45 -9 99.5t-32.5 101.5t-62.5 78.5t-98 31.5q-49 0 -87 -26.5t-63 -69.5t-38 -99.5t-13 -113.5z" />
<glyph unicode="&#xf3;" horiz-adv-x="1159" d="M37 643q0 135 40 255t111.5 209t171 140t218.5 51q117 0 216 -51t172.5 -140t114.5 -208t41 -256t-41 -257t-114.5 -208t-173 -139t-215.5 -51q-117 0 -216.5 49t-171 137t-112.5 208t-41 261zM291 1475l414 313l161 -285l-479 -198zM377 641q0 -61 15.5 -116.5t42 -98.5 t63.5 -67.5t80 -24.5q49 0 86.5 24.5t63.5 66.5t39 97.5t13 116.5q0 45 -9 99.5t-32.5 101.5t-62.5 78.5t-98 31.5q-49 0 -87 -26.5t-63 -69.5t-38 -99.5t-13 -113.5z" />
<glyph unicode="&#xf4;" horiz-adv-x="1159" d="M37 643q0 135 40 255t111.5 209t171 140t218.5 51q117 0 216 -51t172.5 -140t114.5 -208t41 -256t-41 -257t-114.5 -208t-173 -139t-215.5 -51q-117 0 -216.5 49t-171 137t-112.5 208t-41 261zM219 1315l358 364l363 -364h-266l-97 63l-94 -63h-264zM377 641 q0 -61 15.5 -116.5t42 -98.5t63.5 -67.5t80 -24.5q49 0 86.5 24.5t63.5 66.5t39 97.5t13 116.5q0 45 -9 99.5t-32.5 101.5t-62.5 78.5t-98 31.5q-49 0 -87 -26.5t-63 -69.5t-38 -99.5t-13 -113.5z" />
<glyph unicode="&#xf5;" horiz-adv-x="1159" d="M37 643q0 135 40 255t111.5 209t171 140t218.5 51q117 0 216 -51t172.5 -140t114.5 -208t41 -256t-41 -257t-114.5 -208t-173 -139t-215.5 -51q-117 0 -216.5 49t-171 137t-112.5 208t-41 261zM236 1393q0 121 56.5 196.5t162.5 75.5q31 0 62.5 -9t62.5 -19.5t59.5 -19.5 t51.5 -9q25 0 45 16t36 62q33 -14 71 -28t79 -28q-4 -133 -61.5 -204.5t-167.5 -71.5q-29 0 -61 7t-62.5 14t-58 14.5t-46.5 7.5q-25 0 -46 -15.5t-44 -58.5l-137 35q0 10 -1 17t-1 18zM377 641q0 -61 15.5 -116.5t42 -98.5t63.5 -67.5t80 -24.5q49 0 86.5 24.5t63.5 66.5 t39 97.5t13 116.5q0 45 -9 99.5t-32.5 101.5t-62.5 78.5t-98 31.5q-49 0 -87 -26.5t-63 -69.5t-38 -99.5t-13 -113.5z" />
<glyph unicode="&#xf6;" horiz-adv-x="1159" d="M37 643q0 135 40 255t111.5 209t171 140t218.5 51q117 0 216 -51t172.5 -140t114.5 -208t41 -256t-41 -257t-114.5 -208t-173 -139t-215.5 -51q-117 0 -216.5 49t-171 137t-112.5 208t-41 261zM283 1458q0 55 39 95t94 40q53 0 93 -40t40 -95q0 -53 -40 -93t-93 -40 q-55 0 -94 40t-39 93zM377 641q0 -61 15.5 -116.5t42 -98.5t63.5 -67.5t80 -24.5q49 0 86.5 24.5t63.5 66.5t39 97.5t13 116.5q0 45 -9 99.5t-32.5 101.5t-62.5 78.5t-98 31.5q-49 0 -87 -26.5t-63 -69.5t-38 -99.5t-13 -113.5zM608 1458q0 55 39 95t95 40q55 0 95 -40 t40 -95q0 -53 -40 -93t-95 -40t-94.5 40t-39.5 93z" />
<glyph unicode="&#xf7;" horiz-adv-x="1091" d="M37 547v239h1018v-239h-1018zM412 313q0 55 38.5 94t94.5 39q55 0 94 -39t39 -94t-39 -94t-94 -39t-94 39t-39 94zM412 1022q0 53 38.5 92t94.5 39q55 0 94 -39t39 -92q0 -57 -39 -95t-94 -38t-94 38t-39 95z" />
<glyph unicode="&#xf8;" horiz-adv-x="1159" d="M37 643q0 145 42 266t115.5 207t172 134t211.5 48q135 0 249 -67l50 86l159 -96l-67 -113q153 -184 153 -465q0 -137 -41 -257t-114.5 -208t-173 -139t-215.5 -51q-127 0 -246 67l-53 -86l-158 97l65 112q-150 186 -149 465zM379 649q0 -35 4 -66.5t12 -64.5l252 416 q-37 16 -69 16q-45 0 -82 -23.5t-62.5 -65.5t-40 -96t-14.5 -116zM512 354q33 -18 70 -18q49 0 86 24.5t61.5 66.5t37.5 96.5t13 115.5q0 86 -16 129z" />
<glyph unicode="&#xf9;" horiz-adv-x="1083" d="M37 1257q0 23 24 23h379q25 0 25 -23t-25 -22h-24v-768q0 -49 38 -81t87 -32t87 33t38 80v768h-25q-25 0 -25 22q0 23 25 23h379q27 0 27 -23t-27 -22h-23v-832q0 -86 -37.5 -159.5t-100 -128t-145.5 -85t-173 -30.5q-92 0 -174 30.5t-145.5 85t-100.5 128t-37 159.5v832 h-23q-25 0 -24 22zM254 1503l162 285l413 -313l-96 -170z" />
<glyph unicode="&#xfa;" horiz-adv-x="1083" d="M37 1257q0 23 24 23h379q25 0 25 -23t-25 -22h-24v-768q0 -49 38 -81t87 -32t87 33t38 80v768h-25q-25 0 -25 22q0 23 25 23h379q27 0 27 -23t-27 -22h-23v-832q0 -86 -37.5 -159.5t-100 -128t-145.5 -85t-173 -30.5q-92 0 -174 30.5t-145.5 85t-100.5 128t-37 159.5v832 h-23q-25 0 -24 22zM254 1475l414 313l161 -285l-479 -198z" />
<glyph unicode="&#xfb;" horiz-adv-x="1083" d="M37 1257q0 23 24 23h379q25 0 25 -23t-25 -22h-24v-768q0 -49 38 -81t87 -32t87 33t38 80v768h-25q-25 0 -25 22q0 23 25 23h379q27 0 27 -23t-27 -22h-23v-832q0 -86 -37.5 -159.5t-100 -128t-145.5 -85t-173 -30.5q-92 0 -174 30.5t-145.5 85t-100.5 128t-37 159.5v832 h-23q-25 0 -24 22zM180 1315l358 364l363 -364h-266l-97 63l-94 -63h-264z" />
<glyph unicode="&#xfc;" horiz-adv-x="1083" d="M37 1257q0 23 24 23h379q25 0 25 -23t-25 -22h-24v-768q0 -49 38 -81t87 -32t87 33t38 80v768h-25q-25 0 -25 22q0 23 25 23h379q27 0 27 -23t-27 -22h-23v-832q0 -86 -37.5 -159.5t-100 -128t-145.5 -85t-173 -30.5q-92 0 -174 30.5t-145.5 85t-100.5 128t-37 159.5v832 h-23q-25 0 -24 22zM244 1469q0 55 39 95t94 40q53 0 93 -40t40 -95q0 -53 -40 -93t-93 -40q-55 0 -94 40t-39 93zM569 1469q0 55 39 95t95 40q55 0 95 -40t40 -95q0 -53 -40 -93t-95 -40t-94.5 40t-39.5 93z" />
<glyph unicode="&#xfd;" horiz-adv-x="1193" d="M37 1257q0 23 26 23h420q23 0 23 -23t-23 -22h-12l125 -303l129 303h-12q-27 0 -27 22q0 23 27 23h420q24 0 24 -23t-24 -22h-52l-317 -680v-510h22q25 0 25 -22q0 -23 -25 -23h-378q-25 0 -25 23t25 22h24v510l-319 680h-50q-27 0 -26 22zM309 1475l414 313l161 -285 l-479 -198z" />
<glyph unicode="&#xfe;" horiz-adv-x="1042" d="M37 25q0 20 26 20h23v1190h-23q-27 0 -26 22q0 23 26 23h379q25 0 25 -23t-25 -22h-24v-115h37q131 0 211 -18q84 -20 147.5 -65.5t106.5 -107t64.5 -135t21.5 -149.5q0 -195 -125 -332q-117 -129 -312 -139q4 -12 4 -16q0 -16 -18 -23q-23 0 -29 21q-35 129 -52 199.5 t-26.5 103.5t-10.5 39l-1 6q0 10 5 17t18 7q8 0 14 -6t12 -26q86 0 131.5 39.5t45.5 113.5q0 78 -51.5 113t-149.5 35h-43v-752h24q25 0 25 -20q0 -25 -25 -25h-379q-27 0 -26 25z" />
<glyph unicode="&#xff;" horiz-adv-x="1193" d="M37 1257q0 23 26 23h420q23 0 23 -23t-23 -22h-12l125 -303l129 303h-12q-27 0 -27 22q0 23 27 23h420q24 0 24 -23t-24 -22h-52l-317 -680v-510h22q25 0 25 -22q0 -23 -25 -23h-378q-25 0 -25 23t25 22h24v510l-319 680h-50q-27 0 -26 22zM299 1448q0 55 39 95t94 40 q53 0 93 -40t40 -95q0 -53 -40 -93t-93 -40q-55 0 -94 40t-39 93zM624 1448q0 55 39 95t95 40q55 0 95 -40t40 -95q0 -53 -40 -93t-95 -40t-94.5 40t-39.5 93z" />
<glyph unicode="&#x152;" horiz-adv-x="1935" d="M37 774q0 164 49 307.5t136 251t208 170t262 62.5q88 0 180 -29q6 6 21 6h919q29 0 29 -26v-476q0 -31 -29 -30q-27 0 -26 30q0 41 -28.5 70t-69.5 29h-322v-119h115v29q0 29 28 28q27 0 27 -28v-519q0 -29 -27 -28q-29 0 -28 28v29h-115v-129h377q41 0 69.5 28.5 t28.5 69.5q0 29 29 29t28 -29v-501q0 -27 -28 -27h-965q-20 0 -28 14q-96 -29 -185 -28q-143 0 -264 62.5t-208 169t-135 249.5t-48 307zM451 766q0 -76 18 -142.5t51 -115.5t77 -77t93 -28q57 0 103.5 30t77 79t47 114.5t16.5 137.5q0 53 -11.5 118.5t-39 124t-73.5 98.5 t-118 40q-57 0 -102 -31t-76 -83t-47 -120.5t-16 -144.5z" />
<glyph unicode="&#x153;" horiz-adv-x="1619" d="M37 643q0 135 41 254t113.5 208t172 141t218.5 52q72 0 149 -22q12 4 17 4h763q25 0 25 -23v-393q0 -27 -25 -26q-12 0 -18 16t-14.5 36.5t-23.5 37t-48 16.5h-266v-98h96v24q0 25 23 25t22 -25v-430q0 -25 -22 -24q-23 0 -23 24v25h-96v-109h313q31 0 46.5 16.5t23.5 37 t14 37t21 16.5q25 0 24 -25v-415q0 -23 -24 -23h-801q-20 0 -23 12q-74 -25 -153 -24q-119 0 -218.5 51t-172 140t-113.5 209t-41 255zM381 637q0 -61 15.5 -115.5t42 -96.5t63.5 -66.5t80 -24.5q47 0 85 24.5t63.5 65.5t38.5 95.5t13 113.5q0 43 -9 97t-31.5 103.5 t-61.5 83t-98 33.5q-84 0 -142.5 -77.5t-58.5 -235.5z" />
<glyph unicode="&#x178;" horiz-adv-x="1421" d="M37 1516q0 27 31 26h505q29 0 29 -26q0 -29 -29 -29h-14l152 -365l153 365h-14q-31 0 -31 29q0 27 31 26h506q28 1 28 -26q0 -29 -28 -29h-62l-383 -819v-613h29q29 0 29 -28q0 -27 -29 -27h-457q-31 0 -30 27q0 29 30 28h29v613l-385 819h-59q-31 0 -31 29zM414 1710 q0 55 39 95t94 40q53 0 93 -40t40 -95q0 -53 -40 -93t-93 -40q-55 0 -94 40t-39 93zM739 1710q0 55 39 95t95 40q55 0 95 -40t40 -95q0 -53 -40 -93t-95 -40t-94.5 40t-39.5 93z" />
<glyph unicode="&#x2c6;" horiz-adv-x="794" d="M37 1315l358 364l363 -364h-266l-97 63l-94 -63h-264z" />
<glyph unicode="&#x2dc;" horiz-adv-x="759" d="M37 1393q0 121 56.5 196.5t162.5 75.5q31 0 62.5 -9t62.5 -19.5t59.5 -19.5t51.5 -9q25 0 45 16t36 62q33 -14 71 -28t79 -28q-4 -133 -61.5 -204.5t-167.5 -71.5q-29 0 -61 7t-62.5 14t-58 14.5t-46.5 7.5q-25 0 -46 -15.5t-44 -58.5l-137 35q0 10 -1 17t-1 18z" />
<glyph unicode="&#x2000;" horiz-adv-x="1037" />
<glyph unicode="&#x2001;" horiz-adv-x="2075" />
<glyph unicode="&#x2002;" horiz-adv-x="1037" />
<glyph unicode="&#x2003;" horiz-adv-x="2075" />
<glyph unicode="&#x2004;" horiz-adv-x="691" />
<glyph unicode="&#x2005;" horiz-adv-x="518" />
<glyph unicode="&#x2006;" horiz-adv-x="345" />
<glyph unicode="&#x2007;" horiz-adv-x="345" />
<glyph unicode="&#x2008;" horiz-adv-x="259" />
<glyph unicode="&#x2009;" horiz-adv-x="415" />
<glyph unicode="&#x200a;" horiz-adv-x="115" />
<glyph unicode="&#x2010;" horiz-adv-x="681" d="M37 631v456q0 27 29 27q27 0 26 -27v-28h496v28q0 27 28 27q29 0 29 -27v-456q0 -29 -29 -29t-28 29v28h-496v-28q0 -29 -26 -29q-29 0 -29 29z" />
<glyph unicode="&#x2011;" horiz-adv-x="681" d="M37 631v456q0 27 29 27q27 0 26 -27v-28h496v28q0 27 28 27q29 0 29 -27v-456q0 -29 -29 -29t-28 29v28h-496v-28q0 -29 -26 -29q-29 0 -29 29z" />
<glyph unicode="&#x2012;" horiz-adv-x="681" d="M37 631v456q0 27 29 27q27 0 26 -27v-28h496v28q0 27 28 27q29 0 29 -27v-456q0 -29 -29 -29t-28 29v28h-496v-28q0 -29 -26 -29q-29 0 -29 29z" />
<glyph unicode="&#x2013;" horiz-adv-x="1030" d="M37 631v456q0 27 29 27q27 0 26 -27v-28h844v28q0 27 29 27t28 -27v-456q0 -29 -28 -29q-29 0 -29 29v28h-844v-28q0 -29 -26 -29q-29 0 -29 29z" />
<glyph unicode="&#x2014;" horiz-adv-x="2054" d="M37 631v456q0 27 29 27q27 0 26 -27v-28h1868v28q0 27 29 27t28 -27v-456q0 -29 -28 -29q-29 0 -29 29v28h-1868v-28q0 -29 -26 -29q-29 0 -29 29z" />
<glyph unicode="&#x2018;" horiz-adv-x="428" d="M37 1249q0 199 145 322q8 6 17 6q10 0 18 -10l53 -80q4 -12 4 -14q0 -4 -8 -14.5t-20.5 -26t-23.5 -33t-17 -33.5h16q70 0 120 -49t50 -119t-50 -120t-120 -50q-86 0 -135 61.5t-49 159.5z" />
<glyph unicode="&#x2019;" horiz-adv-x="428" d="M37 1386q0 70 50 120t120 50q86 0 135 -61.5t49 -159.5q0 -199 -145 -321q-12 -8 -19 -8q-8 0 -16 12l-53 80q-6 6 -6 14q0 4 8 14.5t20.5 24.5t24.5 31.5t18 36.5h-16q-70 0 -120 49t-50 118z" />
<glyph unicode="&#x201a;" horiz-adv-x="501" d="M37 184q0 86 59.5 145.5t145.5 59.5q104 0 163.5 -72.5t59.5 -193.5q0 -236 -176 -387q-10 -10 -19 -10q-14 0 -22 14l-66 98q-6 8 -6 17q0 4 10.5 17t24.5 30.5t28.5 38t22.5 43.5q-4 -2 -20 -2q-86 0 -145.5 58t-59.5 144z" />
<glyph unicode="&#x201c;" horiz-adv-x="802" d="M37 1260q0 193 145 319q12 8 17 8q8 0 18 -10l53 -82q4 -12 4 -14q0 -4 -8 -15.5t-20.5 -27t-23.5 -31.5t-17 -33q2 2 16 2q35 0 65.5 -13t54.5 -36.5t37 -54.5t13 -64q0 -70 -50 -120t-120 -50q-86 0 -135 61t-49 161zM410 1260q0 193 147 319q12 8 16 8q6 0 17 -10 l55 -82q4 -8 4 -12q0 -6 -9 -17.5t-20.5 -26t-23.5 -31.5t-18 -34q4 2 18 2q33 0 64.5 -13t54 -36.5t37 -54.5t14.5 -64q0 -35 -14.5 -65.5t-37 -54t-54 -37t-64.5 -13.5q-86 0 -136 61t-50 161z" />
<glyph unicode="&#x201d;" horiz-adv-x="802" d="M37 1397q0 70 50 120t120 50q84 0 135 -58.5t51 -162.5q0 -195 -147 -320q-8 -8 -19 -8q-8 0 -14 10l-55 82q-4 8 -4 12t9 15.5t20.5 26t23.5 31.5t18 36q-4 -2 -18 -2q-35 0 -65.5 13t-54.5 37t-37 53.5t-13 64.5zM412 1397q0 37 13 67.5t36.5 53t54.5 36t66 13.5 q82 0 133 -59.5t51 -161.5q0 -193 -145 -320q-8 -8 -19 -8q-10 0 -16 10l-54 82q-6 6 -6 14q0 4 9.5 14.5t20.5 26t23.5 32.5t18.5 34q-2 -2 -16 -2q-35 0 -66 13t-54.5 37t-36.5 53.5t-13 64.5z" />
<glyph unicode="&#x201e;" horiz-adv-x="952" d="M37 184q0 86 59.5 145.5t145.5 59.5q104 0 163.5 -72.5t59.5 -193.5q0 -236 -176 -387q-10 -10 -19 -10q-14 0 -22 14l-66 98q-6 8 -6 17q0 4 10.5 17t24.5 30.5t28.5 38t22.5 43.5q-4 -2 -20 -2q-86 0 -145.5 58t-59.5 144zM487 184q0 86 59.5 145.5t145.5 59.5 q104 0 163.5 -72.5t59.5 -193.5q0 -236 -176 -387q-10 -10 -18 -10q-14 0 -23 14l-65 98q-6 8 -6 17q0 4 10 17t24.5 30.5t29 38t22.5 43.5q-4 -2 -21 -2q-86 0 -145.5 58t-59.5 144z" />
<glyph unicode="&#x2022;" horiz-adv-x="548" d="M37 696q0 49 18.5 92t51 75t75.5 51.5t92 19.5t92.5 -19.5t75 -51.5t51 -75t19.5 -92t-18.5 -92t-51 -74.5t-75.5 -50t-93 -18.5q-49 0 -92 18.5t-75.5 50t-51 74.5t-18.5 92z" />
<glyph unicode="&#x2026;" horiz-adv-x="1411" d="M37 184q0 43 15.5 80t43 64.5t64.5 44t80 16.5q41 0 77.5 -16.5t64.5 -45t44 -65.5t16 -78t-16 -77.5t-44 -64.5t-64.5 -44t-77.5 -16q-43 0 -80 15t-64.5 43t-43 64.5t-15.5 79.5zM506 184q0 43 15.5 80t43 64.5t64.5 44t80 16.5q41 0 77.5 -16.5t64.5 -45t44 -65.5 t16 -78t-16 -77.5t-44 -64.5t-64.5 -44t-77.5 -16q-43 0 -80 15t-64.5 43t-43 64.5t-15.5 79.5zM969 184q0 43 15 80t43 64.5t64.5 44t79.5 16.5q41 0 78 -16.5t64.5 -45t44 -65.5t16.5 -78t-16.5 -77.5t-44 -64.5t-64.5 -44t-78 -16q-43 0 -79.5 15t-64.5 43t-43 64.5 t-15 79.5z" />
<glyph unicode="&#x202f;" horiz-adv-x="415" />
<glyph unicode="&#x2039;" horiz-adv-x="522" d="M37 756l334 379l114 -107l-133 -272l133 -273l-114 -104z" />
<glyph unicode="&#x203a;" horiz-adv-x="522" d="M37 483l133 273l-133 272l115 107l333 -379l-333 -377z" />
<glyph unicode="&#x205f;" horiz-adv-x="518" />
<glyph unicode="&#x20ac;" horiz-adv-x="1202" d="M37 567l94 168h51v43h-131l96 170h54q27 129 87 239.5t146 191.5t192.5 127t223.5 46q131 0 258 -61v10q0 31 29 31t28 -31v-467q0 -31 -28 -30q-29 0 -29 30v43q-82 76 -195 76q-209 0 -290 -205h446l-96 -170h-383q0 -33 2 -43h354l-94 -168h-217q88 -180 278 -180 q113 0 195 76v43q0 31 29 31t28 -31v-467q0 -31 -28 -31q-29 0 -29 31v10q-121 -61 -258 -61q-115 0 -218.5 43t-188.5 119.5t-145 183t-91 233.5h-170z" />
<glyph unicode="&#x2122;" horiz-adv-x="1150" d="M37 1325v188q0 10 12 11h451q12 0 12 -11v-188q0 -10 -14 -10q-2 0 -5.5 7t-8.5 16.5t-13 17.5t-20 8h-93v-428q25 0 25 -10t-10 -11h-195q-12 0 -12 11q0 10 24 10v428h-92q-12 0 -21 -8t-14.5 -17.5t-8.5 -16.5t-5 -7q-12 0 -12 10zM426 926q0 10 27 10l170 600 q2 8 10 8q6 0 10 -6l127 -260l129 260q2 6 8 6q10 0 13 -8l167 -600q27 0 27 -10t-12 -11h-180q-12 0 -13 11q0 10 21 10l-62 217l-88 -170q-4 -6 -10 -6q-8 0 -10 6l-88 170l-60 -217q18 0 19 -10q0 -10 -13 -11h-180q-12 0 -12 11z" />
<glyph unicode="&#x25fc;" horiz-adv-x="1280" d="M0 0v1280h1280v-1280h-1280z" />
<glyph unicode="&#xfb01;" horiz-adv-x="1148" d="M37 1257q0 23 22 23h1028q25 0 25 -23t-25 -22h-22v-1190h22q25 1 25 -22t-25 -23h-378q-25 0 -25 23t25 22h24v899h-280v-98h96v24q0 25 22 25q25 0 25 -25v-430q0 -25 -25 -24q-23 0 -22 24v25h-96v-420h43q27 0 26 -22q0 -23 -26 -23h-426q-23 0 -23 23t23 22h26v1190 h-37q-23 0 -22 22z" />
<glyph unicode="&#xfb02;" horiz-adv-x="1515" d="M37 1257q0 23 24 23h1061q23 0 27 -23q0 -23 -27 -22h-28v-879h256q33 0 48 16.5t23.5 37t14.5 37t18 16.5q25 0 25 -25v-415q0 -23 -25 -23h-764q-27 0 -26 23q0 23 26 22h49v899h-284v-98h96v24q0 25 22 25q25 0 25 -25v-430q0 -25 -25 -24q-23 0 -22 24v25h-96v-420 h45q25 0 24 -22q0 -23 -24 -23h-428q-25 0 -25 23t25 22h26v1190h-37q-25 0 -24 22z" />
</font>
</defs>
</svg>
