<?xml version="1.0" standalone="no"?>
<!DOCTYPE svg PUBLIC "-//W3C//DTD SVG 1.1//EN" "http://www.w3.org/Graphics/SVG/1.1/DTD/svg11.dtd" >
<svg>
<metadata>
Created by FontForge 20120731 at Fri Apr 26 10:53:34 2019
 By www-data
Copyright (c) 2013 by Juan Pablo del Peral (huertatipografica.com.ar)
</metadata>
<defs>
<font id="AlegreyaSansSC-Regular" horiz-adv-x="389" >
  <font-face 
    font-family="Alegreya Sans SC"
    font-weight="400"
    font-stretch="normal"
    units-per-em="1000"
    panose-1="0 0 5 0 0 0 0 0 0 0"
    ascent="800"
    descent="-200"
    x-height="498"
    cap-height="641"
    bbox="-236 -262 1157 998"
    underline-thickness="0"
    underline-position="0"
    unicode-range="U+0020-F6D8"
  />
<missing-glyph horiz-adv-x="165" 
 />
    <glyph glyph-name="Idieresis" unicode="&#xa8;I" horiz-adv-x="268" 
d="M103 822q11 -11 11 -31q0 -21 -12 -34t-33 -13q-20 0 -31 12t-11 32t12 32.5t33 12.5q20 0 31 -11zM231 822q11 -11 11 -31q0 -21 -12 -34t-33 -13q-20 0 -31 12t-11 32t12 32.5t33 12.5q20 0 31 -11zM174 0h-81l5 193l-5 448h82l-5 -441z" />
    <glyph glyph-name="Odieresis" unicode="&#xa8;O" horiz-adv-x="635" 
d="M274 822q11 -11 11 -31q0 -21 -12 -34t-33 -13q-20 0 -31 12t-11 32t12 32.5t33 12.5q20 0 31 -11zM431 822q11 -11 11 -31q0 -21 -12 -34t-33 -13q-20 0 -31 12t-11 32t12 32.5t33 12.5q20 0 31 -11zM527.5 566q70.5 -81 70.5 -233q0 -163 -75 -252t-213 -89
q-130 0 -201 84t-71 239q0 160 74.5 246t213.5 86q131 0 201.5 -81zM120 325q0 -266 195 -266q200 0 200 260q0 133 -48.5 197.5t-147.5 64.5q-199 0 -199 -256z" />
    <glyph glyph-name="Yacute" unicode="&#xb4;Y" horiz-adv-x="528" 
d="M295 0h-81l6 187l-1 43l-204 411h86l13 -36l140 -288h8l153 286l15 38h85l-222 -411l-1 -43zM395 814l-2 -8q-89 -41 -195 -86l-10 4l-14 36q103 51 192 103l9 -2z" />
    <glyph glyph-name="idieresis" unicode="&#xa8;i" horiz-adv-x="259" 
d="M100 680q11 -11 11 -31q0 -21 -12 -34t-33 -13q-20 0 -31 12t-11 32t12 32.5t33 12.5q20 0 31 -11zM228 680q11 -11 11 -31q0 -21 -12 -34t-33 -13q-20 0 -31 12t-11 32t12 32.5t33 12.5q20 0 31 -11zM165 0h-75l3 150l-3 348h76l-4 -342z" />
    <glyph glyph-name="odieresis" unicode="&#xa8;o" horiz-adv-x="557" 
d="M235 680q11 -11 11 -31q0 -21 -12 -34t-33 -13q-20 0 -31 12t-11 32t12 32.5t33 12.5q20 0 31 -11zM392 680q11 -11 11 -31q0 -21 -12 -34t-33 -13q-20 0 -31 12t-11 32t12 32.5t33 12.5q20 0 31 -11zM453.5 440q58.5 -64 58.5 -181q0 -127 -62.5 -196.5t-178.5 -69.5
q-108 0 -167 65.5t-59 186.5q0 124 62.5 191.5t178.5 67.5q109 0 167.5 -64zM161.5 396q-38.5 -45 -38.5 -142q0 -104 38 -151t116 -47q80 0 119 46t39 144q0 101 -38.5 148t-117.5 47t-117.5 -45z" />
    <glyph glyph-name="yacute" unicode="&#xb4;y" horiz-adv-x="473" 
d="M266 0h-75l3 143v30l-169 325h81l11 -29l111 -214h5l122 211l14 32h79l-184 -324l-1 -31zM370 694l-2 -8q-99 -77 -170 -127l-9 1l-22 32q98 80 164 145l9 -1z" />
    <glyph glyph-name="Itilde" unicode="&#x7e;I" horiz-adv-x="268" 
d="M174 0h-81l5 193l-5 448h82l-5 -441zM274 813l-56 -69l-8 -3q-23 4 -75 21q-50 16 -58 16t-15 -6.5t-21 -23.5l-14 -16h-8l-24 26v7l55 68l9 4q16 -3 73 -20q50 -16 59 -16q11 0 35 27l16 18h7l25 -25v-8z" />
    <glyph glyph-name="itilde" unicode="&#x7e;i" horiz-adv-x="259" 
d="M164 0h-74l3 150l-3 348h75l-3 -342zM271 671l-56 -69l-8 -3q-23 4 -75 21q-50 16 -58 16t-15 -6.5t-21 -23.5l-14 -16h-8l-24 26v7l55 68l9 4q16 -3 73 -20q50 -16 59 -16q11 0 35 27l16 18h7l25 -25v-8z" />
    <glyph glyph-name="Utilde" unicode="&#x7e;U" horiz-adv-x="626" 
d="M552 243q2 -118 -62 -184t-182 -66q-113 0 -173.5 63t-58.5 178l1 87l-1 320h79l-3 -397q-2 -181 162 -181q166 0 164 171l-4 407h80l-1 -326zM472 816l-61 -69l-10 -3q-22 2 -84 20q-57 17 -71 17q-7 0 -15 -6.5t-25 -23.5l-16 -17h-9l-24 26v7l61 69l10 3q24 -2 83 -20
q62 -16 72 -16q13 0 40 29l17 17h8l24 -25v-8z" />
    <glyph glyph-name="utilde" unicode="&#x7e;u" horiz-adv-x="549" 
d="M475 173q1 -85 -51.5 -132t-150.5 -47q-97 0 -148 46.5t-49 132.5l1 76l-1 249h75l-4 -313q-2 -127 129 -127t129 127l-3 313h76l-3 -253v-72zM434 674l-61 -69l-10 -3q-22 2 -84 20q-57 17 -71 17q-7 0 -15 -6.5t-25 -23.5l-16 -17h-9l-24 26v7l61 69l10 3q24 -2 83 -20
q62 -16 72 -16q13 0 40 29l17 17h8l24 -25v-8z" />
    <glyph glyph-name="Etilde" unicode="&#x7e;E" horiz-adv-x="482" 
d="M453 0h-360l5 193l-5 448h361l4 -8l-6 -62l-151 3l-127 -2l-2 -210l120 -2l106 3l6 -7l-7 -62l-112 2l-114 -1l-1 -95l3 -133l127 -1l154 4l5 -8zM431 816l-61 -69l-10 -3q-22 2 -84 20q-57 17 -71 17q-7 0 -15 -6.5t-25 -23.5l-16 -17h-9l-24 26v7l61 69l10 3
q24 -2 83 -20q62 -16 72 -16q13 0 40 29l17 17h8l24 -25v-8z" />
    <glyph glyph-name="etilde" unicode="&#x7e;e" horiz-adv-x="435" 
d="M400 58l-7 -58h-303l3 150l-3 348h305l5 -6l-6 -58l-126 4l-104 -1l-1 -151l99 -1l87 3l5 -7l-6 -59l-92 3l-93 -1l-1 -68l1 -95l98 -1l133 4zM399 674l-61 -69l-10 -3q-22 2 -84 20q-57 17 -71 17q-7 0 -15 -6.5t-25 -23.5l-16 -17h-9l-24 26v7l61 69l10 3q24 -2 83 -20
q62 -16 72 -16q13 0 40 29l17 17h8l24 -25v-8z" />
    <glyph glyph-name="Ytilde" unicode="&#x7e;Y" horiz-adv-x="528" 
d="M295 0h-81l6 187l-1 43l-204 411h86l13 -36l140 -288h8l153 286l15 38h85l-222 -411l-1 -43zM415 816l-61 -69l-10 -3q-22 2 -84 20q-57 17 -71 17q-7 0 -15 -6.5t-25 -23.5l-16 -17h-9l-24 26v7l61 69l10 3q24 -2 83 -20q62 -16 72 -16q13 0 40 29l17 17h8l24 -25v-8z
" />
    <glyph glyph-name="ytilde" unicode="&#x7e;y" horiz-adv-x="473" 
d="M266 0h-75l3 143v30l-169 325h81l11 -29l111 -214h5l122 211l14 32h79l-184 -324l-1 -31zM398 674l-61 -69l-10 -3q-22 2 -84 20q-57 17 -71 17q-7 0 -15 -6.5t-25 -23.5l-16 -17h-9l-24 26v7l61 69l10 3q24 -2 83 -20q62 -16 72 -16q13 0 40 29l17 17h8l24 -25v-8z" />
    <glyph glyph-name="Gtilde" unicode="&#x7e;G" horiz-adv-x="600" 
d="M538 601l-16 -76l-10 -2q-48 30 -88.5 43t-85.5 13q-217 0 -217 -268q0 -129 50.5 -189.5t156.5 -60.5q50 0 130 24l2 75l-1 91l75 6l-2 -86l4 -140q-122 -38 -212 -38q-143 0 -214.5 81t-71.5 234q0 165 81 251.5t231 86.5q101 0 188 -45zM483 816l-61 -69l-10 -3
q-22 2 -84 20q-57 17 -71 17q-7 0 -15 -6.5t-25 -23.5l-16 -17h-9l-24 26v7l61 69l10 3q24 -2 83 -20q62 -16 72 -16q13 0 40 29l17 17h8l24 -25v-8z" />
    <glyph glyph-name="gtilde" unicode="&#x7e;g" horiz-adv-x="526" 
d="M463 469l-25 -72h-9q-37 24 -68 33.5t-67 9.5q-85 0 -127.5 -48t-42.5 -150q0 -98 39 -141.5t124 -43.5q47 0 104 21v50l-1 71l69 5v-180q-101 -30 -175 -30q-118 0 -178.5 63.5t-60.5 181.5q0 128 68.5 196t192.5 68q78 0 157 -34zM436 674l-61 -69l-10 -3q-22 2 -84 20
q-57 17 -71 17q-7 0 -15 -6.5t-25 -23.5l-16 -17h-9l-24 26v7l61 69l10 3q24 -2 83 -20q62 -16 72 -16q13 0 40 29l17 17h8l24 -25v-8z" />
    <glyph glyph-name=".notdef" horiz-adv-x="165" 
 />
    <glyph glyph-name=".null" horiz-adv-x="0" 
 />
    <glyph glyph-name="nonmarkingreturn" horiz-adv-x="333" 
 />
    <glyph glyph-name="space" unicode=" " horiz-adv-x="165" 
 />
    <glyph glyph-name="exclam" unicode="!" horiz-adv-x="256" 
d="M154 218l-47 -5l-9 9v425l8 10l61 3l9 -10zM151.5 76q11.5 -12 11.5 -33q0 -22 -12.5 -35t-33.5 -13q-45 0 -45 46q0 21 13 34t35 13q20 0 31.5 -12z" />
    <glyph glyph-name="quotedbl" unicode="&#x22;" horiz-adv-x="280" 
d="M100 449l-41 -6l-7 7l5 184l61 5l6 -7zM214 449l-41 -6l-6 7l4 184l61 5l6 -7z" />
    <glyph glyph-name="numbersign" unicode="#" horiz-adv-x="516" 
d="M349 249h106l5 -6l-4 -43h-118l-38 -168h-46l-5 7l36 161h-110l-37 -168h-47l-5 7l36 161h-96l-6 5l4 44h109l26 116h-98l-6 6l4 43h111l36 160h46l5 -8l-34 -152h109l36 160h46l6 -8l-34 -152h104l6 -6l-5 -43h-116zM212 365l-26 -116h110l26 116h-110z" />
    <glyph glyph-name="dollar" unicode="$" horiz-adv-x="434" 
d="M334 44.5q-41 -40.5 -111 -47.5l-10 -126h-39l-8 7l9 118q-70 3 -127 32l8 70l9 3q45 -44 114 -53l15 178q-42 18 -69 34t-45.5 41.5t-18.5 61.5q0 55 42 93.5t113 43.5l11 142h39l9 -8l-11 -134q50 -5 96 -23l-12 -64l-11 -3q-37 28 -77 36l-14 -172q61 -26 95 -55.5
t34 -79.5q0 -54 -41 -94.5zM145 328q19 -18 55 -34l12 154q-39 -4 -62.5 -27t-23.5 -50q0 -25 19 -43zM287 77.5q23 22.5 23 50.5q0 26 -18 43.5t-52 33.5l-13 -157q37 7 60 29.5z" />
    <glyph glyph-name="percent" unicode="%" horiz-adv-x="824" 
d="M650 644l-472 -735l-35 20l-5 12l471 737l35 -20zM296.5 601q36.5 -44 36.5 -127q0 -89 -38.5 -135.5t-112.5 -46.5q-68 0 -105 44.5t-37 127.5q0 88 39 134.5t113 46.5q68 0 104.5 -44zM96 469q0 -122 91 -122t91 118q0 122 -92 122q-90 0 -90 -118zM746.5 305
q36.5 -44 36.5 -127q0 -89 -38.5 -135.5t-112.5 -46.5q-68 0 -105 44.5t-37 127.5q0 88 39 134.5t113 46.5q68 0 104.5 -44zM546 173q0 -122 91 -122t91 118q0 122 -92 122q-90 0 -90 -118z" />
    <glyph glyph-name="ampersand" unicode="&#x26;" horiz-adv-x="768" 
d="M778.5 253.5q-24.5 -18.5 -62.5 -21.5q-27 0 -111 16q-5 -76 -44 -135t-105 -91.5t-149 -32.5q-123 0 -193.5 71.5t-70.5 193.5q0 74 26.5 131t72 88.5t101.5 31.5q53 0 83.5 -25.5t30.5 -65.5q0 -16 -4 -29q94 69 166 153t112 173h7q23 -23 32 -55
q-38 -85 -123.5 -175.5t-198.5 -166.5t-229 -119q16 -69 65.5 -107.5t128.5 -38.5q66 0 119 26t83 74t31 111q-40 7 -58 7q-52 0 -82 -62l-10 -1l-15 44q19 37 44 55.5t63 22.5q19 0 112 -17q86 -18 115 -18q58 0 82 61l10 1l16 -43q-20 -38 -44.5 -56.5zM147.5 399
q-35.5 -51 -35.5 -135v-12q71 26 149 72q43 30 43 73q0 27 -17 40t-46 13q-58 0 -93.5 -51z" />
    <glyph glyph-name="quotesingle" unicode="'" horiz-adv-x="166" 
d="M100 449l-41 -6l-7 7l5 184l61 5l6 -7z" />
    <glyph glyph-name="parenleft" unicode="(" horiz-adv-x="288" 
d="M283 628q-73 -58 -104 -143.5t-32 -227.5q1 -139 32 -223t104 -141v-8l-29 -26h-7q-88 64 -126 155.5t-39 241.5q1 155 39 248.5t126 157.5h7l29 -26v-8z" />
    <glyph glyph-name="parenright" unicode=")" horiz-adv-x="288" 
d="M5 -108q73 58 104 143.5t32 227.5q-1 139 -32 223t-104 141v8l29 26h7q88 -64 126 -155.5t39 -241.5q-1 -155 -39 -248.5t-126 -157.5h-7l-29 26v8z" />
    <glyph glyph-name="asterisk" unicode="*" horiz-adv-x="374" 
d="M203 607l-34 -4l-5 7l-2 114q28 9 60 9l3 -6zM144 562l-7 -4l-101 34q0 39 8 61l7 2l98 -60zM346 579l-5 -5l-111 -16l-15 30l4 9l100 36q20 -32 27 -54zM287 447q-13 -23 -41 -44l-8 1l-46 113l24 22l10 -2zM172 513l-57 -93q-19 6 -55 28v6l83 84l30 -16z" />
    <glyph glyph-name="plus" unicode="+" horiz-adv-x="480" 
d="M268 293h175l6 -6l-5 -50h-176v-177l-50 -4l-6 6v175h-175l-6 6l5 50h176v177l50 5l6 -7v-175z" />
    <glyph glyph-name="comma" unicode="," horiz-adv-x="229" 
d="M169 20q0 -65 -94 -134l-27 25v7q55 43 55 88q0 27 -31 47v8q28 19 55 26q42 -26 42 -67z" />
    <glyph glyph-name="hyphen" unicode="-" horiz-adv-x="307" 
d="M278 243l-241 -35l-8 8v50l242 34l7 -7v-50z" />
    <glyph glyph-name="period" unicode="." horiz-adv-x="229" 
d="M148 76q12 -12 12 -33q0 -22 -12.5 -35t-34.5 -13q-44 0 -44 46q0 21 12.5 34t34.5 13q20 0 32 -12z" />
    <glyph glyph-name="slash" unicode="/" horiz-adv-x="287" 
d="M83 -113h-55l-6 8l205 783h55l6 -9z" />
    <glyph glyph-name="zero" unicode="0" horiz-adv-x="528" 
d="M426.5 438.5q55.5 -65.5 55.5 -186.5q0 -124 -58 -191.5t-164 -67.5q-102 0 -157.5 65t-55.5 184q0 126 58 194t165 68q101 0 156.5 -65.5zM110 248q0 -185 154 -185q76 0 115.5 45.5t39.5 134.5q0 93 -39.5 140.5t-116.5 47.5q-153 0 -153 -183z" />
    <glyph glyph-name="one" unicode="1" horiz-adv-x="344" 
d="M220 207l4 -207h-80l5 197l-1 214l-129 -36l-8 4v63l202 60l12 -8z" />
    <glyph glyph-name="two" unicode="2" horiz-adv-x="455" 
d="M328.5 471.5q38.5 -30.5 38.5 -80.5q0 -40 -28 -89.5t-89 -120.5l-101 -115l2 -4h185l84 6l6 -5l-11 -67l-102 4h-224l-37 -2l-5 4v50l139 151q54 60 79 99.5t25 69.5q0 27 -20 44.5t-56 17.5t-71.5 -18t-64.5 -50h-10l-13 61q83 75 175 75q60 0 98.5 -30.5z" />
    <glyph glyph-name="three" unicode="3" horiz-adv-x="412" 
d="M301 467.5q42 -35.5 42 -91.5q0 -43 -25.5 -83t-74.5 -65v-4q122 -29 122 -133q0 -55 -28.5 -98t-80.5 -66.5t-119 -23.5q-46 0 -98 9l-5 68l6 5q47 -20 102 -20q66 0 107 31.5t41 84.5q0 47 -33.5 74t-95.5 29h-59l-5 6l2 55l44 1q27 0 55 15t46.5 41t18.5 57
q0 36 -24 57t-63 21q-57 0 -124 -59h-9l-12 63q75 62 160 62q68 0 110 -35.5z" />
    <glyph glyph-name="four" unicode="4" horiz-adv-x="481" 
d="M350 77l3 -163l-5 -6l-60 -5l-5 6l2 168h-187l-66 -2l-5 8v51l251 364h73l-2 -359h94l6 -8l-5 -56l-92 2h-2zM286 402h-7l-182 -263h189v263z" />
    <glyph glyph-name="five" unicode="5" horiz-adv-x="418" 
d="M367 433l-6 -6l-73 6h-148l-4 -156l63 -13q93 -20 132 -58t39 -100q0 -60 -30.5 -106t-85 -72t-123.5 -26q-42 0 -94 10l-6 70l7 7q56 -24 109 -24q68 0 108 35.5t40 92.5q0 45 -30.5 72t-99.5 40l-85 16l-7 7l5 261l13 11l53 -2h135l92 4l4 -6z" />
    <glyph glyph-name="six" unicode="6" horiz-adv-x="470" 
d="M384.5 303q42.5 -46 42.5 -123q0 -84 -52.5 -136t-142.5 -52q-92 0 -139 57t-47 162q0 127 77.5 227t218.5 156h5l62 -36v-8q-120 -42 -187.5 -100t-90.5 -138l6 -7q60 44 130 44q75 0 117.5 -46zM325 78.5q31 31.5 31 90.5q0 58 -29 89.5t-82 31.5q-66 0 -126 -52
l-1 -27q0 -164 120 -164q56 0 87 31.5z" />
    <glyph glyph-name="seven" unicode="7" horiz-adv-x="417" 
d="M346 498l42 2l1 -59l-194 -424l-45 -119l-64 18l-5 13l233 503h-211l-76 -8l-5 9l5 68l90 -3h229z" />
    <glyph glyph-name="eight" unicode="8" horiz-adv-x="474" 
d="M359.5 554.5q41.5 -37.5 41.5 -102.5q0 -51 -26 -84t-71 -59v-5q54 -26 84.5 -57.5t30.5 -88.5q0 -75 -53 -120t-141 -45q-82 0 -129.5 41.5t-47.5 108.5q0 56 32 91.5t85 61.5v5q-94 49 -94 138q0 71 48 112t126 41q73 0 114.5 -37.5zM166 509q-28 -25 -28 -68
t26.5 -66.5t76.5 -43.5q45 19 70.5 44.5t25.5 69.5q0 42 -25.5 65.5t-70.5 23.5q-47 0 -75 -25zM146 226q-30 -27 -30 -75q0 -45 31.5 -73t84.5 -28q55 0 87.5 28.5t32.5 74.5q0 32 -17 53.5t-40.5 34t-67.5 30.5q-51 -18 -81 -45z" />
    <glyph glyph-name="nine" unicode="9" horiz-adv-x="470" 
d="M85.5 196q-42.5 46 -42.5 123q0 84 52.5 136t142.5 52q92 0 139 -57t47 -162q0 -127 -77.5 -227t-218.5 -156h-5l-62 36v8q120 42 187.5 100t90.5 138l-6 7q-60 -44 -130 -44q-75 0 -117.5 46zM145 420.5q-31 -31.5 -31 -90.5q0 -58 29 -89.5t82 -31.5q66 0 126 52l1 27
q0 164 -120 164q-56 0 -87 -31.5z" />
    <glyph glyph-name="colon" unicode=":" horiz-adv-x="229" 
d="M144 76q12 -12 12 -33q0 -22 -12.5 -35t-34.5 -13q-44 0 -44 46q0 21 12.5 34t34.5 13q20 0 32 -12zM144 345q12 -12 12 -33q0 -22 -12.5 -35t-34.5 -13q-44 0 -44 46q0 21 12.5 34t34.5 13q20 0 32 -12z" />
    <glyph glyph-name="semicolon" unicode=";" horiz-adv-x="229" 
d="M165 20q0 -65 -94 -134l-27 25v7q55 43 55 88q0 27 -31 47v8q28 19 55 26q42 -26 42 -67zM144 345q12 -12 12 -33q0 -22 -12.5 -35t-34.5 -13q-44 0 -44 46q0 21 12.5 34t34.5 13q20 0 32 -12z" />
    <glyph glyph-name="less" unicode="&#x3c;" horiz-adv-x="480" 
d="M36 297v-65l383 -152l9 5l12 46l-342 132v6l340 141l4 7l-18 46l-381 -157z" />
    <glyph glyph-name="equal" unicode="=" horiz-adv-x="480" 
d="M444 319h-407l-6 6l5 50h407l6 -6zM444 154h-407l-6 6l5 50h407l6 -6z" />
    <glyph glyph-name="greater" unicode="&#x3e;" horiz-adv-x="480" 
d="M444 297v-65l-383 -152l-9 5l-12 46l342 132v6l-340 141l-4 7l18 46l381 -157z" />
    <glyph glyph-name="question" unicode="?" horiz-adv-x="331" 
d="M270 612.5q65 -40.5 65 -108.5q0 -82 -84 -134l-83 -54l-2 -4l6 -96l-56 -7l-7 7l-8 115l5 10l96 57q61 36 61 94q0 100 -197 112l-6 8l15 44l10 5q120 -8 185 -48.5zM179 76q12 -12 12 -33q0 -22 -12.5 -35t-34.5 -13q-44 0 -44 46q0 21 12.5 34t34.5 13q20 0 32 -12z
" />
    <glyph glyph-name="at" unicode="@" horiz-adv-x="825" 
d="M706 80q-88 -78 -251 -84l29 207h-10q-77 -132 -161 -211h-15q-76 45 -76 159q0 72 27 140t81 115.5t130 58.5h5l64 -23l46 23l10 -4l-50 -351l-2 -55q98 12 152 75t54 166q0 79 -34.5 139t-98.5 93t-150 33q-108 0 -190.5 -46t-128.5 -128.5t-46 -188.5
q0 -108 47.5 -186.5t134 -120t202.5 -41.5l2 -8l-24 -40q-125 1 -219 48t-146 133.5t-52 203.5q0 124 52.5 221t148 151.5t220.5 54.5q101 0 177.5 -39t118 -110.5t41.5 -165.5q0 -141 -88 -219zM362 108q30 33 68.5 95.5t74.5 147.5l1 6l2 25l-63 22q-48 0 -83 -31.5
t-54 -84.5t-19 -118q0 -51 9.5 -73t21.5 -22t42 33z" />
    <glyph glyph-name="A" unicode="A" horiz-adv-x="578" 
d="M474 0l-15 64l-36 110l-144 3l-130 -3l-39 -106l-16 -68h-80l235 641h93l214 -641h-82zM297 558h-7l-116 -316l112 -2l115 2z" />
    <glyph glyph-name="B" unicode="B" horiz-adv-x="537" 
d="M498 179q0 -183 -263 -183q-88 0 -141 4h-1l5 193l-5 448l178 1q90 0 138.5 -40t48.5 -116q0 -54 -25 -93t-71 -59q136 -27 136 -155zM347.5 552.5q-28.5 23.5 -92.5 23.5h-81l-2 -215l110 -3q94 22 94 119q0 52 -28.5 75.5zM373 94q44 31 44 89q0 98 -123 112l-123 -1
l-1 -94l3 -134q39 -3 74 -3q82 0 126 31z" />
    <glyph glyph-name="C" unicode="C" horiz-adv-x="520" 
d="M497 598l-16 -73l-9 -2q-67 56 -154 56q-95 0 -146 -65.5t-51 -191.5q0 -127 51 -194t144 -67q92 0 167 61l10 -5l-7 -76q-87 -48 -177 -48q-129 0 -200 83.5t-71 238.5q0 159 74 245t210 86q101 0 175 -48z" />
    <glyph glyph-name="D" unicode="D" horiz-adv-x="646" 
d="M535 567q73 -78 73 -224q0 -169 -79 -259t-227 -90q-98 0 -208 6h-1l5 193l-5 448h1l231 4q137 0 210 -78zM471.5 127.5q54.5 66.5 54.5 198.5q0 252 -207 252q-63 0 -145 -4l-4 -374l3 -133q70 -6 142 -6q102 0 156.5 66.5z" />
    <glyph glyph-name="E" unicode="E" horiz-adv-x="482" 
d="M453 0h-360l5 193l-5 448h361l4 -8l-6 -62l-151 3l-127 -2l-2 -210l120 -2l106 3l6 -7l-7 -62l-112 2l-114 -1l-1 -95l3 -133l127 -1l154 4l5 -8z" />
    <glyph glyph-name="F" unicode="F" horiz-adv-x="434" 
d="M172 349l108 -2l104 3l6 -8l-7 -61l-111 3l-101 -1l-1 -83l4 -200h-81l5 193l-5 448h341l6 -8l-7 -64l-147 5l-112 -2z" />
    <glyph glyph-name="G" unicode="G" horiz-adv-x="600" 
d="M538 601l-16 -76l-10 -2q-48 30 -88.5 43t-85.5 13q-217 0 -217 -268q0 -129 50.5 -189.5t156.5 -60.5q50 0 130 24l2 75l-1 91l75 6l-2 -86l4 -140q-122 -38 -212 -38q-143 0 -214.5 81t-71.5 234q0 165 81 251.5t231 86.5q101 0 188 -45z" />
    <glyph glyph-name="H" unicode="H" horiz-adv-x="683" 
d="M589 0h-81l6 193l-1 96l-180 3l-162 -3l-1 -89l4 -200h-81l5 193l-5 448h82l-3 -282l168 -3l172 3l-4 282h82l-4 -441z" />
    <glyph glyph-name="I" unicode="I" horiz-adv-x="268" 
d="M174 0h-81l5 193l-5 448h82l-5 -441z" />
    <glyph glyph-name="J" unicode="J" horiz-adv-x="310" 
d="M215 118q0 -76 -38 -125.5t-132 -94.5l-31 45v10q69 37 98 73t29 91v87l-4 372l-123 -1l-8 7l5 59h206l-4 -429z" />
    <glyph glyph-name="K" unicode="K" horiz-adv-x="546" 
d="M173 0h-81l5 193l-5 448h82l-5 -441zM546 17l-1 -10q-31 -9 -76 -16l-9 5q-162 184 -276 339v6l214 244l39 56h91l-259 -301q137 -177 277 -323z" />
    <glyph glyph-name="L" unicode="L" horiz-adv-x="416" 
d="M406 0h-316l5 193l-5 448h82l-5 -441l3 -133h237l6 -7z" />
    <glyph glyph-name="M" unicode="M" horiz-adv-x="789" 
d="M656 0l-15 195l-34 319h-7l-178 -440h-66l-169 440h-8l-34 -313l-17 -201h-68l67 641h91l33 -98l139 -365h6l146 371l33 92h90l63 -641h-72z" />
    <glyph glyph-name="N" unicode="N" horiz-adv-x="683" 
d="M587 0h-84l-331 513h-6l-1 -302l3 -211h-75l5 190l-3 451h84l330 -513h7l-1 509l76 6l-6 -455z" />
    <glyph glyph-name="O" unicode="O" horiz-adv-x="635" 
d="M527.5 566q70.5 -81 70.5 -233q0 -163 -75 -252t-213 -89q-130 0 -201 84t-71 239q0 160 74.5 246t213.5 86q131 0 201.5 -81zM120 325q0 -266 195 -266q200 0 200 260q0 133 -48.5 197.5t-147.5 64.5q-199 0 -199 -256z" />
    <glyph glyph-name="P" unicode="P" horiz-adv-x="520" 
d="M434 593.5q51 -48.5 51 -139.5q0 -107 -63.5 -168t-175.5 -61h-76v-25l4 -200h-81l5 193l-5 448l196 1q94 0 145 -48.5zM403 447q0 124 -132 129l-97 -3l-3 -281l105 -2q127 20 127 157z" />
    <glyph glyph-name="Q" unicode="Q" horiz-adv-x="639" 
d="M696 -189l-7 -3q-201 52 -353 185l-24 -1q-132 0 -203 84t-71 239q0 160 74.5 246t213.5 86q131 0 201.5 -81.5t70.5 -235.5q0 -129 -49 -212t-140 -112q144 -101 321 -134l3 -10q-18 -34 -37 -51zM317 59q198 0 198 264q0 258 -197 258q-100 0 -149 -64t-49 -195
q0 -263 197 -263z" />
    <glyph glyph-name="R" unicode="R" horiz-adv-x="555" 
d="M520 19l-1 -10q-36 -14 -74 -18l-11 7q-82 123 -147 240h-117v-38l4 -200h-81l5 193l-5 448l196 1q94 0 145.5 -47.5t51.5 -135.5q0 -66 -34.5 -118.5t-97.5 -81.5q66 -109 166 -240zM291 303q112 32 112 149q0 119 -132 124l-97 -3l-3 -267z" />
    <glyph glyph-name="S" unicode="S" horiz-adv-x="472" 
d="M410 616l-13 -77l-14 -4q-60 46 -126 46q-37 0 -64.5 -15t-42 -39t-14.5 -50q0 -27 16.5 -47.5t41.5 -35.5t68 -36q54 -25 87 -46.5t56.5 -54.5t23.5 -80q0 -50 -27 -92t-76 -67t-112 -25q-92 0 -172 45l10 82l11 5q35 -34 77.5 -50.5t81.5 -16.5q38 0 67.5 15t45 40
t15.5 53q0 42 -32 67.5t-97 55.5q-53 26 -85 46.5t-55 53t-23 79.5q0 49 26.5 90t74 64.5t108.5 23.5q69 0 143 -30z" />
    <glyph glyph-name="T" unicode="T" horiz-adv-x="490" 
d="M463 571l-112 6h-65l-3 -377l3 -200h-81l6 193l-5 384h-65l-114 -6l-5 8l6 62h435l6 -8z" />
    <glyph glyph-name="U" unicode="U" horiz-adv-x="626" 
d="M552 243q2 -118 -62 -184t-182 -66q-113 0 -173.5 63t-58.5 178l1 87l-1 320h79l-3 -397q-2 -181 162 -181q166 0 164 171l-4 407h80l-1 -326z" />
    <glyph glyph-name="V" unicode="V" horiz-adv-x="564" 
d="M229 0l-214 641h82l15 -65l163 -495h6l180 491l16 69h80l-235 -641h-93z" />
    <glyph glyph-name="W" unicode="W" horiz-adv-x="893" 
d="M572 0l-125 372h-7l-132 -372h-83l-204 641h80l11 -62l156 -490h7l138 390l-54 162h82l15 -69l158 -483h6l174 486l15 66h76l-230 -641h-83z" />
    <glyph glyph-name="X" unicode="X" horiz-adv-x="589" 
d="M560 0h-97l-28 52l-148 219l-153 -224l-26 -47h-85l217 324l-209 317h97l26 -51l138 -205l139 206l26 50h87l-203 -307z" />
    <glyph glyph-name="Y" unicode="Y" horiz-adv-x="528" 
d="M295 0h-81l6 187l-1 43l-204 411h86l13 -36l140 -288h8l153 286l15 38h85l-222 -411l-1 -43z" />
    <glyph glyph-name="Z" unicode="Z" horiz-adv-x="528" 
d="M127 65h266l95 7l4 -6l-7 -68l-116 2h-281l-57 -3v59l360 519h-247l-96 -7l-5 6l6 68l388 -1l49 1v-60z" />
    <glyph glyph-name="bracketleft" unicode="[" horiz-adv-x="288" 
d="M282 603l-119 -11v-667l119 -11v-38l-5 -5l-179 10l4 378l-4 378l179 10l5 -6v-38z" />
    <glyph glyph-name="backslash" unicode="\" horiz-adv-x="287" 
d="M210 -113h55l6 8l-205 783h-55l-6 -9z" />
    <glyph glyph-name="bracketright" unicode="]" horiz-adv-x="288" 
d="M6 -86l119 11v667l-119 11v38l5 5l179 -10l-4 -378l4 -378l-179 -10l-5 6v38z" />
    <glyph glyph-name="asciicircum" unicode="^" horiz-adv-x="424" 
d="M398 126l-46 -11l-132 317h-6l-140 -315l-8 -5l-46 18l158 357l8 5h66l152 -358z" />
    <glyph glyph-name="underscore" unicode="_" horiz-adv-x="450" 
d="M460 -141h-469l-6 7l5 46h469l6 -6z" />
    <glyph glyph-name="grave" unicode="`" 
d="M93 654l2 -8q99 -77 170 -127l9 1l22 32q-98 80 -164 145l-9 -1z" />
    <glyph glyph-name="a" unicode="a" horiz-adv-x="512" 
d="M403 0l-12 54l-26 74l-119 1l-106 -1l-27 -70l-14 -58h-74l192 498h86l175 -498h-75zM261 425h-6l-91 -236l88 -1l92 1z" />
    <glyph glyph-name="b" unicode="b" horiz-adv-x="481" 
d="M435 141q0 -144 -220 -144q-65 0 -125 3l3 150l-3 348l156 1q75 0 116.5 -31.5t41.5 -89.5q0 -85 -80 -119q111 -22 111 -118zM301 423q-24 17 -77 17h-61l-1 -154l89 -3q74 15 74 86q0 37 -24 54zM358 143q0 69 -97 83l-99 -1l-1 -69l2 -99q31 -3 61 -3q134 0 134 89z
" />
    <glyph glyph-name="c" unicode="c" horiz-adv-x="461" 
d="M428 468l-14 -69l-9 -3q-53 45 -129 45q-152 0 -152 -189q0 -95 39 -145t113 -50q76 0 138 46l9 -3l-7 -69q-68 -37 -143 -37q-110 0 -169 65.5t-59 186.5q0 123 62.5 190t176.5 67q83 0 144 -35z" />
    <glyph glyph-name="d" unicode="d" horiz-adv-x="566" 
d="M459.5 441q60.5 -61 60.5 -175q0 -131 -66 -201t-189 -70q-95 0 -175 5l3 150l-3 348l195 4q114 0 174.5 -61zM400.5 104.5q43.5 48.5 43.5 146.5q0 188 -165 188q-49 0 -115 -4l-2 -279l1 -94q66 -6 114 -6q80 0 123.5 48.5z" />
    <glyph glyph-name="e" unicode="e" horiz-adv-x="435" 
d="M400 58l-7 -58h-303l3 150l-3 348h305l5 -6l-6 -58l-126 4l-104 -1l-1 -151l99 -1l87 3l5 -7l-6 -59l-92 3l-93 -1l-1 -68l1 -95l98 -1l133 4z" />
    <glyph glyph-name="f" unicode="f" horiz-adv-x="387" 
d="M158 273l86 -1l88 3l5 -7l-5 -57l-95 1l-80 -1v-55l2 -156h-74l2 150l-2 348h290l4 -6l-6 -58l-123 4l-91 -1z" />
    <glyph glyph-name="g" unicode="g" horiz-adv-x="526" 
d="M463 469l-25 -72h-9q-37 24 -68 33.5t-67 9.5q-85 0 -127.5 -48t-42.5 -150q0 -98 39 -141.5t124 -43.5q47 0 104 21v50l-1 71l69 5v-180q-101 -30 -175 -30q-118 0 -178.5 63.5t-60.5 181.5q0 128 68.5 196t192.5 68q78 0 157 -34z" />
    <glyph glyph-name="h" unicode="h" horiz-adv-x="596" 
d="M506 0h-74l3 150l-1 68l-271 -1l-1 -61l2 -156h-74l3 150l-3 348h75l-2 -214l135 -1l136 1l-2 214h75l-3 -342z" />
    <glyph glyph-name="i" unicode="i" horiz-adv-x="259" 
d="M164 0h-74l3 150l-3 348h75l-3 -342z" />
    <glyph glyph-name="j" unicode="j" horiz-adv-x="289" 
d="M194 165v-72q0 -61 -27.5 -100t-97.5 -73l-30 39v7q47 26 66.5 54.5t19.5 71.5v64l-2 285l-95 -1l-5 6l5 52h169z" />
    <glyph glyph-name="k" unicode="k" horiz-adv-x="490" 
d="M477 17l-2 -11q-31 -10 -72 -15l-12 5q-128 144 -221 264v6l172 188l33 44l89 1l-212 -234q106 -130 225 -248zM164 0h-74l3 150l-3 348h75l-3 -342z" />
    <glyph glyph-name="l" unicode="l" horiz-adv-x="377" 
d="M353 0h-265l3 150l-3 348h75l-3 -342l2 -93h192l4 -7z" />
    <glyph glyph-name="m" unicode="m" horiz-adv-x="683" 
d="M553 0l-11 152l-27 230h-6l-143 -326h-59l-135 326h-6l-26 -224l-14 -158h-64l55 498h87l25 -75l109 -268h6l114 272l26 71h85l51 -498h-67z" />
    <glyph glyph-name="n" unicode="n" horiz-adv-x="596" 
d="M504 0h-80l-262 380h-5l-1 -214l2 -166h-68l3 147l-2 351h79l262 -380h7l-2 377l69 5l-3 -351z" />
    <glyph glyph-name="o" unicode="o" horiz-adv-x="557" 
d="M453.5 440q58.5 -64 58.5 -181q0 -127 -62.5 -196.5t-178.5 -69.5q-108 0 -167 65.5t-59 186.5q0 124 63 191.5t178 67.5q109 0 167.5 -64zM161.5 396q-38.5 -45 -38.5 -142q0 -104 38 -151t116 -47q80 0 119 46t39 144q0 101 -38.5 148t-117.5 47t-117.5 -45z" />
    <glyph glyph-name="p" unicode="p" horiz-adv-x="466" 
d="M381.5 461q42.5 -38 42.5 -110q0 -84 -53.5 -131.5t-147.5 -47.5h-61v-16l2 -156h-74l3 150l-3 348l170 1q79 0 121.5 -38zM346 345q0 90 -106 95l-76 -1l-1 -207l84 -2q99 17 99 115z" />
    <glyph glyph-name="q" unicode="q" horiz-adv-x="560" 
d="M586 -149l-6 -2q-155 41 -284 145q-8 -1 -25 -1q-108 0 -167 65.5t-59 186.5q0 124 63 191.5t178 67.5q109 0 167.5 -64t58.5 -181q0 -99 -38 -163.5t-110 -88.5q119 -76 253 -102l3 -8q-18 -32 -34 -46zM161 103q38 -47 116 -47q80 0 119 46t39 144q0 101 -38.5 148
t-117.5 47t-117.5 -45t-38.5 -142q0 -104 38 -151z" />
    <glyph glyph-name="r" unicode="r" horiz-adv-x="496" 
d="M454 18l-1 -10q-42 -13 -69 -15l-13 8q-76 115 -115 181l-94 -1v-25l2 -156h-74l3 150l-3 348l170 1q79 0 121.5 -37t42.5 -107q0 -51 -27.5 -91t-77.5 -63q61 -93 135 -183zM257 240q89 25 89 109q0 44 -26 66t-79 24l-77 -1l-1 -195z" />
    <glyph glyph-name="s" unicode="s" horiz-adv-x="425" 
d="M359 479l-13 -74l-12 -3q-53 43 -105 43q-43 0 -68 -22.5t-25 -51.5t24.5 -47t75.5 -40q45 -20 71.5 -36t46 -42.5t19.5 -64.5q0 -39 -21 -72.5t-61.5 -54t-96.5 -20.5q-78 0 -145 34l9 79l10 4q28 -28 65.5 -43.5t69.5 -15.5q42 0 69 22.5t27 54.5q0 30 -24.5 48
t-76.5 42q-43 19 -70.5 35t-46.5 42.5t-19 64.5q0 40 21.5 72t61 51t92.5 19q61 0 122 -24z" />
    <glyph glyph-name="t" unicode="t" horiz-adv-x="437" 
d="M400 429l-93 7h-50l-3 -280l3 -156h-75l3 150l-2 286h-50l-95 -7l-6 7l6 62h363l4 -6z" />
    <glyph glyph-name="u" unicode="u" horiz-adv-x="549" 
d="M475 173q1 -85 -51.5 -132t-150.5 -47q-97 0 -148 46.5t-49 132.5l1 76l-1 249h75l-4 -313q-2 -127 129 -127t129 127l-3 313h76l-3 -253v-72z" />
    <glyph glyph-name="v" unicode="v" horiz-adv-x="500" 
d="M201 0l-174 498h77l12 -55l129 -369h5l143 366l12 58h75l-190 -498h-89z" />
    <glyph glyph-name="w" unicode="w" horiz-adv-x="768" 
d="M483 0l-98 272h-6l-103 -272h-80l-163 498h75l9 -53l122 -362h5l109 291l-41 124h78l11 -59l122 -356h6l135 358l12 57h73l-186 -498h-80z" />
    <glyph glyph-name="x" unicode="x" horiz-adv-x="520" 
d="M484 0h-90l-23 43l-116 159l-121 -163l-22 -39h-79l178 250l-173 248h93l21 -42l109 -149l109 150l21 41h81l-167 -238z" />
    <glyph glyph-name="y" unicode="y" horiz-adv-x="473" 
d="M266 0h-75l3 143v30l-169 325h81l11 -29l111 -214h5l122 211l14 32h79l-184 -324l-1 -31z" />
    <glyph glyph-name="z" unicode="z" horiz-adv-x="470" 
d="M130 59h209l83 8l4 -5l-6 -64l-103 2h-226l-51 -2v54l292 386h-203l-77 -8l-4 6l7 63l90 -1h233l43 1v-56z" />
    <glyph glyph-name="braceleft" unicode="{" horiz-adv-x="288" 
d="M273 648l4 -7l-8 -43q-23 5 -37 5q-62 0 -62 -73q0 -32 11 -85q10 -58 10 -79q0 -74 -67 -103v-4q67 -29 67 -102q0 -23 -10 -79q-11 -55 -11 -85q0 -74 62 -74q14 0 37 5l8 -43l-4 -7q-25 -6 -52 -6q-115 0 -115 112q0 25 11 98q9 50 9 76q0 73 -81 86v41q81 16 81 87
q0 25 -9 75q-11 73 -11 99q0 113 115 113q22 0 52 -7z" />
    <glyph glyph-name="bar" unicode="|" horiz-adv-x="314" 
d="M187 288v-547l-55 -3l-7 8v537l1 510l57 4l5 -5z" />
    <glyph glyph-name="braceright" unicode="}" horiz-adv-x="288" 
d="M15 -126l-4 7l8 43q23 -5 37 -5q62 0 62 73q0 32 -11 85q-10 58 -10 79q0 74 67 103v4q-67 29 -67 102q0 23 10 79q11 55 11 85q0 74 -62 74q-14 0 -37 -5l-8 43l4 7q25 6 52 6q115 0 115 -112q0 -25 -11 -98q-9 -50 -9 -76q0 -73 81 -86v-41q-81 -16 -81 -87
q0 -25 9 -75q11 -73 11 -99q0 -113 -115 -113q-22 0 -52 7z" />
    <glyph glyph-name="asciitilde" unicode="~" horiz-adv-x="480" 
d="M129 249.5q-10 -7.5 -33 -28.5l-15 -15h-9l-22 27v9l73 73l10 4q25 -3 98 -25q86 -24 102 -24q10 0 21 8.5t25.5 22t21.5 20.5h8l22 -27v-9l-73 -74l-10 -2q-22 3 -107 26q-78 22 -92 22q-10 0 -20 -7.5z" />
    <glyph glyph-name="nonbreakingspace" unicode="&#xa0;" horiz-adv-x="165" 
 />
    <glyph glyph-name="exclamdown" unicode="&#xa1;" horiz-adv-x="256" 
d="M103 245l47 5l9 -9v-425l-8 -10l-61 -3l-9 10zM105.5 387q-11.5 12 -11.5 33q0 22 12.5 35t33.5 13q45 0 45 -46q0 -21 -13 -34t-35 -13q-20 0 -31.5 12z" />
    <glyph glyph-name="cent" unicode="&#xa2;" horiz-adv-x="383" 
d="M229 36l-13 -155h-38l-8 7l12 153q-67 15 -105 74.5t-38 150.5q0 106 48 170t131 70l11 146h39l8 -8l-11 -139q54 -7 97 -34l-12 -51l-9 -1q-36 25 -79 32l-29 -361h6q60 0 118 35l8 -4l-7 -48q-59 -36 -129 -37zM123.5 161.5q22.5 -44.5 63.5 -61.5l27 351
q-53 -8 -83 -55.5t-30 -123.5q0 -66 22.5 -110.5z" />
    <glyph glyph-name="sterling" unicode="&#xa3;" horiz-adv-x="416" 
d="M379 -2l-100 2h-250l-5 6l5 41q71 15 71 107v137h-71l-4 6l5 38h70v96q0 78 42 120t121 42q46 0 108 -17l-5 -61l-5 -5q-54 32 -103 32q-92 0 -92 -101v-106h127l4 -5l-4 -39h-128v-130q0 -68 -40 -101v-3h164l91 7l4 -7z" />
    <glyph glyph-name="currency" unicode="&#xa4;" horiz-adv-x="435" 
d="M398 501l-67 -63q27 -35 27 -80q0 -44 -26 -78l68 -62l1 -9l-35 -36l-8 1l-63 67q-36 -28 -81 -28q-42 0 -77 27l-63 -68h-8l-37 35l1 8l67 63q-27 35 -27 80q0 42 26 78l-68 63l1 8l33 36h9l64 -68q35 27 79 27q42 0 77 -25l63 67l9 1l35 -35v-9zM145.5 427
q-28.5 -28 -28.5 -69q0 -42 28 -69.5t69 -27.5q42 0 70 27.5t28 69.5q0 41 -28 69t-70 28q-40 0 -68.5 -28z" />
    <glyph glyph-name="yen" unicode="&#xa5;" horiz-adv-x="481" 
d="M464 156l-3 -35h-191l2 -121h-65l3 121h-185l-4 5l3 35h186v11l-44 82h-141l-4 5l3 35h120l-109 203h71l11 -28l122 -220h5l132 218l14 30h70l-119 -203h119l4 -4l-3 -36h-144l-46 -78v-15h189z" />
    <glyph glyph-name="brokenbar" unicode="&#xa6;" horiz-adv-x="314" 
d="M187 373l-55 -7l-7 6v421l58 4l5 -5zM187 -259l-55 -3l-7 8v407l55 7l7 -9v-410z" />
    <glyph glyph-name="section" unicode="&#xa7;" horiz-adv-x="420" 
d="M355 188q-25 -35 -68 -56q48 -45 48 -97q0 -36 -21.5 -67.5t-59.5 -50t-86 -18.5q-72 0 -133 32l10 68l9 6q59 -54 122 -54q41 0 66 22t25 50q0 27 -22.5 48t-71.5 54q-41 27 -66.5 47t-43.5 48t-18 63q0 41 25 76.5t68 57.5q-47 44 -47 94q0 36 21 67t58 49.5t83 18.5
q58 0 110 -21l-11 -68l-11 -3q-54 38 -100 38q-36 0 -59.5 -21.5t-23.5 -48.5q0 -26 23 -47.5t70 -51.5q42 -27 67.5 -47.5t43.5 -48.5t18 -63q0 -41 -25 -76zM313 248q0 31 -24.5 55t-76.5 59q-25 17 -28 19q-72 -34 -72 -84q0 -29 24 -52.5t74 -55.5l32 -21q71 31 71 80z
" />
    <glyph glyph-name="dieresis" unicode="&#xa8;" 
d="M148.658 615.744q11.4863 -11.4863 11.4863 -31.5869q0 -21.0566 -11.9648 -33.5q-11.9639 -12.4434 -33.0215 -12.4434q-42.1143 0 -42.1143 44.0293q0 20.1006 11.9639 32.543q11.9648 12.4434 33.0215 12.4434q19.1436 0 30.6289 -11.4854zM298.658 615.744
q11.4863 -11.4863 11.4863 -31.5869q0 -21.0566 -11.9648 -33.5q-11.9639 -12.4434 -33.0215 -12.4434q-42.1143 0 -42.1143 44.0293q0 20.1006 11.9639 32.543q11.9648 12.4434 33.0215 12.4434q19.1436 0 30.6289 -11.4854z" />
    <glyph glyph-name="copyright" unicode="&#xa9;" horiz-adv-x="685" 
d="M497 560q67 -38 103.5 -107t36.5 -160t-36.5 -160t-103.5 -107t-155 -38t-155 38t-104 107t-37 160t37 160t104 107t155 38t155 -38zM204.5 530.5q-59.5 -33.5 -92 -95t-32.5 -142.5t32.5 -142.5t92 -95t137.5 -33.5q77 0 136.5 34t92.5 95t33 142t-33 142t-92.5 95
t-136.5 34q-78 0 -137.5 -33.5zM451 442l-12 -45l-5 -2q-34 23 -79 23q-102 0 -102 -119q0 -126 102 -126q44 0 85 23l6 -2l-5 -45q-43 -23 -90 -23q-77 0 -116.5 43t-39.5 125t42 126.5t120 44.5q48 0 94 -23z" />
    <glyph glyph-name="ordfeminine" unicode="&#xaa;" horiz-adv-x="320" 
d="M240 627q26 -22 26 -63l-3 -81q-3 -48 -3 -70q0 -27 17 -27q12 0 19 6l6 -4l-8 -40q-19 -15 -42 -15q-22 0 -33 11t-16 37h-3q-35 -40 -75 -49q-43 2 -67 25.5t-24 63.5q0 62 65 74l101 19l1 37q0 47 -48 47q-38 0 -91 -37l-5 2l-9 47q59 39 117 39q49 0 75 -22zM98 427
q0 -20 11 -32t30 -12q29 0 59 36l1 60l-70 -16q-31 -6 -31 -36z" />
    <glyph glyph-name="guillemotleft" unicode="&#xab;" horiz-adv-x="398" 
d="M20 232l145 174l39 -22l1 -10l-124 -149l124 -149l-1 -9l-39 -22l-145 171v16zM186 232l145 174l39 -22l1 -10l-124 -149l124 -149l-1 -9l-39 -22l-145 171v16z" />
    <glyph glyph-name="logicalnot" unicode="&#xac;" horiz-adv-x="480" 
d="M424 60l-50 -4l-6 6v175h-334l-5 6l4 50h385l6 -7v-226z" />
    <glyph glyph-name="softhyphen" unicode="&#xad;" horiz-adv-x="307" 
d="M278 243l-241 -35l-8 8v50l242 34l7 -7v-50z" />
    <glyph glyph-name="registered" unicode="&#xae;" horiz-adv-x="439" 
d="M351.5 652.5q49.5 -49.5 49.5 -131.5t-49.5 -132t-131.5 -50t-132 50t-50 132t50 131.5t132 49.5t131.5 -49.5zM333.5 408q42.5 43 42.5 113t-42.5 112.5t-112.5 42.5q-71 0 -113.5 -42.5t-42.5 -112.5t43 -113t113 -43t112.5 43zM253 508q18 -29 52 -70l-1 -4
q-13 -4 -35 -6l-4 3q-24 35 -43 68h-34v-7l2 -61h-36l1 58l-1 135h73q65 0 65 -57q0 -39 -39 -59zM225 527q30 10 30 37q0 31 -39 33l-26 -1l-1 -67z" />
    <glyph glyph-name="macron" unicode="&#xaf;" 
d="M337 582h-283l-6 6l5 46h283l6 -5z" />
    <glyph glyph-name="degree" unicode="&#xb0;" horiz-adv-x="293" 
d="M236.5 611q36.5 -36 36.5 -88t-36.5 -88.5t-89.5 -36.5t-90 36.5t-37 88.5t37 88t90 36t89.5 -36zM85.5 583q-25.5 -25 -25.5 -60t25.5 -60t60.5 -25q36 0 61.5 25t25.5 60t-25.5 60t-61.5 25q-35 0 -60.5 -25z" />
    <glyph glyph-name="plusminus" unicode="&#xb1;" horiz-adv-x="480" 
d="M268 293h175l6 -6l-5 -50h-176v-177l-50 -4l-6 6v175h-175l-6 6l5 50h176v177l50 5l6 -7v-175zM444 -91h-407l-6 6l5 50h407l6 -6z" />
    <glyph glyph-name="twosuperior" unicode="&#xb2;" horiz-adv-x="349" 
d="M253.5 681.5q30.5 -23.5 30.5 -62.5q0 -29 -19.5 -63t-65.5 -91l-67 -85l2 -2h123l64 3l3 -6l-8 -55l-80 3h-166l-27 -1l-4 3v42l98 114q41 50 58 76t17 47q0 19 -13.5 31.5t-37.5 12.5q-25 0 -51 -13.5t-47 -37.5h-9l-11 53q65 55 134 55q46 0 76.5 -23.5z" />
    <glyph glyph-name="threesuperior" unicode="&#xb3;" horiz-adv-x="308" 
d="M220.5 682.5q29.5 -23.5 29.5 -62.5q0 -27 -15.5 -52t-46.5 -39v-4q76 -20 76 -91q0 -52 -43.5 -83.5t-114.5 -31.5q-39 0 -68 7l-5 50l6 5q36 -9 68 -9q41 0 64.5 17t23.5 46q0 55 -70 57h-43l-4 5l1 47h30q25 0 47.5 18.5t22.5 44.5q0 21 -14 32.5t-38 11.5
q-34 0 -79 -31h-7l-11 47q51 39 112 39q49 0 78.5 -23.5z" />
    <glyph glyph-name="acute" unicode="&#xb4;" 
d="M297 654l-2 -8q-99 -77 -170 -127l-9 1l-22 32q98 80 164 145l9 -1z" />
    <glyph glyph-name="uni00B5" unicode="&#xb5;" horiz-adv-x="511" 
d="M480 14q-27 -19 -59 -19q-55 0 -68 65h-7q-61 -53 -130 -66q-40 0 -69 17v-196h-74l2 379l-2 259l74 7v-317q1 -38 22 -60t58 -22q58 0 122 61v331l75 7l-5 -357q-1 -50 28 -50q15 0 34 12l8 -6z" />
    <glyph glyph-name="paragraph" unicode="&#xb6;" horiz-adv-x="485" 
d="M453 578h-74l-3 -395l1 -54q0 -66 -36.5 -115t-122.5 -91l-23 36v10q56 35 81.5 71.5t25.5 83.5v46l-1 409h-59q-58 -5 -89.5 -41.5t-31.5 -97.5t34.5 -103t99.5 -62l-25 -45q-92 18 -142 72t-50 141q0 94 57 146t162 52h196l6 -8z" />
    <glyph glyph-name="periodcentered" unicode="&#xb7;" horiz-adv-x="229" 
d="M148 279q12 -12 12 -33q0 -22 -12.5 -35t-34.5 -13q-44 0 -44 46q0 21 12.5 34t34.5 13q20 0 32 -12z" />
    <glyph glyph-name="cedilla" unicode="&#xb8;" 
d="M234 -71q38 -22 38 -56q0 -29 -22.5 -47.5t-58.5 -18.5q-43 0 -72 31l7 40l5 1q28 -31 57 -31q14 0 22.5 7t8.5 20t-21 25l-48 29l25 90h46l-21 -70z" />
    <glyph glyph-name="onesuperior" unicode="&#xb9;" horiz-adv-x="258" 
d="M167 458l2 -135h-71l2 126v179l-80 -21l-6 3v56l146 41l9 -9z" />
    <glyph glyph-name="ordmasculine" unicode="&#xba;" horiz-adv-x="339" 
d="M273.5 609q34.5 -40 34.5 -115q0 -78 -37 -120.5t-105 -42.5q-65 0 -100 40t-35 115q0 79 37 121t105 42q66 0 100.5 -40zM99 493q0 -112 71 -112q73 0 73 106q0 111 -72 111t-72 -105z" />
    <glyph glyph-name="guillemotright" unicode="&#xbb;" horiz-adv-x="391" 
d="M373 220l-145 -174l-39 22l-1 10l124 149l-124 149l1 9l39 22l145 -171v-16zM207 220l-145 -174l-39 22l-1 10l124 149l-124 149l1 9l39 22l145 -171v-16z" />
    <glyph glyph-name="onequarter" unicode="&#xbc;" horiz-adv-x="702" 
d="M89 -91l-35 20l-5 12l471 737l35 -20l6 -14zM20 547l-6 3v56l146 41l9 -9l-2 -240l2 -135h-71l2 126v179zM606 101l4 -95l-4 -6l-56 -3l-4 4l1 100h-114l-51 -3l-5 7v44l164 230h65l-1 -226h58l5 -6l-4 -49zM548 153v147h-5l-104 -147h109z" />
    <glyph glyph-name="onehalf" unicode="&#xbd;" horiz-adv-x="716" 
d="M561 644l-472 -735l-35 20l-5 12l471 737l35 -20zM167 398l2 -135h-71l2 126v179l-80 -21l-6 3v56l146 41l9 -9zM620.5 358.5q30.5 -23.5 30.5 -62.5q0 -29 -19.5 -63t-65.5 -91l-67 -85l2 -2h123l64 3l3 -6l-8 -55l-80 3h-166l-27 -1l-4 3v42l98 114q41 50 58 76t17 47
q0 19 -13.5 31.5t-37.5 12.5q-25 0 -51 -13.5t-47 -37.5h-9l-11 53q65 55 134 55q46 0 76.5 -23.5z" />
    <glyph glyph-name="threequarters" unicode="&#xbe;" horiz-adv-x="739" 
d="M126 -91l-35 20l-5 12l471 737l35 -20l6 -14zM220.5 290.5q-43.5 -31.5 -114.5 -31.5q-39 0 -68 7l-5 50l6 5q36 -9 68 -9q41 0 64.5 17t23.5 46q0 55 -70 57h-43l-4 5l1 47h30q25 0 47.5 18.5t22.5 44.5q0 21 -14 32.5t-38 11.5q-34 0 -79 -31h-7l-11 47q51 39 112 39
q49 0 78.5 -23.5t29.5 -62.5q0 -27 -15.5 -52t-46.5 -39v-4q76 -20 76 -91q0 -52 -43.5 -83.5zM643 101l4 -95l-4 -6l-56 -3l-4 4l1 100h-114l-51 -3l-5 7v44l164 230h65l-1 -226h58l5 -6l-4 -49zM585 153v147h-5l-104 -147h109z" />
    <glyph glyph-name="questiondown" unicode="&#xbf;" horiz-adv-x="331" 
d="M65 -149.5q-65 40.5 -65 108.5q0 82 84 134l83 54l2 4l-6 96l56 7l7 -7l8 -115l-5 -10l-96 -57q-61 -36 -61 -94q0 -100 197 -112l6 -8l-15 -44l-10 -5q-120 8 -185 48.5zM156 387q-12 12 -12 33q0 22 12.5 35t34.5 13q44 0 44 -46q0 -21 -12.5 -34t-34.5 -13
q-20 0 -32 12z" />
    <glyph glyph-name="Agrave" unicode="&#xc0;" horiz-adv-x="578" 
d="M182 807l-2 8l20 47l9 2q89 -52 192 -103l-14 -36l-10 -4q-106 45 -195 86zM474 0l-14 64l-36 110l-145 3l-130 -3l-39 -106l-16 -68h-80l236 641h93l214 -641h-83zM297 558h-7l-116 -316l112 -2l115 2z" />
    <glyph glyph-name="Aacute" unicode="&#xc1;" horiz-adv-x="578" 
d="M474 0l-15 64l-36 110l-144 3l-130 -3l-39 -106l-16 -68h-80l235 641h93l214 -641h-82zM297 558h-7l-116 -316l112 -2l115 2zM427 814l-2 -8q-89 -41 -195 -86l-10 4l-14 36q103 51 192 103l9 -2z" />
    <glyph glyph-name="Acircumflex" unicode="&#xc2;" horiz-adv-x="578" 
d="M162 767q67 46 116 91h23q45 -40 117 -91l-16 -34h-9q-56 34 -103 66q-39 -27 -102 -66h-10zM474 0l-14 64l-36 110l-145 3l-130 -3l-39 -106l-16 -68h-80l236 641h93l214 -641h-83zM297 558h-7l-116 -316l112 -2l115 2z" />
    <glyph glyph-name="Atilde" unicode="&#xc3;" horiz-adv-x="578" 
d="M474 0l-15 64l-36 110l-144 3l-130 -3l-39 -106l-16 -68h-80l235 641h93l214 -641h-82zM297 558h-7l-116 -316l112 -2l115 2zM447 816l-61 -69l-10 -3q-22 2 -84 20q-57 17 -71 17q-7 0 -15 -6.5t-25 -23.5l-16 -17h-9l-24 26v7l61 69l10 3q24 -2 83 -20q62 -16 72 -16
q13 0 40 29l17 17h8l24 -25v-8z" />
    <glyph glyph-name="Adieresis" unicode="&#xc4;" horiz-adv-x="578" 
d="M180 756q-11 12 -11 32t12 32.5t33 12.5q20 0 31 -11t11 -31q0 -21 -12 -34t-33 -13q-20 0 -31 12zM337 756q-11 12 -11 32t12 32.5t33 12.5q20 0 31 -11t11 -31q0 -21 -12 -34t-33 -13q-20 0 -31 12zM474 0l-14 64l-36 110l-145 3l-130 -3l-39 -106l-16 -68h-80l236 641
h93l214 -641h-83zM297 558h-7l-116 -316l112 -2l115 2z" />
    <glyph glyph-name="Aring" unicode="&#xc5;" horiz-adv-x="578" 
d="M474 0l-15 64l-36 110l-144 3l-130 -3l-39 -106l-16 -68h-80l235 641h93l214 -641h-82zM297 558h-7l-116 -316l112 -2l115 2zM351 856.5q22 -22.5 22 -58.5q0 -39 -24.5 -61.5t-61.5 -22.5q-36 0 -59 21.5t-23 60.5q0 38 23 60.5t62 22.5t61 -22.5zM243 797
q0 -22 12.5 -33.5t33.5 -11.5q20 0 32.5 11t12.5 32q0 45 -46 45q-45 0 -45 -43z" />
    <glyph glyph-name="AE" unicode="&#xc6;" horiz-adv-x="807" 
d="M785 0h-348l-5 64l-29 195l-238 -54l-73 -137l-25 -68h-83l338 641h373l6 -8l-8 -62l-162 4h-97l35 -237l215 45l7 -6l4 -58l-217 -43l31 -211h113l164 5l6 -8zM358 558h-6l-147 -277l188 41z" />
    <glyph glyph-name="Ccedilla" unicode="&#xc7;" horiz-adv-x="520" 
d="M483 122l10 -5l-7 -76q-76 -43 -156 -47l-13 -45l34 -20q38 -22 38 -56q0 -29 -22.5 -47.5t-58.5 -18.5q-43 0 -72 31l7 40l5 1q28 -31 57 -31q14 0 22.5 7t8.5 20t-21 25l-48 29l18 65q-118 8 -182.5 91t-64.5 230q0 159 74 245t210 86q101 0 175 -48l-16 -73l-9 -2
q-67 56 -154 56q-95 0 -146 -65.5t-51 -191.5q0 -127 51 -194t144 -67q92 0 167 61z" />
    <glyph glyph-name="Egrave" unicode="&#xc8;" horiz-adv-x="482" 
d="M166 807l-2 8l20 47l9 2q89 -52 192 -103l-14 -36l-10 -4q-106 45 -195 86zM459 62l-6 -62h-360l5 193l-5 448h361l5 -8l-7 -62l-151 3l-127 -2l-2 -210l120 -2l106 3l5 -7l-6 -62l-112 2l-114 -1l-1 -95l3 -133l128 -1l153 4z" />
    <glyph glyph-name="Eacute" unicode="&#xc9;" horiz-adv-x="482" 
d="M453 0h-360l5 193l-5 448h361l4 -8l-6 -62l-151 3l-127 -2l-2 -210l120 -2l106 3l6 -7l-7 -62l-112 2l-114 -1l-1 -95l3 -133l127 -1l154 4l5 -8zM412 814l-2 -8q-89 -41 -195 -86l-10 4l-14 36q103 51 192 103l9 -2z" />
    <glyph glyph-name="Ecircumflex" unicode="&#xca;" horiz-adv-x="482" 
d="M146 767q67 46 116 91h23q45 -40 117 -91l-16 -34h-9q-56 34 -103 66q-39 -27 -102 -66h-10zM459 62l-6 -62h-360l5 193l-5 448h361l5 -8l-7 -62l-151 3l-127 -2l-2 -210l120 -2l106 3l5 -7l-6 -62l-112 2l-114 -1l-1 -95l3 -133l128 -1l153 4z" />
    <glyph glyph-name="Edieresis" unicode="&#xcb;" horiz-adv-x="482" 
d="M164 756q-11 12 -11 32t12 32.5t33 12.5q20 0 31 -11t11 -31q0 -21 -12 -34t-33 -13q-20 0 -31 12zM321 756q-11 12 -11 32t12 32.5t33 12.5q20 0 31 -11t11 -31q0 -21 -12 -34t-33 -13q-20 0 -31 12zM459 62l-6 -62h-360l5 193l-5 448h361l5 -8l-7 -62l-151 3l-127 -2
l-2 -210l120 -2l106 3l5 -7l-6 -62l-112 2l-114 -1l-1 -95l3 -133l128 -1l153 4z" />
    <glyph glyph-name="Igrave" unicode="&#xcc;" horiz-adv-x="268" 
d="M245 761l-14 -36l-10 -4q-106 45 -195 86l-2 8l20 47l9 2q89 -52 192 -103zM174 0h-81l5 193l-5 448h82l-5 -441z" />
    <glyph glyph-name="Iacute" unicode="&#xcd;" horiz-adv-x="268" 
d="M174 0h-81l5 193l-5 448h82l-5 -441zM271 814l-2 -8q-89 -41 -195 -86l-10 4l-14 36q103 51 192 103l9 -2z" />
    <glyph glyph-name="Icircumflex" unicode="&#xce;" horiz-adv-x="268" 
d="M122 858h23q45 -40 117 -91l-16 -34h-9q-56 34 -103 66q-39 -27 -102 -66h-10l-16 34q67 46 116 91zM174 0h-81l5 193l-5 448h82l-5 -441z" />
    <glyph glyph-name="Eth" unicode="&#xd0;" horiz-adv-x="668" 
d="M556.5 567q73.5 -78 73.5 -224q0 -169 -79.5 -259t-227.5 -90q-98 0 -208 6h-1l6 193l-1 103h-103l-4 7l3 50h103l-4 288h1l231 4q137 0 210.5 -78zM493.5 127.5q54.5 66.5 54.5 198.5q0 252 -207 252q-66 0 -146 -4l-2 -221h145l4 -7l-3 -50h-146l-1 -96l2 -133
q72 -6 142 -6q103 0 157.5 66.5z" />
    <glyph glyph-name="Ntilde" unicode="&#xd1;" horiz-adv-x="683" 
d="M587 0h-84l-331 513h-6l-1 -302l3 -211h-75l5 190l-3 451h84l330 -513h7l-1 509l76 6l-6 -455zM496 816l-61 -69l-10 -3q-22 2 -84 20q-57 17 -71 17q-7 0 -15 -6.5t-25 -23.5l-16 -17h-9l-24 26v7l61 69l10 3q24 -2 83 -20q62 -16 72 -16q13 0 40 29l17 17h8l24 -25v-8z
" />
    <glyph glyph-name="Ograve" unicode="&#xd2;" horiz-adv-x="635" 
d="M429 761l-14 -36l-10 -4q-106 45 -195 86l-2 8l20 47l9 2q89 -52 192 -103zM527.5 566q70.5 -81 70.5 -233q0 -163 -75 -252t-213 -89q-130 0 -201 84t-71 239q0 160 74.5 246t213.5 86q131 0 201.5 -81zM120 325q0 -266 195 -266q200 0 200 260q0 133 -48.5 197.5
t-147.5 64.5q-199 0 -199 -256z" />
    <glyph glyph-name="Oacute" unicode="&#xd3;" horiz-adv-x="635" 
d="M527.5 566q70.5 -81 70.5 -233q0 -163 -75 -252t-213 -89q-130 0 -201 84t-71 239q0 160 74.5 246t213.5 86q131 0 201.5 -81zM120 325q0 -266 195 -266q200 0 200 260q0 133 -48.5 197.5t-147.5 64.5q-199 0 -199 -256zM456 814l-2 -8q-89 -41 -195 -86l-10 4l-14 36
q103 51 192 103l9 -2z" />
    <glyph glyph-name="Ocircumflex" unicode="&#xd4;" horiz-adv-x="635" 
d="M306 858h23q45 -40 117 -91l-16 -34h-9q-56 34 -103 66q-39 -27 -102 -66h-10l-16 34q67 46 116 91zM527.5 566q70.5 -81 70.5 -233q0 -163 -75 -252t-213 -89q-130 0 -201 84t-71 239q0 160 74.5 246t213.5 86q131 0 201.5 -81zM120 325q0 -266 195 -266q200 0 200 260
q0 133 -48.5 197.5t-147.5 64.5q-199 0 -199 -256z" />
    <glyph glyph-name="Otilde" unicode="&#xd5;" horiz-adv-x="635" 
d="M527.5 566q70.5 -81 70.5 -233q0 -163 -75 -252t-213 -89q-130 0 -201 84t-71 239q0 160 74.5 246t213.5 86q131 0 201.5 -81zM120 325q0 -266 195 -266q200 0 200 260q0 133 -48.5 197.5t-147.5 64.5q-199 0 -199 -256zM476 816l-61 -69l-10 -3q-22 2 -84 20
q-57 17 -71 17q-7 0 -15 -6.5t-25 -23.5l-16 -17h-9l-24 26v7l61 69l10 3q24 -2 83 -20q62 -16 72 -16q13 0 40 29l17 17h8l24 -25v-8z" />
    <glyph glyph-name="multiply" unicode="&#xd7;" horiz-adv-x="480" 
d="M403 388l-123 -123l123 -123v-9l-38 -33l-125 125l-126 -125l-37 33v8l124 124l-124 123v10l37 32l126 -125l125 125l38 -32v-10z" />
    <glyph glyph-name="Oslash" unicode="&#xd8;" horiz-adv-x="635" 
d="M598 333q0 -163 -75 -252t-213 -89q-61 0 -107 18l-53 -112l-49 17l-4 8l54 115q-113 79 -113 277q0 160 74.5 246t213.5 86q57 0 102 -15l43 92l48 -18l5 -10l-42 -90q116 -76 116 -273zM183 108l215 460q-33 13 -79 13q-199 0 -199 -256q0 -152 63 -217zM515 319
q0 154 -66 217l-217 -462q36 -15 83 -15q200 0 200 260z" />
    <glyph glyph-name="Ugrave" unicode="&#xd9;" horiz-adv-x="626" 
d="M428 761l-14 -36l-10 -4q-106 45 -195 86l-2 8l20 47l9 2q89 -52 192 -103zM551 243q2 -119 -61.5 -184.5t-181.5 -65.5q-114 0 -174 62.5t-58 178.5l1 87l-1 320h79l-4 -397q-2 -181 163 -181q164 0 164 171l-4 407h80l-2 -326z" />
    <glyph glyph-name="Uacute" unicode="&#xda;" horiz-adv-x="626" 
d="M552 243q2 -118 -62 -184t-182 -66q-113 0 -173.5 63t-58.5 178l1 87l-1 320h79l-3 -397q-2 -181 162 -181q166 0 164 171l-4 407h80l-1 -326zM453 814l-2 -8q-89 -41 -195 -86l-10 4l-14 36q103 51 192 103l9 -2z" />
    <glyph glyph-name="Ucircumflex" unicode="&#xdb;" horiz-adv-x="626" 
d="M305 858h23q45 -40 117 -91l-16 -34h-9q-56 34 -103 66q-39 -27 -102 -66h-10l-16 34q67 46 116 91zM551 243q2 -119 -61.5 -184.5t-181.5 -65.5q-114 0 -174 62.5t-58 178.5l1 87l-1 320h79l-4 -397q-2 -181 163 -181q164 0 164 171l-4 407h80l-2 -326z" />
    <glyph glyph-name="Udieresis" unicode="&#xdc;" horiz-adv-x="626" 
d="M272 822q11 -11 11 -31q0 -21 -12 -34t-33 -13q-20 0 -31 12t-11 32t12 32.5t33 12.5q20 0 31 -11zM429 822q11 -11 11 -31q0 -21 -12 -34t-33 -13q-20 0 -31 12t-11 32t12 32.5t33 12.5q20 0 31 -11zM551 243q2 -119 -61.5 -184.5t-181.5 -65.5q-114 0 -174 62.5
t-58 178.5l1 87l-1 320h79l-4 -397q-2 -181 163 -181q164 0 164 171l-4 407h80l-2 -326z" />
    <glyph glyph-name="Thorn" unicode="&#xde;" horiz-adv-x="525" 
d="M437 482.5q51 -48.5 51 -140.5q0 -108 -62.5 -167t-177.5 -59l-76 -1l2 -115h-80l3 193l-3 448h81l-1 -111l117 1q95 0 146 -48.5zM405 336q0 124 -132 130l-100 -3l-2 -263v-18l106 -2q128 23 128 156z" />
    <glyph glyph-name="germandbls" unicode="&#xdf;" horiz-adv-x="558" 
d="M479 455l4 -13l-131 -153q88 -29 127.5 -64t39.5 -92q0 -65 -47.5 -102t-119.5 -37q-78 0 -141 34l8 75l8 4q27 -24 60.5 -38t60.5 -14q41 0 66 22.5t25 56.5q0 40 -42.5 65.5t-135.5 48.5l-3 14l128 151q-57 29 -108 29q-62 0 -96.5 -30t-34.5 -85l-2 -171l3 -156h-74
l2 147l-1 180q0 80 56 128t153 48q85 0 195 -48z" />
    <glyph glyph-name="agrave" unicode="&#xe0;" horiz-adv-x="512" 
d="M161 686l-2 8l30 42l9 1q66 -65 164 -145l-22 -32l-9 -1q-71 50 -170 127zM403 0l-12 54l-26 74l-119 1l-106 -1l-27 -70l-14 -58h-74l192 498h86l176 -498h-76zM261 425h-6l-91 -236l88 -1l92 1z" />
    <glyph glyph-name="aacute" unicode="&#xe1;" horiz-adv-x="512" 
d="M403 0l-12 54l-26 74l-119 1l-106 -1l-27 -70l-14 -58h-74l192 498h86l175 -498h-75zM261 425h-6l-91 -236l88 -1l92 1zM390 694l-2 -8q-99 -77 -170 -127l-9 1l-22 32q98 80 164 145l9 -1z" />
    <glyph glyph-name="acircumflex" unicode="&#xe2;" horiz-adv-x="512" 
d="M128 595q58 58 122 134h24q62 -77 121 -134l-22 -32h-9q-62 59 -102 104q-38 -42 -102 -104h-10zM403 0l-12 54l-26 74l-119 1l-106 -1l-27 -70l-14 -58h-74l192 498h86l176 -498h-76zM261 425h-6l-91 -236l88 -1l92 1z" />
    <glyph glyph-name="atilde" unicode="&#xe3;" horiz-adv-x="512" 
d="M403 0l-12 54l-26 74l-119 1l-106 -1l-27 -70l-14 -58h-74l192 498h86l175 -498h-75zM261 425h-6l-91 -236l88 -1l92 1zM418 674l-61 -69l-10 -3q-22 2 -84 20q-57 17 -71 17q-7 0 -15 -6.5t-25 -23.5l-16 -17h-9l-24 26v7l61 69l10 3q24 -2 83 -20q62 -16 72 -16
q13 0 40 29l17 17h8l24 -25v-8z" />
    <glyph glyph-name="adieresis" unicode="&#xe4;" horiz-adv-x="512" 
d="M151 614q-11 12 -11 32t12 32.5t33 12.5q20 0 31 -11t11 -31q0 -21 -12 -34t-33 -13q-20 0 -31 12zM308 614q-11 12 -11 32t12 32.5t33 12.5q20 0 31 -11t11 -31q0 -21 -12 -34t-33 -13q-20 0 -31 12zM403 0l-12 54l-26 74l-119 1l-106 -1l-27 -70l-14 -58h-74l192 498
h86l176 -498h-76zM261 425h-6l-91 -236l88 -1l92 1z" />
    <glyph glyph-name="aring" unicode="&#xe5;" horiz-adv-x="512" 
d="M403 0l-12 54l-26 74l-119 1l-106 -1l-27 -70l-14 -58h-74l192 498h86l175 -498h-75zM261 425h-6l-91 -236l88 -1l92 1zM322 714.5q22 -22.5 22 -58.5q0 -39 -24.5 -61.5t-61.5 -22.5q-36 0 -59 21.5t-23 60.5q0 38 23 60.5t62 22.5t61 -22.5zM214 655q0 -22 12.5 -33.5
t33.5 -11.5q20 0 32.5 11t12.5 32q0 45 -46 45q-45 0 -45 -43z" />
    <glyph glyph-name="ae" unicode="&#xe6;" horiz-adv-x="700" 
d="M668 0h-293l-4 53l-21 136l-205 -46l-49 -86l-20 -57h-74l277 498h316l5 -6l-7 -58l-133 5h-79l28 -176l176 38l6 -4l4 -60l-177 -34l22 -142h92l137 4l5 -5zM312 425h-6l-120 -211l154 34z" />
    <glyph glyph-name="ccedilla" unicode="&#xe7;" horiz-adv-x="461" 
d="M414 103l9 -3l-7 -69q-61 -33 -126 -37l-14 -45l34 -20q38 -22 38 -56q0 -29 -22.5 -47.5t-58.5 -18.5q-43 0 -72 31l7 40l5 1q28 -31 57 -31q14 0 22.5 7t8.5 20t-21 25l-48 29l18 66q-96 8 -147.5 73t-51.5 178q0 123 62.5 190t176.5 67q83 0 144 -35l-14 -69l-9 -3
q-53 45 -129 45q-74 0 -113.5 -47.5t-39.5 -141.5q0 -95 39.5 -145t113.5 -50t138 46z" />
    <glyph glyph-name="egrave" unicode="&#xe8;" horiz-adv-x="435" 
d="M142 686l-2 8l30 42l9 1q66 -65 164 -145l-22 -32l-9 -1q-71 50 -170 127zM400 58l-7 -58h-303l3 150l-3 348h305l5 -6l-6 -58l-126 4l-103 -1l-1 -151l99 -1l87 3l4 -7l-5 -59l-93 3l-93 -1l-1 -68l2 -95l96 -1l134 4z" />
    <glyph glyph-name="eacute" unicode="&#xe9;" horiz-adv-x="435" 
d="M400 58l-7 -58h-303l3 150l-3 348h305l5 -6l-6 -58l-126 4l-104 -1l-1 -151l99 -1l87 3l5 -7l-6 -59l-92 3l-93 -1l-1 -68l1 -95l98 -1l133 4zM372 694l-2 -8q-99 -77 -170 -127l-9 1l-22 32q98 80 164 145l9 -1z" />
    <glyph glyph-name="ecircumflex" unicode="&#xea;" horiz-adv-x="435" 
d="M109 595q57 57 122 134h24q62 -77 121 -134l-22 -32h-9q-62 59 -102 104q-38 -42 -102 -104h-10zM400 58l-7 -58h-303l3 150l-3 348h305l5 -6l-6 -58l-126 4l-103 -1l-1 -151l99 -1l87 3l4 -7l-5 -59l-93 3l-93 -1l-1 -68l2 -95l96 -1l134 4z" />
    <glyph glyph-name="edieresis" unicode="&#xeb;" horiz-adv-x="435" 
d="M132 614q-11 12 -11 32t12 32.5t33 12.5q20 0 31 -11t11 -31q0 -21 -12 -34t-33 -13q-20 0 -31 12zM289 614q-11 12 -11 32t12 32.5t33 12.5q20 0 31 -11t11 -31q0 -21 -12 -34t-33 -13q-20 0 -31 12zM400 58l-7 -58h-303l3 150l-3 348h305l5 -6l-6 -58l-126 4l-103 -1
l-1 -151l99 -1l87 3l4 -7l-5 -59l-93 3l-93 -1l-1 -68l2 -95l96 -1l134 4z" />
    <glyph glyph-name="igrave" unicode="&#xec;" horiz-adv-x="259" 
d="M232 592l-22 -32l-9 -1q-71 50 -170 127l-2 8l30 42l9 1q66 -65 164 -145zM165 0h-75l3 150l-3 348h76l-4 -342z" />
    <glyph glyph-name="iacute" unicode="&#xed;" horiz-adv-x="259" 
d="M164 0h-74l3 150l-3 348h75l-3 -342zM260 694l-2 -8q-99 -77 -170 -127l-9 1l-22 32q98 80 164 145l9 -1z" />
    <glyph glyph-name="icircumflex" unicode="&#xee;" horiz-adv-x="259" 
d="M120 729h24q62 -77 121 -134l-22 -32h-9q-62 59 -102 104q-38 -42 -102 -104h-10l-22 32q58 58 122 134zM165 0h-75l3 150l-3 348h76l-4 -342z" />
    <glyph glyph-name="eth" unicode="&#xf0;" horiz-adv-x="584" 
d="M476 440.5q61 -61.5 61 -174.5q0 -130 -66.5 -200.5t-189.5 -70.5q-95 0 -175 5l3 150l-1 69h-86l-5 7l3 47h88l-2 225l195 4q114 0 175 -61.5zM460 251q0 188 -164 188q-49 0 -115 -4l-2 -162h128l4 -7l-3 -47h-129l-1 -63l2 -94q66 -6 113 -6q167 0 167 195z" />
    <glyph glyph-name="ntilde" unicode="&#xf1;" horiz-adv-x="596" 
d="M504 0h-80l-262 380h-5l-1 -214l2 -166h-68l3 147l-2 351h79l262 -380h7l-2 377l69 5l-3 -351zM454 674l-61 -69l-10 -3q-22 2 -84 20q-57 17 -71 17q-7 0 -15 -6.5t-25 -23.5l-16 -17h-9l-24 26v7l61 69l10 3q24 -2 83 -20q62 -16 72 -16q13 0 40 29l17 17h8l24 -25v-8z
" />
    <glyph glyph-name="ograve" unicode="&#xf2;" horiz-adv-x="557" 
d="M381 592l-22 -32l-9 -1q-71 50 -170 127l-2 8l30 42l9 1q66 -65 164 -145zM453.5 440q58.5 -64 58.5 -181q0 -127 -62.5 -196.5t-178.5 -69.5q-108 0 -167 65.5t-59 186.5q0 124 62.5 191.5t178.5 67.5q109 0 167.5 -64zM161.5 396q-38.5 -45 -38.5 -142q0 -104 38 -151
t116 -47q80 0 119 46t39 144q0 101 -38.5 148t-117.5 47t-117.5 -45z" />
    <glyph glyph-name="oacute" unicode="&#xf3;" horiz-adv-x="557" 
d="M453.5 440q58.5 -64 58.5 -181q0 -127 -62.5 -196.5t-178.5 -69.5q-108 0 -167 65.5t-59 186.5q0 124 63 191.5t178 67.5q109 0 167.5 -64zM161.5 396q-38.5 -45 -38.5 -142q0 -104 38 -151t116 -47q80 0 119 46t39 144q0 101 -38.5 148t-117.5 47t-117.5 -45zM409 694
l-2 -8q-99 -77 -170 -127l-9 1l-22 32q98 80 164 145l9 -1z" />
    <glyph glyph-name="ocircumflex" unicode="&#xf4;" horiz-adv-x="557" 
d="M269 729h24q62 -77 121 -134l-22 -32h-9q-62 59 -102 104q-38 -42 -102 -104h-10l-22 32q58 58 122 134zM453.5 440q58.5 -64 58.5 -181q0 -127 -62.5 -196.5t-178.5 -69.5q-108 0 -167 65.5t-59 186.5q0 124 62.5 191.5t178.5 67.5q109 0 167.5 -64zM161.5 396
q-38.5 -45 -38.5 -142q0 -104 38 -151t116 -47q80 0 119 46t39 144q0 101 -38.5 148t-117.5 47t-117.5 -45z" />
    <glyph glyph-name="otilde" unicode="&#xf5;" horiz-adv-x="557" 
d="M453.5 440q58.5 -64 58.5 -181q0 -127 -62.5 -196.5t-178.5 -69.5q-108 0 -167 65.5t-59 186.5q0 124 63 191.5t178 67.5q109 0 167.5 -64zM161.5 396q-38.5 -45 -38.5 -142q0 -104 38 -151t116 -47q80 0 119 46t39 144q0 101 -38.5 148t-117.5 47t-117.5 -45zM437 674
l-61 -69l-10 -3q-22 2 -84 20q-57 17 -71 17q-7 0 -15 -6.5t-25 -23.5l-16 -17h-9l-24 26v7l61 69l10 3q24 -2 83 -20q62 -16 72 -16q13 0 40 29l17 17h8l24 -25v-8z" />
    <glyph glyph-name="divide" unicode="&#xf7;" horiz-adv-x="480" 
d="M454 237h-407l-6 6l5 50h407l6 -6zM281.103 120.431q11.2783 -11.2783 11.2783 -31.0156q0 -20.6777 -11.748 -32.8955q-11.749 -12.2188 -32.4268 -12.2188q-41.3545 0 -41.3545 43.2344q0 19.7373 11.749 31.9561q11.748 12.2178 32.4258 12.2178
q18.7979 0 30.0762 -11.2783zM281.103 449.431q11.2783 -11.2783 11.2783 -31.0156q0 -20.6777 -11.748 -32.8955q-11.749 -12.2188 -32.4268 -12.2188q-41.3545 0 -41.3545 43.2344q0 19.7373 11.749 31.9561q11.748 12.2178 32.4258 12.2178q18.7979 0 30.0762 -11.2783z
" />
    <glyph glyph-name="oslash" unicode="&#xf8;" horiz-adv-x="557" 
d="M512 259q0 -127 -62.5 -196.5t-178.5 -69.5q-47 0 -83 12l-53 -105l-44 21l-3 8l50 100q-93 64 -93 216q0 124 62.5 191.5t178.5 67.5q47 0 84 -12l38 76l41 -20l5 -9l-35 -70q93 -59 93 -210zM170 93l170 339q-27 9 -61 9q-79 0 -117.5 -45.5t-38.5 -141.5
q0 -114 47 -161zM396 102q39 46 39 144q0 112 -48 159l-170 -341q29 -8 60 -8q80 0 119 46z" />
    <glyph glyph-name="ugrave" unicode="&#xf9;" horiz-adv-x="549" 
d="M379 592l-22 -32l-9 -1q-71 50 -170 127l-2 8l30 42l9 1q66 -65 164 -145zM474 173q2 -85 -51 -132t-151 -47q-97 0 -147.5 46.5t-48.5 132.5l1 76l-2 249h76l-5 -313q-2 -127 129 -127t129 127l-2 313h75l-3 -253v-72z" />
    <glyph glyph-name="uacute" unicode="&#xfa;" horiz-adv-x="549" 
d="M475 173q1 -85 -51.5 -132t-150.5 -47q-97 0 -148 46.5t-49 132.5l1 76l-1 249h75l-4 -313q-2 -127 129 -127t129 127l-3 313h76l-3 -253v-72zM406 694l-2 -8q-99 -77 -170 -127l-9 1l-22 32q98 80 164 145l9 -1z" />
    <glyph glyph-name="ucircumflex" unicode="&#xfb;" horiz-adv-x="549" 
d="M267 729h24q62 -77 121 -134l-22 -32h-9q-62 59 -102 104q-38 -42 -102 -104h-10l-22 32q57 57 122 134zM474 173q2 -85 -51 -132t-151 -47q-97 0 -147.5 46.5t-48.5 132.5l1 76l-2 249h76l-5 -313q-2 -127 129 -127t129 127l-2 313h75l-3 -253v-72z" />
    <glyph glyph-name="udieresis" unicode="&#xfc;" horiz-adv-x="549" 
d="M233 680q11 -11 11 -31q0 -21 -12 -34t-33 -13q-20 0 -31 12t-11 32t12 32.5t33 12.5q20 0 31 -11zM390 680q11 -11 11 -31q0 -21 -12 -34t-33 -13q-20 0 -31 12t-11 32t12 32.5t33 12.5q20 0 31 -11zM474 173q2 -85 -51 -132t-151 -47q-97 0 -147.5 46.5t-48.5 132.5
l1 76l-2 249h76l-5 -313q-2 -127 129 -127t129 127l-2 313h75l-3 -253v-72z" />
    <glyph glyph-name="thorn" unicode="&#xfe;" horiz-adv-x="471" 
d="M385 377.5q42 -38.5 42 -111.5q0 -85 -52.5 -131t-149.5 -46l-61 -1l1 -88h-75l3 150l-3 348h76l-1 -83l98 1q80 0 122 -38.5zM348 260q0 92 -106 97l-77 -1l-2 -200v-6l86 -3q99 19 99 113z" />
    <glyph glyph-name="ydieresis" unicode="&#xff;" horiz-adv-x="473" 
d="M131 614q-11 12 -11 32t12 32.5t33 12.5q20 0 31 -11t11 -31q0 -21 -12 -34t-33 -13q-20 0 -31 12zM288 614q-11 12 -11 32t12 32.5t33 12.5q20 0 31 -11t11 -31q0 -21 -12 -34t-33 -13q-20 0 -31 12zM266 0h-75l3 143v29l-169 326h81l10 -29l111 -214h6l122 211l14 32
h78l-183 -324l-1 -31z" />
    <glyph glyph-name="Amacron" unicode="&#x100;" horiz-adv-x="578" 
d="M474 0l-15 64l-36 110l-144 3l-130 -3l-39 -106l-16 -68h-80l235 641h93l214 -641h-82zM297 558h-7l-116 -316l112 -2l115 2zM432 764h-283l-6 6l5 46h283l6 -5z" />
    <glyph glyph-name="amacron" unicode="&#x101;" horiz-adv-x="512" 
d="M403 0l-12 54l-26 74l-119 1l-106 -1l-27 -70l-14 -58h-74l192 498h86l175 -498h-75zM261 425h-6l-91 -236l88 -1l92 1zM403 622h-283l-6 6l5 46h283l6 -5z" />
    <glyph glyph-name="Abreve" unicode="&#x102;" horiz-adv-x="578" 
d="M474 0l-15 64l-36 110l-144 3l-130 -3l-39 -106l-16 -68h-80l235 641h93l214 -641h-82zM297 558h-7l-116 -316l112 -2l115 2zM368 747.5q-33 -23.5 -80 -23.5q-46 0 -78 23t-46 67l22 28h12q22 -61 93 -61q67 0 91 61h12l23 -28q-16 -43 -49 -66.5z" />
    <glyph glyph-name="abreve" unicode="&#x103;" horiz-adv-x="512" 
d="M403 0l-12 54l-26 74l-119 1l-106 -1l-27 -70l-14 -58h-74l192 498h86l175 -498h-75zM261 425h-6l-91 -236l88 -1l92 1zM260 567q-101 0 -124 115l22 29h12q19 -87 92 -87t92 87h12l23 -29q-27 -115 -129 -115z" />
    <glyph glyph-name="Aogonek" unicode="&#x104;" horiz-adv-x="578" 
d="M511 -197q-35 0 -56 21t-21 57q0 23 11.5 49t42.5 70h-14l-14 64l-36 110l-145 3l-130 -3l-39 -106l-16 -68h-80l236 641h93l214 -641h-20q-50 -74 -50 -108q0 -35 34 -35q37 0 74 37h5l11 -38q-48 -53 -100 -53zM297 558h-7l-116 -316l112 -2l115 2z" />
    <glyph glyph-name="aogonek" unicode="&#x105;" horiz-adv-x="512" 
d="M435 -196q-32 0 -53 19.5t-21 53.5q0 21 12 48.5t42 74.5h-12l-12 54l-26 74l-119 1l-106 -1l-27 -70l-14 -58h-74l192 498h86l176 -498h-13q-51 -71 -51 -108q0 -33 30 -33q32 0 60 42h5l11 -44q-42 -53 -86 -53zM261 425h-6l-91 -236l88 -1l92 1z" />
    <glyph glyph-name="Cacute" unicode="&#x106;" horiz-adv-x="520" 
d="M497 598l-16 -73l-9 -2q-67 56 -154 56q-95 0 -146 -65.5t-51 -191.5q0 -127 51 -194t144 -67q92 0 167 61l10 -5l-7 -76q-87 -48 -177 -48q-129 0 -200 83.5t-71 238.5q0 159 74 245t210 86q101 0 175 -48zM451 814l-2 -8q-89 -41 -195 -86l-10 4l-14 36q103 51 192 103
l9 -2z" />
    <glyph glyph-name="cacute" unicode="&#x107;" horiz-adv-x="461" 
d="M428 468l-14 -69l-9 -3q-53 45 -129 45q-152 0 -152 -189q0 -95 39 -145t113 -50q76 0 138 46l9 -3l-7 -69q-68 -37 -143 -37q-110 0 -169 65.5t-59 186.5q0 123 62.5 190t176.5 67q83 0 144 -35zM394 694l-2 -8q-99 -77 -170 -127l-9 1l-22 32q98 80 164 145l9 -1z" />
    <glyph glyph-name="Ccircumflex" unicode="&#x108;" horiz-adv-x="520" 
d="M302 858h23q45 -40 117 -91l-16 -34h-9q-56 34 -103 66q-39 -27 -102 -66h-10l-16 34q67 46 116 91zM497 598l-16 -73l-9 -2q-67 56 -154 56q-95 0 -146 -65.5t-51 -191.5q0 -127 51 -194t144 -67q92 0 167 61l10 -5l-7 -76q-87 -48 -177 -48q-129 0 -200 83.5t-71 238.5
q0 159 74 245t210 86q101 0 175 -48z" />
    <glyph glyph-name="ccircumflex" unicode="&#x109;" horiz-adv-x="461" 
d="M253 729h24q62 -77 121 -134l-22 -32h-9q-62 59 -102 104q-38 -42 -102 -104h-10l-22 32q58 58 122 134zM428 468l-14 -69l-9 -3q-53 45 -129 45q-74 0 -113.5 -47.5t-39.5 -141.5q0 -95 39.5 -145t113.5 -50t138 46l9 -3l-7 -69q-68 -37 -143 -37q-110 0 -169 65.5
t-59 186.5q0 123 62.5 190t176.5 67q83 0 144 -35z" />
    <glyph glyph-name="Cdotaccent" unicode="&#x10a;" horiz-adv-x="520" 
d="M497 598l-16 -73l-9 -2q-67 56 -154 56q-95 0 -146 -65.5t-51 -191.5q0 -127 51 -194t144 -67q92 0 167 61l10 -5l-7 -76q-87 -48 -177 -48q-129 0 -200 83.5t-71 238.5q0 159 74 245t210 86q101 0 175 -48zM348 833q12 -12 12 -33q0 -22 -12.5 -35t-34.5 -13
q-44 0 -44 46q0 21 12.5 34t34.5 13q20 0 32 -12z" />
    <glyph glyph-name="cdotaccent" unicode="&#x10b;" horiz-adv-x="461" 
d="M298 691q12 -12 12 -32q0 -23 -12.5 -36t-34.5 -13q-44 0 -44 46q0 21 12.5 34t34.5 13q20 0 32 -12zM428 468l-14 -69l-9 -3q-53 45 -129 45q-74 0 -113.5 -47.5t-39.5 -141.5q0 -95 39.5 -145t113.5 -50t138 46l9 -3l-7 -69q-68 -37 -143 -37q-110 0 -169 65.5
t-59 186.5q0 123 62.5 190t176.5 67q83 0 144 -35z" />
    <glyph glyph-name="Ccaron" unicode="&#x10c;" horiz-adv-x="520" 
d="M497 598l-16 -73l-9 -2q-67 56 -154 56q-95 0 -146 -65.5t-51 -191.5q0 -127 51 -194t144 -67q92 0 167 61l10 -5l-7 -76q-87 -48 -177 -48q-129 0 -200 83.5t-71 238.5q0 159 74 245t210 86q101 0 175 -48zM327 723h-23q-45 40 -117 91l16 34h9q56 -34 103 -66
q39 27 102 66h10l16 -34q-67 -46 -116 -91z" />
    <glyph glyph-name="ccaron" unicode="&#x10d;" horiz-adv-x="461" 
d="M428 468l-14 -69l-9 -3q-53 45 -129 45q-152 0 -152 -189q0 -95 39 -145t113 -50q76 0 138 46l9 -3l-7 -69q-68 -37 -143 -37q-110 0 -169 65.5t-59 186.5q0 123 62.5 190t176.5 67q83 0 144 -35zM276 562h-24q-62 77 -121 134l22 32h9q62 -59 102 -104q38 42 102 104h10
l22 -32q-57 -57 -122 -134z" />
    <glyph glyph-name="Dcaron" unicode="&#x10e;" horiz-adv-x="646" 
d="M535 567q73 -78 73 -224q0 -169 -79 -259t-227 -90q-98 0 -208 6h-1l5 193l-5 448h1l231 4q137 0 210 -78zM471.5 127.5q54.5 66.5 54.5 198.5q0 252 -207 252q-63 0 -145 -4l-4 -374l3 -133q70 -6 142 -6q102 0 156.5 66.5zM327 723h-23q-45 40 -117 91l16 34h9
q56 -34 103 -66q39 27 102 66h10l16 -34q-67 -46 -116 -91z" />
    <glyph glyph-name="dcaron" unicode="&#x10f;" horiz-adv-x="566" 
d="M459.5 441q60.5 -61 60.5 -175q0 -131 -66 -201t-189 -70q-95 0 -175 5l3 150l-3 348l195 4q114 0 174.5 -61zM400.5 104.5q43.5 48.5 43.5 146.5q0 188 -165 188q-49 0 -115 -4l-2 -279l1 -94q66 -6 114 -6q80 0 123.5 48.5zM279 562h-24q-62 77 -121 134l22 32h9
q62 -59 102 -104q38 42 102 104h10l22 -32q-57 -57 -122 -134z" />
    <glyph glyph-name="Dcroat" unicode="&#x110;" horiz-adv-x="646" 
d="M535 567q73 -78 73 -224q0 -169 -79 -259t-227 -90q-98 0 -208 6h-1l5 193l-5 448h1l231 4q137 0 210 -78zM471.5 127.5q54.5 66.5 54.5 198.5q0 252 -207 252q-63 0 -145 -4l-4 -374l3 -133q70 -6 142 -6q102 0 156.5 66.5zM456 764h-283l-6 6l5 46h283l6 -5z" />
    <glyph glyph-name="dcroat" unicode="&#x111;" horiz-adv-x="566" 
d="M459.5 441q60.5 -61 60.5 -175q0 -131 -66 -201t-189 -70q-95 0 -175 5l3 150l-3 348l195 4q114 0 174.5 -61zM400.5 104.5q43.5 48.5 43.5 146.5q0 188 -165 188q-49 0 -115 -4l-2 -279l1 -94q66 -6 114 -6q80 0 123.5 48.5zM409 622h-283l-6 6l5 46h283l6 -5z" />
    <glyph glyph-name="Emacron" unicode="&#x112;" horiz-adv-x="482" 
d="M453 0h-360l5 193l-5 448h361l4 -8l-6 -62l-151 3l-127 -2l-2 -210l120 -2l106 3l6 -7l-7 -62l-112 2l-114 -1l-1 -95l3 -133l127 -1l154 4l5 -8zM416 764h-283l-6 6l5 46h283l6 -5z" />
    <glyph glyph-name="emacron" unicode="&#x113;" horiz-adv-x="435" 
d="M400 58l-7 -58h-303l3 150l-3 348h305l5 -6l-6 -58l-126 4l-104 -1l-1 -151l99 -1l87 3l5 -7l-6 -59l-92 3l-93 -1l-1 -68l1 -95l98 -1l133 4zM384 622h-283l-6 6l5 46h283l6 -5z" />
    <glyph glyph-name="Ebreve" unicode="&#x114;" horiz-adv-x="482" 
d="M453 0h-360l5 193l-5 448h361l4 -8l-6 -62l-151 3l-127 -2l-2 -210l120 -2l106 3l6 -7l-7 -62l-112 2l-114 -1l-1 -95l3 -133l127 -1l154 4l5 -8zM352 747.5q-33 -23.5 -80 -23.5q-46 0 -78 23t-46 67l22 28h12q22 -61 93 -61q67 0 91 61h12l23 -28q-16 -43 -49 -66.5z
" />
    <glyph glyph-name="ebreve" unicode="&#x115;" horiz-adv-x="435" 
d="M400 58l-7 -58h-303l3 150l-3 348h305l5 -6l-6 -58l-126 4l-104 -1l-1 -151l99 -1l87 3l5 -7l-6 -59l-92 3l-93 -1l-1 -68l1 -95l98 -1l133 4zM241 567q-101 0 -124 115l22 29h12q19 -87 92 -87t92 87h12l23 -29q-27 -115 -129 -115z" />
    <glyph glyph-name="Edotaccent" unicode="&#x116;" horiz-adv-x="482" 
d="M229 798q0 21 12.5 34t34.5 13q20 0 32 -12t12 -32q0 -23 -12.5 -36t-34.5 -13q-44 0 -44 46zM459 62l-6 -62h-360l5 193l-5 448h361l5 -8l-7 -62l-151 3l-127 -2l-2 -210l120 -2l106 3l5 -7l-6 -62l-112 2l-114 -1l-1 -95l3 -133l128 -1l153 4z" />
    <glyph glyph-name="edotaccent" unicode="&#x117;" horiz-adv-x="435" 
d="M197 656q0 21 12.5 34t34.5 13q20 0 32 -12t12 -32q0 -23 -12.5 -36t-34.5 -13q-44 0 -44 46zM400 58l-7 -58h-303l3 150l-3 348h305l5 -6l-6 -58l-126 4l-103 -1l-1 -151l99 -1l87 3l4 -7l-5 -59l-93 3l-93 -1l-1 -68l2 -95l96 -1l134 4z" />
    <glyph glyph-name="Eogonek" unicode="&#x118;" horiz-adv-x="482" 
d="M368 -197q-36 0 -57.5 22t-21.5 58q0 38 25 73l30 44h-251l5 193l-5 448h361l5 -8l-7 -62l-151 3l-127 -2l-2 -210l120 -2l106 3l5 -7l-6 -62l-112 2l-114 -1l-1 -95l3 -133l128 -1l153 4l5 -8l-6 -62h-59l-35 -53q-18 -29 -18 -50q0 -18 10.5 -29t29.5 -11q34 0 69 38h5
l11 -40q-50 -52 -98 -52z" />
    <glyph glyph-name="eogonek" unicode="&#x119;" horiz-adv-x="435" 
d="M304 -199q-36 0 -57.5 22t-21.5 58q0 38 25 73l32 46h-192l3 150l-3 348h305l5 -6l-6 -58l-126 4l-103 -1l-1 -151l99 -1l87 3l4 -7l-5 -59l-93 3l-93 -1l-1 -68l2 -95l96 -1l134 4l6 -6l-7 -58h-62l-36 -55q-18 -28 -18 -50q0 -18 10.5 -29t29.5 -11q34 0 69 38h5
l11 -40q-50 -52 -98 -52z" />
    <glyph glyph-name="Ecaron" unicode="&#x11a;" horiz-adv-x="482" 
d="M453 0h-360l5 193l-5 448h361l4 -8l-6 -62l-151 3l-127 -2l-2 -210l120 -2l106 3l6 -7l-7 -62l-112 2l-114 -1l-1 -95l3 -133l127 -1l154 4l5 -8zM287 723h-23q-45 40 -117 91l16 34h9q56 -34 103 -66q39 27 102 66h10l16 -34q-67 -46 -116 -91z" />
    <glyph glyph-name="ecaron" unicode="&#x11b;" horiz-adv-x="435" 
d="M400 58l-7 -58h-303l3 150l-3 348h305l5 -6l-6 -58l-126 4l-104 -1l-1 -151l99 -1l87 3l5 -7l-6 -59l-92 3l-93 -1l-1 -68l1 -95l98 -1l133 4zM254 562h-24q-62 77 -121 134l22 32h9q62 -59 102 -104q38 42 102 104h10l22 -32q-57 -57 -122 -134z" />
    <glyph glyph-name="Gcircumflex" unicode="&#x11c;" horiz-adv-x="600" 
d="M314 858h23q45 -40 117 -91l-16 -34h-9q-56 34 -103 66q-39 -27 -102 -66h-10l-16 34q67 46 116 91zM539 601l-17 -76l-10 -2q-48 30 -88.5 43t-85.5 13q-217 0 -217 -268q0 -129 50.5 -189.5t156.5 -60.5q50 0 130 24l3 75l-2 91l75 6l-2 -86l4 -140q-122 -38 -212 -38
q-143 0 -214.5 81t-71.5 234q0 165 81 251.5t231 86.5q100 0 189 -45z" />
    <glyph glyph-name="gcircumflex" unicode="&#x11d;" horiz-adv-x="526" 
d="M268 729h24q62 -77 121 -134l-22 -32h-9q-62 59 -102 104q-38 -42 -102 -104h-10l-22 32q58 57 122 134zM462 469l-25 -72h-8q-37 24 -68 33.5t-68 9.5q-85 0 -127.5 -48t-42.5 -150q0 -97 39.5 -141t123.5 -44q48 0 105 21v50l-1 71l69 5l-1 -65v-115q-100 -30 -174 -30
q-118 0 -178.5 63.5t-60.5 181.5q0 128 68.5 196t191.5 68q79 0 157 -34z" />
    <glyph glyph-name="Gbreve" unicode="&#x11e;" horiz-adv-x="600" 
d="M538 601l-16 -76l-10 -2q-48 30 -88.5 43t-85.5 13q-217 0 -217 -268q0 -129 50.5 -189.5t156.5 -60.5q50 0 130 24l2 75l-1 91l75 6l-2 -86l4 -140q-122 -38 -212 -38q-143 0 -214.5 81t-71.5 234q0 165 81 251.5t231 86.5q101 0 188 -45zM404 747.5
q-33 -23.5 -80 -23.5q-46 0 -78 23t-46 67l22 28h12q22 -61 93 -61q67 0 91 61h12l23 -28q-16 -43 -49 -66.5z" />
    <glyph glyph-name="gbreve" unicode="&#x11f;" horiz-adv-x="526" 
d="M463 469l-25 -72h-9q-37 24 -68 33.5t-67 9.5q-85 0 -127.5 -48t-42.5 -150q0 -98 39 -141.5t124 -43.5q47 0 104 21v50l-1 71l69 5v-180q-101 -30 -175 -30q-118 0 -178.5 63.5t-60.5 181.5q0 128 68.5 196t192.5 68q78 0 157 -34zM278 567q-101 0 -124 115l22 29h12
q19 -87 92 -87t92 87h12l23 -29q-27 -115 -129 -115z" />
    <glyph glyph-name="Gdotaccent" unicode="&#x120;" horiz-adv-x="600" 
d="M538 601l-16 -76l-10 -2q-48 30 -88.5 43t-85.5 13q-217 0 -217 -268q0 -129 50.5 -189.5t156.5 -60.5q50 0 130 24l2 75l-1 91l75 6l-2 -86l4 -140q-122 -38 -212 -38q-143 0 -214.5 81t-71.5 234q0 165 81 251.5t231 86.5q101 0 188 -45zM360 833q12 -12 12 -33
q0 -22 -12.5 -35t-34.5 -13q-44 0 -44 46q0 21 12.5 34t34.5 13q20 0 32 -12z" />
    <glyph glyph-name="gdotaccent" unicode="&#x121;" horiz-adv-x="526" 
d="M313 691q12 -12 12 -32q0 -23 -12.5 -36t-34.5 -13q-44 0 -44 46q0 21 12.5 34t34.5 13q20 0 32 -12zM462 469l-25 -72h-8q-37 24 -68 33.5t-68 9.5q-85 0 -127.5 -48t-42.5 -150q0 -97 39.5 -141t123.5 -44q48 0 105 21v50l-1 71l69 5l-1 -65v-115q-100 -30 -174 -30
q-118 0 -178.5 63.5t-60.5 181.5q0 128 68.5 196t191.5 68q79 0 157 -34z" />
    <glyph glyph-name="Gcommaaccent" unicode="&#x122;" horiz-adv-x="600" 
d="M539 601l-17 -76l-10 -2q-48 30 -88.5 43t-85.5 13q-217 0 -217 -268q0 -129 50.5 -189.5t156.5 -60.5q50 0 130 24l3 75l-2 91l75 6l-2 -86l4 -140q-122 -38 -212 -38q-143 0 -214.5 81t-71.5 234q0 165 81 251.5t231 86.5q100 0 189 -45zM365 -118q0 -61 -88 -125
l-26 23v6q52 41 52 82q0 24 -29 45v7q24 16 52 25q39 -27 39 -63z" />
    <glyph glyph-name="gcommaaccent" unicode="&#x123;" horiz-adv-x="526" 
d="M462 469l-25 -72h-8q-37 24 -68 33.5t-68 9.5q-85 0 -127.5 -48t-42.5 -150q0 -97 39.5 -141t123.5 -44q48 0 105 21v50l-1 71l69 5l-1 -65v-115q-100 -30 -174 -30q-118 0 -178.5 63.5t-60.5 181.5q0 128 68.5 196t191.5 68q79 0 157 -34zM325 -118q0 -61 -88 -125
l-26 23v6q52 41 52 82q0 24 -29 45v7q24 16 52 25q39 -27 39 -63z" />
    <glyph glyph-name="Hcircumflex" unicode="&#x124;" horiz-adv-x="683" 
d="M210 767q67 46 116 91h23q45 -40 117 -91l-16 -34h-9q-56 34 -103 66q-39 -27 -102 -66h-10zM589 0h-81l5 193l-1 96l-178 3l-163 -3l-1 -89l4 -200h-81l5 193l-5 448h82l-3 -282l169 -3l170 3l-3 282h82l-5 -441z" />
    <glyph glyph-name="hcircumflex" unicode="&#x125;" horiz-adv-x="596" 
d="M166 595q58 58 122 134h24q62 -77 121 -134l-22 -32h-9q-62 59 -102 104q-38 -42 -102 -104h-10zM507 0h-75l3 150l-1 68l-271 -1l-1 -61l3 -156h-75l3 150l-3 348h76l-3 -214l135 -1l136 1l-2 214h76l-4 -342z" />
    <glyph glyph-name="Hbar" unicode="&#x126;" horiz-adv-x="715" 
d="M600 200l3 -200h-81l6 193l-1 96l-179 3l-163 -3l-1 -89l4 -200h-81l5 193l-3 285h-64l-5 4l4 52h64l-1 107h82l-1 -107h335l-1 107h82l-1 -107h67l5 -6l-4 -50h-68zM187 478l-1 -119l168 -3l172 3l-2 119h-337z" />
    <glyph glyph-name="hbar" unicode="&#x127;" horiz-adv-x="621" 
d="M513 156l3 -156h-75l3 150l-1 68l-271 -1l-1 -61l3 -156h-75l3 150l-2 214h-52l-4 6l5 42h51l-1 86h76l-1 -86h268l-1 86h76l-1 -86h56l5 -4l-5 -44h-57zM173 364l-1 -80l136 -1l135 1l-1 80h-269z" />
    <glyph glyph-name="Imacron" unicode="&#x12a;" horiz-adv-x="268" 
d="M174 0h-81l5 193l-5 448h82l-5 -441zM243 764h-217l-5 6l4 46h217l5 -5z" />
    <glyph glyph-name="imacron" unicode="&#x12b;" horiz-adv-x="259" 
d="M164 0h-74l3 150l-3 348h75l-3 -342zM240 622h-217l-5 6l4 46h217l5 -5z" />
    <glyph glyph-name="Ibreve" unicode="&#x12c;" horiz-adv-x="268" 
d="M174 0h-81l5 193l-5 448h82l-5 -441zM212 747.5q-33 -23.5 -80 -23.5q-46 0 -78 23t-46 67l22 28h12q22 -61 93 -61q67 0 91 61h12l23 -28q-16 -43 -49 -66.5z" />
    <glyph glyph-name="ibreve" unicode="&#x12d;" horiz-adv-x="259" 
d="M164 0h-74l3 150l-3 348h75l-3 -342zM130 567q-101 0 -124 115l22 29h12q19 -87 92 -87t92 87h12l23 -29q-27 -115 -129 -115z" />
    <glyph glyph-name="Iogonek" unicode="&#x12e;" horiz-adv-x="268" 
d="M110 -197q-33 0 -53.5 20.5t-20.5 55.5q0 24 12 50.5t44 70.5h1l5 193l-5 448h82l-5 -441l4 -200h-32q-53 -76 -53 -109q0 -34 32 -34q22 0 43 24h6l10 -47q-33 -31 -70 -31z" />
    <glyph glyph-name="iogonek" unicode="&#x12f;" horiz-adv-x="259" 
d="M108 -197q-33 0 -53.5 20.5t-20.5 55.5q0 24 12 50.5t44 70.5l3 150l-3 348h76l-4 -342l3 -156h-25q-53 -76 -53 -109q0 -34 32 -34q22 0 43 24h6l10 -47q-33 -31 -70 -31z" />
    <glyph glyph-name="Idotaccent" unicode="&#x130;" horiz-adv-x="268" 
d="M167 833q12 -12 12 -32q0 -23 -12.5 -36t-34.5 -13q-44 0 -44 46q0 21 12.5 34t34.5 13q20 0 32 -12zM174 0h-81l5 193l-5 448h82l-5 -441z" />
    <glyph glyph-name="dotlessi" unicode="&#x131;" horiz-adv-x="259" 
d="M164 0h-74l3 150l-3 348h75l-3 -342z" />
    <glyph glyph-name="IJ" unicode="&#x132;" horiz-adv-x="578" 
d="M174 0h-81l5 193l-5 448h82l-5 -441zM483 118q0 -76 -38 -125.5t-132 -94.5l-31 45v10q69 37 98 73t29 91v87l-4 372l-123 -1l-8 7l5 59h206l-4 -429z" />
    <glyph glyph-name="ij" unicode="&#x133;" horiz-adv-x="548" 
d="M164 0h-74l3 150l-3 348h75l-3 -342zM453 165v-72q0 -61 -27.5 -100t-97.5 -73l-30 39v7q47 26 66.5 54.5t19.5 71.5v64l-2 285l-95 -1l-5 6l5 52h169z" />
    <glyph glyph-name="Jcircumflex" unicode="&#x134;" horiz-adv-x="310" 
d="M215 118q0 -76 -38 -125.5t-132 -94.5l-31 45v10q69 37 98 73t29 91v87l-4 372l-123 -1l-8 7l5 59h206l-4 -429zM121 858h23q45 -40 117 -91l-16 -34h-9q-56 34 -103 66q-39 -27 -102 -66h-10l-16 34q67 46 116 91z" />
    <glyph glyph-name="jcircumflex" unicode="&#x135;" horiz-adv-x="289" 
d="M194 165v-72q0 -61 -27.5 -100t-97.5 -73l-30 39v7q47 26 66.5 54.5t19.5 71.5v64l-2 285l-95 -1l-5 6l5 52h169zM101 729h24q62 -77 121 -134l-22 -32h-9q-62 59 -102 104q-38 -42 -102 -104h-10l-22 32q57 57 122 134z" />
    <glyph glyph-name="Kcommaaccent" unicode="&#x136;" horiz-adv-x="546" 
d="M173 0h-81l5 193l-5 448h82l-5 -441zM547 17l-1 -10q-34 -10 -76 -16l-10 5q-171 196 -276 339v6l214 244l40 56h91l-260 -301q133 -172 278 -323zM345 -118q0 -61 -88 -125l-26 23v6q52 41 52 82q0 24 -29 45v7q24 16 52 25q39 -27 39 -63z" />
    <glyph glyph-name="kcommaaccent" unicode="&#x137;" horiz-adv-x="490" 
d="M477 17l-2 -11q-31 -10 -72 -15l-12 5q-137 153 -221 264v6l172 188l33 44l89 1l-212 -234q106 -130 225 -248zM165 0h-75l3 150l-3 348h76l-4 -342zM296 -118q0 -61 -88 -125l-26 23v6q52 41 52 82q0 24 -29 45v7q24 16 52 25q39 -27 39 -63z" />
    <glyph glyph-name="kgreenlandic" unicode="&#x138;" horiz-adv-x="490" 
d="M477 17l-2 -11q-31 -10 -72 -15l-12 5q-128 144 -221 264v6l172 188l33 44l89 1l-212 -234q106 -130 225 -248zM164 0h-74l3 150l-3 348h75l-3 -342z" />
    <glyph glyph-name="Lacute" unicode="&#x139;" horiz-adv-x="416" 
d="M406 0h-316l5 193l-5 448h82l-5 -441l3 -133h237l6 -7zM342 814l-2 -8q-89 -41 -195 -86l-10 4l-14 36q103 51 192 103l9 -2z" />
    <glyph glyph-name="lacute" unicode="&#x13a;" horiz-adv-x="377" 
d="M353 0h-265l3 150l-3 348h75l-3 -342l2 -93h192l4 -7zM298 694l-2 -8q-99 -77 -170 -127l-9 1l-22 32q98 80 164 145l9 -1z" />
    <glyph glyph-name="Lcommaaccent" unicode="&#x13b;" horiz-adv-x="416" 
d="M406 0h-316l5 193l-5 448h82l-5 -441l3 -133h237l6 -7zM293 -118q0 -61 -88 -125l-26 23v6q52 41 52 82q0 24 -29 45v7q24 16 52 25q39 -27 39 -63z" />
    <glyph glyph-name="lcommaaccent" unicode="&#x13c;" horiz-adv-x="377" 
d="M352 0h-264l3 150l-3 348h76l-4 -342l2 -93h191l5 -7zM250 -118q0 -61 -88 -125l-26 23v6q52 41 52 82q0 24 -29 45v7q24 16 52 25q39 -27 39 -63z" />
    <glyph glyph-name="Lcaron" unicode="&#x13d;" horiz-adv-x="424" 
d="M406 0h-316l5 193l-5 448h82l-5 -441l3 -133h237l6 -7zM312 404l5 175l57 4l6 -7l-23 -172l-38 -6z" />
    <glyph glyph-name="lcaron" unicode="&#x13e;" horiz-adv-x="387" 
d="M352 0h-264l3 150l-3 348h76l-4 -342l2 -93h191l5 -7zM280 298l4 175l58 4l5 -7l-23 -172l-38 -6z" />
    <glyph glyph-name="Ldot" unicode="&#x13f;" horiz-adv-x="416" 
d="M406 0h-316l5 193l-5 448h82l-5 -441l3 -133h237l6 -7zM371 413q12 -12 12 -33q0 -22 -12.5 -35t-34.5 -13q-44 0 -44 46q0 21 12.5 34t34.5 13q20 0 32 -12z" />
    <glyph glyph-name="ldot" unicode="&#x140;" horiz-adv-x="387" 
d="M352 0h-264l3 150l-3 348h76l-4 -342l2 -93h191l5 -7zM241 288q0 21 12.5 34t34.5 13q20 0 32 -12t12 -32q0 -23 -12.5 -36t-34.5 -13q-44 0 -44 46z" />
    <glyph glyph-name="Lslash" unicode="&#x141;" horiz-adv-x="429" 
d="M420 0h-316l5 193l-1 96l-73 -39l-10 5l-15 48l97 51l-3 287h81l-2 -247l130 68l9 -4l15 -47l-155 -83l-1 -128l3 -133h237l6 -7z" />
    <glyph glyph-name="lslash" unicode="&#x142;" horiz-adv-x="396" 
d="M369 0h-265l3 150l-1 69l-64 -30l-9 5l-12 44l85 40l-2 220h76l-2 -187l100 47l7 -3l13 -45l-121 -57l-1 -97l2 -93h192l5 -7z" />
    <glyph glyph-name="Nacute" unicode="&#x143;" horiz-adv-x="683" 
d="M587 0h-84l-331 513h-6l-1 -302l3 -211h-75l5 190l-3 451h84l330 -513h7l-1 509l76 6l-6 -455zM477 814l-2 -8q-89 -41 -195 -86l-10 4l-14 36q103 51 192 103l9 -2z" />
    <glyph glyph-name="nacute" unicode="&#x144;" horiz-adv-x="596" 
d="M504 0h-80l-262 380h-5l-1 -214l2 -166h-68l3 147l-2 351h79l262 -380h7l-2 377l69 5l-3 -351zM426 694l-2 -8q-99 -77 -170 -127l-9 1l-22 32q98 80 164 145l9 -1z" />
    <glyph glyph-name="Ncommaaccent" unicode="&#x145;" horiz-adv-x="683" 
d="M587 0h-84l-330 513h-7l-1 -302l4 -211h-76l5 190l-3 451h84l331 -513h6l-1 509l76 6l-6 -455zM396 -118q0 -61 -88 -125l-26 23v6q52 41 52 82q0 24 -29 45v7q24 16 52 25q39 -27 39 -63z" />
    <glyph glyph-name="ncommaaccent" unicode="&#x146;" horiz-adv-x="596" 
d="M505 0h-80l-263 380h-5l-1 -214l2 -166h-68l3 147l-2 351h79l262 -380h7l-2 377l70 5l-4 -351zM353 -118q0 -61 -88 -125l-26 23v6q52 41 52 82q0 24 -29 45v7q24 16 52 25q39 -27 39 -63z" />
    <glyph glyph-name="Ncaron" unicode="&#x147;" horiz-adv-x="683" 
d="M587 0h-84l-331 513h-6l-1 -302l3 -211h-75l5 190l-3 451h84l330 -513h7l-1 509l76 6l-6 -455zM352 723h-23q-45 40 -117 91l16 34h9q56 -34 103 -66q39 27 102 66h10l16 -34q-67 -46 -116 -91z" />
    <glyph glyph-name="ncaron" unicode="&#x148;" horiz-adv-x="596" 
d="M504 0h-80l-262 380h-5l-1 -214l2 -166h-68l3 147l-2 351h79l262 -380h7l-2 377l69 5l-3 -351zM308 562h-24q-62 77 -121 134l22 32h9q62 -59 102 -104q38 42 102 104h10l22 -32q-57 -57 -122 -134z" />
    <glyph glyph-name="Eng" unicode="&#x14a;" horiz-adv-x="683" 
d="M586 56q0 -74 -38 -123t-132 -93l-31 44v10q50 27 78 52t40 55l-331 512h-6l-1 -302l3 -211h-75l5 190l-3 451h84l330 -512h7l-1 508l76 6l-6 -455z" />
    <glyph glyph-name="eng" unicode="&#x14b;" horiz-adv-x="596" 
d="M504 38q0 -57 -24.5 -93.5t-85.5 -69.5l-26 32v9q55 37 63 83l-269 381h-6v-214l2 -166h-68l4 147l-3 351h79l262 -372h7l-2 369l69 5l-3 -351z" />
    <glyph glyph-name="Omacron" unicode="&#x14c;" horiz-adv-x="635" 
d="M527.5 566q70.5 -81 70.5 -233q0 -163 -75 -252t-213 -89q-130 0 -201 84t-71 239q0 160 74.5 246t213.5 86q131 0 201.5 -81zM120 325q0 -266 195 -266q200 0 200 260q0 133 -48.5 197.5t-147.5 64.5q-199 0 -199 -256zM461 764h-283l-6 6l5 46h283l6 -5z" />
    <glyph glyph-name="omacron" unicode="&#x14d;" horiz-adv-x="557" 
d="M453.5 440q58.5 -64 58.5 -181q0 -127 -62.5 -196.5t-178.5 -69.5q-108 0 -167 65.5t-59 186.5q0 124 63 191.5t178 67.5q109 0 167.5 -64zM161.5 396q-38.5 -45 -38.5 -142q0 -104 38 -151t116 -47q80 0 119 46t39 144q0 101 -38.5 148t-117.5 47t-117.5 -45zM422 622
h-283l-6 6l5 46h283l6 -5z" />
    <glyph glyph-name="Obreve" unicode="&#x14e;" horiz-adv-x="635" 
d="M527.5 566q70.5 -81 70.5 -233q0 -163 -75 -252t-213 -89q-130 0 -201 84t-71 239q0 160 74.5 246t213.5 86q131 0 201.5 -81zM120 325q0 -266 195 -266q200 0 200 260q0 133 -48.5 197.5t-147.5 64.5q-199 0 -199 -256zM397 747.5q-33 -23.5 -80 -23.5q-46 0 -78 23
t-46 67l22 28h12q22 -61 93 -61q67 0 91 61h12l23 -28q-16 -43 -49 -66.5z" />
    <glyph glyph-name="obreve" unicode="&#x14f;" horiz-adv-x="557" 
d="M453.5 440q58.5 -64 58.5 -181q0 -127 -62.5 -196.5t-178.5 -69.5q-108 0 -167 65.5t-59 186.5q0 124 63 191.5t178 67.5q109 0 167.5 -64zM161.5 396q-38.5 -45 -38.5 -142q0 -104 38 -151t116 -47q80 0 119 46t39 144q0 101 -38.5 148t-117.5 47t-117.5 -45zM279 567
q-101 0 -124 115l22 29h12q19 -87 92 -87t92 87h12l23 -29q-27 -115 -129 -115z" />
    <glyph glyph-name="Ohungarumlaut" unicode="&#x150;" horiz-adv-x="635" 
d="M527.5 566q70.5 -81 70.5 -233q0 -163 -75 -252t-213 -89q-130 0 -201 84t-71 239q0 160 74.5 246t213.5 86q131 0 201.5 -81zM120 325q0 -266 195 -266q200 0 200 260q0 133 -48.5 197.5t-147.5 64.5q-199 0 -199 -256zM214 761q71 78 91 102h8l36 -25v-9
q-36 -36 -118 -110l-9 -1l-26 24zM448 863h7l37 -25v-9l-86 -81l-32 -29l-9 -1l-26 24q72 78 109 121z" />
    <glyph glyph-name="ohungarumlaut" unicode="&#x151;" horiz-adv-x="557" 
d="M453.5 440q58.5 -64 58.5 -181q0 -127 -62.5 -196.5t-178.5 -69.5q-108 0 -167 65.5t-59 186.5q0 124 63 191.5t178 67.5q109 0 167.5 -64zM161.5 396q-38.5 -45 -38.5 -142q0 -104 38 -151t116 -47q80 0 119 46t39 144q0 101 -38.5 148t-117.5 47t-117.5 -45zM291 737
l7 1l37 -27v-8q-63 -66 -144 -143l-9 -1l-26 24q47 50 135 154zM432 737l8 1l37 -27l-1 -8q-63 -66 -144 -143l-8 -1l-27 24q55 58 135 154z" />
    <glyph glyph-name="OE" unicode="&#x152;" horiz-adv-x="851" 
d="M444 647q54 -6 80 -6h298l5 -8l-6 -62l-144 3h-135l-1 -212l114 -2l113 3l5 -7l-7 -62l-117 2l-110 -1v-100l1 -128l125 -1l157 4l6 -8l-7 -62h-297q-22 1 -94 -6q-60 -6 -90 -6q-144 0 -223 86t-79 242q0 160 83 248.5t234 88.5q33 0 89 -6zM178 519q-58 -67 -58 -198
q0 -267 228 -267q57 0 94 10q25 8 25 35l-4 437q0 33 -14 37q-11 5 -40.5 9t-59.5 4q-113 0 -171 -67z" />
    <glyph glyph-name="oe" unicode="&#x153;" horiz-adv-x="736" 
d="M384 502q44 -4 66 -4h249l4 -6l-5 -58l-121 4h-109v-152l92 -1l93 3l5 -7l-6 -59l-97 3l-89 -1v-164h102l130 4l5 -6l-7 -58h-246q-23 0 -75 -4q-45 -5 -80 -5q-120 0 -185 66.5t-65 187.5q0 124 69.5 193t193.5 69q36 0 76 -5zM167.5 395q-44.5 -47 -44.5 -145
q0 -100 44 -148t135 -48q52 0 76 10q11 3 14.5 9t3.5 19l-3 309q0 26 -10 30q-33 11 -81 11q-90 0 -134.5 -47z" />
    <glyph glyph-name="Racute" unicode="&#x154;" horiz-adv-x="555" 
d="M520 19l-1 -10q-36 -14 -74 -18l-11 7q-82 123 -147 240h-117v-38l4 -200h-81l5 193l-5 448l196 1q94 0 145.5 -47.5t51.5 -135.5q0 -66 -34.5 -118.5t-97.5 -81.5q66 -109 166 -240zM291 303q112 32 112 149q0 119 -132 124l-97 -3l-3 -267zM407 836l-2 -8
q-99 -77 -170 -127l-9 1l-22 32q98 80 164 145l9 -1z" />
    <glyph glyph-name="racute" unicode="&#x155;" horiz-adv-x="496" 
d="M454 18l-1 -10q-42 -13 -69 -15l-13 8q-76 115 -115 181l-94 -1v-25l2 -156h-74l3 150l-3 348l170 1q79 0 121.5 -37t42.5 -107q0 -51 -27.5 -91t-77.5 -63q61 -93 135 -183zM257 240q89 25 89 109q0 44 -26 66t-79 24l-77 -1l-1 -195zM361 694l-2 -8q-99 -77 -170 -127
l-9 1l-22 32q98 80 164 145l9 -1z" />
    <glyph glyph-name="Rcommaaccent" unicode="&#x156;" horiz-adv-x="555" 
d="M520 19l-1 -10q-36 -14 -74 -18l-11 7q-82 123 -147 240h-117v-38l4 -200h-81l5 193l-5 448l197 1q94 0 145 -47.5t51 -135.5q0 -67 -34.5 -119.5t-97.5 -81.5q80 -128 166 -239zM292 303q111 32 111 149q0 119 -132 124l-97 -3l-3 -267zM336 -118q0 -61 -88 -125l-26 23
v6q52 41 52 82q0 24 -29 45v7q24 16 52 25q39 -27 39 -63z" />
    <glyph glyph-name="rcommaaccent" unicode="&#x157;" horiz-adv-x="496" 
d="M454 18l-1 -10q-41 -13 -70 -15l-12 8q-63 93 -115 181l-94 -1v-25l3 -156h-75l3 150l-3 348l170 1q79 0 122 -37.5t43 -106.5q0 -51 -28 -91t-79 -63q53 -81 136 -183zM257 240q89 25 89 109q0 44 -26 66t-79 24l-76 -1l-2 -195zM289 -118q0 -61 -88 -125l-26 23v6
q52 41 52 82q0 24 -29 45v7q24 16 52 25q39 -27 39 -63z" />
    <glyph glyph-name="Rcaron" unicode="&#x158;" horiz-adv-x="555" 
d="M520 19l-1 -10q-36 -14 -74 -18l-11 7q-82 123 -147 240h-117v-38l4 -200h-81l5 193l-5 448l196 1q94 0 145.5 -47.5t51.5 -135.5q0 -66 -34.5 -118.5t-97.5 -81.5q66 -109 166 -240zM291 303q112 32 112 149q0 119 -132 124l-97 -3l-3 -267zM290 704h-24
q-62 77 -121 134l22 32h9q62 -59 102 -104q38 42 102 104h10l22 -32q-57 -57 -122 -134z" />
    <glyph glyph-name="rcaron" unicode="&#x159;" horiz-adv-x="496" 
d="M454 18l-1 -10q-42 -13 -69 -15l-13 8q-76 115 -115 181l-94 -1v-25l2 -156h-74l3 150l-3 348l170 1q79 0 121.5 -37t42.5 -107q0 -51 -27.5 -91t-77.5 -63q61 -93 135 -183zM257 240q89 25 89 109q0 44 -26 66t-79 24l-77 -1l-1 -195zM243 562h-24q-62 77 -121 134
l22 32h9q62 -59 102 -104q38 42 102 104h10l22 -32q-57 -57 -122 -134z" />
    <glyph glyph-name="Sacute" unicode="&#x15a;" horiz-adv-x="472" 
d="M410 616l-13 -77l-14 -4q-60 46 -126 46q-37 0 -64.5 -15t-42 -39t-14.5 -50q0 -27 16.5 -47.5t41.5 -35.5t68 -36q54 -25 87 -46.5t56.5 -54.5t23.5 -80q0 -50 -27 -92t-76 -67t-112 -25q-92 0 -172 45l10 82l11 5q35 -34 77.5 -50.5t81.5 -16.5q38 0 67.5 15t45 40
t15.5 53q0 42 -32 67.5t-97 55.5q-53 26 -85 46.5t-55 53t-23 79.5q0 49 26.5 90t74 64.5t108.5 23.5q69 0 143 -30zM377 836l-2 -8q-99 -77 -170 -127l-9 1l-22 32q98 80 164 145l9 -1z" />
    <glyph glyph-name="sacute" unicode="&#x15b;" horiz-adv-x="425" 
d="M359 479l-13 -74l-12 -3q-53 43 -105 43q-43 0 -68 -22.5t-25 -51.5t24.5 -47t75.5 -40q45 -20 71.5 -36t46 -42.5t19.5 -64.5q0 -39 -21 -72.5t-61.5 -54t-96.5 -20.5q-78 0 -145 34l9 79l10 4q28 -28 65.5 -43.5t69.5 -15.5q42 0 69 22.5t27 54.5q0 30 -24.5 48
t-76.5 42q-43 19 -70.5 35t-46.5 42.5t-19 64.5q0 40 21.5 72t61 51t92.5 19q61 0 122 -24zM343 694l-2 -8q-99 -77 -170 -127l-9 1l-22 32q98 80 164 145l9 -1z" />
    <glyph glyph-name="Scircumflex" unicode="&#x15c;" horiz-adv-x="472" 
d="M236 871h24q62 -77 121 -134l-22 -32h-9q-62 59 -102 104q-38 -42 -102 -104h-10l-22 32q58 57 122 134zM410 616l-13 -77l-14 -4q-60 46 -126 46q-37 0 -64.5 -15t-42 -39t-14.5 -50q0 -27 16.5 -47.5t41.5 -35.5t68 -36q54 -25 87 -46.5t56.5 -54.5t23.5 -80
q0 -50 -27 -92t-76 -67t-112 -25q-92 0 -172 45l10 82l11 5q35 -34 77.5 -50.5t81.5 -16.5q38 0 67.5 15t45 40t15.5 53q0 42 -32 67.5t-97 55.5q-53 26 -85 46.5t-55 53t-23 79.5q0 49 26.5 90t74 64.5t108.5 23.5q69 0 143 -30z" />
    <glyph glyph-name="scircumflex" unicode="&#x15d;" horiz-adv-x="425" 
d="M202 729h24q62 -77 121 -134l-22 -32h-9q-62 59 -102 104q-38 -42 -102 -104h-10l-22 32q57 57 122 134zM358 479l-12 -74l-12 -3q-53 43 -105 43q-43 0 -68 -22.5t-25 -51.5t24.5 -47t75.5 -40q45 -20 71.5 -36t46 -42.5t19.5 -64.5q0 -39 -21 -72.5t-61.5 -54
t-96.5 -20.5q-78 0 -145 34l9 79l10 4q27 -28 64.5 -43.5t70.5 -15.5q42 0 69 22.5t27 54.5q0 30 -24.5 48t-76.5 42q-43 19 -70.5 35t-46.5 42.5t-19 64.5q0 40 21.5 72t61 51t92.5 19q61 0 121 -24z" />
    <glyph glyph-name="Scedilla" unicode="&#x15e;" horiz-adv-x="472" 
d="M380.5 58q-48.5 -51 -127.5 -62l-14 -47l34 -20q38 -22 38 -56q0 -29 -22.5 -47.5t-58.5 -18.5q-43 0 -72 31l7 40l5 1q28 -31 57 -31q14 0 22.5 7t8.5 20t-21 25l-48 29l18 64q-89 2 -165 45l10 82l11 5q35 -34 77.5 -50.5t81.5 -16.5q38 0 67.5 15t45 40t15.5 53
q0 42 -32 67.5t-97 55.5q-53 26 -85 46.5t-55 53t-23 79.5q0 49 26.5 90t74 64.5t108.5 23.5q69 0 143 -30l-13 -77l-14 -4q-60 46 -126 46q-37 0 -64.5 -15t-42 -39t-14.5 -50q0 -27 16.5 -47.5t41.5 -35.5t68 -36q54 -25 87 -46.5t56.5 -54.5t23.5 -80q0 -68 -48.5 -119z
" />
    <glyph glyph-name="scedilla" unicode="&#x15f;" horiz-adv-x="425" 
d="M332 44q-41 -42 -112 -49l-14 -46l34 -20q38 -22 38 -56q0 -29 -22.5 -47.5t-58.5 -18.5q-43 0 -72 31l7 40l5 1q28 -31 57 -31q14 0 22.5 7t8.5 20t-21 25l-48 29l18 66q-69 3 -125 33l9 79l10 4q27 -28 64.5 -43.5t70.5 -15.5q42 0 69 22.5t27 54.5q0 30 -24.5 48
t-76.5 42q-43 19 -70.5 35t-46.5 42.5t-19 64.5q0 40 21.5 72t61 51t92.5 19q61 0 121 -24l-12 -74l-12 -3q-53 43 -105 43q-43 0 -68 -22.5t-25 -51.5t24.5 -47t75.5 -40q45 -20 71.5 -36t46 -42.5t19.5 -64.5q0 -55 -41 -97z" />
    <glyph glyph-name="Scaron" unicode="&#x160;" horiz-adv-x="472" 
d="M410 616l-13 -77l-14 -4q-60 46 -126 46q-37 0 -64.5 -15t-42 -39t-14.5 -50q0 -27 16.5 -47.5t41.5 -35.5t68 -36q54 -25 87 -46.5t56.5 -54.5t23.5 -80q0 -50 -27 -92t-76 -67t-112 -25q-92 0 -172 45l10 82l11 5q35 -34 77.5 -50.5t81.5 -16.5q38 0 67.5 15t45 40
t15.5 53q0 42 -32 67.5t-97 55.5q-53 26 -85 46.5t-55 53t-23 79.5q0 49 26.5 90t74 64.5t108.5 23.5q69 0 143 -30zM259 704h-24q-62 77 -121 134l22 32h9q62 -59 102 -104q38 42 102 104h10l22 -32q-57 -57 -122 -134z" />
    <glyph glyph-name="scaron" unicode="&#x161;" horiz-adv-x="425" 
d="M359 479l-13 -74l-12 -3q-53 43 -105 43q-43 0 -68 -22.5t-25 -51.5t24.5 -47t75.5 -40q45 -20 71.5 -36t46 -42.5t19.5 -64.5q0 -39 -21 -72.5t-61.5 -54t-96.5 -20.5q-78 0 -145 34l9 79l10 4q28 -28 65.5 -43.5t69.5 -15.5q42 0 69 22.5t27 54.5q0 30 -24.5 48
t-76.5 42q-43 19 -70.5 35t-46.5 42.5t-19 64.5q0 40 21.5 72t61 51t92.5 19q61 0 122 -24zM225 562h-24q-62 77 -121 134l22 32h9q62 -59 102 -104q38 42 102 104h10l22 -32q-57 -57 -122 -134z" />
    <glyph glyph-name="Tcedilla" unicode="&#x162;" horiz-adv-x="490" 
d="M463 571l-112 6h-65l-4 -377l4 -200h-21l-15 -51l34 -20q38 -22 38 -56q0 -29 -22.5 -47.5t-58.5 -18.5q-43 0 -72 31l7 40l5 1q28 -31 57 -31q14 0 22.5 7t8.5 20t-21 25l-48 29l20 71h-15l5 193l-4 384h-64l-114 -6l-6 8l7 62h435l5 -8z" />
    <glyph glyph-name="tcedilla" unicode="&#x163;" horiz-adv-x="437" 
d="M399 429l-93 7h-51l-3 -280l3 -156h-16l-14 -52l33 -19q37 -24 37 -56q0 -28 -22 -46.5t-55 -18.5q-41 0 -71 32l8 37l5 1q26 -31 54 -31q14 0 23 7.5t9 19.5q0 15 -20 28l-47 29l18 69h-17l3 150l-2 286h-50l-95 -7l-6 7l6 62h364l3 -6z" />
    <glyph glyph-name="Tcaron" unicode="&#x164;" horiz-adv-x="490" 
d="M463 571l-112 6h-65l-3 -377l3 -200h-81l6 193l-5 384h-65l-114 -6l-5 8l6 62h435l6 -8zM260 704h-24q-62 77 -121 134l22 32h9q62 -59 102 -104q38 42 102 104h10l22 -32q-57 -57 -122 -134z" />
    <glyph glyph-name="tcaron" unicode="&#x165;" horiz-adv-x="437" 
d="M400 429l-93 7h-50l-3 -280l3 -156h-75l3 150l-2 286h-50l-95 -7l-6 7l6 62h363l4 -6zM225 562h-24q-62 77 -121 134l22 32h9q62 -59 102 -104q38 42 102 104h10l22 -32q-57 -57 -122 -134z" />
    <glyph glyph-name="Tbar" unicode="&#x166;" horiz-adv-x="490" 
d="M284 345h104l7 -5l-4 -45h-108l-1 -95l4 -200h-81l5 193l-1 102h-95l-6 6l4 44h96l-2 232h-64l-114 -6l-6 8l7 62h435l5 -8l-6 -62l-112 6h-65z" />
    <glyph glyph-name="tbar" unicode="&#x167;" horiz-adv-x="437" 
d="M255 255h94l7 -5l-4 -45h-98v-49l3 -156h-75l3 150v55h-92l-6 6l4 44h93l-1 181h-50l-95 -7l-6 7l6 62h363l4 -6l-5 -63l-93 7h-50z" />
    <glyph glyph-name="Umacron" unicode="&#x16a;" horiz-adv-x="626" 
d="M552 243q2 -118 -62 -184t-182 -66q-113 0 -173.5 63t-58.5 178l1 87l-1 320h79l-3 -397q-2 -181 162 -181q166 0 164 171l-4 407h80l-1 -326zM457 764h-283l-6 6l5 46h283l6 -5z" />
    <glyph glyph-name="umacron" unicode="&#x16b;" horiz-adv-x="549" 
d="M475 173q1 -85 -51.5 -132t-150.5 -47q-97 0 -148 46.5t-49 132.5l1 76l-1 249h75l-4 -313q-2 -127 129 -127t129 127l-3 313h76l-3 -253v-72zM419 622h-283l-6 6l5 46h283l6 -5z" />
    <glyph glyph-name="Ubreve" unicode="&#x16c;" horiz-adv-x="626" 
d="M552 243q2 -118 -62 -184t-182 -66q-113 0 -173.5 63t-58.5 178l1 87l-1 320h79l-3 -397q-2 -181 162 -181q166 0 164 171l-4 407h80l-1 -326zM314 709q-101 0 -124 115l22 29h12q19 -87 92 -87t92 87h12l23 -29q-27 -115 -129 -115z" />
    <glyph glyph-name="ubreve" unicode="&#x16d;" horiz-adv-x="549" 
d="M475 173q1 -85 -51.5 -132t-150.5 -47q-97 0 -148 46.5t-49 132.5l1 76l-1 249h75l-4 -313q-2 -127 129 -127t129 127l-3 313h76l-3 -253v-72zM276 567q-101 0 -124 115l22 29h12q19 -87 92 -87t92 87h12l23 -29q-27 -115 -129 -115z" />
    <glyph glyph-name="Uring" unicode="&#x16e;" horiz-adv-x="626" 
d="M552 243q2 -118 -62 -184t-182 -66q-113 0 -173.5 63t-58.5 178l1 87l-1 320h79l-3 -397q-2 -181 162 -181q166 0 164 171l-4 407h80l-1 -326zM376 856.5q22 -22.5 22 -58.5q0 -39 -24.5 -61.5t-61.5 -22.5q-36 0 -59 21.5t-23 60.5q0 38 23 60.5t62 22.5t61 -22.5z
M268 797q0 -22 12.5 -33.5t33.5 -11.5q20 0 32.5 11t12.5 32q0 45 -46 45q-45 0 -45 -43z" />
    <glyph glyph-name="uring" unicode="&#x16f;" horiz-adv-x="549" 
d="M475 173q1 -85 -51.5 -132t-150.5 -47q-97 0 -148 46.5t-49 132.5l1 76l-1 249h75l-4 -313q-2 -127 129 -127t129 127l-3 313h76l-3 -253v-72zM338 714.5q22 -22.5 22 -58.5q0 -39 -24.5 -61.5t-61.5 -22.5q-36 0 -59 21.5t-23 60.5q0 38 23 60.5t62 22.5t61 -22.5z
M230 655q0 -22 12.5 -33.5t33.5 -11.5q20 0 32.5 11t12.5 32q0 45 -46 45q-45 0 -45 -43z" />
    <glyph glyph-name="Uhungarumlaut" unicode="&#x170;" horiz-adv-x="626" 
d="M552 243q2 -118 -62 -184t-182 -66q-113 0 -173.5 63t-58.5 178l1 87l-1 320h79l-3 -397q-2 -181 162 -181q166 0 164 171l-4 407h80l-1 -326zM211 761q71 78 91 102h8l36 -25v-9q-36 -36 -118 -110l-9 -1l-26 24zM445 863h7l37 -25v-9l-86 -81l-32 -29l-9 -1l-26 24
q72 78 109 121z" />
    <glyph glyph-name="uhungarumlaut" unicode="&#x171;" horiz-adv-x="549" 
d="M475 173q1 -85 -51.5 -132t-150.5 -47q-97 0 -148 46.5t-49 132.5l1 76l-1 249h75l-4 -313q-2 -127 129 -127t129 127l-3 313h76l-3 -253v-72zM288 737l7 1l37 -27v-8q-63 -66 -144 -143l-9 -1l-26 24q47 50 135 154zM429 737l8 1l37 -27l-1 -8q-63 -66 -144 -143l-8 -1
l-27 24q55 58 135 154z" />
    <glyph glyph-name="Uogonek" unicode="&#x172;" horiz-adv-x="626" 
d="M551 243q3 -141 -86 -205l-60 -98q-17 -26 -17 -50q0 -34 37 -34q38 0 73 38h4l12 -38q-48 -53 -99 -53q-35 0 -56.5 22t-21.5 58q0 33 22 66l36 55q-41 -11 -87 -11q-114 0 -174 62.5t-58 178.5l1 87l-1 320h79l-4 -397q-2 -181 163 -181q164 0 164 171l-4 407h80
l-2 -326z" />
    <glyph glyph-name="uogonek" unicode="&#x173;" horiz-adv-x="549" 
d="M319 -110q0 -34 37 -34q38 0 73 38h4l12 -38q-48 -53 -99 -53q-35 0 -56.5 22t-21.5 57q0 34 22 67l31 48q-22 -3 -49 -3q-97 0 -147.5 46.5t-48.5 132.5l1 76l-2 249h76l-5 -313q-2 -127 129 -127t129 127l-2 313h75l-3 -253v-72q1 -57 -22.5 -97.5t-69.5 -60.5l-46 -75
q-17 -26 -17 -50z" />
    <glyph glyph-name="Wcircumflex" unicode="&#x174;" horiz-adv-x="893" 
d="M427 858h23q45 -40 117 -91l-16 -34h-9q-56 34 -103 66q-39 -27 -102 -66h-10l-16 34q67 46 116 91zM572 0l-125 372h-7l-132 -372h-83l-204 641h79l12 -62l156 -490h7l138 390l-55 162h82l16 -69l158 -483h6l174 486l15 66h75l-229 -641h-83z" />
    <glyph glyph-name="wcircumflex" unicode="&#x175;" horiz-adv-x="768" 
d="M352 729h24q62 -77 121 -134l-22 -32h-9q-62 59 -102 104q-38 -42 -102 -104h-10l-22 32q58 58 122 134zM483 0l-98 272h-5l-104 -272h-80l-163 498h76l9 -53l121 -362h6l109 291l-41 124h77l11 -59l122 -356h7l134 358l13 57h72l-186 -498h-80z" />
    <glyph glyph-name="Ycircumflex" unicode="&#x176;" horiz-adv-x="528" 
d="M130 767q67 46 116 91h23q45 -40 117 -91l-16 -34h-9q-56 34 -103 66q-39 -27 -102 -66h-10zM295 0h-81l5 187l-1 44l-203 410h86l13 -36l140 -288h8l153 286l15 38h85l-223 -413l-1 -41z" />
    <glyph glyph-name="ycircumflex" unicode="&#x177;" horiz-adv-x="473" 
d="M107 595q58 58 122 134h24q62 -77 121 -134l-22 -32h-9q-62 59 -102 104q-38 -42 -102 -104h-10zM266 0h-75l3 143v29l-169 326h81l10 -29l111 -214h6l122 211l14 32h78l-183 -324l-1 -31z" />
    <glyph glyph-name="Ydieresis" unicode="&#x178;" horiz-adv-x="528" 
d="M148 756q-11 12 -11 32t12 32.5t33 12.5q20 0 31 -11t11 -31q0 -21 -12 -34t-33 -13q-20 0 -31 12zM305 756q-11 12 -11 32t12 32.5t33 12.5q20 0 31 -11t11 -31q0 -21 -12 -34t-33 -13q-20 0 -31 12zM295 0h-81l5 187l-1 44l-203 410h86l13 -36l140 -288h8l153 286
l15 38h85l-223 -413l-1 -41z" />
    <glyph glyph-name="Zacute" unicode="&#x179;" horiz-adv-x="528" 
d="M127 65h266l95 7l4 -6l-7 -68l-116 2h-281l-57 -3v59l360 519h-247l-96 -7l-5 6l6 68l388 -1l49 1v-60zM407 814l-2 -8q-89 -41 -195 -86l-10 4l-14 36q103 51 192 103l9 -2z" />
    <glyph glyph-name="zacute" unicode="&#x17a;" horiz-adv-x="470" 
d="M130 59h209l83 8l4 -5l-6 -64l-103 2h-226l-51 -2v54l292 386h-203l-77 -8l-4 6l7 63l90 -1h233l43 1v-56zM351 694l-2 -8q-99 -77 -170 -127l-9 1l-22 32q98 80 164 145l9 -1z" />
    <glyph glyph-name="Zdotaccent" unicode="&#x17b;" horiz-adv-x="528" 
d="M303 833q12 -12 12 -32q0 -23 -12.5 -36t-34.5 -13q-44 0 -44 46q0 21 12.5 34t34.5 13q20 0 32 -12zM127 65h266l95 7l4 -6l-7 -68l-116 2h-281l-57 -3v59l360 519h-247l-96 -7l-5 6l6 68l388 -1l49 1v-60z" />
    <glyph glyph-name="zdotaccent" unicode="&#x17c;" horiz-adv-x="470" 
d="M255 691q12 -12 12 -32q0 -23 -12.5 -36t-34.5 -13q-44 0 -44 46q0 21 12.5 34t34.5 13q20 0 32 -12zM130 59h209l83 8l4 -5l-7 -64l-103 2h-226l-50 -2v54l291 386h-202l-77 -8l-4 6l6 63l91 -1h232l43 1v-56z" />
    <glyph glyph-name="Zcaron" unicode="&#x17d;" horiz-adv-x="528" 
d="M127 65h266l95 7l4 -6l-7 -68l-116 2h-281l-57 -3v59l360 519h-247l-96 -7l-5 6l6 68l388 -1l49 1v-60zM282 723h-23q-45 40 -117 91l16 34h9q56 -34 103 -66q39 27 102 66h10l16 -34q-67 -46 -116 -91z" />
    <glyph glyph-name="zcaron" unicode="&#x17e;" horiz-adv-x="470" 
d="M130 59h209l83 8l4 -5l-6 -64l-103 2h-226l-51 -2v54l292 386h-203l-77 -8l-4 6l7 63l90 -1h233l43 1v-56zM233 562h-24q-62 77 -121 134l22 32h9q62 -59 102 -104q38 42 102 104h10l22 -32q-57 -57 -122 -134z" />
    <glyph glyph-name="florin" unicode="&#x192;" horiz-adv-x="277" 
d="M372 607l-12 -52l-6 -3q-31 13 -63 13q-86 0 -99 -94l-13 -97h111l3 -6l-4 -38h-115l-20 -145l-18 -138q-8 -68 -33.5 -109.5t-86.5 -87.5l-32 31l1 7q45 39 63.5 71.5t25.5 85.5l17 135l18 150h-65l-5 4l5 40h71l11 88q9 74 54.5 114t119.5 40q30 0 72 -9z" />
    <glyph glyph-name="Ohorn" unicode="&#x1a0;" horiz-adv-x="640" 
d="M613.5 739.5q17.5 -25.5 17.5 -60.5q0 -47 -32.5 -75t-84.5 -31q84 -81 84 -244q0 -159 -75 -248t-212 -89q-131 0 -202 84t-71 239q0 160 74.5 246t209.5 86q51 0 116 -21q39 -13 58 -13q30 0 50.5 16t20.5 44q0 38 -32 68l2 8q21 16 39 16q20 0 37.5 -25.5zM120 325
q0 -266 195 -266q200 0 200 260q0 133 -48.5 197.5t-147.5 64.5q-199 0 -199 -256z" />
    <glyph glyph-name="ohorn" unicode="&#x1a1;" horiz-adv-x="561" 
d="M493 596q18 0 33.5 -20.5t15.5 -50.5q0 -36 -24.5 -60t-65.5 -30q60 -63 60 -179q0 -124 -63 -193.5t-176 -69.5q-109 0 -168.5 66t-59.5 186q0 124 62.5 191.5t177.5 67.5q41 0 97 -14q31 -9 48 -9q23 0 38 10.5t15 30.5q0 27 -27 54l2 6q19 14 35 14zM396 99
q39 48 39 149q0 100 -38.5 147t-118.5 47q-79 0 -117 -47t-38 -146q0 -101 38.5 -149.5t116.5 -48.5q79 0 118 48z" />
    <glyph glyph-name="Uhorn" unicode="&#x1af;" horiz-adv-x="636" 
d="M616.5 637.5q-23.5 -25.5 -62.5 -35.5l-2 -287l-1 -72q2 -119 -61.5 -184.5t-181.5 -65.5q-114 0 -174 62.5t-58 178.5l1 87l-1 320h79l-4 -397q-2 -181 163 -181q164 0 164 171l-4 407h38q65 0 65 51q0 31 -33 60l3 8q23 16 39 16q19 0 36.5 -23.5t17.5 -55.5
q0 -34 -23.5 -59.5z" />
    <glyph glyph-name="uhorn" unicode="&#x1b0;" horiz-adv-x="558" 
d="M472 173q1 -85 -51.5 -132t-150.5 -47q-97 0 -147.5 46.5t-48.5 132.5l1 76l-2 249h75l-4 -313q-2 -127 129 -127t129 127l-3 313h38q52 0 52 39q0 25 -26 47l2 7q19 14 37 14q17 0 31.5 -18t14.5 -43q0 -28 -19.5 -50t-53.5 -31l-3 -218v-72z" />
    <glyph glyph-name="Acaron" unicode="&#x1cd;" horiz-adv-x="578" 
d="M474 0l-15 64l-36 110l-144 3l-130 -3l-39 -106l-16 -68h-80l235 641h93l214 -641h-82zM297 558h-7l-116 -316l112 -2l115 2zM303 723h-23q-45 40 -117 91l16 34h9q56 -34 103 -66q39 27 102 66h10l16 -34q-67 -46 -116 -91z" />
    <glyph glyph-name="acaron" unicode="&#x1ce;" horiz-adv-x="512" 
d="M403 0l-12 54l-26 74l-119 1l-106 -1l-27 -70l-14 -58h-74l192 498h86l175 -498h-75zM261 425h-6l-91 -236l88 -1l92 1zM273 562h-24q-62 77 -121 134l22 32h9q62 -59 102 -104q38 42 102 104h10l22 -32q-57 -57 -122 -134z" />
    <glyph glyph-name="Icaron" unicode="&#x1cf;" horiz-adv-x="268" 
d="M174 0h-81l5 193l-5 448h82l-5 -441zM147 723h-23q-45 40 -117 91l16 34h9q56 -34 103 -66q39 27 102 66h10l16 -34q-67 -46 -116 -91z" />
    <glyph glyph-name="icaron" unicode="&#x1d0;" horiz-adv-x="259" 
d="M164 0h-74l3 150l-3 348h75l-3 -342zM143 562h-24q-62 77 -121 134l22 32h9q62 -59 102 -104q38 42 102 104h10l22 -32q-57 -57 -122 -134z" />
    <glyph glyph-name="Ocaron" unicode="&#x1d1;" horiz-adv-x="635" 
d="M527.5 566q70.5 -81 70.5 -233q0 -163 -75 -252t-213 -89q-130 0 -201 84t-71 239q0 160 74.5 246t213.5 86q131 0 201.5 -81zM120 325q0 -266 195 -266q200 0 200 260q0 133 -48.5 197.5t-147.5 64.5q-199 0 -199 -256zM331 723h-23q-45 40 -117 91l16 34h9
q56 -34 103 -66q39 27 102 66h10l16 -34q-67 -46 -116 -91z" />
    <glyph glyph-name="ocaron" unicode="&#x1d2;" horiz-adv-x="557" 
d="M453.5 440q58.5 -64 58.5 -181q0 -127 -62.5 -196.5t-178.5 -69.5q-108 0 -167 65.5t-59 186.5q0 124 63 191.5t178 67.5q109 0 167.5 -64zM161.5 396q-38.5 -45 -38.5 -142q0 -104 38 -151t116 -47q80 0 119 46t39 144q0 101 -38.5 148t-117.5 47t-117.5 -45zM292 562
h-24q-62 77 -121 134l22 32h9q62 -59 102 -104q38 42 102 104h10l22 -32q-57 -57 -122 -134z" />
    <glyph glyph-name="Ucaron" unicode="&#x1d3;" horiz-adv-x="626" 
d="M552 243q2 -118 -62 -184t-182 -66q-113 0 -173.5 63t-58.5 178l1 87l-1 320h79l-3 -397q-2 -181 162 -181q166 0 164 171l-4 407h80l-1 -326zM327 704h-24q-62 77 -121 134l22 32h9q62 -59 102 -104q38 42 102 104h10l22 -32q-57 -57 -122 -134z" />
    <glyph glyph-name="ucaron" unicode="&#x1d4;" horiz-adv-x="549" 
d="M475 173q1 -85 -51.5 -132t-150.5 -47q-97 0 -148 46.5t-49 132.5l1 76l-1 249h75l-4 -313q-2 -127 129 -127t129 127l-3 313h76l-3 -253v-72zM289 562h-24q-62 77 -121 134l22 32h9q62 -59 102 -104q38 42 102 104h10l22 -32q-57 -57 -122 -134z" />
    <glyph glyph-name="Udieresismacron" unicode="&#x1d5;" horiz-adv-x="626" 
d="M552 243q2 -118 -62 -184t-182 -66q-113 0 -173.5 63t-58.5 178l1 87l-1 320h79l-3 -397q-2 -181 162 -181q166 0 164 171l-4 407h80l-1 -326zM445 877h-258l-7 6l5 47h259l6 -6zM266 800q11 -11 11 -30q0 -20 -11.5 -31.5t-31.5 -11.5q-40 0 -40 41q0 20 11.5 31.5
t31.5 11.5q18 0 29 -11zM423.5 800q10.5 -11 10.5 -30q0 -20 -11.5 -31.5t-31.5 -11.5q-18 0 -29 11t-11 30q0 20 11.5 31.5t31.5 11.5q19 0 29.5 -11z" />
    <glyph glyph-name="udieresismacron" unicode="&#x1d6;" horiz-adv-x="549" 
d="M475 173q1 -85 -51.5 -132t-150.5 -47q-97 0 -148 46.5t-49 132.5l1 76l-1 249h75l-4 -313q-2 -127 129 -127t129 127l-3 313h76l-3 -253v-72zM407 735h-258l-7 6l5 47h259l6 -6zM228 658q11 -11 11 -30q0 -20 -11.5 -31.5t-31.5 -11.5q-40 0 -40 41q0 20 11.5 31.5
t31.5 11.5q18 0 29 -11zM385.5 658q10.5 -11 10.5 -30q0 -20 -11.5 -31.5t-31.5 -11.5q-18 0 -29 11t-11 30q0 20 11.5 31.5t31.5 11.5q19 0 29.5 -11z" />
    <glyph glyph-name="Udieresisacute" unicode="&#x1d7;" horiz-adv-x="626" 
d="M552 243q2 -118 -62 -184t-182 -66q-113 0 -173.5 63t-58.5 178l1 87l-1 320h79l-3 -397q-2 -181 162 -181q166 0 164 171l-4 407h80l-1 -326zM428 921l-5 -9q-77 -20 -207 -49l-9 5l-7 38q106 31 207 68l8 -3zM266 800q11 -11 11 -30q0 -20 -11.5 -31.5t-31.5 -11.5
q-40 0 -40 41q0 20 11.5 31.5t31.5 11.5q18 0 29 -11zM423.5 800q10.5 -11 10.5 -30q0 -20 -11.5 -31.5t-31.5 -11.5q-18 0 -29 11t-11 30q0 20 11.5 31.5t31.5 11.5q19 0 29.5 -11z" />
    <glyph glyph-name="udieresisacute" unicode="&#x1d8;" horiz-adv-x="549" 
d="M475 173q1 -85 -51.5 -132t-150.5 -47q-97 0 -148 46.5t-49 132.5l1 76l-1 249h75l-4 -313q-2 -127 129 -127t129 127l-3 313h76l-3 -253v-72zM390 779l-5 -9q-77 -20 -207 -49l-9 5l-7 38q106 31 207 68l8 -3zM228 658q11 -11 11 -30q0 -20 -11.5 -31.5t-31.5 -11.5
q-40 0 -40 41q0 20 11.5 31.5t31.5 11.5q18 0 29 -11zM385.5 658q10.5 -11 10.5 -30q0 -20 -11.5 -31.5t-31.5 -11.5q-18 0 -29 11t-11 30q0 20 11.5 31.5t31.5 11.5q19 0 29.5 -11z" />
    <glyph glyph-name="Udieresiscaron" unicode="&#x1d9;" horiz-adv-x="626" 
d="M552 243q2 -118 -62 -184t-182 -66q-113 0 -173.5 63t-58.5 178l1 87l-1 320h79l-3 -397q-2 -181 162 -181q166 0 164 171l-4 407h80l-1 -326zM327 834h-23q-57 48 -117 90l16 34h9q23 -14 42.5 -26.5t35.5 -22.5l25 -17l34 22q-12 -8 68 44h10l16 -34q-57 -39 -116 -90z
M266 800q11 -11 11 -30q0 -20 -11.5 -31.5t-31.5 -11.5q-40 0 -40 41q0 20 11.5 31.5t31.5 11.5q18 0 29 -11zM423.5 800q10.5 -11 10.5 -30q0 -20 -11.5 -31.5t-31.5 -11.5q-18 0 -29 11t-11 30q0 20 11.5 31.5t31.5 11.5q19 0 29.5 -11z" />
    <glyph glyph-name="udieresiscaron" unicode="&#x1da;" horiz-adv-x="549" 
d="M475 173q1 -85 -51.5 -132t-150.5 -47q-97 0 -148 46.5t-49 132.5l1 76l-1 249h75l-4 -313q-2 -127 129 -127t129 127l-3 313h76l-3 -253v-72zM289 692h-23q-57 48 -117 90l16 34h9q23 -14 42.5 -26.5t35.5 -22.5l25 -17l34 22q-12 -8 68 44h10l16 -34q-57 -39 -116 -90z
M228 658q11 -11 11 -30q0 -20 -11.5 -31.5t-31.5 -11.5q-40 0 -40 41q0 20 11.5 31.5t31.5 11.5q18 0 29 -11zM385.5 658q10.5 -11 10.5 -30q0 -20 -11.5 -31.5t-31.5 -11.5q-18 0 -29 11t-11 30q0 20 11.5 31.5t31.5 11.5q19 0 29.5 -11z" />
    <glyph glyph-name="Udieresisgrave" unicode="&#x1db;" horiz-adv-x="626" 
d="M552 243q2 -118 -62 -184t-182 -66q-113 0 -173.5 63t-58.5 178l1 87l-1 320h79l-3 -397q-2 -181 162 -181q166 0 164 171l-4 407h80l-1 -326zM428 906l-9 -38l-8 -5q-124 27 -206 49l-5 9l12 50l9 3q88 -33 207 -68zM266 800q11 -11 11 -30q0 -20 -11.5 -31.5
t-31.5 -11.5q-40 0 -40 41q0 20 11.5 31.5t31.5 11.5q18 0 29 -11zM423.5 800q10.5 -11 10.5 -30q0 -20 -11.5 -31.5t-31.5 -11.5q-18 0 -29 11t-11 30q0 20 11.5 31.5t31.5 11.5q19 0 29.5 -11z" />
    <glyph glyph-name="udieresisgrave" unicode="&#x1dc;" horiz-adv-x="549" 
d="M475 173q1 -85 -51.5 -132t-150.5 -47q-97 0 -148 46.5t-49 132.5l1 76l-1 249h75l-4 -313q-2 -127 129 -127t129 127l-3 313h76l-3 -253v-72zM390 764l-9 -38l-8 -5q-124 27 -206 49l-5 9l12 50l9 3q88 -33 207 -68zM228 658q11 -11 11 -30q0 -20 -11.5 -31.5
t-31.5 -11.5q-40 0 -40 41q0 20 11.5 31.5t31.5 11.5q18 0 29 -11zM385.5 658q10.5 -11 10.5 -30q0 -20 -11.5 -31.5t-31.5 -11.5q-18 0 -29 11t-11 30q0 20 11.5 31.5t31.5 11.5q19 0 29.5 -11z" />
    <glyph glyph-name="Oogonek" unicode="&#x1ea;" horiz-adv-x="635" 
d="M372 -103q0 -18 10.5 -29t29.5 -11q34 0 69 38h5l11 -40q-50 -52 -98 -52q-36 0 -57.5 22t-21.5 58q0 38 25 73l29 41q-33 -5 -64 -5q-130 0 -201 84t-71 239q0 160 74.5 246t213.5 86q131 0 201.5 -81t70.5 -233q0 -121 -42 -202t-121 -115l-45 -69q-18 -29 -18 -50z
M315 59q200 0 200 260q0 133 -48.5 197.5t-147.5 64.5q-199 0 -199 -256q0 -266 195 -266z" />
    <glyph glyph-name="oogonek" unicode="&#x1eb;" horiz-adv-x="557" 
d="M444 -144q-48 -53 -99 -53q-35 0 -56.5 22t-21.5 58q0 33 22 66l31 48q-20 -4 -49 -4q-108 0 -167 65.5t-59 186.5q0 124 62.5 191.5t178.5 67.5q109 0 167.5 -64t58.5 -181q0 -93 -34 -155.5t-98 -90.5l-45 -73q-17 -26 -17 -50q0 -34 37 -34q38 0 73 38h4zM161 103
q38 -47 116 -47q80 0 119 46t39 144q0 101 -38.5 148t-117.5 47t-117.5 -45t-38.5 -142q0 -104 38 -151z" />
    <glyph glyph-name="Aringacute" unicode="&#x1fa;" horiz-adv-x="578" 
d="M204 825q126 39 207 70l8 -3l13 -49l-4 -8q-90 -26 -207 -53l-8 5zM474 0l-14 63l-36 109l-145 3l-130 -3l-39 -105l-16 -67h-80l231 615q-33 23 -33 69q0 38 23 60.5t62 22.5t61 -22.5t22 -58.5q0 -47 -35 -70l212 -616h-83zM250 685q0 -22 12.5 -33.5t33.5 -11.5
q20 0 32.5 11t12.5 32q0 45 -46 45q-45 0 -45 -43zM297 553h-7l-116 -313l112 -2l115 2z" />
    <glyph glyph-name="aringacute" unicode="&#x1fb;" horiz-adv-x="512" 
d="M168 796q126 39 207 70l8 -3l13 -49l-4 -8q-90 -26 -207 -53l-8 5zM199 714.5q23 22.5 62 22.5t61 -22.5t22 -58.5q0 -39 -24.5 -61.5t-61.5 -22.5q-36 0 -59 21.5t-23 60.5q0 38 23 60.5zM259 698q-45 0 -45 -43q0 -22 12.5 -33.5t33.5 -11.5q20 0 32.5 11t12.5 32
q0 45 -46 45zM403 0l-12 54l-26 74l-119 1l-106 -1l-27 -70l-14 -58h-74l192 498h86l176 -498h-76zM261 425h-6l-91 -236l88 -1l92 1z" />
    <glyph glyph-name="AEacute" unicode="&#x1fc;" horiz-adv-x="807" 
d="M785 0h-348l-5 64l-29 195l-238 -54l-73 -137l-25 -68h-83l338 641h373l6 -8l-8 -62l-162 4h-97l35 -237l215 45l7 -6l4 -58l-217 -43l31 -211h113l164 5l6 -8zM358 558h-6l-147 -277l188 41zM635 814l-2 -8q-89 -41 -195 -86l-10 4l-14 36q103 51 192 103l9 -2z" />
    <glyph glyph-name="aeacute" unicode="&#x1fd;" horiz-adv-x="700" 
d="M668 0h-293l-4 53l-21 136l-205 -46l-49 -86l-20 -57h-74l277 498h316l5 -6l-7 -58l-133 5h-79l28 -176l176 38l6 -4l4 -60l-177 -34l22 -142h92l137 4l5 -5zM312 425h-6l-120 -211l154 34zM541 694l-2 -8q-99 -77 -170 -127l-9 1l-22 32q98 80 164 145l9 -1z" />
    <glyph glyph-name="Oslashacute" unicode="&#x1fe;" horiz-adv-x="635" 
d="M598 333q0 -163 -75 -252t-213 -89q-61 0 -107 18l-53 -112l-49 17l-4 8l54 115q-113 79 -113 277q0 160 74.5 246t213.5 86q57 0 102 -15l43 92l48 -18l5 -10l-42 -90q116 -76 116 -273zM183 108l215 460q-33 13 -79 13q-199 0 -199 -256q0 -152 63 -217zM515 319
q0 154 -66 217l-217 -462q36 -15 83 -15q200 0 200 260zM454 816l-2 -8q-89 -41 -195 -86l-10 4l-14 36q103 51 192 103l9 -2z" />
    <glyph glyph-name="oslashacute" unicode="&#x1ff;" horiz-adv-x="557" 
d="M512 259q0 -127 -62.5 -196.5t-178.5 -69.5q-47 0 -83 12l-53 -105l-44 21l-3 8l50 100q-93 64 -93 216q0 124 62.5 191.5t178.5 67.5q47 0 84 -12l38 76l41 -20l5 -9l-35 -70q93 -59 93 -210zM170 93l170 339q-27 9 -61 9q-79 0 -117.5 -45.5t-38.5 -141.5
q0 -114 47 -161zM396 102q39 46 39 144q0 112 -48 159l-170 -341q29 -8 60 -8q80 0 119 46zM390 695l-2 -8q-99 -77 -170 -127l-9 1l-22 32q98 80 164 145l9 -1z" />
    <glyph glyph-name="Scommaaccent" unicode="&#x218;" horiz-adv-x="472" 
d="M410 616l-13 -77l-14 -4q-60 46 -126 46q-37 0 -64.5 -15t-42 -39t-14.5 -50q0 -27 16.5 -47.5t41.5 -35.5t68 -36q54 -25 87 -46.5t56.5 -54.5t23.5 -80q0 -50 -27 -92t-76 -67t-112 -25q-92 0 -172 45l10 82l11 5q35 -34 77.5 -50.5t81.5 -16.5q38 0 67.5 15t45 40
t15.5 53q0 42 -32 67.5t-97 55.5q-53 26 -85 46.5t-55 53t-23 79.5q0 49 26.5 90t74 64.5t108.5 23.5q69 0 143 -30zM286 -118q0 -61 -88 -125l-26 23v6q52 41 52 82q0 24 -29 45v7q24 16 52 25q39 -27 39 -63z" />
    <glyph glyph-name="scommaaccent" unicode="&#x219;" horiz-adv-x="425" 
d="M358 479l-12 -74l-12 -3q-53 43 -105 43q-43 0 -68 -22.5t-25 -51.5t24.5 -47t75.5 -40q45 -20 71.5 -36t46 -42.5t19.5 -64.5q0 -39 -21 -72.5t-61.5 -54t-96.5 -20.5q-78 0 -145 34l9 79l10 4q27 -28 64.5 -43.5t70.5 -15.5q42 0 69 22.5t27 54.5q0 30 -24.5 48
t-76.5 42q-43 19 -70.5 35t-46.5 42.5t-19 64.5q0 40 21.5 72t61 51t92.5 19q61 0 121 -24zM254 -118q0 -61 -88 -125l-26 23v6q52 41 52 82q0 24 -29 45v7q24 16 52 25q39 -27 39 -63z" />
    <glyph glyph-name="uni021A" unicode="&#x21a;" horiz-adv-x="490" 
d="M463 571l-112 6h-65l-4 -377l4 -200h-81l5 193l-4 384h-64l-114 -6l-6 8l7 62h435l5 -8zM298 -118q0 -61 -88 -125l-26 23v6q52 41 52 82q0 24 -29 45v7q24 16 52 25q39 -27 39 -63z" />
    <glyph glyph-name="uni021B" unicode="&#x21b;" horiz-adv-x="437" 
d="M400 429l-93 7h-50l-3 -280l3 -156h-75l3 150l-2 286h-50l-95 -7l-6 7l6 62h363l4 -6zM273 -118q0 -61 -88 -125l-26 23v6q52 41 52 82q0 24 -29 45v7q24 16 52 25q39 -27 39 -63z" />
    <glyph glyph-name="dotlessj" unicode="&#x237;" horiz-adv-x="289" 
d="M194 165v-72q0 -61 -27.5 -100t-97.5 -73l-30 39v7q47 26 66.5 54.5t19.5 71.5v64l-2 285l-95 -1l-5 6l5 52h169z" />
    <glyph glyph-name="circumflex" unicode="&#x2c6;" 
d="M183 688h24q62 -77 121 -134l-22 -32h-9q-62 59 -102 104q-38 -42 -102 -104h-10l-22 32q57 57 122 134z" />
    <glyph glyph-name="caron" unicode="&#x2c7;" 
d="M206 522h-24q-62 77 -121 134l22 32h9q62 -59 102 -104q38 42 102 104h10l22 -32q-57 -57 -122 -134z" />
    <glyph glyph-name="firsttonechinese" unicode="&#x2c9;" 
d="M337 582h-283l-6 6l5 46h283l6 -5z" />
    <glyph glyph-name="breve" unicode="&#x2d8;" 
d="M193 527q-101 0 -124 115l22 29h12q19 -87 92 -87t92 87h12l23 -29q-27 -115 -129 -115z" />
    <glyph glyph-name="dotaccent" unicode="&#x2d9;" horiz-adv-x="244" 
d="M155 650q12 -12 12 -33q0 -22 -12.5 -35t-34.5 -13q-44 0 -44 46q0 21 12.5 34t34.5 13q20 0 32 -12z" />
    <glyph glyph-name="ring" unicode="&#x2da;" 
d="M256 674.5q22 -22.5 22 -58.5q0 -39 -24.5 -61.5t-61.5 -22.5q-36 0 -59 21.5t-23 60.5q0 38 23 60.5t62 22.5t61 -22.5zM148 615q0 -22 12.5 -33.5t33.5 -11.5q20 0 32.5 11t12.5 32q0 45 -46 45q-45 0 -45 -43z" />
    <glyph glyph-name="ogonek" unicode="&#x2db;" 
d="M163 -103q0 -18 10.5 -29t29.5 -11q34 0 69 38h5l11 -40q-50 -52 -98 -52q-36 0 -57.5 22t-21.5 58q0 38 25 73l62 90h48l-65 -99q-18 -29 -18 -50z" />
    <glyph glyph-name="tilde" unicode="&#x2dc;" 
d="M352 634l-61 -69l-10 -3q-22 2 -84 20q-57 17 -71 17q-7 0 -15 -6.5t-25 -23.5l-16 -17h-9l-24 26v7l61 69l10 3q24 -2 83 -20q62 -16 72 -16q13 0 40 29l17 17h8l24 -25v-8z" />
    <glyph glyph-name="hungarumlaut" unicode="&#x2dd;" 
d="M169 697l7 1l37 -27v-8q-63 -66 -144 -143l-9 -1l-26 24q47 50 135 154zM310 697l8 1l37 -27l-1 -8q-63 -66 -144 -143l-8 -1l-27 24q55 58 135 154z" />
    <glyph glyph-name="tildecomb" unicode="&#x303;" horiz-adv-x="0" 
d="M352 634l-62 -70l-10 -3q-10 1 -81 20q-62 18 -73 18q-7 0 -15 -6.5t-25 -23.5l-16 -17h-9l-24 26v7l62 69l10 4q23 -2 82 -20q57 -17 72 -17q13 0 40 29l17 17h8l24 -25v-8z" />
    <glyph glyph-name="dotbelowcomb" unicode="&#x323;" horiz-adv-x="0" 
d="M148 -50q12 -12 12 -33q0 -22 -12.5 -35t-34.5 -13q-44 0 -44 46q0 21 12.5 34t34.5 13q20 0 32 -12z" />
    <glyph glyph-name="commaaccentcomb" unicode="&#x326;" horiz-adv-x="0" 
d="M153.602 -85.3486q0 -60.6162 -87.6602 -124.963l-25.1787 23.3145v6.52734q51.291 40.0996 51.291 82.0654q0 25.1787 -28.9092 43.8301v7.45996q26.1113 17.7188 51.29 24.2471q39.167 -24.2471 39.167 -62.4814z" />
    <glyph glyph-name="Delta" unicode="&#x394;" horiz-adv-x="578" 
d="M14 0l234 641h93l215 -641h-542zM111 67h346l-160 491h-7z" />
    <glyph glyph-name="Omega" unicode="&#x3a9;" horiz-adv-x="744" 
d="M531.5 609.5q62.5 -37.5 93 -101.5t30.5 -141q0 -84 -35.5 -164t-102.5 -137l2 -4h100l82 7l5 -6l-10 -67l-99 4h-132l-38 -2l-5 4v64q71 51 110.5 132t39.5 164q0 96 -51 158t-149 62t-149 -61.5t-51 -157.5q0 -83 39 -164.5t109 -132.5v-64l-4 -4l-39 2h-146l-88 -3
l-6 7l11 64l86 -6h90l1 4q-66 55 -101 132t-35 159q0 79 33 145.5t98.5 105.5t158.5 39q90 0 152.5 -37.5z" />
    <glyph glyph-name="mu" unicode="&#x3bc;" horiz-adv-x="511" 
d="M480 14q-27 -19 -59 -19q-55 0 -68 65h-7q-61 -53 -130 -66q-40 0 -69 17v-196h-74l2 379l-2 259l74 7v-317q1 -38 22 -60t58 -22q58 0 122 61v331l75 7l-5 -357q-1 -50 28 -50q15 0 34 12l8 -6z" />
    <glyph glyph-name="pi" unicode="&#x3c0;" horiz-adv-x="627" 
d="M476 103q0 -50 29 -50q16 0 37 12l8 -5l-9 -46q-33 -19 -59 -19q-77 0 -77 99v340h-171v-233l2 -294h-77l3 287l-3 240h-37q-11 0 -24 -10.5t-40 -37.5l-18 -17h-11l-23 30v9l79 85l15 5l483 1l6 -7l-7 -59l-104 1z" />
    <glyph glyph-name="Wgrave" unicode="&#x1e80;" horiz-adv-x="893" 
d="M550 761l-14 -36l-10 -4q-106 45 -195 86l-2 8l20 47l9 2q89 -52 192 -103zM572 0l-125 372h-7l-132 -372h-83l-204 641h79l12 -62l156 -490h7l138 390l-55 162h82l16 -69l158 -483h6l174 486l15 66h75l-229 -641h-83z" />
    <glyph glyph-name="wgrave" unicode="&#x1e81;" horiz-adv-x="768" 
d="M464 592l-22 -32l-9 -1q-71 50 -170 127l-2 8l30 42l9 1q66 -65 164 -145zM483 0l-98 272h-5l-104 -272h-80l-163 498h76l9 -53l121 -362h6l109 291l-41 124h77l11 -59l122 -356h7l134 358l13 57h72l-186 -498h-80z" />
    <glyph glyph-name="Wacute" unicode="&#x1e82;" horiz-adv-x="893" 
d="M572 0l-125 372h-7l-132 -372h-83l-204 641h80l11 -62l156 -490h7l138 390l-54 162h82l15 -69l158 -483h6l174 486l15 66h76l-230 -641h-83zM577 814l-2 -8q-89 -41 -195 -86l-10 4l-14 36q103 51 192 103l9 -2z" />
    <glyph glyph-name="wacute" unicode="&#x1e83;" horiz-adv-x="768" 
d="M483 0l-98 272h-6l-103 -272h-80l-163 498h75l9 -53l122 -362h5l109 291l-41 124h78l11 -59l122 -356h6l135 358l12 57h73l-186 -498h-80zM493 694l-2 -8q-99 -77 -170 -127l-9 1l-22 32q98 80 164 145l9 -1z" />
    <glyph glyph-name="Wdieresis" unicode="&#x1e84;" horiz-adv-x="893" 
d="M394 822q11 -11 11 -31q0 -21 -12 -34t-33 -13q-20 0 -31 12t-11 32t12 32.5t33 12.5q20 0 31 -11zM551 822q11 -11 11 -31q0 -21 -12 -34t-33 -13q-20 0 -31 12t-11 32t12 32.5t33 12.5q20 0 31 -11zM572 0l-125 372h-7l-132 -372h-83l-204 641h79l12 -62l156 -490h7
l138 390l-55 162h82l16 -69l158 -483h6l174 486l15 66h75l-229 -641h-83z" />
    <glyph glyph-name="wdieresis" unicode="&#x1e85;" horiz-adv-x="768" 
d="M318 680q11 -11 11 -31q0 -21 -12 -34t-33 -13q-20 0 -31 12t-11 32t12 32.5t33 12.5q20 0 31 -11zM475 680q11 -11 11 -31q0 -21 -12 -34t-33 -13q-20 0 -31 12t-11 32t12 32.5t33 12.5q20 0 31 -11zM483 0l-98 272h-5l-104 -272h-80l-163 498h76l9 -53l121 -362h6
l109 291l-41 124h77l11 -59l122 -356h7l134 358l13 57h72l-186 -498h-80z" />
    <glyph glyph-name="uni1E9E" unicode="&#x1e9e;" horiz-adv-x="631" 
d="M555 584l4 -16l-167 -204q107 -33 158 -76t51 -117q0 -54 -26.5 -94.5t-72 -62t-100.5 -21.5q-90 0 -167 45l10 82l11 5q33 -31 74.5 -49t78.5 -18q50 0 81.5 30t31.5 75q0 54 -52.5 89.5t-173.5 67.5l-5 17l167 209q-72 34 -140 34q-79 0 -122.5 -41.5t-43.5 -114.5
l-2 -223l3 -201h-81l6 190l-3 234q-1 66 28.5 116.5t85.5 78t131 27.5q104 0 235 -62z" />
    <glyph glyph-name="Adotbelow" unicode="&#x1ea0;" horiz-adv-x="578" 
d="M474 0l-14 64l-36 110l-145 3l-130 -3l-39 -106l-16 -68h-80l236 641h93l214 -641h-83zM297 558h-7l-116 -316l112 -2l115 2zM319 -82q12 -12 12 -33q0 -22 -12.5 -35t-34.5 -13q-44 0 -44 46q0 21 12.5 34t34.5 13q20 0 32 -12z" />
    <glyph glyph-name="adotbelow" unicode="&#x1ea1;" horiz-adv-x="512" 
d="M403 0l-12 54l-26 74l-119 1l-106 -1l-27 -70l-14 -58h-74l192 498h86l176 -498h-76zM261 425h-6l-91 -236l88 -1l92 1zM287 -82q12 -12 12 -33q0 -22 -12.5 -35t-34.5 -13q-44 0 -44 46q0 21 12.5 34t34.5 13q20 0 32 -12z" />
    <glyph glyph-name="Ahookabove" unicode="&#x1ea2;" horiz-adv-x="578" 
d="M474 0l-15 64l-36 110l-144 3l-130 -3l-39 -106l-16 -68h-80l235 641h93l214 -641h-82zM297 558h-7l-116 -316l112 -2l115 2zM331 877.5q18 -16.5 18 -40.5q0 -32 -52 -75l20 -34l-35 -19l-32 55q50 36 50 65q0 21 -26 21q-30 0 -58 -24l-16 26q40 42 86 42
q27 0 45 -16.5z" />
    <glyph glyph-name="ahookabove" unicode="&#x1ea3;" horiz-adv-x="512" 
d="M403 0l-12 54l-26 74l-119 1l-106 -1l-27 -70l-14 -58h-74l192 498h86l175 -498h-75zM261 425h-6l-91 -236l88 -1l92 1zM302 735.5q18 -16.5 18 -40.5q0 -32 -52 -75l20 -34l-35 -19l-32 55q50 36 50 65q0 21 -26 21q-30 0 -58 -24l-16 26q40 42 86 42q27 0 45 -16.5z
" />
    <glyph glyph-name="Acircumflexacute" unicode="&#x1ea4;" horiz-adv-x="578" 
d="M474 0l-15 64l-36 110l-144 3l-130 -3l-39 -106l-16 -68h-80l235 641h93l214 -641h-82zM297 558h-7l-116 -316l112 -2l115 2zM461 919l-82 -100h-8l-28 23l70 103l8 2l39 -20zM277 838h23q45 -40 117 -91l-16 -34h-9q-56 34 -103 66q-39 -27 -102 -66h-10l-16 34
q67 46 116 91z" />
    <glyph glyph-name="acircumflexacute" unicode="&#x1ea5;" horiz-adv-x="512" 
d="M403 0l-12 54l-26 74l-119 1l-106 -1l-27 -70l-14 -58h-74l192 498h86l175 -498h-75zM261 425h-6l-91 -236l88 -1l92 1zM432 777l-82 -100h-8l-28 23l70 103l8 2l39 -20zM248 696h23q45 -40 117 -91l-16 -34h-9q-56 34 -103 66q-39 -27 -102 -66h-10l-16 34q67 46 116 91
z" />
    <glyph glyph-name="Acircumflexgrave" unicode="&#x1ea6;" horiz-adv-x="578" 
d="M474 0l-15 64l-36 110l-144 3l-130 -3l-39 -106l-16 -68h-80l235 641h93l214 -641h-82zM297 558h-7l-116 -316l112 -2l115 2zM428 842l-29 -23h-7l-82 100l1 8l40 20l7 -2zM277 838h23q45 -40 117 -91l-16 -34h-9q-56 34 -103 66q-39 -27 -102 -66h-10l-16 34
q67 46 116 91z" />
    <glyph glyph-name="acircumflexgrave" unicode="&#x1ea7;" horiz-adv-x="512" 
d="M403 0l-12 54l-26 74l-119 1l-106 -1l-27 -70l-14 -58h-74l192 498h86l175 -498h-75zM261 425h-6l-91 -236l88 -1l92 1zM399 700l-29 -23h-7l-82 100l1 8l40 20l7 -2zM248 696h23q45 -40 117 -91l-16 -34h-9q-56 34 -103 66q-39 -27 -102 -66h-10l-16 34q67 46 116 91z
" />
    <glyph glyph-name="Acircumflexhookabove" unicode="&#x1ea8;" horiz-adv-x="578" 
d="M318 920l-15 25q37 39 81 39q26 0 43 -15t17 -38q0 -32 -49 -72l19 -32l-33 -18l-30 52q48 35 48 62q0 20 -26 20q-27 0 -55 -23zM161 747q67 46 116 91h23q45 -40 117 -91l-16 -34h-9q-56 34 -103 66q-39 -27 -102 -66h-10zM474 0l-14 64l-36 110l-145 3l-130 -3
l-39 -106l-16 -68h-80l236 641h93l214 -641h-83zM297 558h-7l-116 -316l112 -2l115 2z" />
    <glyph glyph-name="acircumflexhookabove" unicode="&#x1ea9;" horiz-adv-x="512" 
d="M289 778l-15 25q37 39 81 39q26 0 43 -15t17 -38q0 -32 -49 -72l19 -32l-33 -18l-30 52q48 35 48 62q0 20 -26 20q-27 0 -55 -23zM132 605q67 46 116 91h23q45 -40 117 -91l-16 -34h-9q-56 34 -103 66q-39 -27 -102 -66h-10zM403 0l-12 54l-26 74l-119 1l-106 -1l-27 -70
l-14 -58h-74l192 498h86l176 -498h-76zM261 425h-6l-91 -236l88 -1l92 1z" />
    <glyph glyph-name="Acircumflextilde" unicode="&#x1eaa;" horiz-adv-x="578" 
d="M146 879v8l57 67l9 2q24 -2 81 -20q52 -15 65 -15q8 0 16 7t19 19t18 19h8l22 -24v-8l-57 -67l-9 -3q-23 2 -80 20q-54 16 -65 16q-13 0 -39 -30l-14 -15h-8zM417 747l-16 -34h-9q-56 34 -103 66q-39 -27 -102 -66h-10l-16 34q67 46 116 91h23q45 -40 117 -91zM474 0
l-14 64l-36 110l-145 3l-130 -3l-39 -106l-16 -68h-80l236 641h93l214 -641h-83zM297 558h-7l-116 -316l112 -2l115 2z" />
    <glyph glyph-name="acircumflextilde" unicode="&#x1eab;" horiz-adv-x="512" 
d="M117 737v8l57 67l9 2q24 -2 81 -20q53 -15 65 -15q8 0 16 7t19 19t18 19h8l22 -24v-8l-57 -67l-9 -3q-23 2 -80 20q-54 16 -65 16q-13 0 -39 -30l-14 -15h-8zM388 605l-16 -34h-9q-56 34 -103 66q-39 -27 -102 -66h-10l-16 34q67 46 116 91h23q45 -40 117 -91zM403 0
l-12 54l-26 74l-119 1l-106 -1l-27 -70l-14 -58h-74l192 498h86l176 -498h-76zM261 425h-6l-91 -236l88 -1l92 1z" />
    <glyph glyph-name="Acircumflexdotbelow" unicode="&#x1eac;" horiz-adv-x="578" 
d="M161 766q67 46 116 91h23q45 -40 117 -91l-16 -34h-9q-56 34 -103 66q-39 -27 -102 -66h-10zM474 0l-14 64l-36 110l-145 3l-130 -3l-39 -106l-16 -68h-80l236 641h93l214 -641h-83zM297 558h-7l-116 -316l112 -2l115 2zM319 -82q12 -12 12 -33q0 -22 -12.5 -35
t-34.5 -13q-44 0 -44 46q0 21 12.5 34t34.5 13q20 0 32 -12z" />
    <glyph glyph-name="acircumflexdotbelow" unicode="&#x1ead;" horiz-adv-x="512" 
d="M128 595q58 58 122 134h24q62 -77 121 -134l-22 -32h-9q-62 59 -102 104q-38 -42 -102 -104h-10zM403 0l-12 54l-26 74l-119 1l-106 -1l-27 -70l-14 -58h-74l192 498h86l176 -498h-76zM261 425h-6l-91 -236l88 -1l92 1zM287 -82q12 -12 12 -33q0 -22 -12.5 -35t-34.5 -13
q-44 0 -44 46q0 21 12.5 34t34.5 13q20 0 32 -12z" />
    <glyph glyph-name="Abreveacute" unicode="&#x1eae;" horiz-adv-x="578" 
d="M474 0l-15 64l-36 110l-144 3l-130 -3l-39 -106l-16 -68h-80l235 641h93l214 -641h-82zM297 558h-7l-116 -316l112 -2l115 2zM383 915q-48 -49 -98 -98h-8l-27 22q57 69 88 109l7 1l37 -26zM368 727.5q-33 -23.5 -80 -23.5q-46 0 -78 23t-46 67l22 28h12q22 -61 93 -61
q67 0 91 61h12l23 -28q-16 -43 -49 -66.5z" />
    <glyph glyph-name="abreveacute" unicode="&#x1eaf;" horiz-adv-x="512" 
d="M403 0l-12 54l-26 74l-119 1l-106 -1l-27 -70l-14 -58h-74l192 498h86l175 -498h-75zM261 425h-6l-91 -236l88 -1l92 1zM354 773q-48 -49 -98 -98h-8l-27 22q57 69 88 109l7 1l37 -26zM339 585.5q-33 -23.5 -80 -23.5q-46 0 -78 23t-46 67l22 28h12q22 -61 93 -61
q67 0 91 61h12l23 -28q-16 -43 -49 -66.5z" />
    <glyph glyph-name="Abrevegrave" unicode="&#x1eb0;" horiz-adv-x="578" 
d="M474 0l-15 64l-36 110l-144 3l-130 -3l-39 -106l-16 -68h-80l235 641h93l214 -641h-82zM297 558h-7l-116 -316l112 -2l115 2zM328 839l-28 -22h-8l-97 98v8l37 26l8 -1q46 -60 88 -109zM368 727.5q-33 -23.5 -80 -23.5q-46 0 -78 23t-46 67l22 28h12q22 -61 93 -61
q67 0 91 61h12l23 -28q-16 -43 -49 -66.5z" />
    <glyph glyph-name="abrevegrave" unicode="&#x1eb1;" horiz-adv-x="512" 
d="M403 0l-12 54l-26 74l-119 1l-106 -1l-27 -70l-14 -58h-74l192 498h86l175 -498h-75zM261 425h-6l-91 -236l88 -1l92 1zM299 697l-28 -22h-8l-97 98v8l37 26l8 -1q46 -60 88 -109zM339 585.5q-33 -23.5 -80 -23.5q-46 0 -78 23t-46 67l22 28h12q22 -61 93 -61q67 0 91 61
h12l23 -28q-16 -43 -49 -66.5z" />
    <glyph glyph-name="Abrevehookabove" unicode="&#x1eb2;" horiz-adv-x="578" 
d="M221 930l-16 26q40 42 86 42q27 0 45 -16.5t18 -40.5q0 -32 -52 -75l20 -34l-35 -19l-32 55q50 36 50 65q0 21 -26 21q-29 0 -58 -24zM210 727q-32 23 -46 67l22 28h12q22 -61 93 -61q67 0 91 61h12l23 -28q-16 -43 -49 -66.5t-80 -23.5q-46 0 -78 23zM474 0l-14 64
l-36 110l-145 3l-130 -3l-39 -106l-16 -68h-80l236 641h93l214 -641h-83zM297 558h-7l-116 -316l112 -2l115 2z" />
    <glyph glyph-name="abrevehookabove" unicode="&#x1eb3;" horiz-adv-x="512" 
d="M192 788l-16 26q40 42 86 42q27 0 45 -16.5t18 -40.5q0 -32 -52 -75l20 -34l-35 -19l-32 55q50 36 50 65q0 21 -26 21q-29 0 -58 -24zM181 585q-32 23 -46 67l22 28h12q22 -61 93 -61q67 0 91 61h12l23 -28q-16 -43 -49 -66.5t-80 -23.5q-46 0 -78 23zM403 0l-12 54
l-26 74l-119 1l-106 -1l-27 -70l-14 -58h-74l192 498h86l176 -498h-76zM261 425h-6l-91 -236l88 -1l92 1z" />
    <glyph glyph-name="Abrevetilde" unicode="&#x1eb4;" horiz-adv-x="578" 
d="M146 879v8l57 67l9 2q24 -2 81 -20q52 -15 65 -15q8 0 16 7t19 19t18 19h8l22 -24v-8l-57 -67l-9 -3q-23 2 -80 20q-54 16 -65 16q-13 0 -39 -30l-14 -15h-8zM382 820h12l21 -27q-15 -43 -47.5 -65.5t-77.5 -22.5q-94 0 -122 88l22 27h12q20 -59 90 -59q67 0 90 59z
M474 0l-14 64l-36 110l-145 3l-130 -3l-39 -106l-16 -68h-80l236 641h93l214 -641h-83zM297 558h-7l-116 -316l112 -2l115 2z" />
    <glyph glyph-name="abrevetilde" unicode="&#x1eb5;" horiz-adv-x="512" 
d="M117 737v8l57 67l9 2q24 -2 81 -20q53 -15 65 -15q8 0 16 7t19 19t18 19h8l22 -24v-8l-57 -67l-9 -3q-23 2 -80 20q-54 16 -65 16q-13 0 -39 -30l-14 -15h-8zM353 678h12l21 -27q-15 -43 -47.5 -65.5t-77.5 -22.5q-94 0 -122 88l22 27h12q20 -59 90 -59q67 0 90 59z
M403 0l-12 54l-26 74l-119 1l-106 -1l-27 -70l-14 -58h-74l192 498h86l176 -498h-76zM261 425h-6l-91 -236l88 -1l92 1z" />
    <glyph glyph-name="Abrevedotbelow" unicode="&#x1eb6;" horiz-adv-x="578" 
d="M209.5 746.5q-32.5 23.5 -46.5 67.5l22 27h13q21 -60 93 -60q67 0 91 60h12l22 -27q-15 -44 -48.5 -67.5t-79.5 -23.5t-78.5 23.5zM474 0l-14 64l-36 110l-145 3l-130 -3l-39 -106l-16 -68h-80l236 641h93l214 -641h-83zM297 558h-7l-116 -316l112 -2l115 2zM319 -82
q12 -12 12 -33q0 -22 -12.5 -35t-34.5 -13q-44 0 -44 46q0 21 12.5 34t34.5 13q20 0 32 -12z" />
    <glyph glyph-name="abrevedotbelow" unicode="&#x1eb7;" horiz-adv-x="512" 
d="M136 682l22 29h12q19 -87 92 -87t92 87h12l23 -29q-27 -115 -129 -115q-101 0 -124 115zM403 0l-12 54l-26 74l-119 1l-106 -1l-27 -70l-14 -58h-74l192 498h86l176 -498h-76zM261 425h-6l-91 -236l88 -1l92 1zM287 -82q12 -12 12 -33q0 -22 -12.5 -35t-34.5 -13
q-44 0 -44 46q0 21 12.5 34t34.5 13q20 0 32 -12z" />
    <glyph glyph-name="Edotbelow" unicode="&#x1eb8;" horiz-adv-x="482" 
d="M459 62l-6 -62h-360l5 193l-5 448h361l5 -8l-7 -62l-151 3l-127 -2l-2 -210l120 -2l106 3l5 -7l-6 -62l-112 2l-114 -1l-1 -95l3 -133l128 -1l153 4zM314 -82q12 -12 12 -33q0 -22 -12.5 -35t-34.5 -13q-44 0 -44 46q0 21 12.5 34t34.5 13q20 0 32 -12z" />
    <glyph glyph-name="edotbelow" unicode="&#x1eb9;" horiz-adv-x="435" 
d="M400 58l-7 -58h-303l3 150l-3 348h305l5 -6l-6 -58l-126 4l-103 -1l-1 -151l99 -1l87 3l4 -7l-5 -59l-93 3l-93 -1l-1 -68l2 -95l96 -1l134 4zM278 -82q12 -12 12 -33q0 -22 -12.5 -35t-34.5 -13q-44 0 -44 46q0 21 12.5 34t34.5 13q20 0 32 -12z" />
    <glyph glyph-name="Ehookabove" unicode="&#x1eba;" horiz-adv-x="482" 
d="M453 0h-360l5 193l-5 448h361l4 -8l-6 -62l-151 3l-127 -2l-2 -210l120 -2l106 3l6 -7l-7 -62l-112 2l-114 -1l-1 -95l3 -133l127 -1l154 4l5 -8zM315 877.5q18 -16.5 18 -40.5q0 -32 -52 -75l20 -34l-35 -19l-32 55q50 36 50 65q0 21 -26 21q-30 0 -58 -24l-16 26
q40 42 86 42q27 0 45 -16.5z" />
    <glyph glyph-name="ehookabove" unicode="&#x1ebb;" horiz-adv-x="435" 
d="M400 58l-7 -58h-303l3 150l-3 348h305l5 -6l-6 -58l-126 4l-104 -1l-1 -151l99 -1l87 3l5 -7l-6 -59l-92 3l-93 -1l-1 -68l1 -95l98 -1l133 4zM284 735.5q18 -16.5 18 -40.5q0 -32 -52 -75l20 -34l-35 -19l-32 55q50 36 50 65q0 21 -26 21q-30 0 -58 -24l-16 26
q40 42 86 42q27 0 45 -16.5z" />
    <glyph glyph-name="Ecircumflexacute" unicode="&#x1ebe;" horiz-adv-x="482" 
d="M453 0h-360l5 193l-5 448h361l4 -8l-6 -62l-151 3l-127 -2l-2 -210l120 -2l106 3l6 -7l-7 -62l-112 2l-114 -1l-1 -95l3 -133l127 -1l154 4l5 -8zM445 919l-82 -100h-8l-28 23l70 103l8 2l39 -20zM261 838h23q45 -40 117 -91l-16 -34h-9q-56 34 -103 66q-39 -27 -102 -66
h-10l-16 34q67 46 116 91z" />
    <glyph glyph-name="ecircumflexacute" unicode="&#x1ebf;" horiz-adv-x="435" 
d="M400 58l-7 -58h-303l3 150l-3 348h305l5 -6l-6 -58l-126 4l-104 -1l-1 -151l99 -1l87 3l5 -7l-6 -59l-92 3l-93 -1l-1 -68l1 -95l98 -1l133 4zM413 777l-82 -100h-8l-28 23l70 103l8 2l39 -20zM229 696h23q45 -40 117 -91l-16 -34h-9q-56 34 -103 66q-39 -27 -102 -66
h-10l-16 34q67 46 116 91z" />
    <glyph glyph-name="Ecircumflexgrave" unicode="&#x1ec0;" horiz-adv-x="482" 
d="M453 0h-360l5 193l-5 448h361l4 -8l-6 -62l-151 3l-127 -2l-2 -210l120 -2l106 3l6 -7l-7 -62l-112 2l-114 -1l-1 -95l3 -133l127 -1l154 4l5 -8zM412 842l-29 -23h-7l-82 100l1 8l40 20l7 -2zM261 838h23q45 -40 117 -91l-16 -34h-9q-56 34 -103 66q-39 -27 -102 -66
h-10l-16 34q67 46 116 91z" />
    <glyph glyph-name="ecircumflexgrave" unicode="&#x1ec1;" horiz-adv-x="435" 
d="M400 58l-7 -58h-303l3 150l-3 348h305l5 -6l-6 -58l-126 4l-104 -1l-1 -151l99 -1l87 3l5 -7l-6 -59l-92 3l-93 -1l-1 -68l1 -95l98 -1l133 4zM380 700l-29 -23h-7l-82 100l1 8l40 20l7 -2zM229 696h23q45 -40 117 -91l-16 -34h-9q-56 34 -103 66q-39 -27 -102 -66h-10
l-16 34q67 46 116 91z" />
    <glyph glyph-name="Ecircumflexhookabove" unicode="&#x1ec2;" horiz-adv-x="482" 
d="M302 920l-15 25q37 39 81 39q26 0 43 -15t17 -38q0 -32 -49 -72l19 -32l-33 -18l-30 52q48 35 48 62q0 20 -26 20q-27 0 -55 -23zM145 747q67 46 116 91h23q45 -40 117 -91l-16 -34h-9q-56 34 -103 66q-39 -27 -102 -66h-10zM459 62l-6 -62h-360l5 193l-5 448h361l5 -8
l-7 -62l-151 3l-127 -2l-2 -210l120 -2l106 3l5 -7l-6 -62l-112 2l-114 -1l-1 -95l3 -133l128 -1l153 4z" />
    <glyph glyph-name="ecircumflexhookabove" unicode="&#x1ec3;" horiz-adv-x="435" 
d="M270 778l-15 25q37 39 81 39q26 0 43 -15t17 -38q0 -32 -49 -72l19 -32l-33 -18l-30 52q48 35 48 62q0 20 -26 20q-27 0 -55 -23zM113 605q67 46 116 91h23q45 -40 117 -91l-16 -34h-9q-56 34 -103 66q-39 -27 -102 -66h-10zM400 58l-7 -58h-303l3 150l-3 348h305l5 -6
l-6 -58l-126 4l-103 -1l-1 -151l99 -1l87 3l4 -7l-5 -59l-93 3l-93 -1l-1 -68l2 -95l96 -1l134 4z" />
    <glyph glyph-name="Ecircumflextilde" unicode="&#x1ec4;" horiz-adv-x="482" 
d="M453 0h-360l5 193l-5 448h361l4 -8l-6 -62l-151 3l-127 -2l-2 -210l120 -2l106 3l6 -7l-7 -62l-112 2l-114 -1l-1 -95l3 -133l127 -1l154 4l5 -8zM412 842l-29 -23h-7l-82 100l1 8l40 20l7 -2zM261 838h23q45 -40 117 -91l-16 -34h-9q-56 34 -103 66q-39 -27 -102 -66
h-10l-16 34q67 46 116 91z" />
    <glyph glyph-name="ecircumflextilde" unicode="&#x1ec5;" horiz-adv-x="435" 
d="M98 737v8l57 67l9 2q24 -2 81 -20q53 -15 65 -15q8 0 16 7t19 19t18 19h8l22 -24v-8l-57 -67l-9 -3q-23 2 -80 20q-54 16 -65 16q-13 0 -39 -30l-14 -15h-8zM369 605l-16 -34h-9q-56 34 -103 66q-39 -27 -102 -66h-10l-16 34q67 46 116 91h23q45 -40 117 -91zM400 58
l-7 -58h-303l3 150l-3 348h305l5 -6l-6 -58l-126 4l-103 -1l-1 -151l99 -1l87 3l4 -7l-5 -59l-93 3l-93 -1l-1 -68l2 -95l96 -1l134 4z" />
    <glyph glyph-name="Ecircumflexdotbelow" unicode="&#x1ec6;" horiz-adv-x="482" 
d="M146 767q67 46 116 91h23q45 -40 117 -91l-16 -34h-9q-56 34 -103 66q-39 -27 -102 -66h-10zM459 62l-6 -62h-360l5 193l-5 448h361l5 -8l-7 -62l-151 3l-127 -2l-2 -210l120 -2l106 3l5 -7l-6 -62l-112 2l-114 -1l-1 -95l3 -133l128 -1l153 4zM314 -82q12 -12 12 -33
q0 -22 -12.5 -35t-34.5 -13q-44 0 -44 46q0 21 12.5 34t34.5 13q20 0 32 -12z" />
    <glyph glyph-name="ecircumflexdotbelow" unicode="&#x1ec7;" horiz-adv-x="435" 
d="M109 595q57 57 122 134h24q62 -77 121 -134l-22 -32h-9q-62 59 -102 104q-38 -42 -102 -104h-10zM400 58l-7 -58h-303l3 150l-3 348h305l5 -6l-6 -58l-126 4l-103 -1l-1 -151l99 -1l87 3l4 -7l-5 -59l-93 3l-93 -1l-1 -68l2 -95l96 -1l134 4zM278 -82q12 -12 12 -33
q0 -22 -12.5 -35t-34.5 -13q-44 0 -44 46q0 21 12.5 34t34.5 13q20 0 32 -12z" />
    <glyph glyph-name="Ihookabove" unicode="&#x1ec8;" horiz-adv-x="268" 
d="M174 0h-81l5 193l-5 448h82l-5 -441zM175 877.5q18 -16.5 18 -40.5q0 -32 -52 -75l20 -34l-35 -19l-32 55q50 36 50 65q0 21 -26 21q-30 0 -58 -24l-16 26q40 42 86 42q27 0 45 -16.5z" />
    <glyph glyph-name="ihookabove" unicode="&#x1ec9;" horiz-adv-x="259" 
d="M164 0h-74l3 150l-3 348h75l-3 -342zM172 735.5q18 -16.5 18 -40.5q0 -32 -52 -75l20 -34l-35 -19l-32 55q50 36 50 65q0 21 -26 21q-30 0 -58 -24l-16 26q40 42 86 42q27 0 45 -16.5z" />
    <glyph glyph-name="Idotbelow" unicode="&#x1eca;" horiz-adv-x="268" 
d="M174 0h-81l5 193l-5 448h82l-5 -441zM162 -82q12 -12 12 -33q0 -22 -12.5 -35t-34.5 -13q-44 0 -44 46q0 21 12.5 34t34.5 13q20 0 32 -12z" />
    <glyph glyph-name="idotbelow" unicode="&#x1ecb;" horiz-adv-x="259" 
d="M165 0h-75l3 150l-3 348h76l-4 -342zM160 -82q12 -12 12 -33q0 -22 -12.5 -35t-34.5 -13q-44 0 -44 46q0 21 12.5 34t34.5 13q20 0 32 -12z" />
    <glyph glyph-name="Odotbelow" unicode="&#x1ecc;" horiz-adv-x="635" 
d="M527.5 566q70.5 -81 70.5 -233q0 -163 -75 -252t-213 -89q-130 0 -201 84t-71 239q0 160 74.5 246t213.5 86q131 0 201.5 -81zM120 325q0 -266 195 -266q200 0 200 260q0 133 -48.5 197.5t-147.5 64.5q-199 0 -199 -256zM350 -82q12 -12 12 -33q0 -22 -12.5 -35
t-34.5 -13q-44 0 -44 46q0 21 12.5 34t34.5 13q20 0 32 -12z" />
    <glyph glyph-name="odotbelow" unicode="&#x1ecd;" horiz-adv-x="557" 
d="M453.5 440q58.5 -64 58.5 -181q0 -127 -62.5 -196.5t-178.5 -69.5q-108 0 -167 65.5t-59 186.5q0 124 62.5 191.5t178.5 67.5q109 0 167.5 -64zM161.5 396q-38.5 -45 -38.5 -142q0 -104 38 -151t116 -47q80 0 119 46t39 144q0 101 -38.5 148t-117.5 47t-117.5 -45z
M314 -82q12 -12 12 -33q0 -22 -12.5 -35t-34.5 -13q-44 0 -44 46q0 21 12.5 34t34.5 13q20 0 32 -12z" />
    <glyph glyph-name="Ohookabove" unicode="&#x1ece;" horiz-adv-x="635" 
d="M527.5 566q70.5 -81 70.5 -233q0 -163 -75 -252t-213 -89q-130 0 -201 84t-71 239q0 160 74.5 246t213.5 86q131 0 201.5 -81zM120 325q0 -266 195 -266q200 0 200 260q0 133 -48.5 197.5t-147.5 64.5q-199 0 -199 -256zM360 877.5q18 -16.5 18 -40.5q0 -32 -52 -75
l20 -34l-35 -19l-32 55q50 36 50 65q0 21 -26 21q-30 0 -58 -24l-16 26q40 42 86 42q27 0 45 -16.5z" />
    <glyph glyph-name="ohookabove" unicode="&#x1ecf;" horiz-adv-x="557" 
d="M453.5 440q58.5 -64 58.5 -181q0 -127 -62.5 -196.5t-178.5 -69.5q-108 0 -167 65.5t-59 186.5q0 124 63 191.5t178 67.5q109 0 167.5 -64zM161.5 396q-38.5 -45 -38.5 -142q0 -104 38 -151t116 -47q80 0 119 46t39 144q0 101 -38.5 148t-117.5 47t-117.5 -45zM321 735.5
q18 -16.5 18 -40.5q0 -32 -52 -75l20 -34l-35 -19l-32 55q50 36 50 65q0 21 -26 21q-30 0 -58 -24l-16 26q40 42 86 42q27 0 45 -16.5z" />
    <glyph glyph-name="Ocircumflexacute" unicode="&#x1ed0;" horiz-adv-x="635" 
d="M527.5 566q70.5 -81 70.5 -233q0 -163 -75 -252t-213 -89q-130 0 -201 84t-71 239q0 160 74.5 246t213.5 86q131 0 201.5 -81zM120 325q0 -266 195 -266q200 0 200 260q0 133 -48.5 197.5t-147.5 64.5q-199 0 -199 -256zM490 919l-82 -100h-8l-28 23l70 103l8 2l39 -20z
M306 838h23q45 -40 117 -91l-16 -34h-9q-56 34 -103 66q-39 -27 -102 -66h-10l-16 34q67 46 116 91z" />
    <glyph glyph-name="ocircumflexacute" unicode="&#x1ed1;" horiz-adv-x="557" 
d="M453.5 440q58.5 -64 58.5 -181q0 -127 -62.5 -196.5t-178.5 -69.5q-108 0 -167 65.5t-59 186.5q0 124 63 191.5t178 67.5q109 0 167.5 -64zM161.5 396q-38.5 -45 -38.5 -142q0 -104 38 -151t116 -47q80 0 119 46t39 144q0 101 -38.5 148t-117.5 47t-117.5 -45zM451 777
l-82 -100h-8l-28 23l70 103l8 2l39 -20zM267 696h23q45 -40 117 -91l-16 -34h-9q-56 34 -103 66q-39 -27 -102 -66h-10l-16 34q67 46 116 91z" />
    <glyph glyph-name="Ocircumflexgrave" unicode="&#x1ed2;" horiz-adv-x="635" 
d="M527.5 566q70.5 -81 70.5 -233q0 -163 -75 -252t-213 -89q-130 0 -201 84t-71 239q0 160 74.5 246t213.5 86q131 0 201.5 -81zM120 325q0 -266 195 -266q200 0 200 260q0 133 -48.5 197.5t-147.5 64.5q-199 0 -199 -256zM457 842l-29 -23h-7l-82 100l1 8l40 20l7 -2z
M306 838h23q45 -40 117 -91l-16 -34h-9q-56 34 -103 66q-39 -27 -102 -66h-10l-16 34q67 46 116 91z" />
    <glyph glyph-name="ocircumflexgrave" unicode="&#x1ed3;" horiz-adv-x="557" 
d="M453.5 440q58.5 -64 58.5 -181q0 -127 -62.5 -196.5t-178.5 -69.5q-108 0 -167 65.5t-59 186.5q0 124 63 191.5t178 67.5q109 0 167.5 -64zM161.5 396q-38.5 -45 -38.5 -142q0 -104 38 -151t116 -47q80 0 119 46t39 144q0 101 -38.5 148t-117.5 47t-117.5 -45zM418 700
l-29 -23h-7l-82 100l1 8l40 20l7 -2zM267 696h23q45 -40 117 -91l-16 -34h-9q-56 34 -103 66q-39 -27 -102 -66h-10l-16 34q67 46 116 91z" />
    <glyph glyph-name="Ocircumflexhookabove" unicode="&#x1ed4;" horiz-adv-x="635" 
d="M456 969q17 -15 17 -38q0 -32 -49 -72l19 -32l-33 -18l-30 52q48 35 48 62q0 20 -26 20q-27 0 -55 -23l-15 25q37 39 81 39q26 0 43 -15zM306 838h23q45 -40 117 -91l-16 -34h-9q-56 34 -103 66q-39 -27 -102 -66h-10l-16 34q67 46 116 91zM527.5 566q70.5 -81 70.5 -233
q0 -163 -75 -252t-213 -89q-130 0 -201 84t-71 239q0 160 74.5 246t213.5 86q131 0 201.5 -81zM120 325q0 -266 195 -266q200 0 200 260q0 133 -48.5 197.5t-147.5 64.5q-199 0 -199 -256z" />
    <glyph glyph-name="ocircumflexhookabove" unicode="&#x1ed5;" horiz-adv-x="557" 
d="M417 827q17 -15 17 -38q0 -32 -49 -72l19 -32l-33 -18l-30 52q48 35 48 62q0 20 -26 20q-27 0 -55 -23l-15 25q37 39 81 39q26 0 43 -15zM267 696h23q45 -40 117 -91l-16 -34h-9q-56 34 -103 66q-39 -27 -102 -66h-10l-16 34q67 46 116 91zM453.5 440q58.5 -64 58.5 -181
q0 -127 -62.5 -196.5t-178.5 -69.5q-108 0 -167 65.5t-59 186.5q0 124 62.5 191.5t178.5 67.5q109 0 167.5 -64zM161.5 396q-38.5 -45 -38.5 -142q0 -104 38 -151t116 -47q80 0 119 46t39 144q0 101 -38.5 148t-117.5 47t-117.5 -45z" />
    <glyph glyph-name="Ocircumflextilde" unicode="&#x1ed6;" horiz-adv-x="635" 
d="M470 934l-57 -67l-9 -3q-23 2 -80 20q-54 16 -65 16q-13 0 -39 -30l-14 -15h-8l-23 24v8l57 67l9 2q24 -2 81 -20q53 -15 65 -15q8 0 16 7t19 19t18 19h8l22 -24v-8zM306 838h23q45 -40 117 -91l-16 -34h-9q-56 34 -103 66q-39 -27 -102 -66h-10l-16 34q67 46 116 91z
M527.5 566q70.5 -81 70.5 -233q0 -163 -75 -252t-213 -89q-130 0 -201 84t-71 239q0 160 74.5 246t213.5 86q131 0 201.5 -81zM120 325q0 -266 195 -266q200 0 200 260q0 133 -48.5 197.5t-147.5 64.5q-199 0 -199 -256z" />
    <glyph glyph-name="ocircumflextilde" unicode="&#x1ed7;" horiz-adv-x="557" 
d="M431 792l-57 -67l-9 -3q-23 2 -80 20q-54 16 -65 16q-13 0 -39 -30l-14 -15h-8l-23 24v8l57 67l9 2q24 -2 81 -20q53 -15 65 -15q8 0 16 7t19 19t18 19h8l22 -24v-8zM267 696h23q45 -40 117 -91l-16 -34h-9q-56 34 -103 66q-39 -27 -102 -66h-10l-16 34q67 46 116 91z
M453.5 440q58.5 -64 58.5 -181q0 -127 -62.5 -196.5t-178.5 -69.5q-108 0 -167 65.5t-59 186.5q0 124 62.5 191.5t178.5 67.5q109 0 167.5 -64zM161.5 396q-38.5 -45 -38.5 -142q0 -104 38 -151t116 -47q80 0 119 46t39 144q0 101 -38.5 148t-117.5 47t-117.5 -45z" />
    <glyph glyph-name="Ocircumflexdotbelow" unicode="&#x1ed8;" horiz-adv-x="635" 
d="M316 851h23q45 -40 117 -91l-16 -34h-9q-56 34 -103 66q-39 -27 -102 -66h-10l-16 34q67 46 116 91zM527.5 566q70.5 -81 70.5 -233q0 -163 -75 -252t-213 -89q-130 0 -201 84t-71 239q0 160 74.5 246t213.5 86q131 0 201.5 -81zM120 325q0 -266 195 -266q200 0 200 260
q0 133 -48.5 197.5t-147.5 64.5q-199 0 -199 -256zM350 -82q12 -12 12 -33q0 -22 -12.5 -35t-34.5 -13q-44 0 -44 46q0 21 12.5 34t34.5 13q20 0 32 -12z" />
    <glyph glyph-name="ocircumflexdotbelow" unicode="&#x1ed9;" horiz-adv-x="557" 
d="M269 729h24q62 -77 121 -134l-22 -32h-9q-62 59 -102 104q-38 -42 -102 -104h-10l-22 32q58 58 122 134zM453.5 440q58.5 -64 58.5 -181q0 -127 -62.5 -196.5t-178.5 -69.5q-108 0 -167 65.5t-59 186.5q0 124 62.5 191.5t178.5 67.5q109 0 167.5 -64zM161.5 396
q-38.5 -45 -38.5 -142q0 -104 38 -151t116 -47q80 0 119 46t39 144q0 101 -38.5 148t-117.5 47t-117.5 -45zM314 -82q12 -12 12 -33q0 -22 -12.5 -35t-34.5 -13q-44 0 -44 46q0 21 12.5 34t34.5 13q20 0 32 -12z" />
    <glyph glyph-name="Ohornacute" unicode="&#x1eda;" horiz-adv-x="640" 
d="M613.5 739.5q17.5 -25.5 17.5 -60.5q0 -47 -32.5 -75t-84.5 -31q84 -81 84 -244q0 -159 -75 -248t-212 -89q-131 0 -202 84t-71 239q0 160 74.5 246t209.5 86q51 0 116 -21q39 -13 58 -13q30 0 50.5 16t20.5 44q0 38 -32 68l2 8q21 16 39 16q20 0 37.5 -25.5zM120 325
q0 -266 195 -266q200 0 200 260q0 133 -48.5 197.5t-147.5 64.5q-199 0 -199 -256zM456 814l-2 -8q-89 -41 -195 -86l-10 4l-14 36q103 51 192 103l9 -2z" />
    <glyph glyph-name="ohornacute" unicode="&#x1edb;" horiz-adv-x="561" 
d="M493 596q18 0 33.5 -20.5t15.5 -50.5q0 -36 -24.5 -60t-65.5 -30q60 -63 60 -179q0 -124 -63 -193.5t-176 -69.5q-109 0 -168.5 66t-59.5 186q0 124 62.5 191.5t177.5 67.5q41 0 97 -14q31 -9 48 -9q23 0 38 10.5t15 30.5q0 27 -27 54l2 6q19 14 35 14zM396 99
q39 48 39 149q0 100 -38.5 147t-118.5 47q-79 0 -117 -47t-38 -146q0 -101 38.5 -149.5t116.5 -48.5q79 0 118 48zM413 672l-2 -8q-89 -41 -195 -86l-10 4l-14 36q103 51 192 103l9 -2z" />
    <glyph glyph-name="Ohorngrave" unicode="&#x1edc;" horiz-adv-x="640" 
d="M429 761l-14 -36l-10 -4q-106 45 -195 86l-2 8l20 47l9 2q89 -52 192 -103zM613.5 739.5q17.5 -25.5 17.5 -60.5q0 -47 -32.5 -75t-84.5 -31q84 -81 84 -244q0 -159 -75 -248t-212 -89q-131 0 -202 84t-71 239q0 160 74.5 246t209.5 86q51 0 116 -21q39 -13 58 -13
q30 0 50.5 16t20.5 44q0 38 -32 68l2 8q21 16 39 16q20 0 37.5 -25.5zM120 325q0 -266 195 -266q200 0 200 260q0 133 -48.5 197.5t-147.5 64.5q-199 0 -199 -256z" />
    <glyph glyph-name="ohorngrave" unicode="&#x1edd;" horiz-adv-x="561" 
d="M386 619l-14 -36l-10 -4q-106 45 -195 86l-2 8l20 47l9 2q89 -52 192 -103zM492 596q18 0 34 -20.5t16 -50.5q0 -36 -25 -60t-66 -30q61 -62 61 -179q0 -124 -63 -193.5t-176 -69.5q-109 0 -168.5 66t-59.5 186q0 124 62.5 191.5t177.5 67.5q41 0 97 -14q31 -9 47 -9
q24 0 39 10.5t15 30.5q0 27 -27 54l2 6q19 14 34 14zM396.5 99q38.5 48 38.5 149q0 100 -38.5 147t-118.5 47q-79 0 -117 -47t-38 -146q0 -101 38.5 -149.5t117.5 -48.5t117.5 48z" />
    <glyph glyph-name="Ohornhookabove" unicode="&#x1ede;" horiz-adv-x="640" 
d="M613.5 739.5q17.5 -25.5 17.5 -60.5q0 -47 -32.5 -75t-84.5 -31q84 -81 84 -244q0 -159 -75 -248t-212 -89q-131 0 -202 84t-71 239q0 160 74.5 246t209.5 86q51 0 116 -21q39 -13 58 -13q30 0 50.5 16t20.5 44q0 38 -32 68l2 8q21 16 39 16q20 0 37.5 -25.5zM120 325
q0 -266 195 -266q200 0 200 260q0 133 -48.5 197.5t-147.5 64.5q-199 0 -199 -256zM360 877.5q18 -16.5 18 -40.5q0 -32 -52 -75l20 -34l-35 -19l-32 55q50 36 50 65q0 21 -26 21q-30 0 -58 -24l-16 26q40 42 86 42q27 0 45 -16.5z" />
    <glyph glyph-name="ohornhookabove" unicode="&#x1edf;" horiz-adv-x="561" 
d="M493 596q18 0 33.5 -20.5t15.5 -50.5q0 -36 -24.5 -60t-65.5 -30q60 -63 60 -179q0 -124 -63 -193.5t-176 -69.5q-109 0 -168.5 66t-59.5 186q0 124 62.5 191.5t177.5 67.5q41 0 97 -14q31 -9 48 -9q23 0 38 10.5t15 30.5q0 27 -27 54l2 6q19 14 35 14zM396 99
q39 48 39 149q0 100 -38.5 147t-118.5 47q-79 0 -117 -47t-38 -146q0 -101 38.5 -149.5t116.5 -48.5q79 0 118 48zM316 735.5q18 -16.5 18 -40.5q0 -32 -52 -75l20 -34l-35 -19l-32 55q50 36 50 65q0 21 -26 21q-30 0 -58 -24l-16 26q40 42 86 42q27 0 45 -16.5z" />
    <glyph glyph-name="Ohorntilde" unicode="&#x1ee0;" horiz-adv-x="640" 
d="M613.5 739.5q17.5 -25.5 17.5 -60.5q0 -47 -32.5 -75t-84.5 -31q84 -81 84 -244q0 -159 -75 -248t-212 -89q-131 0 -202 84t-71 239q0 160 74.5 246t209.5 86q51 0 116 -21q39 -13 58 -13q30 0 50.5 16t20.5 44q0 38 -32 68l2 8q21 16 39 16q20 0 37.5 -25.5zM120 325
q0 -266 195 -266q200 0 200 260q0 133 -48.5 197.5t-147.5 64.5q-199 0 -199 -256zM476 816l-61 -69l-10 -3q-22 2 -84 20q-57 17 -71 17q-7 0 -15 -6.5t-25 -23.5l-16 -17h-9l-24 26v7l61 69l10 3q24 -2 83 -20q62 -16 72 -16q13 0 40 29l17 17h8l24 -25v-8z" />
    <glyph glyph-name="ohorntilde" unicode="&#x1ee1;" horiz-adv-x="561" 
d="M493 596q18 0 33.5 -20.5t15.5 -50.5q0 -36 -24.5 -60t-65.5 -30q60 -63 60 -179q0 -124 -63 -193.5t-176 -69.5q-109 0 -168.5 66t-59.5 186q0 124 62.5 191.5t177.5 67.5q41 0 97 -14q31 -9 48 -9q23 0 38 10.5t15 30.5q0 27 -27 54l2 6q19 14 35 14zM396 99
q39 48 39 149q0 100 -38.5 147t-118.5 47q-79 0 -117 -47t-38 -146q0 -101 38.5 -149.5t116.5 -48.5q79 0 118 48zM432 674l-61 -69l-10 -3q-22 2 -84 20q-57 17 -71 17q-7 0 -15 -6.5t-25 -23.5l-16 -17h-9l-24 26v7l61 69l10 3q24 -2 83 -20q62 -16 72 -16q13 0 40 29
l17 17h8l24 -25v-8z" />
    <glyph glyph-name="Ohorndotbelow" unicode="&#x1ee2;" horiz-adv-x="640" 
d="M613.5 739.5q17.5 -25.5 17.5 -60.5q0 -47 -32.5 -75t-84.5 -31q84 -81 84 -244q0 -159 -75 -248t-212 -89q-131 0 -202 84t-71 239q0 160 74.5 246t209.5 86q51 0 116 -21q39 -13 58 -13q30 0 50.5 16t20.5 44q0 38 -32 68l2 8q21 16 39 16q20 0 37.5 -25.5zM120 325
q0 -266 195 -266q200 0 200 260q0 133 -48.5 197.5t-147.5 64.5q-199 0 -199 -256zM350 -82q12 -12 12 -33q0 -22 -12.5 -35t-34.5 -13q-44 0 -44 46q0 21 12.5 34t34.5 13q20 0 32 -12z" />
    <glyph glyph-name="ohorndotbelow" unicode="&#x1ee3;" horiz-adv-x="561" 
d="M492 596q18 0 34 -20.5t16 -50.5q0 -36 -25 -60t-66 -30q61 -62 61 -179q0 -124 -63 -193.5t-176 -69.5q-109 0 -168.5 66t-59.5 186q0 124 62.5 191.5t177.5 67.5q41 0 97 -14q31 -9 47 -9q24 0 39 10.5t15 30.5q0 27 -27 54l2 6q19 14 34 14zM396.5 99
q38.5 48 38.5 149q0 100 -38.5 147t-118.5 47q-79 0 -117 -47t-38 -146q0 -101 38.5 -149.5t117.5 -48.5t117.5 48zM314 -82q12 -12 12 -33q0 -22 -12.5 -35t-34.5 -13q-44 0 -44 46q0 21 12.5 34t34.5 13q20 0 32 -12z" />
    <glyph glyph-name="Udotbelow" unicode="&#x1ee4;" horiz-adv-x="626" 
d="M551 243q2 -119 -61.5 -184.5t-181.5 -65.5q-114 0 -174 62.5t-58 178.5l1 87l-1 320h79l-4 -397q-2 -181 163 -181q164 0 164 171l-4 407h80l-2 -326zM345 -82q12 -12 12 -33q0 -22 -12.5 -35t-34.5 -13q-44 0 -44 46q0 21 12.5 34t34.5 13q20 0 32 -12z" />
    <glyph glyph-name="udotbelow" unicode="&#x1ee5;" horiz-adv-x="549" 
d="M474 173q2 -85 -51 -132t-151 -47q-97 0 -147.5 46.5t-48.5 132.5l1 76l-2 249h76l-5 -313q-2 -127 129 -127t129 127l-2 313h75l-3 -253v-72zM309 -82q12 -12 12 -33q0 -22 -12.5 -35t-34.5 -13q-44 0 -44 46q0 21 12.5 34t34.5 13q20 0 32 -12z" />
    <glyph glyph-name="Uhookabove" unicode="&#x1ee6;" horiz-adv-x="626" 
d="M552 243q2 -118 -62 -184t-182 -66q-113 0 -173.5 63t-58.5 178l1 87l-1 320h79l-3 -397q-2 -181 162 -181q166 0 164 171l-4 407h80l-1 -326zM357 877.5q18 -16.5 18 -40.5q0 -32 -52 -75l20 -34l-35 -19l-32 55q50 36 50 65q0 21 -26 21q-30 0 -58 -24l-16 26
q40 42 86 42q27 0 45 -16.5z" />
    <glyph glyph-name="uhookabove" unicode="&#x1ee7;" horiz-adv-x="549" 
d="M475 173q1 -85 -51.5 -132t-150.5 -47q-97 0 -148 46.5t-49 132.5l1 76l-1 249h75l-4 -313q-2 -127 129 -127t129 127l-3 313h76l-3 -253v-72zM318 735.5q18 -16.5 18 -40.5q0 -32 -52 -75l20 -34l-35 -19l-32 55q50 36 50 65q0 21 -26 21q-30 0 -58 -24l-16 26
q40 42 86 42q27 0 45 -16.5z" />
    <glyph glyph-name="Uhornacute" unicode="&#x1ee8;" horiz-adv-x="636" 
d="M616.5 637.5q-23.5 -25.5 -62.5 -35.5l-2 -287l-1 -72q2 -119 -61.5 -184.5t-181.5 -65.5q-114 0 -174 62.5t-58 178.5l1 87l-1 320h79l-4 -397q-2 -181 163 -181q164 0 164 171l-4 407h38q65 0 65 51q0 31 -33 60l3 8q23 16 39 16q19 0 36.5 -23.5t17.5 -55.5
q0 -34 -23.5 -59.5zM452 815l-2 -8q-89 -41 -195 -86l-10 4l-14 36q103 51 192 103l9 -2z" />
    <glyph glyph-name="uhornacute" unicode="&#x1ee9;" horiz-adv-x="558" 
d="M472 173q1 -85 -51.5 -132t-150.5 -47q-97 0 -147.5 46.5t-48.5 132.5l1 76l-2 249h75l-4 -313q-2 -127 129 -127t129 127l-3 313h38q52 0 52 39q0 25 -26 47l2 7q19 14 37 14q17 0 31.5 -18t14.5 -43q0 -28 -19.5 -50t-53.5 -31l-3 -218v-72zM404 672l-2 -8
q-89 -41 -195 -86l-10 4l-14 36q103 51 192 103l9 -2z" />
    <glyph glyph-name="Uhorngrave" unicode="&#x1eea;" horiz-adv-x="636" 
d="M209 808l-2 8l20 47l9 2q89 -52 192 -103l-14 -36l-10 -4q-106 45 -195 86zM616.5 637.5q-23.5 -25.5 -62.5 -35.5l-2 -287l-1 -72q2 -119 -61.5 -184.5t-181.5 -65.5q-114 0 -174 62.5t-58 178.5l1 87l-1 320h79l-4 -397q-2 -181 163 -181q164 0 164 171l-4 407h38
q65 0 65 51q0 31 -33 60l3 8q23 16 39 16q19 0 36.5 -23.5t17.5 -55.5q0 -34 -23.5 -59.5z" />
    <glyph glyph-name="uhorngrave" unicode="&#x1eeb;" horiz-adv-x="558" 
d="M160 665l-2 8l20 47l9 2q89 -52 192 -103l-14 -36l-10 -4q-106 45 -195 86zM472 173q1 -85 -51.5 -132t-150.5 -47q-97 0 -147.5 46.5t-48.5 132.5l1 76l-2 249h75l-4 -313q-2 -127 129 -127t129 127l-3 313h38q52 0 52 39q0 25 -26 47l2 7q19 14 37 14q17 0 31.5 -18
t14.5 -43q0 -28 -19.5 -50t-53.5 -31l-3 -218v-72z" />
    <glyph glyph-name="Uhornhookabove" unicode="&#x1eec;" horiz-adv-x="636" 
d="M616.5 637.5q-23.5 -25.5 -62.5 -35.5l-2 -287l-1 -72q2 -119 -61.5 -184.5t-181.5 -65.5q-114 0 -174 62.5t-58 178.5l1 87l-1 320h79l-4 -397q-2 -181 163 -181q164 0 164 171l-4 407h38q65 0 65 51q0 31 -33 60l3 8q23 16 39 16q19 0 36.5 -23.5t17.5 -55.5
q0 -34 -23.5 -59.5zM356 878.5q18 -16.5 18 -40.5q0 -32 -52 -75l20 -34l-35 -19l-32 55q50 36 50 65q0 21 -26 21q-30 0 -58 -24l-16 26q40 42 86 42q27 0 45 -16.5z" />
    <glyph glyph-name="uhornhookabove" unicode="&#x1eed;" horiz-adv-x="558" 
d="M472 173q1 -85 -51.5 -132t-150.5 -47q-97 0 -147.5 46.5t-48.5 132.5l1 76l-2 249h75l-4 -313q-2 -127 129 -127t129 127l-3 313h38q52 0 52 39q0 25 -26 47l2 7q19 14 37 14q17 0 31.5 -18t14.5 -43q0 -28 -19.5 -50t-53.5 -31l-3 -218v-72zM308 735.5
q18 -16.5 18 -40.5q0 -32 -52 -75l20 -34l-35 -19l-32 55q50 36 50 65q0 21 -26 21q-30 0 -58 -24l-16 26q40 42 86 42q27 0 45 -16.5z" />
    <glyph glyph-name="Uhorntilde" unicode="&#x1eee;" horiz-adv-x="636" 
d="M616.5 637.5q-23.5 -25.5 -62.5 -35.5l-2 -287l-1 -72q2 -119 -61.5 -184.5t-181.5 -65.5q-114 0 -174 62.5t-58 178.5l1 87l-1 320h79l-4 -397q-2 -181 163 -181q164 0 164 171l-4 407h38q65 0 65 51q0 31 -33 60l3 8q23 16 39 16q19 0 36.5 -23.5t17.5 -55.5
q0 -34 -23.5 -59.5zM472 817l-61 -69l-10 -3q-22 2 -84 20q-57 17 -71 17q-7 0 -15 -6.5t-25 -23.5l-16 -17h-9l-24 26v7l61 69l10 3q24 -2 83 -20q62 -16 72 -16q13 0 40 29l17 17h8l24 -25v-8z" />
    <glyph glyph-name="uhorntilde" unicode="&#x1eef;" horiz-adv-x="558" 
d="M472 173q1 -85 -51.5 -132t-150.5 -47q-97 0 -147.5 46.5t-48.5 132.5l1 76l-2 249h75l-4 -313q-2 -127 129 -127t129 127l-3 313h38q52 0 52 39q0 25 -26 47l2 7q19 14 37 14q17 0 31.5 -18t14.5 -43q0 -28 -19.5 -50t-53.5 -31l-3 -218v-72zM424 674l-61 -69l-10 -3
q-22 2 -84 20q-57 17 -71 17q-7 0 -15 -6.5t-25 -23.5l-16 -17h-9l-24 26v7l61 69l10 3q24 -2 83 -20q62 -16 72 -16q13 0 40 29l17 17h8l24 -25v-8z" />
    <glyph glyph-name="Uhorndotbelow" unicode="&#x1ef0;" horiz-adv-x="636" 
d="M616.5 637.5q-23.5 -25.5 -62.5 -35.5l-2 -287l-1 -72q2 -119 -61.5 -184.5t-181.5 -65.5q-114 0 -174 62.5t-58 178.5l1 87l-1 320h79l-4 -397q-2 -181 163 -181q164 0 164 171l-4 407h38q65 0 65 51q0 31 -33 60l3 8q23 16 39 16q19 0 36.5 -23.5t17.5 -55.5
q0 -34 -23.5 -59.5zM348 -82q12 -12 12 -33q0 -22 -12.5 -35t-34.5 -13q-44 0 -44 46q0 21 12.5 34t34.5 13q20 0 32 -12z" />
    <glyph glyph-name="uhorndotbelow" unicode="&#x1ef1;" horiz-adv-x="558" 
d="M472 173q1 -85 -51.5 -132t-150.5 -47q-97 0 -147.5 46.5t-48.5 132.5l1 76l-2 249h75l-4 -313q-2 -127 129 -127t129 127l-3 313h38q52 0 52 39q0 25 -26 47l2 7q19 14 37 14q17 0 31.5 -18t14.5 -43q0 -28 -19.5 -50t-53.5 -31l-3 -218v-72zM310 -82q12 -12 12 -33
q0 -22 -12.5 -35t-34.5 -13q-44 0 -44 46q0 21 12.5 34t34.5 13q20 0 32 -12z" />
    <glyph glyph-name="Ygrave" unicode="&#x1ef2;" horiz-adv-x="528" 
d="M150 807l-2 8l20 47l9 2q89 -52 192 -103l-14 -36l-10 -4q-106 45 -195 86zM295 0h-81l5 187l-1 44l-203 410h86l13 -36l140 -288h8l153 286l15 38h85l-223 -413l-1 -41z" />
    <glyph glyph-name="ygrave" unicode="&#x1ef3;" horiz-adv-x="473" 
d="M141 686l-2 8l30 42l9 1q66 -65 164 -145l-22 -32l-9 -1q-71 50 -170 127zM266 0h-75l3 143v29l-169 326h81l10 -29l111 -214h6l122 211l14 32h78l-183 -324l-1 -31z" />
    <glyph glyph-name="Ydotbelow" unicode="&#x1ef4;" horiz-adv-x="528" 
d="M15 641h86l13 -36l140 -288h8l153 286l15 38h85l-223 -413l-1 -41l4 -187h-81l5 187l-1 44zM288 -82q12 -12 12 -33q0 -22 -12.5 -35t-34.5 -13q-44 0 -44 46q0 21 12.5 34t34.5 13q20 0 32 -12z" />
    <glyph glyph-name="ydotbelow" unicode="&#x1ef5;" horiz-adv-x="473" 
d="M25 498h81l10 -29l111 -214h6l122 211l14 32h78l-183 -324l-1 -31l3 -143h-75l3 143v29zM262 -82q12 -12 12 -33q0 -22 -12.5 -35t-34.5 -13q-44 0 -44 46q0 21 12.5 34t34.5 13q20 0 32 -12z" />
    <glyph glyph-name="Yhookabove" unicode="&#x1ef6;" horiz-adv-x="528" 
d="M295 0h-81l6 187l-1 43l-204 411h86l13 -36l140 -288h8l153 286l15 38h85l-222 -411l-1 -43zM299 877.5q18 -16.5 18 -40.5q0 -32 -52 -75l20 -34l-35 -19l-32 55q50 36 50 65q0 21 -26 21q-30 0 -58 -24l-16 26q40 42 86 42q27 0 45 -16.5z" />
    <glyph glyph-name="yhookabove" unicode="&#x1ef7;" horiz-adv-x="473" 
d="M266 0h-75l3 143v30l-169 325h81l11 -29l111 -214h5l122 211l14 32h79l-184 -324l-1 -31zM282 735.5q18 -16.5 18 -40.5q0 -32 -52 -75l20 -34l-35 -19l-32 55q50 36 50 65q0 21 -26 21q-30 0 -58 -24l-16 26q40 42 86 42q27 0 45 -16.5z" />
    <glyph glyph-name="endash" unicode="&#x2013;" horiz-adv-x="478" 
d="M490 228h-499l-6 6l5 50h498l5 -7z" />
    <glyph glyph-name="emdash" unicode="&#x2014;" horiz-adv-x="929" 
d="M941 228h-951l-6 6l5 50h950l7 -7z" />
    <glyph glyph-name="quoteleft" unicode="&#x2018;" horiz-adv-x="167" 
d="M32 509q0 62 73 134l30 -21l1 -7q-42 -45 -42 -84q0 -40 39 -55v-8q-19 -18 -47 -34q-54 20 -54 75z" />
    <glyph glyph-name="quoteright" unicode="&#x2019;" horiz-adv-x="167" 
d="M137 567q0 -62 -73 -134l-30 21l-1 7q42 45 42 84q0 40 -39 55v8q19 18 47 34q54 -20 54 -75z" />
    <glyph glyph-name="quotesinglbase" unicode="&#x201a;" horiz-adv-x="229" 
d="M165 20q0 -65 -94 -134l-27 25v7q55 43 55 88q0 27 -31 47v8q28 19 55 26q42 -26 42 -67z" />
    <glyph glyph-name="quotedblleft" unicode="&#x201c;" horiz-adv-x="289" 
d="M158 510q0 62 73 134l30 -21l1 -7q-42 -45 -42 -84q0 -40 39 -55v-8q-19 -18 -47 -34q-54 20 -54 75zM27 510q0 62 73 134l30 -21l1 -7q-42 -45 -42 -84q0 -40 39 -55v-8q-19 -18 -47 -34q-54 20 -54 75z" />
    <glyph glyph-name="quotedblright" unicode="&#x201d;" horiz-adv-x="295" 
d="M262 567q0 -62 -73 -134l-30 21l-1 7q42 45 42 84q0 40 -39 55v8q19 18 47 34q54 -20 54 -75zM134 567q0 -62 -73 -134l-30 21l-1 7q42 45 42 84q0 40 -39 55v8q19 18 47 34q54 -20 54 -75z" />
    <glyph glyph-name="quotedblbase" unicode="&#x201e;" horiz-adv-x="361" 
d="M295 20q0 -65 -94 -134l-27 25v7q55 43 55 88q0 27 -31 47v8q28 19 55 26q42 -26 42 -67zM165 20q0 -65 -94 -134l-27 25v7q55 43 55 88q0 27 -31 47v8q28 19 55 26q42 -26 42 -67z" />
    <glyph glyph-name="dagger" unicode="&#x2020;" horiz-adv-x="482" 
d="M268 348v-61v-378l-50 -3l-6 7v435h-164l-6 6l5 49h165v182l53 5l4 -5l-1 -182h166l7 -6l-5 -49h-168z" />
    <glyph glyph-name="daggerdbl" unicode="&#x2021;" horiz-adv-x="482" 
d="M441 133l-5 -49h-168v-175l-50 -3l-6 7v171h-164l-6 6l5 49h165v214h-164l-6 7l5 49h165v176l53 5l4 -5l-1 -176h166l7 -6l-5 -50h-168v-66v-148h166z" />
    <glyph glyph-name="bullet" unicode="&#x2022;" horiz-adv-x="255" 
d="M165.473 300.486q13.498 -13.498 13.498 -37.1191q0 -24.7461 -14.0605 -39.3691q-14.0596 -14.6221 -38.8057 -14.6221q-49.4922 0 -49.4922 51.7412q0 23.6211 14.0605 38.2441q14.0596 14.623 38.8057 14.623q22.4961 0 35.9941 -13.498z" />
    <glyph glyph-name="onedotenleader" unicode="&#x2024;" horiz-adv-x="229" 
d="M148 76q12 -12 12 -33q0 -22 -12.5 -35t-34.5 -13q-44 0 -44 46q0 21 12.5 34t34.5 13q20 0 32 -12z" />
    <glyph glyph-name="twodotenleader" unicode="&#x2025;" horiz-adv-x="406" 
d="M320 76q12 -12 12 -33q0 -22 -12.5 -35t-34.5 -13q-44 0 -44 46q0 21 12.5 34t34.5 13q20 0 32 -12zM144 76q12 -12 12 -33q0 -22 -12.5 -35t-34.5 -13q-44 0 -44 46q0 21 12.5 34t34.5 13q20 0 32 -12z" />
    <glyph glyph-name="ellipsis" unicode="&#x2026;" horiz-adv-x="582" 
d="M320 76q12 -12 12 -33q0 -22 -12.5 -35t-34.5 -13q-44 0 -44 46q0 21 12.5 34t34.5 13q20 0 32 -12zM495 76q12 -12 12 -33q0 -22 -12.5 -35t-34.5 -13q-44 0 -44 46q0 21 12.5 34t34.5 13q20 0 32 -12zM144 76q12 -12 12 -33q0 -22 -12.5 -35t-34.5 -13q-44 0 -44 46
q0 21 12.5 34t34.5 13q20 0 32 -12z" />
    <glyph glyph-name="perthousand" unicode="&#x2030;" horiz-adv-x="1198" 
d="M650 644l-472 -735l-35 20l-5 12l471 737l35 -20zM296.5 601q36.5 -44 36.5 -127q0 -89 -38.5 -135.5t-112.5 -46.5q-68 0 -105 44.5t-37 127.5q0 88 39 134.5t113 46.5q68 0 104.5 -44zM96 469q0 -122 91 -122t91 118q0 122 -92 122q-90 0 -90 -118zM746.5 305
q36.5 -44 36.5 -127q0 -89 -38.5 -135.5t-112.5 -46.5q-68 0 -105 44.5t-37 127.5q0 88 39 134.5t113 46.5q68 0 104.5 -44zM1120.5 305q36.5 -44 36.5 -127q0 -89 -38.5 -135.5t-112.5 -46.5q-68 0 -105 44.5t-37 127.5q0 88 39 134.5t113 46.5q68 0 104.5 -44zM546 173
q0 -122 91 -122t91 118q0 122 -92 122q-90 0 -90 -118zM920 173q0 -122 91 -122t91 118q0 122 -92 122q-90 0 -90 -118z" />
    <glyph glyph-name="minute" unicode="&#x2032;" horiz-adv-x="166" 
d="M100 449l-41 -6l-7 7l5 184l61 5l6 -7z" />
    <glyph glyph-name="second" unicode="&#x2033;" horiz-adv-x="285" 
d="M218 449l-41 -6l-7 7l5 184l61 5l6 -7zM100 449l-41 -6l-7 7l5 184l61 5l6 -7z" />
    <glyph glyph-name="guilsinglleft" unicode="&#x2039;" horiz-adv-x="229" 
d="M21 232l145 174l39 -22l1 -10l-124 -149l124 -149l-1 -9l-39 -22l-145 171v16z" />
    <glyph glyph-name="guilsinglright" unicode="&#x203a;" horiz-adv-x="235" 
d="M212 220l-145 -174l-39 22l-1 10l124 149l-124 149l1 9l39 22l145 -171v-16z" />
    <glyph glyph-name="fraction" unicode="&#x2044;" horiz-adv-x="76" 
d="M276 644l-472 -735l-35 20l-5 12l471 737l35 -20z" />
    <glyph glyph-name="zerosuperior" unicode="&#x2070;" horiz-adv-x="374" 
d="M296.5 657.5q36.5 -48.5 36.5 -139.5q0 -97 -39 -148t-112 -51q-68 0 -105 49t-37 140q0 96 39 147t113 51q68 0 104.5 -48.5zM96 514q0 -135 91 -135t91 130q0 133 -92 133q-90 0 -90 -128z" />
    <glyph glyph-name="foursuperior" unicode="&#x2074;" horiz-adv-x="351" 
d="M255 424l4 -95l-4 -6l-56 -3l-4 4l1 100h-114l-51 -3l-5 7v44l164 230h65l-1 -226h58l5 -6l-4 -49zM197 476v147h-5l-104 -147h109z" />
    <glyph glyph-name="fivesuperior" unicode="&#x2075;" horiz-adv-x="304" 
d="M259 648l-5 -5l-49 5h-91l-2 -86l41 -10q57 -12 84 -37.5t27 -67.5q0 -58 -45 -93.5t-118 -35.5q-30 0 -67 7l-4 49l5 5q31 -8 67 -8q44 0 69 19t25 52q0 45 -74 61l-61 11l-4 7l3 172l8 10l36 -1h98l60 2l4 -4z" />
    <glyph glyph-name="sixsuperior" unicode="&#x2076;" horiz-adv-x="337" 
d="M272.5 521.5q28.5 -30.5 28.5 -78.5q0 -56 -34.5 -90.5t-99.5 -34.5q-61 0 -95.5 37.5t-34.5 104.5q0 81 50.5 145t142.5 102h4l44 -30v-7q-71 -27 -110.5 -59t-55.5 -77l5 -6q35 24 75 24q52 0 80.5 -30.5zM237 437q0 66 -64 66q-40 0 -71 -24l-1 -18q0 -99 68 -99
t68 75z" />
    <glyph glyph-name="sevensuperior" unicode="&#x2077;" horiz-adv-x="300" 
d="M242 702l29 1l1 -51l-115 -250l-34 -86l-58 15l-4 11l141 303h-119l-56 -5l-4 8l6 55l66 -1h147z" />
    <glyph glyph-name="eightsuperior" unicode="&#x2078;" horiz-adv-x="341" 
d="M256.5 681.5q28.5 -24.5 28.5 -66.5q0 -57 -65 -91v-4q37 -17 57 -36.5t20 -55.5q0 -51 -37 -80.5t-98 -29.5q-57 0 -89.5 26.5t-32.5 70.5q0 65 79 94v3q-65 33 -65 91q0 48 34 75.5t90 27.5q50 0 78.5 -24.5zM129.5 644.5q-15.5 -14.5 -15.5 -39.5q0 -24 15.5 -37.5
t46.5 -27.5q53 27 53 67q0 24 -15 38t-41 14q-28 0 -43.5 -14.5zM99 423q0 -27 18.5 -43t50.5 -16q33 0 51.5 16.5t18.5 41.5q0 27 -18.5 40.5t-56.5 28.5q-64 -21 -64 -68z" />
    <glyph glyph-name="ninesuperior" unicode="&#x2079;" horiz-adv-x="338" 
d="M268.5 670q34.5 -38 34.5 -106q0 -81 -50.5 -144.5t-143.5 -101.5h-4l-42 30v8q70 26 109.5 58t55.5 76l-6 6q-34 -23 -75 -23q-50 0 -79 31t-29 79q0 55 34.5 90t98.5 35q62 0 96.5 -38zM238 546l1 18q0 99 -67 99q-69 0 -69 -74q0 -67 64 -67q38 0 71 24z" />
    <glyph glyph-name="franc" unicode="&#x20a3;" horiz-adv-x="391" 
d="M153 273h94l90 1l4 -7l-5 -46h-183l-1 -65v-17h117l4 -4l-3 -35h-117l2 -100h-65l1 100h-64l-4 4l3 35h66v11l-2 347h290l6 -6l-7 -47l-124 2h-100z" />
    <glyph glyph-name="Euro" unicode="&#x20ac;" horiz-adv-x="485" 
d="M438 90l9 -5l-6 -52q-66 -39 -135 -39q-176 0 -212 167h-74l-4 5l3 42h69l-1 34q0 22 1 33h-68l-4 5l3 42h75q18 87 75 133t149 46q74 0 133 -36l-12 -53l-7 -2q-51 37 -118 37q-125 0 -152 -125h186l4 -5l-3 -42h-192l-1 -28q0 -27 1 -39h191l4 -5l-3 -42h-184
q32 -111 144 -111q72 0 129 40z" />
    <glyph glyph-name="uni2113" unicode="&#x2113;" horiz-adv-x="377" 
d="M353 0h-265l3 150l-3 348h75l-3 -342l2 -93h192l4 -7z" />
    <glyph glyph-name="trademark" unicode="&#x2122;" horiz-adv-x="582" 
d="M211 636l-3 -32l-45 2h-21l-2 -127l2 -74h-44l2 70l-1 131h-21l-48 -2l-3 3l3 33h178zM488 405l-6 71l-10 97h-4l-62 -143h-36l-58 143h-3l-12 -92l-6 -76h-38l26 235h53l11 -35l45 -117h3l50 117l12 35h50l24 -235h-39z" />
    <glyph glyph-name="Ohm" unicode="&#x2126;" horiz-adv-x="744" 
d="M531.5 609.5q62.5 -37.5 93 -101.5t30.5 -141q0 -84 -35.5 -164t-102.5 -137l2 -4h100l82 7l5 -6l-10 -67l-99 4h-132l-38 -2l-5 4v64q71 51 110.5 132t39.5 164q0 96 -51 158t-149 62t-149 -61.5t-51 -157.5q0 -83 39 -164.5t109 -132.5v-64l-4 -4l-39 2h-146l-88 -3
l-6 7l11 64l86 -6h90l1 4q-66 55 -101 132t-35 159q0 79 33 145.5t98.5 105.5t158.5 39q90 0 152.5 -37.5z" />
    <glyph glyph-name="estimated" unicode="&#x212e;" horiz-adv-x="788" 
d="M588.5 604.5q84.5 -44.5 133.5 -120t49 -165.5v-6h-595q-7 0 -7 -6v-181q0 -10 10 -22q43 -44 102 -69t125 -25q72 0 137 28t112 77h38q-51 -58 -126.5 -91.5t-161.5 -33.5q-99 0 -183.5 44t-134 120t-49.5 165q0 90 49.5 165.5t134 120t183.5 44.5t183.5 -44.5zM180 536
q-11 -9 -11 -24v-173q0 -7 7 -7h458q7 0 7 7v177q0 12 -11 23q-43 43 -101 66.5t-123 23.5q-135 0 -226 -93z" />
    <glyph glyph-name="oneeighth" unicode="&#x215b;" horiz-adv-x="702" 
d="M561 644l-472 -735l-35 20l-5 12l471 737l35 -20zM167 398l2 -135h-71l2 126v179l-80 -21l-6 3v56l146 41l9 -9zM617.5 358.5q28.5 -24.5 28.5 -66.5q0 -57 -65 -91v-4q37 -17 57 -36.5t20 -55.5q0 -51 -37 -80.5t-98 -29.5q-57 0 -89.5 26.5t-32.5 70.5q0 65 79 94v3
q-65 33 -65 91q0 48 34 75.5t90 27.5q50 0 78.5 -24.5zM490.5 321.5q-15.5 -14.5 -15.5 -39.5q0 -24 15.5 -37.5t46.5 -27.5q53 27 53 67q0 24 -15 38t-41 14q-28 0 -43.5 -14.5zM460 100q0 -27 18.5 -43t50.5 -16q33 0 51.5 16.5t18.5 41.5q0 27 -18.5 40.5t-56.5 28.5
q-64 -21 -64 -68z" />
    <glyph glyph-name="threeeighths" unicode="&#x215c;" horiz-adv-x="739" 
d="M598 644l-472 -735l-35 20l-5 12l471 737l35 -20zM220.5 622.5q29.5 -23.5 29.5 -62.5q0 -27 -15.5 -52t-46.5 -39v-4q76 -20 76 -91q0 -52 -43.5 -83.5t-114.5 -31.5q-39 0 -68 7l-5 50l6 5q36 -9 68 -9q41 0 64.5 17t23.5 46q0 55 -70 57h-43l-4 5l1 47h30
q25 0 47.5 18.5t22.5 44.5q0 21 -14 32.5t-38 11.5q-34 0 -79 -31h-7l-11 47q51 39 112 39q49 0 78.5 -23.5zM654.5 358.5q28.5 -24.5 28.5 -66.5q0 -57 -65 -91v-4q37 -17 57 -36.5t20 -55.5q0 -51 -37 -80.5t-98 -29.5q-57 0 -89.5 26.5t-32.5 70.5q0 65 79 94v3
q-65 33 -65 91q0 48 34 75.5t90 27.5q50 0 78.5 -24.5zM527.5 321.5q-15.5 -14.5 -15.5 -39.5q0 -24 15.5 -37.5t46.5 -27.5q53 27 53 67q0 24 -15 38t-41 14q-28 0 -43.5 -14.5zM497 100q0 -27 18.5 -43t50.5 -16q33 0 51.5 16.5t18.5 41.5q0 27 -18.5 40.5t-56.5 28.5
q-64 -21 -64 -68z" />
    <glyph glyph-name="fiveeighths" unicode="&#x215d;" horiz-adv-x="720" 
d="M579 644l-472 -735l-35 20l-5 12l471 737l35 -20zM259 588l-5 -5l-49 5h-91l-2 -86l41 -10q57 -12 84 -37.5t27 -67.5q0 -58 -45 -93.5t-118 -35.5q-30 0 -67 7l-4 49l5 5q31 -8 67 -8q44 0 69 19t25 52q0 45 -74 61l-61 11l-4 7l3 172l8 10l36 -1h98l60 2l4 -4z
M635.5 358.5q28.5 -24.5 28.5 -66.5q0 -57 -65 -91v-4q37 -17 57 -36.5t20 -55.5q0 -51 -37 -80.5t-98 -29.5q-57 0 -89.5 26.5t-32.5 70.5q0 65 79 94v3q-65 33 -65 91q0 48 34 75.5t90 27.5q50 0 78.5 -24.5zM508.5 321.5q-15.5 -14.5 -15.5 -39.5q0 -24 15.5 -37.5
t46.5 -27.5q53 27 53 67q0 24 -15 38t-41 14q-28 0 -43.5 -14.5zM478 100q0 -27 18.5 -43t50.5 -16q33 0 51.5 16.5t18.5 41.5q0 27 -18.5 40.5t-56.5 28.5q-64 -21 -64 -68z" />
    <glyph glyph-name="seveneighths" unicode="&#x215e;" horiz-adv-x="701" 
d="M560 644l-472 -735l-35 20l-5 12l471 737l35 -20zM242 642l29 1l1 -51l-115 -250l-34 -86l-58 15l-4 11l141 303h-119l-56 -5l-4 8l6 55l66 -1h147zM616.5 358.5q28.5 -24.5 28.5 -66.5q0 -57 -65 -91v-4q37 -17 57 -36.5t20 -55.5q0 -51 -37 -80.5t-98 -29.5
q-57 0 -89.5 26.5t-32.5 70.5q0 65 79 94v3q-65 33 -65 91q0 48 34 75.5t90 27.5q50 0 78.5 -24.5zM489.5 321.5q-15.5 -14.5 -15.5 -39.5q0 -24 15.5 -37.5t46.5 -27.5q53 27 53 67q0 24 -15 38t-41 14q-28 0 -43.5 -14.5zM459 100q0 -27 18.5 -43t50.5 -16q33 0 51.5 16.5
t18.5 41.5q0 27 -18.5 40.5t-56.5 28.5q-64 -21 -64 -68z" />
    <glyph glyph-name="arrowleft" unicode="&#x2190;" horiz-adv-x="516" 
d="M22 224v13l194 198l44 -13v-12l-148 -154l372 4l6 -6l-4 -51l-375 3l149 -154v-13l-44 -12z" />
    <glyph glyph-name="arrowup" unicode="&#x2191;" horiz-adv-x="516" 
d="M250 468h13l198 -194l-13 -44h-12l-154 148l4 -372l-6 -6l-51 4l3 375l-154 -149h-13l-12 44z" />
    <glyph glyph-name="arrowright" unicode="&#x2192;" horiz-adv-x="516" 
d="M491 241v-13l-194 -198l-44 13v12l148 154l-372 -4l-6 6l4 51l375 -3l-149 154v13l44 12z" />
    <glyph glyph-name="arrowdown" unicode="&#x2193;" horiz-adv-x="516" 
d="M265 -4h-13l-198 194l13 44h12l154 -148l-4 372l6 6l51 -4l-3 -375l154 149h13l12 -44z" />
    <glyph glyph-name="arrowupleft" unicode="&#x2196;" horiz-adv-x="516" 
d="M99.8252 393.48l9.19043 9.19141l277.133 2.82715l21.916 -40.2969l-8.48438 -8.4834l-213.505 -4.24219l265.821 -260.165v-8.4834l-38.8838 -33.2275l-262.993 267.234l-3.53418 -214.212l-9.19043 -9.19043l-39.5908 22.623z" />
    <glyph glyph-name="arrowupright" unicode="&#x2197;" horiz-adv-x="516" 
d="M404.48 406.175l9.19141 -9.19043l2.82715 -277.133l-40.2969 -21.916l-8.4834 8.48438l-4.24219 213.505l-260.165 -265.821h-8.4834l-33.2275 38.8838l267.234 262.993l-214.212 3.53418l-9.19043 9.19043l22.623 39.5908z" />
    <glyph glyph-name="arrowdownright" unicode="&#x2198;" horiz-adv-x="516" 
d="M413.175 67.5195l-9.19043 -9.19141l-277.133 -2.82715l-21.916 40.2969l8.48438 8.4834l213.505 4.24219l-265.821 260.165v8.4834l38.8838 33.2275l262.993 -267.234l3.53418 214.212l9.19043 9.19043l39.5908 -22.623z" />
    <glyph glyph-name="arrowdownleft" unicode="&#x2199;" horiz-adv-x="516" 
d="M110.52 59.8252l-9.19141 9.19043l-2.82715 277.133l40.2969 21.916l8.4834 -8.48438l4.24219 -213.505l260.165 265.821h8.4834l33.2275 -38.8838l-267.234 -262.993l214.212 -3.53418l9.19043 -9.19043l-22.623 -39.5908z" />
    <glyph glyph-name="partialdiff" unicode="&#x2202;" horiz-adv-x="511" 
d="M381 531q89 -115 89 -272q0 -126 -58.5 -196.5t-165.5 -70.5q-101 0 -155 58t-54 157q0 98 53 157t148 59q66 -3 132 -49l8 7q-56 198 -313 286v10l52 39h8q167 -70 256 -185zM358 103q37 52 37 152q0 14 -2 42q-72 63 -142 63q-68 0 -104 -39t-36 -115q0 -75 35 -115
t102 -40q73 0 110 52z" />
    <glyph glyph-name="increment" unicode="&#x2206;" horiz-adv-x="578" 
d="M14 0l234 641h93l215 -641h-542zM111 67h346l-160 491h-7z" />
    <glyph glyph-name="product" unicode="&#x220f;" horiz-adv-x="665" 
d="M554 200l3 -200h-81l6 193l-5 383h-290l-4 -376l4 -200h-81l6 193l-5 382l-50 -1l-6 8l7 59h549l6 -8l-7 -59l-49 1z" />
    <glyph glyph-name="summation" unicode="&#x2211;" horiz-adv-x="487" 
d="M463 570l-96 5h-235l197 -244v-15l-200 -251h226l106 5l7 -8l-6 -63l-351 1l-79 -1v57l209 268l-206 256v61l428 1l6 -8z" />
    <glyph glyph-name="minus" unicode="&#x2212;" horiz-adv-x="480" 
d="M444 237h-407l-6 6l5 50h407l6 -6z" />
    <glyph glyph-name="divisionslash" unicode="&#x2215;" horiz-adv-x="287" 
d="M83 -113h-55l-6 8l205 783h55l6 -9z" />
    <glyph glyph-name="bulletoperator" unicode="&#x2219;" horiz-adv-x="255" 
d="M164.473 301.486q13.498 -13.498 13.498 -37.1191q0 -24.7461 -14.0605 -39.3691q-14.0596 -14.6221 -38.8057 -14.6221q-49.4922 0 -49.4922 51.7412q0 23.6211 14.0605 38.2441q14.0596 14.623 38.8057 14.623q22.4961 0 35.9941 -13.498z" />
    <glyph glyph-name="radical" unicode="&#x221a;" horiz-adv-x="511" 
d="M194 0l-125 402h-90l-3 4l2 52h142l5 -5l114 -378h6l229 629l8 6h54l-258 -710h-84z" />
    <glyph glyph-name="infinity" unicode="&#x221e;" horiz-adv-x="480" 
d="M452 364q33 -39 33 -102q0 -64 -33 -99.5t-88 -35.5q-41 0 -69 23t-52 67q-45 -90 -125 -90q-57 0 -90.5 37.5t-33.5 100.5q0 64 33 101t89 37q43 0 71 -22.5t50 -62.5q45 85 125 85q57 0 90 -39zM62.5 328q-20.5 -23 -20.5 -62q0 -40 20 -63t55 -23t57 24t41 68
q-18 38 -39 58.5t-57 20.5t-56.5 -23zM302 325.5q-21 -23.5 -38 -65.5q20 -40 41.5 -61.5t56.5 -21.5q34 0 54.5 22.5t20.5 62.5q0 39 -20 63t-56 24q-38 0 -59 -23.5z" />
    <glyph glyph-name="integral" unicode="&#x222b;" horiz-adv-x="272" 
d="M324 704l-4 -55l-7 -4q-32 13 -65 13q-81 0 -83 -90l1 -515q0 -69 -21.5 -111t-80.5 -87l-35 31v9q40 38 55 70t14 85l-2 508q-1 75 40 115t116 40q39 0 72 -9z" />
    <glyph glyph-name="approxequal" unicode="&#x2248;" horiz-adv-x="480" 
d="M142 335.5q-10 -7.5 -33 -28.5l-15 -15h-9l-22 27v9l73 73l10 4q25 -3 98 -25q86 -24 102 -24q10 0 21 8.5t25.5 22t21.5 20.5h8l22 -27v-9l-73 -74l-10 -2q-22 3 -107 26q-78 22 -92 22q-10 0 -20 -7.5zM142 169.5q-10 -7.5 -33 -28.5l-15 -15h-9l-22 27v9l73 73l10 4
q25 -3 98 -25q86 -24 102 -24q10 0 21 8.5t25.5 22t21.5 20.5h8l22 -27v-9l-73 -74l-10 -2q-22 3 -107 26q-78 22 -92 22q-10 0 -20 -7.5z" />
    <glyph glyph-name="notequal" unicode="&#x2260;" horiz-adv-x="480" 
d="M449 203l-5 -50h-211l-35 -148h-51l-5 6l34 142h-139l-6 6l5 50h153l26 111h-178l-6 6l5 50h192l34 142h51l6 -7l-32 -135h156l6 -6l-5 -50h-171l-26 -111h196z" />
    <glyph glyph-name="lessequal" unicode="&#x2264;" horiz-adv-x="480" 
d="M438 410l-340 -141v-6l342 -132l-12 -46l-9 -5l-383 152v65l7 9l381 157l18 -46zM444 -91h-407l-6 5l5 50h407l6 -6z" />
    <glyph glyph-name="greaterequal" unicode="&#x2265;" horiz-adv-x="480" 
d="M444 297v-65l-383 -152l-9 5l-12 46l342 132v6l-340 141l-4 7l18 46l381 -157zM444 -91h-407l-6 6l5 50h407l6 -6z" />
    <glyph glyph-name="lozenge" unicode="&#x25ca;" horiz-adv-x="497" 
d="M438 294v-25l-159 -349l-59 -1l-7 3l-159 346v25l158 348l61 3l5 -4zM108 278l137 -294h5l133 297l-137 297h-5z" />
    <glyph glyph-name="dieresisacute" unicode="&#xf6d7;" 
d="M308 739l-5 -9q-77 -20 -207 -49l-9 5l-7 38q106 31 207 68l8 -3zM146 618q11 -11 11 -30q0 -20 -11.5 -31.5t-31.5 -11.5q-40 0 -40 41q0 20 11.5 31.5t31.5 11.5q18 0 29 -11zM303.5 618q10.5 -11 10.5 -30q0 -20 -11.5 -31.5t-31.5 -11.5q-18 0 -29 11t-11 30
q0 20 11.5 31.5t31.5 11.5q19 0 29.5 -11z" />
    <glyph glyph-name="dieresisgrave" unicode="&#xf6d8;" 
d="M308 724l-9 -38l-8 -5q-124 27 -206 49l-5 9l12 50l9 3q88 -33 207 -68zM146 618q11 -11 11 -30q0 -20 -11.5 -31.5t-31.5 -11.5q-40 0 -40 41q0 20 11.5 31.5t31.5 11.5q18 0 29 -11zM303.5 618q10.5 -11 10.5 -30q0 -20 -11.5 -31.5t-31.5 -11.5q-18 0 -29 11t-11 30
q0 20 11.5 31.5t31.5 11.5q19 0 29.5 -11z" />
    <glyph glyph-name="Iacute_J.loclNLD" horiz-adv-x="578" 
d="M174 0h-81l5 193l-5 448h82l-5 -441zM271 814l-2 -8q-89 -41 -195 -86l-10 4l-14 36q103 51 192 103l9 -2zM483 118q0 -76 -38 -125.5t-132 -94.5l-31 45v10q69 37 98 73t29 91v87l-4 372l-123 -1l-8 7l5 59h206l-4 -429zM538 814l-2 -8q-89 -41 -195 -86l-10 4l-14 36
q103 51 192 103l9 -2z" />
    <glyph glyph-name="C.ss01" horiz-adv-x="461" 
d="M418 464l4 -2l-14 -67l-9 -2q-51 43 -125 43q-72 0 -110 -46t-38 -137q0 -93 38 -141.5t110 -48.5t134 45l8 -4l-6 -67l-4 -2h155v-35h-661v35h243q-93 60 -93 211q0 158 101 218h-251v34h661v-34h-143z" />
    <glyph glyph-name="D.ss01" horiz-adv-x="566" 
d="M417 464q97 -56 97 -199q0 -167 -107 -230h259v-35h-766v35h196l2 117l-3 312h-195v34h766v-34h-249zM398 107.5q42 47.5 42 142.5q0 94 -40 138.5t-120 44.5q-50 0 -112 -4l-3 -271l2 -92q64 -6 111 -6q78 0 120 47.5z" />
    <glyph glyph-name="I.ss01" horiz-adv-x="259" 
d="M164 35h195v-35h-459v35h191l2 115l-3 314h-190v34h459v-34h-194l-3 -307z" />
    <glyph glyph-name="L.ss01" horiz-adv-x="393" 
d="M160 64h158l5 85l52 3l-2 -117h120v-35h-593v35h190l2 126l-3 303h-189v34h593v-34h-330l-3 -296v-104z" />
    <glyph glyph-name="M.ss01" horiz-adv-x="683" 
d="M603 35h180v-35h-883v35h175l47 429h-222v34h883v-34h-224zM217 464l15 -43l104 -245h6l108 248l17 40h-250zM530 164l-24 220h-5l-137 -300h-58l-130 300h-4l-25 -215l-11 -134h404z" />
    <glyph glyph-name="V.ss01" horiz-adv-x="500" 
d="M301 35h299v-35h-700v35h293l-150 429h-143v34h700v-34h-135zM114 464l6 -25l126 -361h5l139 357l6 29h-282z" />
    <glyph glyph-name="X.ss01" horiz-adv-x="520" 
d="M461 35h159v-35h-720v35h161l154 216l-150 213h-165v34h720v-34h-172l-143 -203zM366 447l9 17h-225l9 -18l103 -141zM141 51l-9 -16h246l-10 19l-111 151z" />
    <glyph glyph-name="i.loclTRK" horiz-adv-x="259" 
d="M165 691q12 -12 12 -32q0 -23 -12.5 -36t-34.5 -13q-44 0 -44 46q0 21 12.5 34t34.5 13q20 0 32 -12zM165 0h-75l3 150l-3 348h76l-4 -342z" />
    <glyph glyph-name="germandbls.calt" horiz-adv-x="631" 
d="M555 584l4 -16l-167 -204q107 -33 158 -76t51 -117q0 -54 -26.5 -94.5t-72 -62t-100.5 -21.5q-90 0 -167 45l10 82l11 5q33 -31 74.5 -49t78.5 -18q50 0 81.5 30t31.5 75q0 54 -52.5 89.5t-173.5 67.5l-5 17l167 209q-72 34 -140 34q-79 0 -122.5 -41.5t-43.5 -114.5
l-2 -223l3 -201h-81l6 190l-3 234q-1 66 28.5 116.5t85.5 78t131 27.5q104 0 235 -62z" />
    <glyph glyph-name="iacute_j.loclNLD" horiz-adv-x="548" 
d="M260 694l-2 -8q-99 -77 -170 -127l-9 1l-22 32q98 80 164 145l9 -1zM481 685q-99 -77 -170 -127l-9 1l-22 32q98 80 164 145l9 -1l30 -42zM162 156l3 -156h-75l3 150l-3 348h76zM453 165v-72q0 -61 -28 -100t-97 -73l-30 39v7q47 26 66.5 54.5t19.5 71.5v64l-2 285
l-95 -1l-6 6l6 52h169z" />
    <glyph glyph-name="a.sups" horiz-adv-x="320" 
d="M240 627q26 -22 26 -63l-3 -81q-3 -48 -3 -70q0 -27 17 -27q12 0 19 6l6 -4l-8 -40q-19 -15 -42 -15q-22 0 -33 11t-16 37h-3q-35 -40 -75 -49q-43 2 -67 25.5t-24 63.5q0 62 65 74l101 19l1 37q0 47 -48 47q-38 0 -91 -37l-5 2l-9 47q59 39 117 39q49 0 75 -22zM98 427
q0 -20 11 -32t30 -12q29 0 59 36l1 60l-70 -16q-31 -6 -31 -36z" />
    <glyph glyph-name="b.sups" horiz-adv-x="346" 
d="M284.5 606q30.5 -39 30.5 -109q0 -79 -39.5 -122.5t-108.5 -43.5q-37 0 -79 13l-32 -10l-7 7l2 123l-2 332l72 5l-2 -203h1q40 47 79 47q55 0 85.5 -39zM248 490q0 99 -69 99q-31 0 -61 -28l-1 -87l1 -86q25 -9 45 -9q85 0 85 111z" />
    <glyph glyph-name="c.sups" horiz-adv-x="258" 
d="M254 627l-13 -55l-7 -3q-33 21 -63 21q-35 0 -54 -25.5t-19 -71.5q0 -49 20 -76t57 -27q32 0 71 18l5 -3l-7 -55q-47 -19 -85 -19q-60 0 -94 42t-34 114q0 76 37.5 119t102.5 43q43 0 83 -22z" />
    <glyph glyph-name="d.sups" horiz-adv-x="351" 
d="M313 386q10 0 20 6l5 -4l-8 -40q-21 -15 -47 -15q-39 0 -49 46h-3q-39 -44 -76 -44q-57 0 -90.5 40t-33.5 109q0 80 40 122.5t111 42.5q11 0 47 -8l-1 155l71 5l-3 -388q0 -27 17 -27zM97 493q0 -51 19 -78t51 -27q35 0 65 35l-3 167q-26 8 -49 8q-83 0 -83 -105z" />
    <glyph glyph-name="e.sups" horiz-adv-x="308" 
d="M255 616q31 -33 31 -90l-2 -32l-6 -9h-181q3 -99 83 -99q49 0 91 23l6 -4l-7 -52q-51 -22 -96 -22q-68 0 -105.5 42t-37.5 115q0 75 37 118t100 43q56 0 87 -33zM225 534q0 31 -16 48.5t-43 17.5q-58 0 -67 -79h125z" />
    <glyph glyph-name="f.sups" horiz-adv-x="189" 
d="M244 797l-4 -53l-6 -5q-27 12 -49 12q-44 0 -44 -54v-56h72l2 -4l-3 -39h-71l-1 -128l3 -132h-71l3 125l-2 135h-43l-3 4l3 39h43l-1 44q0 57 31.5 87.5t88.5 30.5q25 0 52 -6z" />
    <glyph glyph-name="g.sups" horiz-adv-x="329" 
d="M280 599l-1 -2q15 -22 15 -52q0 -49 -33.5 -77.5t-92.5 -28.5q-21 0 -43 5q-16 -13 -16 -23q0 -12 17 -17t52 -9q40 -5 66.5 -11.5t45.5 -23t19 -47.5q0 -45 -41.5 -74t-105.5 -29q-56 0 -88.5 22.5t-32.5 58.5q4 30 58 59v4q-50 16 -50 57q10 17 44 42v3q-48 26 -48 85
q0 50 33.5 78.5t92.5 28.5q40 0 68 -15q31 5 89 26l7 -4v-47q-36 -7 -55 -9zM231 543q0 28 -15.5 43.5t-44.5 15.5q-30 0 -46 -15.5t-16 -44.5q0 -60 60 -60q62 0 62 61zM227 328.5q-20 7.5 -64 13.5l-23 3q-41 -26 -41 -50q0 -19 18 -31.5t50 -12.5q34 0 57 14.5t23 36.5
q0 19 -20 26.5z" />
    <glyph glyph-name="h.sups" horiz-adv-x="342" 
d="M277 623q24 -22 23 -65l-2 -87l2 -133h-71l5 192q0 58 -51 58q-31 0 -64 -30l-1 -87l3 -133h-72l4 127l-3 331l71 5l-2 -205h3q47 49 86 49q45 0 69 -22z" />
    <glyph glyph-name="i.sups" horiz-adv-x="166" 
d="M124 748q0 -40 -39 -40q-36 0 -36 39q0 18 11 29t29 11q35 0 35 -39zM123 338h-72l3 127l-2 173l71 7l-4 -174z" />
    <glyph glyph-name="j.sups" horiz-adv-x="186" 
d="M112 748q0 -19 -10.5 -29.5t-27.5 -10.5q-37 0 -37 39q0 18 10.5 29t28.5 11q36 0 36 -39zM111 471l2 -117q0 -51 -18.5 -84t-61.5 -60l-25 33v6q21 19 30 42t9 60v114l-1 122l-38 -2l-3 6l3 50h39l65 4l2 -1z" />
    <glyph glyph-name="k.sups" horiz-adv-x="300" 
d="M121 338h-72l4 127l-3 331l71 5l-3 -330zM271 390q-4 6 28 -40v-8q-11 -3 -65 -10l-9 3q-65 94 -102 163v4l79 110l15 32h75l-100 -140q13 -21 79 -114z" />
    <glyph glyph-name="l.sups" horiz-adv-x="165" 
d="M120 338h-71l4 127l-3 331l70 5l-2 -330z" />
    <glyph glyph-name="m.sups" horiz-adv-x="530" 
d="M489 338h-70l3 193q0 59 -51 59q-32 0 -66 -29v-3l-3 -87l3 -133h-70l2 193q0 59 -51 59q-30 0 -68 -33v-86l1 -133h-70l4 127l-3 173l68 7v-49h3q51 49 90 49q71 0 89 -51h3q46 51 93 51q93 0 93 -87l-1 -87z" />
    <glyph glyph-name="n.sups" horiz-adv-x="342" 
d="M234 530q0 58 -51 58q-33 0 -65 -31v-86l3 -133h-72l4 127l-3 173l68 7v-49h4q47 49 88 49q92 0 90 -87l-1 -87l2 -133h-72z" />
    <glyph glyph-name="o.sups" horiz-adv-x="339" 
d="M273.5 609q34.5 -40 34.5 -115q0 -78 -37 -120.5t-105 -42.5q-65 0 -100 40t-35 115q0 79 37 121t105 42q66 0 100.5 -40zM99 493q0 -112 71 -112q73 0 73 106q0 111 -72 111t-72 -105z" />
    <glyph glyph-name="p.sups" horiz-adv-x="346" 
d="M284.5 606.5q30.5 -38.5 30.5 -108.5q0 -80 -39.5 -123.5t-109.5 -43.5q-24 0 -48 6l1 -120h-70l2 248l-2 173l68 7v-46h3q39 46 79 46q55 0 85.5 -38.5zM247 490q0 98 -69 98q-34 0 -61 -28v-89l1 -83q24 -9 45 -9q84 0 84 111z" />
    <glyph glyph-name="q.sups" horiz-adv-x="337" 
d="M296 644l-2 -178l2 -249h-71l3 147v12h-4q-36 -41 -71 -41q-56 0 -89 40.5t-33 110.5q0 78 39.5 120.5t106.5 42.5q30 0 78 -14l36 13zM97 493q0 -51 18 -78t49 -27q35 0 64 34v168q-25 8 -50 8q-81 0 -81 -105z" />
    <glyph glyph-name="r.sups" horiz-adv-x="216" 
d="M213 643v-63l-9 -4q-10 3 -19 3q-36 0 -67 -51v-57l3 -133h-72l4 127l-3 173l68 7v-67h3q30 66 77 66q9 0 15 -1z" />
    <glyph glyph-name="s.sups" horiz-adv-x="259" 
d="M220 634l-10 -53l-9 -4q-38 23 -66 23q-19 0 -30 -10.5t-11 -27.5q0 -14 12.5 -23t38.5 -21q39 -18 60.5 -36.5t21.5 -54.5q0 -39 -29.5 -67.5t-83.5 -28.5q-45 0 -91 21l8 55l7 5q39 -33 83 -33q21 0 33 11.5t12 26.5t-12.5 24.5t-40.5 22.5q-39 17 -60 35.5t-21 53.5
q0 42 30 68.5t81 26.5q40 0 77 -14z" />
    <glyph glyph-name="t.sups" horiz-adv-x="212" 
d="M202 402l6 -7l-6 -40q-38 -20 -59 -20q-40 0 -62.5 22t-21.5 60l1 70v111h-39l-3 4l3 39h39v69l65 15l5 -3l-1 -81h78l2 -4l-4 -39h-77l-3 -156q0 -51 38 -51q20 0 39 11z" />
    <glyph glyph-name="u.sups" horiz-adv-x="341" 
d="M304 386q12 0 20 6l5 -4l-7 -40q-22 -15 -44 -15q-43 0 -53 54h-4q-46 -51 -90 -51q-43 0 -66 22.5t-23 64.5l1 64l-2 151l68 7v-196q0 -56 46 -56q37 0 68 34v211l67 7l-3 -231q0 -28 17 -28z" />
    <glyph glyph-name="v.sups" horiz-adv-x="281" 
d="M140 408h5l62 187l11 49h63l-103 -306h-78l-88 303l68 5l8 -47z" />
    <glyph glyph-name="w.sups" horiz-adv-x="451" 
d="M132 413h4l53 184l10 47h71l7 -43l45 -186h4l53 182l11 47h61l-96 -306h-68l-54 213h-6l-62 -213h-71l-81 303l66 5l8 -45z" />
    <glyph glyph-name="x.sups" horiz-adv-x="294" 
d="M151 534l48 78l16 30h63l-89 -149l92 -152l-76 -6l-15 36l-49 80l-53 -85l-13 -28h-65l91 155l-87 147l77 6l13 -33z" />
    <glyph glyph-name="y.sups" horiz-adv-x="272" 
d="M131 413h5l62 182l11 49h62l-101 -290q-24 -64 -55.5 -93t-96.5 -49h-6q-19 20 -30 42l1 8q43 9 69 25t49 51l-110 303l69 5l10 -45z" />
    <glyph glyph-name="z.sups" horiz-adv-x="282" 
d="M225 644l30 1l1 -45l-156 -217h108l48 3l4 -5l-5 -44l-66 1h-130l-36 -2v44l156 218h-103l-46 -3l-4 6l5 44l55 -1h139z" />
    <glyph glyph-name="zero.lf" horiz-adv-x="531" 
d="M423.5 515q53.5 -76 53.5 -217q0 -147 -56 -226t-160 -79q-100 0 -154 76t-54 218q0 146 56.5 225t160.5 79q100 0 153.5 -76zM153.5 460q-37.5 -57 -37.5 -167q0 -113 38.5 -171.5t111.5 -58.5t110.5 57.5t37.5 167.5q0 113 -38 171t-112 58q-73 0 -110.5 -57z" />
    <glyph glyph-name="one.lf" horiz-adv-x="356" 
d="M227 207l5 -207h-80l4 197l-1 305l-137 -37l-7 5v63l210 61l12 -10z" />
    <glyph glyph-name="two.lf" horiz-adv-x="490" 
d="M353.5 556.5q41.5 -35.5 41.5 -93.5q0 -46 -30 -100.5t-98 -142.5l-115 -152l2 -4h212l92 6l6 -8l-10 -66l-111 4h-247l-41 -2l-5 4v51l150 188q64 82 90.5 125.5t26.5 78.5q0 34 -23 56t-64 22q-82 0 -151 -83h-9l-14 62q88 90 191 90q65 0 106.5 -35.5z" />
    <glyph glyph-name="three.lf" horiz-adv-x="429" 
d="M306.5 559.5q42.5 -35.5 42.5 -92.5q0 -42 -25.5 -82t-75.5 -66v-4q122 -29 122 -132q0 -55 -28.5 -98t-80 -67t-118.5 -24q-47 0 -99 9l-5 68l6 6q50 -21 102 -21q66 0 107 32t41 85q0 47 -33.5 74t-95.5 29h-59l-5 6l2 55l44 1q28 0 56 14.5t46 40.5t18 58q0 36 -24 57
t-63 21q-57 0 -124 -59h-9l-12 62q76 63 160 63q68 0 110.5 -35.5z" />
    <glyph glyph-name="four.lf" horiz-adv-x="492" 
d="M446 166l-91 2h-3l3 -161l-4 -7l-61 -5l-5 6l2 167h-186l-65 -2l-6 7v52l251 361h73l-2 -357h93l6 -7zM287 490h-6l-181 -261h188z" />
    <glyph glyph-name="five.lf" horiz-adv-x="424" 
d="M367 521l-5 -6l-74 5h-148l-4 -155l63 -14q93 -19 132 -57.5t39 -99.5q0 -60 -30 -105.5t-84.5 -70.5t-124.5 -25q-42 0 -94 10l-5 71l6 6q60 -24 110 -24q67 0 107 34t40 91q0 45 -30.5 71.5t-99.5 39.5l-85 16l-7 8l5 260l13 12l53 -2h136l91 4l5 -6z" />
    <glyph glyph-name="six.lf" horiz-adv-x="472" 
d="M384.5 303q42.5 -46 42.5 -123q0 -84 -52 -136t-143 -52q-92 0 -139 57t-47 162q0 127 77.5 226.5t218.5 156.5h5l62 -36v-8q-120 -42 -187.5 -100t-90.5 -138l6 -7q60 44 130 44q75 0 117.5 -46zM325 78.5q31 31.5 31 90.5q0 58 -29 89.5t-82 31.5q-66 0 -126 -52
l-1 -27q0 -164 120 -164q56 0 87 31.5z" />
    <glyph glyph-name="seven.lf" horiz-adv-x="418" 
d="M343 586l43 1v-58l-187 -421l-47 -119l-64 19l-5 12l226 500h-204l-74 -5l-6 9l6 64l88 -2h224z" />
    <glyph glyph-name="eight.lf" horiz-adv-x="474" 
d="M359.5 554.5q41.5 -37.5 41.5 -102.5q0 -92 -106 -141v-5q59 -26 91.5 -58t32.5 -90q0 -75 -53 -120t-141 -45q-82 0 -129.5 41.5t-47.5 108.5q0 102 127 151v5q-48 22 -76 55t-28 85q0 71 48 112t126 41q73 0 114.5 -37.5zM166 509q-28 -25 -28 -68t26.5 -66.5
t76.5 -43.5q45 19 70.5 44.5t25.5 69.5q0 42 -25.5 65.5t-70.5 23.5q-47 0 -75 -25zM146 226q-30 -27 -30 -75q0 -45 31.5 -73t84.5 -28q55 0 87.5 28.5t32.5 74.5q0 32 -17 53.5t-40.5 34t-67.5 30.5q-51 -18 -81 -45z" />
    <glyph glyph-name="nine.lf" horiz-adv-x="470" 
d="M384 538.5q47 -56.5 47 -161.5q0 -128 -77.5 -228t-218.5 -156h-5l-61 36v8q119 42 186.5 100t90.5 138l-6 7q-60 -44 -130 -44q-75 0 -117.5 46t-42.5 123q0 83 52 135.5t143 52.5q92 0 139 -56.5zM358 349l1 27q0 164 -120 164q-56 0 -87 -31.5t-31 -89.5
q0 -59 29 -90.5t82 -31.5q68 0 126 52z" />
    <glyph glyph-name="zero.sinf" horiz-adv-x="374" 
d="M296.5 213.5q36.5 -48.5 36.5 -139.5q0 -97 -39 -148t-112 -51q-68 0 -105 49t-37 140q0 96 39 147t113 51q68 0 104.5 -48.5zM96 70q0 -135 91 -135t91 130q0 133 -92 133q-90 0 -90 -128z" />
    <glyph glyph-name="one.sinf" horiz-adv-x="258" 
d="M167 15l2 -135h-71l2 126v179l-80 -21l-6 3v56l146 41l9 -9z" />
    <glyph glyph-name="two.sinf" horiz-adv-x="349" 
d="M253.5 238.5q30.5 -23.5 30.5 -62.5q0 -29 -19.5 -63t-65.5 -91l-67 -85l2 -2h123l64 3l3 -6l-8 -55l-80 3h-166l-27 -1l-4 3v42l98 114q41 50 58 76t17 47q0 19 -13.5 31.5t-37.5 12.5q-25 0 -51 -13.5t-47 -37.5h-9l-11 53q65 55 134 55q46 0 76.5 -23.5z" />
    <glyph glyph-name="three.sinf" horiz-adv-x="308" 
d="M220.5 239.5q29.5 -23.5 29.5 -62.5q0 -27 -15.5 -52t-46.5 -39v-4q76 -20 76 -91q0 -52 -43.5 -83.5t-114.5 -31.5q-39 0 -68 7l-5 50l6 5q36 -9 68 -9q41 0 64.5 17t23.5 46q0 55 -70 57h-43l-4 5l1 47h30q25 0 47.5 18.5t22.5 44.5q0 21 -14 32.5t-38 11.5
q-34 0 -79 -31h-7l-11 47q51 39 112 39q49 0 78.5 -23.5z" />
    <glyph glyph-name="four.sinf" horiz-adv-x="351" 
d="M255 -19l4 -95l-4 -6l-56 -3l-4 4l1 100h-114l-51 -3l-5 7v44l164 230h65l-1 -226h58l5 -6l-4 -49zM197 33v147h-5l-104 -147h109z" />
    <glyph glyph-name="five.sinf" horiz-adv-x="304" 
d="M259 205l-5 -5l-49 5h-91l-2 -86l41 -10q57 -12 84 -37.5t27 -67.5q0 -58 -45 -93.5t-118 -35.5q-30 0 -67 7l-4 49l5 5q31 -8 67 -8q44 0 69 19t25 52q0 45 -74 61l-61 11l-4 7l3 172l8 10l36 -1h98l60 2l4 -4z" />
    <glyph glyph-name="six.sinf" horiz-adv-x="337" 
d="M272.5 78.5q28.5 -30.5 28.5 -78.5q0 -56 -34.5 -90.5t-99.5 -34.5q-61 0 -95.5 37.5t-34.5 104.5q0 81 50.5 145t142.5 102h4l44 -30v-7q-71 -27 -110.5 -59t-55.5 -77l5 -6q35 24 75 24q52 0 80.5 -30.5zM237 -6q0 66 -64 66q-40 0 -71 -24l-1 -18q0 -99 68 -99t68 75z
" />
    <glyph glyph-name="seven.sinf" horiz-adv-x="300" 
d="M242 259l29 1l1 -51l-115 -250l-34 -86l-58 15l-4 11l141 303h-119l-56 -5l-4 8l6 55l66 -1h147z" />
    <glyph glyph-name="eight.sinf" horiz-adv-x="341" 
d="M256.5 238.5q28.5 -24.5 28.5 -66.5q0 -57 -65 -91v-4q37 -17 57 -36.5t20 -55.5q0 -51 -37 -80.5t-98 -29.5q-57 0 -89.5 26.5t-32.5 70.5q0 65 79 94v3q-65 33 -65 91q0 48 34 75.5t90 27.5q50 0 78.5 -24.5zM129.5 201.5q-15.5 -14.5 -15.5 -39.5q0 -24 15.5 -37.5
t46.5 -27.5q53 27 53 67q0 24 -15 38t-41 14q-28 0 -43.5 -14.5zM99 -20q0 -27 18.5 -43t50.5 -16q33 0 51.5 16.5t18.5 41.5q0 27 -18.5 40.5t-56.5 28.5q-64 -21 -64 -68z" />
    <glyph glyph-name="nine.sinf" horiz-adv-x="338" 
d="M268.5 227q34.5 -38 34.5 -106q0 -81 -50.5 -144.5t-143.5 -101.5h-4l-42 30v8q70 26 109.5 57.5t55.5 76.5l-6 6q-34 -23 -75 -23q-50 0 -79 31t-29 79q0 55 34.5 90t98.5 35q62 0 96.5 -38zM238 103l1 18q0 99 -67 99q-69 0 -69 -74q0 -67 64 -67q38 0 71 24z" />
    <glyph glyph-name="zero.tf" horiz-adv-x="475" 
d="M385 515q50 -76 50 -217q0 -147 -52.5 -226t-149.5 -79q-93 0 -143 76t-50 218q0 146 52.5 225t150.5 79q92 0 142 -76zM136 460q-34 -57 -34 -167q0 -113 34.5 -171.5t101.5 -58.5q66 0 100 57.5t34 167.5q0 112 -34.5 170.5t-101.5 58.5q-66 0 -100 -57z" />
    <glyph glyph-name="one.tf" horiz-adv-x="475" 
d="M289 207l5 -207h-80l4 197l-1 305l-169 -37l-8 5v63l242 61l13 -10z" />
    <glyph glyph-name="two.tf" horiz-adv-x="475" 
d="M344.5 556.5q40.5 -35.5 40.5 -93.5q0 -46 -29 -100.5t-96 -142.5l-112 -152l2 -4h205l92 3l5 -7l-10 -64l-108 4h-243l-40 -2l-5 4v51l147 188q64 84 89.5 126.5t25.5 77.5q0 34 -22.5 56t-63.5 22q-38 0 -76.5 -21.5t-70.5 -61.5h-9l-13 62q85 90 187 90
q64 0 104.5 -35.5z" />
    <glyph glyph-name="three.tf" horiz-adv-x="475" 
d="M332 559.5q44 -35.5 44 -92.5q0 -42 -27 -82t-79 -66v-4q128 -29 128 -132q0 -55 -29.5 -98t-83 -67t-122.5 -24q-48 0 -102 9l-5 68l5 6q53 -21 106 -21q70 0 113 32t43 85q0 47 -35 74t-101 29h-61l-5 6l2 55l45 1q29 0 58.5 14.5t49 40.5t19.5 58q0 36 -25 57t-66 21
q-60 0 -131 -59h-8l-12 62q80 63 165 63q70 0 114 -35.5z" />
    <glyph glyph-name="four.tf" horiz-adv-x="475" 
d="M342 168l3 -161l-5 -7l-61 -5l-5 6l2 167h-180l-64 -2l-6 7v52l244 361h72l-1 -357h91l6 -7l-5 -56l-90 2h-1zM277 229v261h-7l-173 -261h180z" />
    <glyph glyph-name="five.tf" horiz-adv-x="475" 
d="M406 523l-7 -5l-66 5h-174l-5 -157l70 -14q95 -20 140.5 -59t45.5 -102q0 -59 -32 -104t-90.5 -69.5t-134.5 -24.5q-45 0 -98 10l-6 57l6 7q54 -12 98 -12q83 0 132.5 35.5t49.5 94.5q0 41 -35 67t-110 41l-91 18l-7 8l5 257l12 12l58 -2h154l87 4l6 -6z" />
    <glyph glyph-name="six.tf" horiz-adv-x="475" 
d="M384.5 303q42.5 -46 42.5 -123q0 -84 -52 -136t-143 -52q-92 0 -138.5 57t-46.5 162q0 127 77.5 227t218.5 156h5l61 -36v-8q-120 -42 -187 -100t-90 -138l6 -7q59 44 130 44q74 0 116.5 -46zM325 78.5q31 31.5 31 90.5q0 58 -28.5 89.5t-81.5 31.5q-67 0 -126 -51
l-1 -28q0 -82 29 -123t91 -41q55 0 86 31.5z" />
    <glyph glyph-name="seven.tf" horiz-adv-x="475" 
d="M383 586l45 1l1 -58l-208 -421l-49 -119l-65 19l-4 12l249 500h-229l-78 -5l-6 9l6 64l93 -2h245z" />
    <glyph glyph-name="eight.tf" horiz-adv-x="475" 
d="M360.5 554.5q41.5 -37.5 41.5 -102.5q0 -93 -107 -141v-5q60 -27 93 -58.5t33 -89.5q0 -75 -53.5 -120t-141.5 -45q-83 0 -131 41.5t-48 108.5q0 101 127 151v5q-48 22 -75.5 54.5t-27.5 85.5q0 71 48.5 112t126.5 41q73 0 114.5 -37.5zM165.5 508.5
q-28.5 -25.5 -28.5 -67.5q0 -43 26.5 -66.5t76.5 -43.5q46 19 72 44.5t26 69.5q0 42 -25.5 65.5t-71.5 23.5q-47 0 -75.5 -25.5zM146 226q-30 -27 -30 -75q0 -46 31.5 -73.5t85.5 -27.5q56 0 88 28.5t32 74.5q0 32 -16.5 53.5t-40.5 34t-68 30.5q-52 -18 -82 -45z" />
    <glyph glyph-name="nine.tf" horiz-adv-x="475" 
d="M384.5 538q46.5 -57 46.5 -161q0 -128 -77 -228t-218 -156h-5l-62 36v8q120 42 187.5 100t90.5 138l-6 7q-60 -44 -130 -44q-75 0 -117.5 46t-42.5 123q0 84 52 136t143 52q92 0 138.5 -57zM359 349l1 27q0 164 -120 164q-55 0 -86.5 -31t-31.5 -90t28.5 -90.5
t81.5 -31.5q67 0 127 52z" />
    <glyph glyph-name="zero.tosf" horiz-adv-x="475" 
d="M389 438.5q51 -65.5 51 -186.5q0 -124 -53.5 -191.5t-153.5 -67.5q-95 0 -146.5 65t-51.5 184q0 126 54 194t155 68q94 0 145 -65.5zM97 248q0 -185 142 -185q68 0 103.5 46t35.5 134q0 93 -36 140.5t-105 47.5q-140 0 -140 -183z" />
    <glyph glyph-name="one.tosf" horiz-adv-x="475" 
d="M289 207l2 -207h-77l3 197v214l-165 -36l-8 4v63l237 60l11 -8z" />
    <glyph glyph-name="two.tosf" horiz-adv-x="475" 
d="M338.5 471.5q38.5 -30.5 38.5 -80.5q0 -41 -28 -90t-90 -120l-102 -115l2 -4h186l86 6l6 -5l-11 -67l-103 4h-227l-37 -2l-4 4v50l140 151q55 60 80 99.5t25 69.5q0 27 -20.5 44.5t-56.5 17.5t-72 -18t-66 -50h-9l-13 61q82 75 176 75q61 0 99.5 -30.5z" />
    <glyph glyph-name="three.tosf" horiz-adv-x="475" 
d="M340 467.5q46 -35.5 46 -92.5q0 -43 -29 -83t-82 -64v-4q136 -33 136 -145q0 -51 -31.5 -91t-88 -62.5t-130.5 -22.5q-47 0 -106 9l-5 59l6 5q58 -11 107 -11q79 0 125.5 31.5t46.5 84.5q0 47 -38 74t-110 29h-63l-5 6l3 55l48 1q30 0 61.5 15t52.5 41t21 57q0 36 -27 57
t-72 21q-65 0 -138 -53h-8l-13 57q83 62 174 62q73 0 119 -35.5z" />
    <glyph glyph-name="four.tosf" horiz-adv-x="475" 
d="M346 77l3 -163l-4 -6l-61 -5l-5 6l2 168h-185l-65 -2l-6 8v51l250 364h73l-2 -359h93l6 -8l-5 -56l-92 2h-2zM282 139l-1 263h-6l-179 -263h186z" />
    <glyph glyph-name="five.tosf" horiz-adv-x="475" 
d="M408 436l-7 -6l-66 5h-177l-5 -158l71 -14q96 -20 141.5 -59t45.5 -102q0 -60 -32.5 -105t-92 -70t-137.5 -25q-44 0 -97 10l-6 57l6 6q51 -10 99 -10q84 0 134.5 35.5t50.5 95.5q0 41 -35.5 67t-110.5 42l-92 17l-7 7l6 260l12 11l58 -2h156l89 4l4 -6z" />
    <glyph glyph-name="six.tosf" horiz-adv-x="475" 
d="M388 303q43 -46 43 -122q0 -86 -50.5 -137.5t-145.5 -51.5q-88 0 -137.5 57.5t-49.5 161.5q0 127 77.5 227t220.5 156h6l45 -36v-8q-112 -42 -177 -100t-87 -138l6 -7q59 44 129 44q77 0 120 -46zM328 80q32 33 32 95q0 56 -29 85.5t-83 29.5q-66 0 -127 -45
q-1 -11 -1 -34q0 -164 117 -164q59 0 91 33z" />
    <glyph glyph-name="seven.tosf" horiz-adv-x="475" 
d="M387 498l46 2v-59l-214 -424l-49 -119l-65 18l-4 13l256 503h-236l-80 -5l-6 9l6 65l94 -3h252z" />
    <glyph glyph-name="eight.tosf" horiz-adv-x="475" 
d="M360.5 554.5q41.5 -37.5 41.5 -102.5q0 -93 -107 -141v-5q60 -27 93 -58.5t33 -89.5q0 -75 -53.5 -120t-141.5 -45q-83 0 -131 41.5t-48 108.5q0 101 127 151v5q-48 22 -75.5 54.5t-27.5 85.5q0 71 48.5 112t126.5 41q73 0 114.5 -37.5zM165.5 508.5
q-28.5 -25.5 -28.5 -67.5q0 -43 26.5 -66.5t76.5 -43.5q46 19 72 44.5t26 69.5q0 42 -25.5 65.5t-71.5 23.5q-47 0 -75.5 -25.5zM146 226q-30 -27 -30 -75q0 -46 31.5 -73.5t85.5 -27.5q56 0 88 28.5t32 74.5q0 32 -16.5 53.5t-40.5 34t-68 30.5q-52 -18 -82 -45z" />
    <glyph glyph-name="nine.tosf" horiz-adv-x="475" 
d="M378 449q49 -57 49 -161q0 -128 -77.5 -227.5t-220.5 -155.5h-5l-46 35v10q113 42 177.5 99.5t86.5 137.5l-6 6q-60 -43 -129 -43q-77 0 -120 46t-43 122q0 85 50.5 136.5t145.5 51.5q89 0 138 -57zM354 254q1 11 1 33q0 165 -117 165q-59 0 -91 -33t-32 -95
q0 -56 29 -86t83 -30q63 0 127 46z" />
    <glyph glyph-name="zero.dnom" horiz-adv-x="374" 
d="M296.5 333.5q36.5 -48.5 36.5 -139.5q0 -97 -39 -148t-112 -51q-68 0 -105 49t-37 140q0 96 39 147t113 51q68 0 104.5 -48.5zM96 190q0 -135 91 -135t91 130q0 133 -92 133q-90 0 -90 -128z" />
    <glyph glyph-name="one.dnom" horiz-adv-x="258" 
d="M167 135l2 -135h-71l2 126v179l-80 -21l-6 3v56l146 41l9 -9z" />
    <glyph glyph-name="two.dnom" horiz-adv-x="349" 
d="M253.5 358.5q30.5 -23.5 30.5 -62.5q0 -29 -19.5 -63t-65.5 -91l-67 -85l2 -2h123l64 3l3 -6l-8 -55l-80 3h-166l-27 -1l-4 3v42l98 114q41 50 58 76t17 47q0 19 -13.5 31.5t-37.5 12.5q-25 0 -51 -13.5t-47 -37.5h-9l-11 53q65 55 134 55q46 0 76.5 -23.5z" />
    <glyph glyph-name="three.dnom" horiz-adv-x="308" 
d="M220.5 359.5q29.5 -23.5 29.5 -62.5q0 -27 -15.5 -52t-46.5 -39v-4q76 -20 76 -91q0 -52 -43.5 -83.5t-114.5 -31.5q-39 0 -68 7l-5 50l6 5q36 -9 68 -9q41 0 64.5 17t23.5 46q0 55 -70 57h-43l-4 5l1 47h30q25 0 47.5 18.5t22.5 44.5q0 21 -14 32.5t-38 11.5
q-34 0 -79 -31h-7l-11 47q51 39 112 39q49 0 78.5 -23.5z" />
    <glyph glyph-name="four.dnom" horiz-adv-x="351" 
d="M255 101l4 -95l-4 -6l-56 -3l-4 4l1 100h-114l-51 -3l-5 7v44l164 230h65l-1 -226h58l5 -6l-4 -49zM197 153v147h-5l-104 -147h109z" />
    <glyph glyph-name="five.dnom" horiz-adv-x="304" 
d="M259 325l-5 -5l-49 5h-91l-2 -86l41 -10q57 -12 84 -37.5t27 -67.5q0 -58 -45 -93.5t-118 -35.5q-30 0 -67 7l-4 49l5 5q31 -8 67 -8q44 0 69 19t25 52q0 45 -74 61l-61 11l-4 7l3 172l8 10l36 -1h98l60 2l4 -4z" />
    <glyph glyph-name="six.dnom" horiz-adv-x="337" 
d="M272.5 198.5q28.5 -30.5 28.5 -78.5q0 -56 -34.5 -90.5t-99.5 -34.5q-61 0 -95.5 37.5t-34.5 104.5q0 81 50.5 145t142.5 102h4l44 -30v-7q-71 -27 -110.5 -59t-55.5 -77l5 -6q35 24 75 24q52 0 80.5 -30.5zM237 114q0 66 -64 66q-40 0 -71 -24l-1 -18q0 -99 68 -99
t68 75z" />
    <glyph glyph-name="seven.dnom" horiz-adv-x="300" 
d="M242 379l29 1l1 -51l-115 -250l-34 -86l-58 15l-4 11l141 303h-119l-56 -5l-4 8l6 55l66 -1h147z" />
    <glyph glyph-name="eight.dnom" horiz-adv-x="341" 
d="M256.5 358.5q28.5 -24.5 28.5 -66.5q0 -57 -65 -91v-4q37 -17 57 -36.5t20 -55.5q0 -51 -37 -80.5t-98 -29.5q-57 0 -89.5 26.5t-32.5 70.5q0 65 79 94v3q-65 33 -65 91q0 48 34 75.5t90 27.5q50 0 78.5 -24.5zM129.5 321.5q-15.5 -14.5 -15.5 -39.5q0 -24 15.5 -37.5
t46.5 -27.5q53 27 53 67q0 24 -15 38t-41 14q-28 0 -43.5 -14.5zM99 100q0 -27 18.5 -43t50.5 -16q33 0 51.5 16.5t18.5 41.5q0 27 -18.5 40.5t-56.5 28.5q-64 -21 -64 -68z" />
    <glyph glyph-name="nine.dnom" horiz-adv-x="338" 
d="M268.5 347q34.5 -38 34.5 -106q0 -81 -50.5 -144.5t-143.5 -101.5h-4l-42 30v8q70 26 109.5 58t55.5 76l-6 6q-34 -23 -75 -23q-50 0 -79 31t-29 79q0 55 34.5 90t98.5 35q62 0 96.5 -38zM238 223l1 18q0 99 -67 99q-69 0 -69 -74q0 -67 64 -67q38 0 71 24z" />
    <glyph glyph-name="zero.numr" horiz-adv-x="374" 
d="M296.5 596.5q36.5 -48.5 36.5 -139.5q0 -97 -39 -148t-112 -51q-68 0 -105 49t-37 140q0 96 39 147t113 51q68 0 104.5 -48.5zM96 453q0 -135 91 -135t91 130q0 133 -92 133q-90 0 -90 -128z" />
    <glyph glyph-name="one.numr" horiz-adv-x="258" 
d="M167 398l2 -135h-71l2 126v179l-80 -21l-6 3v56l146 41l9 -9z" />
    <glyph glyph-name="two.numr" horiz-adv-x="349" 
d="M253.5 621.5q30.5 -23.5 30.5 -62.5q0 -29 -19.5 -63t-65.5 -91l-67 -85l2 -2h123l64 3l3 -6l-8 -55l-80 3h-166l-27 -1l-4 3v42l98 114q41 50 58 76t17 47q0 19 -13.5 31.5t-37.5 12.5q-25 0 -51 -13.5t-47 -37.5h-9l-11 53q65 55 134 55q46 0 76.5 -23.5z" />
    <glyph glyph-name="three.numr" horiz-adv-x="308" 
d="M220.5 622.5q29.5 -23.5 29.5 -62.5q0 -27 -15.5 -52t-46.5 -39v-4q76 -20 76 -91q0 -52 -43.5 -83.5t-114.5 -31.5q-39 0 -68 7l-5 50l6 5q36 -9 68 -9q41 0 64.5 17t23.5 46q0 55 -70 57h-43l-4 5l1 47h30q25 0 47.5 18.5t22.5 44.5q0 21 -14 32.5t-38 11.5
q-34 0 -79 -31h-7l-11 47q51 39 112 39q49 0 78.5 -23.5z" />
    <glyph glyph-name="four.numr" horiz-adv-x="351" 
d="M255 364l4 -95l-4 -6l-56 -3l-4 4l1 100h-114l-51 -3l-5 7v44l164 230h65l-1 -226h58l5 -6l-4 -49zM197 416v147h-5l-104 -147h109z" />
    <glyph glyph-name="five.numr" horiz-adv-x="304" 
d="M259 588l-5 -5l-49 5h-91l-2 -86l41 -10q57 -12 84 -37.5t27 -67.5q0 -58 -45 -93.5t-118 -35.5q-30 0 -67 7l-4 49l5 5q31 -8 67 -8q44 0 69 19t25 52q0 45 -74 61l-61 11l-4 7l3 172l8 10l36 -1h98l60 2l4 -4z" />
    <glyph glyph-name="six.numr" horiz-adv-x="337" 
d="M272.5 461.5q28.5 -30.5 28.5 -78.5q0 -56 -34.5 -90.5t-99.5 -34.5q-61 0 -95.5 37.5t-34.5 104.5q0 81 50.5 145t142.5 102h4l44 -30v-7q-71 -27 -110.5 -59t-55.5 -77l5 -6q35 24 75 24q52 0 80.5 -30.5zM237 377q0 66 -64 66q-40 0 -71 -24l-1 -18q0 -99 68 -99
t68 75z" />
    <glyph glyph-name="seven.numr" horiz-adv-x="300" 
d="M242 642l29 1l1 -51l-115 -250l-34 -86l-58 15l-4 11l141 303h-119l-56 -5l-4 8l6 55l66 -1h147z" />
    <glyph glyph-name="eight.numr" horiz-adv-x="341" 
d="M256.5 621.5q28.5 -24.5 28.5 -66.5q0 -57 -65 -91v-4q37 -17 57 -36.5t20 -55.5q0 -51 -37 -80.5t-98 -29.5q-57 0 -89.5 26.5t-32.5 70.5q0 65 79 94v3q-65 33 -65 91q0 48 34 75.5t90 27.5q50 0 78.5 -24.5zM129.5 584.5q-15.5 -14.5 -15.5 -39.5q0 -24 15.5 -37.5
t46.5 -27.5q53 27 53 67q0 24 -15 38t-41 14q-28 0 -43.5 -14.5zM99 363q0 -27 18.5 -43t50.5 -16q33 0 51.5 16.5t18.5 41.5q0 27 -18.5 40.5t-56.5 28.5q-64 -21 -64 -68z" />
    <glyph glyph-name="nine.numr" horiz-adv-x="338" 
d="M268.5 610q34.5 -38 34.5 -106q0 -81 -50.5 -144.5t-143.5 -101.5h-4l-42 30v8q70 26 109.5 58t55.5 76l-6 6q-34 -23 -75 -23q-50 0 -79 31t-29 79q0 55 34.5 90t98.5 35q62 0 96.5 -38zM238 486l1 18q0 99 -67 99q-69 0 -69 -74q0 -67 64 -67q38 0 71 24z" />
    <glyph glyph-name="acute.cap" 
d="M305 632l-2 -8q-89 -41 -195 -86l-10 4l-14 36q103 51 192 103l9 -2z" />
    <glyph glyph-name="breve.cap" 
d="M273 565.5q-33 -23.5 -80 -23.5q-46 0 -78 23t-46 67l22 28h12q22 -61 93 -61q67 0 91 61h12l23 -28q-16 -43 -49 -66.5z" />
    <glyph glyph-name="caron.cap" 
d="M207 541h-23q-45 40 -117 91l16 34h9q56 -34 103 -66q39 27 102 66h10l16 -34q-67 -46 -116 -91z" />
    <glyph glyph-name="circumflex.cap" 
d="M182 676h23q45 -40 117 -91l-16 -34h-9q-56 34 -103 66q-39 -27 -102 -66h-10l-16 34q67 46 116 91z" />
    <glyph glyph-name="grave.cap" 
d="M85 633l2 -8q89 -41 195 -86l10 4l14 36q-103 51 -192 103l-9 -2z" />
    <glyph glyph-name="hungarumlaut.cap" 
d="M64 579q71 78 91 102h8l36 -25v-9q-36 -36 -118 -110l-9 -1l-26 24zM298 681h7l37 -25v-9l-86 -81l-32 -29l-9 -1l-26 24q72 78 109 121z" />
    <glyph glyph-name="caron.alt" 
d="M207 510l-38 -6l-6 6l4 175l57 4l6 -7z" />
    <glyph glyph-name="dieresis.i" 
d="M161.658 615.744q11.4863 -11.4863 11.4863 -31.5869q0 -21.0566 -11.9648 -33.5q-11.9639 -12.4434 -33.0215 -12.4434q-42.1143 0 -42.1143 44.0293q0 20.1006 11.9639 32.543q11.9648 12.4434 33.0215 12.4434q19.1436 0 30.6289 -11.4854zM284.658 615.744
q11.4863 -11.4863 11.4863 -31.5869q0 -21.0566 -11.9648 -33.5q-11.9639 -12.4434 -33.0215 -12.4434q-42.1143 0 -42.1143 44.0293q0 20.1006 11.9639 32.543q11.9648 12.4434 33.0215 12.4434q19.1436 0 30.6289 -11.4854z" />
    <glyph glyph-name="macron.i" 
d="M304 582h-217l-5 6l4 46h217l5 -5z" />
    <glyph glyph-name="tilde.i" 
d="M334 631l-56 -69l-8 -3q-23 4 -75 21q-50 16 -58 16t-15 -6.5t-21 -23.5l-14 -16h-8l-24 26v7l55 68l9 4q16 -3 73 -20q50 -16 59 -16q11 0 35 27l16 18h7l25 -25v-8z" />
    <glyph glyph-name="Gdieresis" horiz-adv-x="600" 
d="M281 822q11 -11 11 -31q0 -21 -12 -34t-33 -13q-20 0 -31 12t-11 32t12 32.5t33 12.5q20 0 31 -11zM438 822q11 -11 11 -31q0 -21 -12 -34t-33 -13q-20 0 -31 12t-11 32t12 32.5t33 12.5q20 0 31 -11zM539 601l-17 -76l-10 -2q-48 30 -88.5 43t-85.5 13q-217 0 -217 -268
q0 -129 50.5 -189.5t156.5 -60.5q50 0 130 24l3 75l-2 91l75 6l-2 -86l4 -140q-122 -38 -212 -38q-143 0 -214.5 81t-71.5 234q0 165 81 251.5t231 86.5q100 0 189 -45z" />
    <glyph glyph-name="breveacute" 
d="M288 733q-48 -49 -98 -98h-8l-27 22q57 69 88 109l7 1l37 -26zM273 545.5q-33 -23.5 -80 -23.5q-46 0 -78 23t-46 67l22 28h12q22 -61 93 -61q67 0 91 61h12l23 -28q-16 -43 -49 -66.5z" />
    <glyph glyph-name="brevegrave" 
d="M233 657l-28 -22h-8l-97 98v8l37 26l8 -1q46 -60 88 -109zM273 545.5q-33 -23.5 -80 -23.5q-46 0 -78 23t-46 67l22 28h12q22 -61 93 -61q67 0 91 61h12l23 -28q-16 -43 -49 -66.5z" />
    <glyph glyph-name="brevehookabove" 
d="M273 545.5q-33 -23.5 -80 -23.5q-46 0 -78 23t-46 67l22 28h12q22 -61 93 -61q67 0 91 61h12l23 -28q-16 -43 -49 -66.5zM241 798.5q18 -16.5 18 -40.5q0 -32 -52 -75l20 -34l-35 -19l-32 55q50 36 50 65q0 21 -26 21q-30 0 -58 -24l-16 26q40 42 86 42q27 0 45 -16.5z
" />
    <glyph glyph-name="brevetilde" 
d="M272.769 545.591q-32.2471 -22.9629 -78.1738 -22.9629q-44.9502 0 -76.2197 22.4746q-31.2695 22.4756 -44.9502 65.4707l21.498 27.3604h11.7256q21.498 -59.6074 90.877 -59.6074q65.4707 0 88.9229 59.6074h11.7266l22.4746 -27.3604
q-15.6348 -42.0186 -47.8809 -64.9824zM344.279 747.923l-57.2363 -66.9238l-9.38281 -2.91016q-20.6426 1.94043 -78.8164 19.3984q-53.4824 16.4883 -66.6191 16.4883q-6.56738 0 -14.0742 -6.30371q-7.50586 -6.30469 -23.457 -22.793l-15.0127 -16.4883h-8.44434
l-22.5195 25.2168v6.79004l57.2363 66.9238l9.38281 2.90918q22.5186 -1.93945 77.8779 -19.3984q58.1748 -15.5186 67.5576 -15.5186q12.1973 0 37.5312 28.1279l15.9512 16.4883h7.50586l22.5195 -24.248v-7.75879z" />
    <glyph glyph-name="circle1" horiz-adv-x="451" 
d="M345 432q55 -32 87 -87t32 -119t-32 -119t-87 -87t-119 -32t-119 32t-87 87t-32 119t32 119t87 87t119 32t119 -32z" />
    <glyph glyph-name="circle2" horiz-adv-x="636" 
d="M484.5 604.5q76.5 -44.5 121 -121t44.5 -166.5t-44.5 -166t-121 -120.5t-166.5 -44.5t-166 44.5t-120.5 120.5t-44.5 166t44.5 166.5t120.5 121t166 44.5t166.5 -44.5z" />
    <glyph glyph-name="circumflexacute" 
d="M366 737l-82 -100h-8l-28 23l70 103l8 2l39 -20zM182 656h23q45 -40 117 -91l-16 -34h-9q-56 34 -103 66q-39 -27 -102 -66h-10l-16 34q67 46 116 91z" />
    <glyph glyph-name="circumflexgrave" 
d="M333 660l-29 -23h-7l-82 100l1 8l40 20l7 -2zM182 656h23q45 -40 117 -91l-16 -34h-9q-56 34 -103 66q-39 -27 -102 -66h-10l-16 34q67 46 116 91z" />
    <glyph glyph-name="circumflexhookabove" 
d="M182 656h23q45 -40 117 -91l-16 -34h-9q-56 34 -103 66q-39 -27 -102 -66h-10l-16 34q67 46 116 91zM326.616 780.044q17.1348 -15.708 17.1348 -38.5547q0 -30.4629 -49.502 -71.3975l19.0391 -32.3672l-33.3184 -18.0869l-30.4629 52.3584
q47.5977 34.2705 47.5977 61.877q0 19.9922 -24.751 19.9922q-28.5586 0 -55.2139 -22.8477l-15.2314 24.751q38.0791 39.9824 81.8691 39.9824q25.7031 0 42.8389 -15.707z" />
    <glyph glyph-name="circumflextilde" 
d="M182 656h23q45 -40 117 -91l-16 -34h-9q-56 34 -103 66q-39 -27 -102 -66h-10l-16 34q67 46 116 91zM344.279 747.923l-57.2363 -66.9238l-9.38281 -2.91016q-20.6426 1.94043 -78.8164 19.3984q-53.4824 16.4883 -66.6191 16.4883q-6.56738 0 -14.0742 -6.30371
q-7.50586 -6.30469 -23.457 -22.793l-15.0127 -16.4883h-8.44434l-22.5195 25.2168v6.79004l57.2363 66.9238l9.38281 2.90918q22.5186 -1.93945 77.8779 -19.3984q58.1748 -15.5186 67.5576 -15.5186q12.1973 0 37.5312 28.1279l15.9512 16.4883h7.50586l22.5195 -24.248
v-7.75879z" />
    <glyph glyph-name="dieresiscaron" 
d="M207 652h-23q-57 48 -117 90l16 34h9q23 -14 42.5 -26.5t35.5 -22.5l25 -17l34 22q-12 -8 68 44h10l16 -34q-57 -39 -116 -90zM146 618q11 -11 11 -30q0 -20 -11.5 -31.5t-31.5 -11.5q-40 0 -40 41q0 20 11.5 31.5t31.5 11.5q18 0 29 -11zM303.5 618q10.5 -11 10.5 -30
q0 -20 -11.5 -31.5t-31.5 -11.5q-18 0 -29 11t-11 30q0 20 11.5 31.5t31.5 11.5q19 0 29.5 -11z" />
    <glyph glyph-name="dieresismacron" 
d="M325 695h-258l-7 6l5 47h259l6 -6zM146 618q11 -11 11 -30q0 -20 -11.5 -31.5t-31.5 -11.5q-40 0 -40 41q0 20 11.5 31.5t31.5 11.5q18 0 29 -11zM303.5 618q10.5 -11 10.5 -30q0 -20 -11.5 -31.5t-31.5 -11.5q-18 0 -29 11t-11 30q0 20 11.5 31.5t31.5 11.5
q19 0 29.5 -11z" />
    <glyph glyph-name="down" horiz-adv-x="411" 
d="M64 358h284l-142 -284z" />
    <glyph glyph-name="firstofchinese" 
d="M337 582h-283l-6 6l5 46h283l6 -5z" />
    <glyph glyph-name="foundryicon" horiz-adv-x="783" 
d="M683 444v-423q0 -80 -80 -80h-423q-80 0 -80 80v423q0 80 80 80h423q80 0 80 -80zM191 93h74v180q0 12 24 12q43 0 43 -56v-136h74v178q0 32 -22 52.5t-56 20.5l-48 -28q-6 -4 -9 -4q-6 0 -6 9v116h-74v-344zM435 320v-18h26q10 0 10 -10v-132q0 -32 22 -52.5t56 -20.5
l63 37v25q-12 -4 -26 -4q-22 0 -31.5 13.5t-9.5 43.5v90q0 10 10 10h58v36h-58q-10 0 -10 10v28h-21z" />
    <glyph glyph-name="gdieresis" horiz-adv-x="526" 
d="M234 680q11 -11 11 -31q0 -21 -12 -34t-33 -13q-20 0 -31 12t-11 32t12 32.5t33 12.5q20 0 31 -11zM391 680q11 -11 11 -31q0 -21 -12 -34t-33 -13q-20 0 -31 12t-11 32t12 32.5t33 12.5q20 0 31 -11zM462 469l-25 -72h-8q-37 24 -68 33.5t-68 9.5q-85 0 -127.5 -48
t-42.5 -150q0 -97 39.5 -141t123.5 -44q48 0 105 21v50l-1 71l69 5l-1 -65v-115q-100 -30 -174 -30q-118 0 -178.5 63.5t-60.5 181.5q0 128 68.5 196t191.5 68q79 0 157 -34z" />
    <glyph glyph-name="hookabove" 
d="M237 696.5q18 -16.5 18 -40.5q0 -32 -52 -75l20 -34l-35 -19l-32 55q50 36 50 65q0 21 -26 21q-30 0 -58 -24l-16 26q40 42 86 42q27 0 45 -16.5z" />
    <glyph glyph-name="left" horiz-adv-x="411" 
d="M34 226l283 142v-284z" />
    <glyph glyph-name="puso" horiz-adv-x="120" 
d="M75 269l-41 -7l-6 9l4 251l61 6l6 -9z" />
    <glyph glyph-name="right" horiz-adv-x="411" 
d="M95 84v284l283 -142z" />
    <glyph glyph-name="ringacute" 
d="M256 654.5q22 -22.5 22 -58.5q0 -39 -24.5 -61.5t-61.5 -22.5q-36 0 -59 21.5t-23 60.5q0 38 23 60.5t62 22.5t61 -22.5zM148 595q0 -22 12.5 -33.5t33.5 -11.5q20 0 32.5 11t12.5 32q0 45 -46 45q-45 0 -45 -43zM330.471 752.206l-3.27148 -7.57031
q-94.4756 -26.0264 -206.375 -53.2432l-9.21973 5.56934l-7.97754 37.7959q109.913 33.624 206.173 70.5049l8.55664 -3.43262z" />
    <glyph glyph-name="square1" horiz-adv-x="451" 
d="M0 0v452h452v-452h-452z" />
    <glyph glyph-name="square2" horiz-adv-x="636" 
d="M0 0v637h637v-637h-637z" />
    <glyph glyph-name="up" horiz-adv-x="411" 
d="M64 104l142 284l142 -284h-284z" />
    <glyph glyph-name="gdieresis.sc" horiz-adv-x="526" 
d="M234 680q11 -11 11 -31q0 -21 -12 -34t-33 -13q-20 0 -31 12t-11 32t12 32.5t33 12.5q20 0 31 -11zM391 680q11 -11 11 -31q0 -21 -12 -34t-33 -13q-20 0 -31 12t-11 32t12 32.5t33 12.5q20 0 31 -11zM462 469l-25 -72h-8q-37 24 -68 33.5t-68 9.5q-85 0 -127.5 -48
t-42.5 -150q0 -97 39.5 -141t123.5 -44q48 0 105 21v50l-1 71l69 5l-1 -65v-115q-100 -30 -174 -30q-118 0 -178.5 63.5t-60.5 181.5q0 128 68.5 196t191.5 68q79 0 157 -34z" />
    <glyph glyph-name="gtilde.sc" horiz-adv-x="526" 
d="M463 469l-25 -72h-9q-37 24 -68 33.5t-67 9.5q-85 0 -127.5 -48t-42.5 -150q0 -98 39 -141.5t124 -43.5q47 0 104 21v50l-1 71l69 5v-180q-101 -30 -175 -30q-118 0 -178.5 63.5t-60.5 181.5q0 128 68.5 196t192.5 68q78 0 157 -34zM436 674l-61 -69l-10 -3q-22 2 -84 20
q-57 17 -71 17q-7 0 -15 -6.5t-25 -23.5l-16 -17h-9l-24 26v7l61 69l10 3q24 -2 83 -20q62 -16 72 -16q13 0 40 29l17 17h8l24 -25v-8z" />
    <glyph glyph-name="puso.cap" horiz-adv-x="120" 
d="M75 347l-41 -8l-6 10l4 261l61 6l6 -9z" />
    </font>
</defs>
</svg>
