<?xml version="1.0" standalone="no"?>
<!DOCTYPE svg PUBLIC "-//W3C//DTD SVG 1.1//EN" "http://www.w3.org/Graphics/SVG/1.1/DTD/svg11.dtd" >
<svg>
<metadata>
Created by FontForge 20120731 at Fri Apr 26 10:58:44 2019
 By www-data
(c) 2002-2015   M+ FONTS PROJECT [KANAMOJI] Copyright(c) 2014 Nicomoji
</metadata>
<defs>
<font id="NicoKaku" horiz-adv-x="1024" vert-adv-y="1024" >
  <font-face 
    font-family="NicoKaku"
    font-weight="400"
    font-stretch="normal"
    units-per-em="1024"
    panose-1="2 0 6 0 0 0 0 0 0 0"
    ascent="880"
    descent="-144"
    x-height="600"
    cap-height="748"
    bbox="-213 -251 1419 1062"
    underline-thickness="48"
    underline-position="-168"
    unicode-range="U+0020-FFEE"
  />
<missing-glyph 
d="M402 258v220h220v-220h-220z" />
    <glyph glyph-name=".notdef" 
d="M402 258v220h220v-220h-220z" />
    <glyph glyph-name="glyph1" horiz-adv-x="0" 
 />
    <glyph glyph-name="nonmarkingreturn" horiz-adv-x="341" 
 />
    <glyph glyph-name="space" unicode=" " horiz-adv-x="311" 
 />
    <glyph glyph-name="exclam" unicode="!" horiz-adv-x="434" 
d="M91 195v454h135v-454h-135zM241 56q0 -28 -24 -48t-58 -20t-58 20t-24 48q0 29 24 49t58 20t58 -20t24 -49z" />
    <glyph glyph-name="quotedbl" unicode="&#x22;" horiz-adv-x="489" 
d="M66 788h143l-21 -286h-102zM281 788h143l-21 -286h-102z" />
    <glyph glyph-name="numbersign" unicode="#" horiz-adv-x="709" 
d="M45 176v110h113l35 196h-96v110h115l28 156h130l-28 -156h101l28 156h130l-28 -156h91v-110h-110l-35 -196h92v-110h-111l-31 -176h-130l31 176h-103l-30 -176h-131l32 176h-93zM424 482h-101l-36 -196h102z" />
    <glyph glyph-name="dollar" unicode="$" horiz-adv-x="640" 
d="M422 613v-201q88 -34 123 -78.5t35 -116.5q0 -94 -66.5 -146.5t-197.5 -55.5v-102h-105v109q-87 14 -161 53l33 109q62 -37 128 -50v220q-86 34 -122.5 80t-36.5 111q0 88 66 137t198 50v103h106v-110q74 -11 138 -36l-29 -109q-53 22 -109 33zM316 623q-130 -1 -130 -78
q0 -36 27 -59t96 -41q1 -1 3.5 -1t3.5 -1v180zM316 125q126 4 126 90q0 40 -25.5 62.5t-100.5 43.5v-196z" />
    <glyph glyph-name="percent" unicode="%" horiz-adv-x="924" 
d="M603 748h127l-409 -748h-127zM562 343q49 53 138.5 53t139 -53t49.5 -150.5t-49.5 -150t-139 -52.5t-138.5 52.5t-49 150t49 150.5zM85 706q49 52 138 52t138.5 -53t49.5 -150t-49.5 -150.5t-138.5 -53.5t-138.5 53.5t-49.5 150.5t50 151zM700 84q66 0 66 109t-66 109
q-64 0 -64 -109t64 -109zM223 445q65 0 65 110q0 109 -65 109t-65 -109q0 -110 65 -110z" />
    <glyph glyph-name="ampersand" unicode="&#x26;" horiz-adv-x="771" 
d="M330 758q113 0 171.5 -44.5t58.5 -124.5q0 -55 -37.5 -105t-127.5 -107l132 -131q26 60 35 135h136q-15 -131 -80 -227l154 -154h-161l-70 70q-101 -80 -235 -80q-261 0 -261 187q0 54 37 105t128 110l-5 5q-60 58 -83.5 101t-23.5 89q0 77 61.5 124t170.5 47zM315 458
q69 44 90 68.5t21 54.5q0 73 -94 73q-45 0 -70 -19.5t-25 -50.5q0 -28 13.5 -51t64.5 -75zM458 151l-166 162q-102 -67 -102 -126q0 -88 123 -88q84 0 145 52z" />
    <glyph glyph-name="quotesingle" unicode="'" horiz-adv-x="299" 
d="M71 788h157l-20 -286h-117z" />
    <glyph glyph-name="parenleft" unicode="(" horiz-adv-x="437" 
d="M397 -174h-123q-99 92 -153.5 217t-54.5 264t54.5 264t153.5 217h123q-198 -201 -198 -480.5t198 -481.5z" />
    <glyph glyph-name="parenright" unicode=")" horiz-adv-x="437" 
d="M40 788h123q99 -92 154 -217t55 -264t-55 -264t-154 -217h-123q199 202 199 481.5t-199 480.5z" />
    <glyph glyph-name="asterisk" unicode="*" horiz-adv-x="557" 
d="M334 788l-10 -152l128 85l55 -96l-137 -68l137 -68l-55 -96l-128 85l10 -152h-111l10 152l-128 -85l-55 96l137 68l-137 68l55 96l128 -85l-10 152h111z" />
    <glyph glyph-name="plus" unicode="+" horiz-adv-x="752" 
d="M434 594v-243h242v-108h-242v-243h-117v243h-241v108h241v243h117z" />
    <glyph glyph-name="comma" unicode="," horiz-adv-x="360" 
d="M124 174h171l-117 -287h-123z" />
    <glyph glyph-name="hyphen" unicode="-" horiz-adv-x="483" 
d="M76 243v108h332v-108h-332z" />
    <glyph glyph-name="period" unicode="." horiz-adv-x="346" 
d="M91 0v174h164v-174h-164z" />
    <glyph glyph-name="slash" unicode="/" horiz-adv-x="560" 
d="M515 748l-355 -789h-130l355 789h130z" />
    <glyph glyph-name="zero" unicode="0" horiz-adv-x="800" 
d="M558 592q51 -1 91 -32t64.5 -74t36.5 -91t12 -98q0 -66 -20.5 -129.5t-67 -112.5t-116.5 -53h-317q-70 3 -117 52t-66.5 113t-19.5 130t20 129.5t66.5 113t116.5 52.5h19h279h19zM524 136q38 2 63.5 28.5t36.5 61.5t11 71t-11.5 70.5t-36.5 61.5t-63 29h-252
q-38 -2 -63 -29t-36.5 -61.5t-11.5 -70.5t11 -71t36.5 -61.5t63.5 -28.5h252z" />
    <glyph glyph-name="one" unicode="1" horiz-adv-x="800" 
d="M121 407l233 181q22 20 50 20q27 -1 46 -19.5t20 -45.5v-542h-135v402l-132 -102z" />
    <glyph glyph-name="two" unicode="2" horiz-adv-x="800" 
d="M81 592h442q6 0 12 -1h6q70 -2 115 -32t65 -68.5t20 -77.5q0 -40 -19.5 -78.5t-65 -68.5t-115.5 -32h-284q-19 -1 -31.5 -9t-18.5 -20.5t-6 -19.5v-21q0 -13 6.5 -20t25.5 -6h488v-134h-542q-56 0 -85.5 27.5t-30.5 78.5v75q0 41 19.5 80.5t65 70t115.5 32.5h284
q19 1 31.5 8.5t18.5 17t6 19.5t-6 19.5t-18.5 17t-31.5 8.5h-466v134z" />
    <glyph glyph-name="three" unicode="3" horiz-adv-x="800" 
d="M81 138h460q19 1 31.5 9t18.5 18t6 21t-6 21t-18.5 18t-31.5 9h-458v134h452h2q19 1 31.5 8.5t18.5 17.5t6 21q0 10 -6 20t-18.5 17.5t-31.5 8.5h-458v131h452q70 -1 115.5 -30.5t65 -68.5t19.5 -78t-20 -77q-9 -18 -23 -33q17 -18 28 -38q19 -40 19 -81q0 -39 -20 -78.5
t-65 -70t-115 -32.5h-6q-6 -1 -12 -1h-436v134z" />
    <glyph glyph-name="four" unicode="4" horiz-adv-x="800" 
d="M624 595v-311h121v-134h-121v-149h-135v149h-212q-70 4 -115.5 47.5t-65.5 106.5q-19 63 -20 134v157h135v-145q-1 -41 5.5 -75.5t31.5 -61.5t63 -29h178v311h135z" />
    <glyph glyph-name="five" unicode="5" horiz-adv-x="800" 
d="M81 138h466q19 1 31.5 9t18.5 18t6 21t-6 21t-18.5 18t-31.5 9h-284q-70 2 -115.5 32.5t-65 70t-19.5 80.5v69q1 51 30.5 78.5t85.5 27.5h542v-134h-488q-19 1 -25.5 -6t-6.5 -20v-15q0 -7 6 -19.5t18.5 -20.5t31.5 -9h284q70 -1 115.5 -31.5t65 -70t19.5 -80.5
q0 -39 -20 -78.5t-65 -70t-115 -32.5h-6q-6 -1 -12 -1h-442v134z" />
    <glyph glyph-name="six" unicode="6" horiz-adv-x="800" 
d="M255 592h444v-134h-410q-38 -2 -63 -29t-36.5 -61.5t-11.5 -70.5t11.5 -69.5t36.5 -60.5t63 -29h266q19 -1 31.5 7t18.5 18.5t6 21.5q0 7 -6 19.5t-18.5 20.5t-31.5 9h-312v134h306q70 -2 115.5 -32.5t65 -70t19.5 -80.5q0 -40 -20 -79.5t-65 -70t-115 -30.5h-6
q-6 -1 -12 -1h-276q-70 4 -115.5 53.5t-65 111.5t-19.5 128t20 129t65 112.5t115 53.5z" />
    <glyph glyph-name="seven" unicode="7" horiz-adv-x="800" 
d="M66 525q0 28 18.5 47.5t46.5 19.5h546q28 0 48 -19q19 -20 19 -48q0 -18 -8 -33l-292 -492h-156l271 458h-335q-24 -1 -24 -25v-164h-134v256z" />
    <glyph glyph-name="eight" unicode="8" horiz-adv-x="800" 
d="M549 368q19 1 31.5 8.5t18.5 17.5t6 21q0 10 -6 20t-18.5 17.5t-31.5 8.5h-300q-19 -1 -31.5 -8.5t-18.5 -17.5t-6 -20q0 -11 6 -21t18.5 -17.5t31.5 -8.5h2h296h2zM553 138q19 1 31.5 9t18.5 18t6 21t-6 21t-18.5 18t-31.5 9h-308q-19 -1 -31.5 -9t-18.5 -18t-6 -21
t6 -21t18.5 -18t31.5 -9h308zM728 267q19 -40 19 -81q0 -39 -20 -78.5t-65 -70t-115 -32.5q-12 -1 -18 -1h-260q-6 0 -18 1q-70 2 -115 32.5t-65 70t-20 78.5q0 41 20 81q10 20 27 38q-14 15 -23 33q-20 38 -20 77t19.5 78t65 68.5t115.5 30.5h288q70 -1 115.5 -30.5
t65 -68.5t19.5 -78t-20 -77q-9 -18 -23 -33q17 -18 28 -38z" />
    <glyph glyph-name="nine" unicode="9" horiz-adv-x="800" 
d="M545 4h-444v134h410q38 2 63 29t36.5 61.5t11.5 70.5t-11.5 69.5t-36.5 60.5t-63 29h-266q-19 1 -31.5 -7t-18.5 -18.5t-6 -21.5q0 -7 6 -19.5t18.5 -20.5t31.5 -9h312v-134h-306q-70 2 -115.5 32.5t-65 70t-19.5 80.5q0 40 20 79.5t65 70t115 30.5h6q6 1 12 1h276
q70 -4 115.5 -53.5t65 -111.5t19.5 -128t-20 -129t-65 -112.5t-115 -53.5z" />
    <glyph glyph-name="colon" unicode=":" horiz-adv-x="428" 
d="M132 392v174h164v-174h-164zM132 0v174h164v-174h-164z" />
    <glyph glyph-name="semicolon" unicode=";" horiz-adv-x="442" 
d="M76 -113l68 287h171l-116 -287h-123zM144 392v174h164v-174h-164z" />
    <glyph glyph-name="less" unicode="&#x3c;" horiz-adv-x="697" 
d="M606 471l-464 -173v-2l464 -173v-120l-546 219v150l546 219v-120z" />
    <glyph glyph-name="equal" unicode="=" horiz-adv-x="772" 
d="M86 367v109h600v-109h-600zM86 118v109h600v-109h-600z" />
    <glyph glyph-name="greater" unicode="&#x3e;" horiz-adv-x="697" 
d="M91 471v120l546 -219v-150l-546 -219v120l464 173v2z" />
    <glyph glyph-name="question" unicode="?" horiz-adv-x="800" 
d="M73 592h442q6 0 12 -1h6q70 -2 115 -31.5t65 -67.5t20 -77t-19.5 -77t-65 -67.5t-115.5 -26.5h-106q-19 -1 -22.5 -7.5t-3.5 -13.5v-52h-138v100q2 43 30 74t98 33h148q19 -1 31.5 6t18.5 15.5t6 17.5t-6 17.5t-18.5 15.5t-31.5 8h-466v134zM415 58q0 -28 -24 -48
t-58 -20t-58 20t-24 48q0 29 24 49t58 20t58 -20t24 -49z" />
    <glyph glyph-name="at" unicode="@" horiz-adv-x="838" 
d="M591 138q122 0 122 128q0 135 -80.5 217t-213.5 82q-131 0 -212.5 -83t-81.5 -216t81.5 -216t212.5 -83q108 0 183 60l47 -73q-96 -72 -230 -72q-163 0 -273.5 107.5t-110.5 276.5q0 168 109 276t275 108q168 0 276 -107t108 -277q0 -100 -55.5 -152t-158.5 -52
q-46 0 -77 16q-31 14 -39 39h-2q-47 -55 -125 -55q-71 0 -114 52q-52 62 -33 155q19 96 73.5 148t130.5 52q24 0 49 -11q21 -11 34 -25h2l9 34h123l-48 -243q-13 -68 0 -81q7 -5 19 -5zM367 168q73 0 95 101q11 49 -9 78q-16 23 -46 23q-34 0 -59.5 -27t-36.5 -75
q-10 -50 10 -78q15 -22 46 -22z" />
    <glyph glyph-name="A" unicode="A" horiz-adv-x="731" vert-adv-y="1000" 
d="M266 119h198l28 -119h253l-194 750h-371l-194 -750h253zM372 520l48 -210h-110l49 210h13z" />
    <glyph glyph-name="B" unicode="B" horiz-adv-x="710" vert-adv-y="1000" 
d="M491 0h-431v750h389q108 0 154 -42t46 -122q0 -81 -29 -124.5t-79 -57.5v-7q145 -25 145 -198q0 -90 -47.5 -144.5t-147.5 -54.5zM394 299h-94v-123h92q51 0 51 62q0 61 -49 61zM376 586h-76v-112h74q46 0 46 56t-44 56z" />
    <glyph glyph-name="C" unicode="C" horiz-adv-x="600" vert-adv-y="1000" 
d="M558 215l18 -202q-77 -31 -190 -31q-107 0 -177 23.5t-111 71.5t-57.5 122t-16.5 175q0 98 15.5 171.5t55.5 123t108.5 74.5t173.5 25q23 0 51.5 -2.5t56 -6.5t52 -9.5t39.5 -12.5l-36 -184q-80 17 -143 17q-65 0 -90 -12t-25 -48v-314q23 -5 46.5 -7.5t48.5 -2.5
q100 0 181 29z" />
    <glyph glyph-name="D" unicode="D" horiz-adv-x="774" vert-adv-y="1000" 
d="M396 0h-336v750h336q101 0 169 -20.5t109 -65.5t58.5 -116t17.5 -172t-17.5 -172.5t-58.5 -116.5t-109 -66t-169 -21zM400 558h-100v-366h100q50 0 71.5 11.5t21.5 52.5v238q0 41 -21.5 52.5t-71.5 11.5z" />
    <glyph glyph-name="E" unicode="E" horiz-adv-x="636" vert-adv-y="1000" 
d="M540 457h-240v101h258l30 192h-528v-750h534v192h-294v91h240v174z" />
    <glyph glyph-name="F" unicode="F" horiz-adv-x="564" vert-adv-y="1000" 
d="M504 457h-204v101h222l30 192h-492v-750h240v278h204v179z" />
    <glyph glyph-name="G" unicode="G" horiz-adv-x="720" vert-adv-y="1000" 
d="M444 221v32h-61v184h289v-401q-142 -54 -295 -54q-105 0 -173.5 25t-108.5 74.5t-55.5 123t-15.5 171.5q0 104 19 178.5t63 122t117 69.5t181 22q24 0 56.5 -2.5t65.5 -7t62.5 -10t47.5 -11.5l-36 -184q-49 8 -93 12.5t-82 4.5q-79 0 -111 -12t-32 -48v-340h79
q44 0 63.5 9.5t19.5 41.5z" />
    <glyph glyph-name="H" unicode="H" horiz-adv-x="780" vert-adv-y="1000" 
d="M720 0v750h-240v-265h-180v265h-240v-750h240v265h180v-265h240z" />
    <glyph glyph-name="I" unicode="I" horiz-adv-x="360" vert-adv-y="1000" 
d="M300 0v750h-240v-750h240z" />
    <glyph glyph-name="J" unicode="J" horiz-adv-x="439" vert-adv-y="1000" 
d="M211 0h-187l-24 192h100q35 0 48 11q9 9 9 25v330h-99v192h339v-552q0 -98 -47.5 -148t-138.5 -50z" />
    <glyph glyph-name="K" unicode="K" horiz-adv-x="712" vert-adv-y="1000" 
d="M305 326h-5v-326h-240v750h240v-306h5q1 18 4 32.5t8 25.5l117 248h260l-180 -368l186 -382h-260l-123 269q-5 11 -8 25t-4 32z" />
    <glyph glyph-name="L" unicode="L" horiz-adv-x="546" vert-adv-y="1000" 
d="M540 192h-240v558h-240v-750h480v192z" />
    <glyph glyph-name="M" unicode="M" horiz-adv-x="973" vert-adv-y="1000" 
d="M295 364h7l93 -364h183l92 364h8l14 -364h251l-45 750h-314l-93 -382h-9l-93 382h-313l-46 -750h251z" />
    <glyph glyph-name="N" unicode="N" horiz-adv-x="786" vert-adv-y="1000" 
d="M726 0h-226l-183 266q-5 7 -8 21t-4 37h-5v-324h-240v750h226l183 -266q5 -7 8 -21t4 -37h5v324h240v-750z" />
    <glyph glyph-name="O" unicode="O" horiz-adv-x="756" vert-adv-y="1000" 
d="M24 374q0 103 17.5 177.5t59 122.5t109.5 71t168 23q101 0 168.5 -23t109 -71t59 -122.5t17.5 -177.5q0 -98 -16 -171.5t-56.5 -122.5t-109 -73.5t-172.5 -24.5t-172.5 24.5t-109 73.5t-56.5 122.5t-16 171.5zM282 499v-312h100q50 0 71.5 11.5t21.5 52.5v312h-101
q-48 0 -70 -11.5t-22 -52.5z" />
    <glyph glyph-name="P" unicode="P" horiz-adv-x="708" vert-adv-y="1000" 
d="M456 181h-156v-181h-240v750h378q258 0 258 -277q0 -61 -12 -114t-40.5 -92.5t-74 -62.5t-113.5 -23zM355 558h-55v-185h55q44 0 63.5 9t19.5 42v84q0 32 -19.5 41t-63.5 9z" />
    <glyph glyph-name="Q" unicode="Q" horiz-adv-x="756" vert-adv-y="1000" 
d="M462 -18v46l-102 -28q-98 0 -162.5 24.5t-103 72t-54.5 117t-16 160.5q0 103 18 177.5t59 122.5t109 71t167 23t167 -23t110 -71.5t60 -123t18 -176.5q0 -77 -16 -137.5t-48 -108.5l87 -50l-63 -138zM282 499v-312h100q50 0 71.5 11.5t21.5 52.5v312h-101
q-48 0 -70 -11.5t-22 -52.5z" />
    <glyph glyph-name="R" unicode="R" horiz-adv-x="738" vert-adv-y="1000" 
d="M584 250l130 -250h-264l-98 223h-52v-223h-240v750h378q258 0 258 -263q0 -180 -112 -237zM355 558h-55v-150h55q44 0 63.5 9t19.5 41v50q0 32 -19.5 41t-63.5 9z" />
    <glyph glyph-name="S" unicode="S" horiz-adv-x="692" vert-adv-y="1000" 
d="M30 13l34 198q110 -27 199 -27q45 0 79.5 1.5t61.5 5.5v60l-108 9q-73 7 -122 24t-78.5 46.5t-42 71t-12.5 97.5q0 77 16 128.5t51 83t90.5 44.5t135.5 13q159 0 288 -30l-30 -192q-112 18 -179 18t-114 -6v-59l86 -8q79 -8 132 -26.5t85.5 -48.5t46 -71t13.5 -94
q0 -76 -20 -128t-48 -79q-23 -22 -57 -34.5t-72 -18.5t-76.5 -7.5t-69.5 -1.5q-78 0 -150 8t-139 23z" />
    <glyph glyph-name="T" unicode="T" horiz-adv-x="600" vert-adv-y="1000" 
d="M594 750h-588v-192h174v-558h240v558h174v192z" />
    <glyph glyph-name="U" unicode="U" horiz-adv-x="728" vert-adv-y="1000" 
d="M42 750h240v-563h85q46 0 62.5 12t16.5 52v499h240v-421q0 -96 -12.5 -162t-48 -107.5t-98.5 -59.5t-163 -18t-163 18t-98.5 59t-48 107.5t-12.5 162.5v421z" />
    <glyph glyph-name="V" unicode="V" horiz-adv-x="722" vert-adv-y="1000" 
d="M366 274h-11l-102 476h-253l186 -750h350l186 750h-253z" />
    <glyph glyph-name="W" unicode="W" horiz-adv-x="985" vert-adv-y="1000" 
d="M677 331h-7l-86 419h-183l-87 -419h-7l-56 419h-251l118 -750h313l54 276h14l55 -276h314l117 750h-251z" />
    <glyph glyph-name="X" unicode="X" horiz-adv-x="710" vert-adv-y="1000" 
d="M0 750l163 -370l-163 -380h254l89 216h11l90 -216h266l-166 388l166 362h-260l-83 -200h-12l-83 200h-272z" />
    <glyph glyph-name="Y" unicode="Y" horiz-adv-x="672" vert-adv-y="1000" 
d="M0 750l216 -546v-204h240v204l216 546h-265l-67 -264h-9l-66 264h-265z" />
    <glyph glyph-name="Z" unicode="Z" horiz-adv-x="707" vert-adv-y="1000" 
d="M677 192h-305l-4 7l304 401v150h-612l22 -192h252l3 -7l-307 -401v-150h647v192z" />
    <glyph glyph-name="bracketleft" unicode="[" horiz-adv-x="514" 
d="M239 689v-764h194v-99h-321v962h321v-99h-194z" />
    <glyph glyph-name="backslash" unicode="\" horiz-adv-x="560" 
d="M45 748h130l355 -789h-130z" />
    <glyph glyph-name="bracketright" unicode="]" horiz-adv-x="514" 
d="M275 -75v764h-194v99h321v-962h-321v99h194z" />
    <glyph glyph-name="asciicircum" unicode="^" horiz-adv-x="711" 
d="M355 666l-183 -379h-137l235 461h170l236 -461h-137z" />
    <glyph glyph-name="underscore" unicode="_" horiz-adv-x="625" 
d="M-2 -174v99h629v-99h-629z" />
    <glyph glyph-name="grave" unicode="`" horiz-adv-x="344" 
d="M194 829l115 -286h-115l-185 286h185z" />
    <glyph glyph-name="a" unicode="a" horiz-adv-x="680" vert-adv-y="1000" 
d="M344 618q288 0 288 -198v-420h-120l-68 68q-18 -20 -42.5 -36t-52.5 -27t-57 -17t-56 -6q-51 0 -91.5 10.5t-68.5 33.5t-43 61t-15 93q0 216 326 216h48v43q-19 1 -34.5 2t-28.5 1q-135 0 -233 -33l-29 172q120 37 277 37zM260 206v-49h50q52 0 68 12q14 13 14 31v57h-49
q-43 0 -63 -9t-20 -42z" />
    <glyph glyph-name="b" unicode="b" horiz-adv-x="714" vert-adv-y="1000" 
d="M60 30v750l240 18v-199q44 19 120 19q72 0 121 -26t79.5 -69.5t44 -101.5t13.5 -121q0 -169 -78 -243.5t-236 -74.5t-304 48zM300 398v-241h37q44 0 63.5 9t19.5 42v235h-37q-26 0 -42 -2t-28 -13q-12 -10 -13 -30z" />
    <glyph glyph-name="c" unicode="c" horiz-adv-x="551" vert-adv-y="1000" 
d="M500 180l15 -173q-62 -25 -161 -25q-168 0 -243 78.5t-75 239.5t75 239.5t243 78.5q107 0 161 -25l-29 -163q-32 6 -57 9.5t-44 3.5q-91 0 -91 -64v-215q17 -3 39.5 -5t50.5 -2q56 0 116 23z" />
    <glyph glyph-name="d" unicode="d" horiz-adv-x="714" vert-adv-y="1000" 
d="M654 798v-798h-120l-52 50q-51 -68 -188 -68q-72 0 -121 26t-79.5 69.5t-44 101.5t-13.5 121q0 60 12 114.5t40 95.5t74 65.5t114 24.5h138v180zM294 392v-235h37q41 0 60.5 7.5t22.5 35.5v243h-37q-44 0 -63.5 -9t-19.5 -42z" />
    <glyph glyph-name="e" unicode="e" horiz-adv-x="678" vert-adv-y="1000" 
d="M294 204v-42q18 -2 36 -3t36 -1q112 0 226 36l28 -176q-135 -36 -266 -36q-168 0 -243 78.5t-75 239.5t75.5 239.5t242.5 78.5q84 0 140 -10.5t90.5 -35t49 -66t14.5 -104.5q0 -52 -17.5 -89.5t-58.5 -61.5t-109 -35.5t-169 -11.5zM294 392v-49h49q44 0 63.5 9t19.5 42
v49h-49q-44 0 -63.5 -9t-19.5 -42z" />
    <glyph glyph-name="f" unicode="f" horiz-adv-x="430" vert-adv-y="1000" 
d="M434 641l-98 9v-50h72v-156h-72v-444h-240v444h-60v156h60l8 72q17 138 212 138q51 0 132 -12z" />
    <glyph glyph-name="g" unicode="g" horiz-adv-x="643" vert-adv-y="1000" 
d="M28 -162l31 179q103 -35 239 -35q20 0 34.5 0.5t22.5 1.5v42q-54 0 -88 2.5t-51 7.5q-34 9 -43 18q-11 9 -13 14.5t-2 16.5l36 103q-86 16 -131 65.5t-45 154.5q0 104 71 157t230 53q29 0 54 -1.5t48 -5.5l105 80l126 -121l-69 -80q16 -41 16 -108q0 -47 -11 -82
t-36.5 -59t-66.5 -37.5t-102 -18.5l-5 -29q65 -4 110 -12.5t73 -26.5t40.5 -46t12.5 -71q0 -72 -29 -112t-75.5 -59t-105 -23t-117.5 -4q-119 0 -259 36zM244 408v-78h37q43 0 63 9t20 41v78h-38q-43 0 -62.5 -9t-19.5 -41z" />
    <glyph glyph-name="h" unicode="h" horiz-adv-x="714" vert-adv-y="1000" 
d="M300 370v-370h-240v780l240 18v-220q77 40 170 40q94 0 142 -36.5t48 -101.5v-480h-240v420h-37q-44 0 -63.5 -9t-19.5 -41z" />
    <glyph glyph-name="i" unicode="i" horiz-adv-x="360" vert-adv-y="1000" 
d="M300 0h-240v570l240 30v-600zM47 713q0 27 6 45.5t21 30t41 16.5t66 5t65.5 -5t40.5 -16.5t21 -30t6 -45.5t-6 -45t-21 -29.5t-40.5 -16t-65.5 -4.5q-29 0 -53.5 2t-42.5 11.5t-28 28.5t-10 53z" />
    <glyph glyph-name="j" unicode="j" horiz-adv-x="360" vert-adv-y="1000" 
d="M114 -198h-174v156l62 12q38 8 48 20.5t10 27.5v552l240 30v-600q0 -98 -47.5 -148t-138.5 -50zM47 713q0 27 6 45.5t21 30t41 16.5t66 5t65.5 -5t40.5 -16.5t21 -30t6 -45.5t-6 -45t-21 -29.5t-40.5 -16t-65.5 -4.5q-29 0 -53.5 2t-42.5 11.5t-28 28.5t-10 53z" />
    <glyph glyph-name="k" unicode="k" horiz-adv-x="672" vert-adv-y="1000" 
d="M660 0l-145 314l139 286h-259l-87 -198h-8v396l-240 -18v-780h240v238h8l93 -238h259z" />
    <glyph glyph-name="l" unicode="l" horiz-adv-x="371" vert-adv-y="1000" 
d="M60 780l240 18v-626q19 -4 34 -6t25 -3l-11 -176q-153 0 -203 18q-42 15 -63.5 39t-21.5 69v667z" />
    <glyph glyph-name="m" unicode="m" horiz-adv-x="1025" vert-adv-y="1000" 
d="M396 0v420h-17q-16 0 -30.5 -1t-25.5 -6.5t-17 -16.5t-6 -31v-365h-240v600h120l54 -55q73 73 192 73q118 0 172 -49q75 49 170 49q97 0 150.5 -36.5t53.5 -101.5v-480h-240v420h-17q-14 0 -28 -1t-24.5 -5.5t-18 -14.5t-8.5 -27v-372h-240z" />
    <glyph glyph-name="n" unicode="n" horiz-adv-x="714" vert-adv-y="1000" 
d="M60 600h120l60 -60q111 78 240 78q85 0 132.5 -36.5t47.5 -101.5v-480h-240v420h-37q-41 0 -62 -8.5t-21 -37.5v-374h-240v600z" />
    <glyph glyph-name="o" unicode="o" horiz-adv-x="731" vert-adv-y="1000" 
d="M36 300q0 161 75 239.5t243 78.5t243 -78.5t75 -239.5t-75 -239.5t-243 -78.5q-164 0 -241 77t-77 241zM294 392v-235h37q44 0 63.5 9t19.5 42v235h-37q-44 0 -63.5 -9t-19.5 -42z" />
    <glyph glyph-name="p" unicode="p" horiz-adv-x="714" vert-adv-y="1000" 
d="M60 -198v798h120l44 -60q53 78 196 78q72 0 121 -26t79.5 -69.5t44 -101.5t13.5 -121q0 -61 -12 -115t-40 -95.5t-74 -65.5t-114 -24h-138v-180zM300 398v-241h37q44 0 63.5 9t19.5 42v235h-37q-26 0 -42 -2t-28 -13q-12 -10 -13 -30z" />
    <glyph glyph-name="q" unicode="q" horiz-adv-x="714" vert-adv-y="1000" 
d="M500 566l34 34h120v-781l-240 -17v198q-46 -18 -120 -18t-124 27.5t-79.5 73t-42 105.5t-12.5 124q0 67 16.5 123t51 96.5t88 63.5t126.5 23q106 0 182 -52zM294 392v-235h37q44 0 63.5 9t19.5 42v235h-37q-44 0 -63.5 -9t-19.5 -42z" />
    <glyph glyph-name="r" unicode="r" horiz-adv-x="450" vert-adv-y="1000" 
d="M60 0v600h120l66 -67q72 66 178 85l14 -227q-14 0 -34 -4t-40.5 -10t-37.5 -14.5t-26 -19.5v-343h-240z" />
    <glyph glyph-name="s" unicode="s" horiz-adv-x="631" vert-adv-y="1000" 
d="M118 576q77 42 211 42q135 0 247 -37l-28 -163q-47 14 -93 20t-94 6q-14 0 -34.5 -1t-46.5 -4v-38q55 0 113 -5.5t105.5 -26t78 -61t30.5 -110.5q0 -49 -11 -87.5t-34 -61.5q-24 -23 -49.5 -37t-66.5 -20q-32 -5 -68.5 -7.5t-78.5 -2.5q-147 0 -269 35l30 170
q51 -15 105 -23t113 -8q27 0 51.5 1t47.5 4v38q-96 0 -160.5 12.5t-104 38.5t-56 68t-16.5 100q0 116 78 158z" />
    <glyph glyph-name="t" unicode="t" horiz-adv-x="437" vert-adv-y="1000" 
d="M84 445h-60v155h60v96l240 60v-156h83v-155h-83v-273q15 -3 33 -5.5t38 -3.5l-11 -176q-164 0 -214 18q-42 15 -64 38.5t-22 69.5v332z" />
    <glyph glyph-name="u" unicode="u" horiz-adv-x="632" vert-adv-y="1000" 
d="M14 600h240v-443h37q44 0 63.5 9t19.5 42v392h240v-600h-120l-70 68q-72 -86 -205 -86q-107 0 -156 45.5t-49 152.5v420z" />
    <glyph glyph-name="v" unicode="v" horiz-adv-x="624" vert-adv-y="1000" 
d="M474 0l150 600h-240l-66 -390h-12l-66 390h-240l150 -600h324z" />
    <glyph glyph-name="w" unicode="w" horiz-adv-x="960" vert-adv-y="1000" 
d="M420 0l52 258h9l47 -258h295l120 600h-235l-58 -356h-13l-67 356h-180l-76 -356h-13l-49 356h-235l120 -600h283z" />
    <glyph glyph-name="x" unicode="x" horiz-adv-x="648" vert-adv-y="1000" 
d="M6 600l150 -290l-156 -310h250l68 162h6l74 -162h250l-156 293l150 307h-250l-62 -149h-7l-67 149h-250z" />
    <glyph glyph-name="y" unicode="y" horiz-adv-x="624" vert-adv-y="1000" 
d="M260 62h-126l-134 538h240l66 -390h12l66 390h240l-150 -600q-16 -59 -36.5 -97t-47.5 -60.5t-62.5 -31.5t-82.5 -9h-233v156l113 22q87 20 113 43q7 6 13 14t11 18z" />
    <glyph glyph-name="z" unicode="z" horiz-adv-x="636" vert-adv-y="1000" 
d="M30 0h576v180h-235l-4 7l232 293v120h-545l18 -180h190l3 -7l-235 -293v-120z" />
    <glyph glyph-name="braceleft" unicode="{" horiz-adv-x="547" 
d="M461 788v-99h-54q-61 0 -78.5 -17.5t-17.5 -84.5v-113q0 -67 -24.5 -104.5t-81.5 -61.5v-2q57 -23 81.5 -60.5t24.5 -105.5v-112q0 -68 17.5 -85.5t78.5 -17.5h54v-99h-119q-84 0 -121 38t-37 126v145q0 64 -21 91.5t-67 27.5h-41v106h41q46 0 67 28t21 91v146
q0 88 37 125.5t121 37.5h119z" />
    <glyph glyph-name="bar" unicode="|" horiz-adv-x="391" 
d="M132 -225v1054h127v-1054h-127z" />
    <glyph glyph-name="braceright" unicode="}" horiz-adv-x="547" 
d="M86 788h119q84 0 120.5 -37.5t36.5 -125.5v-146q0 -63 21 -91t68 -28h41v-106h-41q-47 0 -68 -27.5t-21 -91.5v-145q0 -88 -36.5 -126t-120.5 -38h-119v99h54q61 0 78.5 17.5t17.5 85.5v112q0 68 24.5 105.5t81.5 60.5v2q-57 24 -81.5 61.5t-24.5 104.5v113
q0 67 -17.5 84.5t-78.5 17.5h-54v99z" />
    <glyph glyph-name="asciitilde" unicode="~" horiz-adv-x="721" 
d="M325 266q-79 36 -110 36q-27 0 -38 -20t-11 -72h-116q0 208 145 208q80 0 201 -57q79 -35 110 -35q25 0 37 17.5t12 64.5h116q0 -198 -145 -198q-81 0 -201 56z" />
    <glyph glyph-name="uni00A0" unicode="&#xa0;" horiz-adv-x="512" 
 />
    <glyph glyph-name="exclamdown" unicode="&#xa1;" horiz-adv-x="512" 
 />
    <glyph glyph-name="cent" unicode="&#xa2;" 
 />
    <glyph glyph-name="sterling" unicode="&#xa3;" 
 />
    <glyph glyph-name="currency" unicode="&#xa4;" horiz-adv-x="512" 
 />
    <glyph glyph-name="yen" unicode="&#xa5;" horiz-adv-x="512" 
 />
    <glyph glyph-name="brokenbar" unicode="&#xa6;" horiz-adv-x="512" 
 />
    <glyph glyph-name="section" unicode="&#xa7;" horiz-adv-x="561" 
d="M506 29q0 -79 -61.5 -131t-163.5 -52q-111 0 -214 43l26 111q91 -42 173 -42q53 0 81 19.5t28 51.5q0 30 -23 49t-76 30q-117 21 -169 67t-52 123q0 90 70 138q-70 45 -70 139q0 79 61.5 131t164.5 52q110 0 214 -43l-27 -111q-91 42 -173 42q-53 0 -81 -19.5t-28 -51.5
q0 -30 23 -49t76 -29q117 -22 169 -68t52 -123q0 -90 -70 -138q70 -45 70 -139zM218 396q-49 -24 -49 -78q0 -39 26 -61.5t96 -36.5q37 -8 52 -12q49 24 49 78q0 40 -26 62t-96 36q-37 8 -52 12z" />
    <glyph glyph-name="dieresis" unicode="&#xa8;" horiz-adv-x="504" 
d="M296 622v143h127v-143h-127zM81 622v143h127v-143h-127z" />
    <glyph glyph-name="copyright" unicode="&#xa9;" horiz-adv-x="512" 
 />
    <glyph glyph-name="ordfeminine" unicode="&#xaa;" horiz-adv-x="512" 
 />
    <glyph glyph-name="guillemotleft" unicode="&#xab;" 
 />
    <glyph glyph-name="logicalnot" unicode="&#xac;" 
 />
    <glyph glyph-name="uni00AD" unicode="&#xad;" horiz-adv-x="512" 
 />
    <glyph glyph-name="registered" unicode="&#xae;" horiz-adv-x="512" 
 />
    <glyph glyph-name="macron" unicode="&#xaf;" 
 />
    <glyph glyph-name="degree" unicode="&#xb0;" horiz-adv-x="414" 
d="M40 591q0 68 48.5 117.5t118 49.5t118.5 -49.5t49 -117.5q0 -70 -49.5 -119t-118 -49t-117.5 49t-49 119zM155 643q-22 -21 -22 -52t21.5 -52.5t52.5 -21.5t52.5 21.5t21.5 52.5t-21.5 52t-52.5 21t-52 -21z" />
    <glyph glyph-name="plusminus" unicode="&#xb1;" horiz-adv-x="772" 
d="M86 -41v110h600v-110h-600zM444 666v-215h242v-110h-242v-215h-116v215h-242v110h242v215h116z" />
    <glyph glyph-name="uni00B2" unicode="&#xb2;" horiz-adv-x="512" 
 />
    <glyph glyph-name="uni00B3" unicode="&#xb3;" horiz-adv-x="512" 
 />
    <glyph glyph-name="acute" unicode="&#xb4;" horiz-adv-x="324" 
d="M143 781h171l-156 -177h-123z" />
    <glyph glyph-name="mu" unicode="&#xb5;" 
 />
    <glyph glyph-name="paragraph" unicode="&#xb6;" horiz-adv-x="694" 
d="M265 276q-97 0 -166 69.5t-69 166.5t69 166.5t166 69.5h348v-891h-119v785h-110v-785h-119v419z" />
    <glyph glyph-name="periodcentered" unicode="&#xb7;" 
 />
    <glyph glyph-name="cedilla" unicode="&#xb8;" 
 />
    <glyph glyph-name="uni00B9" unicode="&#xb9;" horiz-adv-x="512" 
 />
    <glyph glyph-name="ordmasculine" unicode="&#xba;" horiz-adv-x="512" 
 />
    <glyph glyph-name="guillemotright" unicode="&#xbb;" 
 />
    <glyph glyph-name="onequarter" unicode="&#xbc;" horiz-adv-x="512" 
 />
    <glyph glyph-name="onehalf" unicode="&#xbd;" horiz-adv-x="512" 
 />
    <glyph glyph-name="threequarters" unicode="&#xbe;" horiz-adv-x="512" 
 />
    <glyph glyph-name="questiondown" unicode="&#xbf;" horiz-adv-x="512" 
 />
    <glyph glyph-name="Agrave" unicode="&#xc0;" horiz-adv-x="512" 
 />
    <glyph glyph-name="Aacute" unicode="&#xc1;" horiz-adv-x="512" 
 />
    <glyph glyph-name="Acircumflex" unicode="&#xc2;" horiz-adv-x="512" 
 />
    <glyph glyph-name="Atilde" unicode="&#xc3;" horiz-adv-x="512" 
 />
    <glyph glyph-name="Adieresis" unicode="&#xc4;" horiz-adv-x="512" 
 />
    <glyph glyph-name="Aring" unicode="&#xc5;" horiz-adv-x="512" 
 />
    <glyph glyph-name="AE" unicode="&#xc6;" horiz-adv-x="512" 
 />
    <glyph glyph-name="Ccedilla" unicode="&#xc7;" horiz-adv-x="512" 
 />
    <glyph glyph-name="Egrave" unicode="&#xc8;" horiz-adv-x="512" 
 />
    <glyph glyph-name="Eacute" unicode="&#xc9;" horiz-adv-x="512" 
 />
    <glyph glyph-name="Ecircumflex" unicode="&#xca;" horiz-adv-x="512" 
 />
    <glyph glyph-name="Edieresis" unicode="&#xcb;" horiz-adv-x="512" 
 />
    <glyph glyph-name="Igrave" unicode="&#xcc;" horiz-adv-x="512" 
 />
    <glyph glyph-name="Iacute" unicode="&#xcd;" horiz-adv-x="512" 
 />
    <glyph glyph-name="Icircumflex" unicode="&#xce;" horiz-adv-x="512" 
 />
    <glyph glyph-name="Idieresis" unicode="&#xcf;" horiz-adv-x="512" 
 />
    <glyph glyph-name="Eth" unicode="&#xd0;" horiz-adv-x="512" 
 />
    <glyph glyph-name="Ntilde" unicode="&#xd1;" horiz-adv-x="512" 
 />
    <glyph glyph-name="Ograve" unicode="&#xd2;" horiz-adv-x="512" 
 />
    <glyph glyph-name="Oacute" unicode="&#xd3;" horiz-adv-x="512" 
 />
    <glyph glyph-name="Ocircumflex" unicode="&#xd4;" horiz-adv-x="512" 
 />
    <glyph glyph-name="Otilde" unicode="&#xd5;" horiz-adv-x="512" 
 />
    <glyph glyph-name="Odieresis" unicode="&#xd6;" horiz-adv-x="512" 
 />
    <glyph glyph-name="multiply" unicode="&#xd7;" horiz-adv-x="645" 
d="M605 101l-87 -87l-195 196l-196 -196l-87 87l196 196l-196 196l87 87l196 -196l195 196l87 -87l-195 -196z" />
    <glyph glyph-name="Oslash" unicode="&#xd8;" horiz-adv-x="512" 
 />
    <glyph glyph-name="Ugrave" unicode="&#xd9;" horiz-adv-x="512" 
 />
    <glyph glyph-name="Uacute" unicode="&#xda;" horiz-adv-x="512" 
 />
    <glyph glyph-name="Ucircumflex" unicode="&#xdb;" horiz-adv-x="512" 
 />
    <glyph glyph-name="Udieresis" unicode="&#xdc;" horiz-adv-x="512" 
 />
    <glyph glyph-name="Yacute" unicode="&#xdd;" horiz-adv-x="512" 
 />
    <glyph glyph-name="Thorn" unicode="&#xde;" horiz-adv-x="512" 
 />
    <glyph glyph-name="germandbls" unicode="&#xdf;" horiz-adv-x="512" 
 />
    <glyph glyph-name="agrave" unicode="&#xe0;" horiz-adv-x="512" 
 />
    <glyph glyph-name="aacute" unicode="&#xe1;" horiz-adv-x="512" 
 />
    <glyph glyph-name="acircumflex" unicode="&#xe2;" horiz-adv-x="512" 
 />
    <glyph glyph-name="atilde" unicode="&#xe3;" horiz-adv-x="512" 
 />
    <glyph glyph-name="adieresis" unicode="&#xe4;" horiz-adv-x="512" 
 />
    <glyph glyph-name="aring" unicode="&#xe5;" horiz-adv-x="512" 
 />
    <glyph glyph-name="ae" unicode="&#xe6;" horiz-adv-x="512" 
 />
    <glyph glyph-name="ccedilla" unicode="&#xe7;" horiz-adv-x="512" 
 />
    <glyph glyph-name="egrave" unicode="&#xe8;" horiz-adv-x="512" 
 />
    <glyph glyph-name="eacute" unicode="&#xe9;" horiz-adv-x="512" 
 />
    <glyph glyph-name="ecircumflex" unicode="&#xea;" horiz-adv-x="512" 
 />
    <glyph glyph-name="edieresis" unicode="&#xeb;" horiz-adv-x="512" 
 />
    <glyph glyph-name="igrave" unicode="&#xec;" horiz-adv-x="512" 
 />
    <glyph glyph-name="iacute" unicode="&#xed;" horiz-adv-x="512" 
 />
    <glyph glyph-name="icircumflex" unicode="&#xee;" horiz-adv-x="512" 
 />
    <glyph glyph-name="idieresis" unicode="&#xef;" horiz-adv-x="512" 
 />
    <glyph glyph-name="eth" unicode="&#xf0;" horiz-adv-x="512" 
 />
    <glyph glyph-name="ntilde" unicode="&#xf1;" horiz-adv-x="512" 
 />
    <glyph glyph-name="ograve" unicode="&#xf2;" horiz-adv-x="512" 
 />
    <glyph glyph-name="oacute" unicode="&#xf3;" horiz-adv-x="512" 
 />
    <glyph glyph-name="ocircumflex" unicode="&#xf4;" horiz-adv-x="512" 
 />
    <glyph glyph-name="otilde" unicode="&#xf5;" horiz-adv-x="512" 
 />
    <glyph glyph-name="odieresis" unicode="&#xf6;" horiz-adv-x="512" 
 />
    <glyph glyph-name="divide" unicode="&#xf7;" horiz-adv-x="752" 
d="M301 0v161h150v-161h-150zM301 433v161h150v-161h-150zM76 243v108h600v-108h-600z" />
    <glyph glyph-name="oslash" unicode="&#xf8;" horiz-adv-x="512" 
 />
    <glyph glyph-name="ugrave" unicode="&#xf9;" horiz-adv-x="512" 
 />
    <glyph glyph-name="uacute" unicode="&#xfa;" horiz-adv-x="512" 
 />
    <glyph glyph-name="ucircumflex" unicode="&#xfb;" horiz-adv-x="512" 
 />
    <glyph glyph-name="udieresis" unicode="&#xfc;" horiz-adv-x="512" 
 />
    <glyph glyph-name="yacute" unicode="&#xfd;" horiz-adv-x="512" 
 />
    <glyph glyph-name="thorn" unicode="&#xfe;" horiz-adv-x="512" 
 />
    <glyph glyph-name="ydieresis" unicode="&#xff;" horiz-adv-x="512" 
 />
    <glyph glyph-name="Amacron" unicode="&#x100;" horiz-adv-x="512" 
 />
    <glyph glyph-name="amacron" unicode="&#x101;" horiz-adv-x="512" 
 />
    <glyph glyph-name="Abreve" unicode="&#x102;" horiz-adv-x="512" 
 />
    <glyph glyph-name="abreve" unicode="&#x103;" horiz-adv-x="512" 
 />
    <glyph glyph-name="Aogonek" unicode="&#x104;" horiz-adv-x="512" 
 />
    <glyph glyph-name="aogonek" unicode="&#x105;" horiz-adv-x="512" 
 />
    <glyph glyph-name="Cacute" unicode="&#x106;" horiz-adv-x="512" 
 />
    <glyph glyph-name="cacute" unicode="&#x107;" horiz-adv-x="512" 
 />
    <glyph glyph-name="Ccircumflex" unicode="&#x108;" horiz-adv-x="512" 
 />
    <glyph glyph-name="ccircumflex" unicode="&#x109;" horiz-adv-x="512" 
 />
    <glyph glyph-name="Cdotaccent" unicode="&#x10a;" horiz-adv-x="512" 
 />
    <glyph glyph-name="cdotaccent" unicode="&#x10b;" horiz-adv-x="512" 
 />
    <glyph glyph-name="Ccaron" unicode="&#x10c;" horiz-adv-x="512" 
 />
    <glyph glyph-name="ccaron" unicode="&#x10d;" horiz-adv-x="512" 
 />
    <glyph glyph-name="Dcaron" unicode="&#x10e;" horiz-adv-x="512" 
 />
    <glyph glyph-name="dcaron" unicode="&#x10f;" horiz-adv-x="512" 
 />
    <glyph glyph-name="Dcroat" unicode="&#x110;" horiz-adv-x="512" 
 />
    <glyph glyph-name="dcroat" unicode="&#x111;" horiz-adv-x="512" 
 />
    <glyph glyph-name="Emacron" unicode="&#x112;" horiz-adv-x="512" 
 />
    <glyph glyph-name="emacron" unicode="&#x113;" horiz-adv-x="512" 
 />
    <glyph glyph-name="Ebreve" unicode="&#x114;" horiz-adv-x="512" 
 />
    <glyph glyph-name="ebreve" unicode="&#x115;" horiz-adv-x="512" 
 />
    <glyph glyph-name="Edotaccent" unicode="&#x116;" horiz-adv-x="512" 
 />
    <glyph glyph-name="edotaccent" unicode="&#x117;" horiz-adv-x="512" 
 />
    <glyph glyph-name="Eogonek" unicode="&#x118;" horiz-adv-x="512" 
 />
    <glyph glyph-name="eogonek" unicode="&#x119;" horiz-adv-x="512" 
 />
    <glyph glyph-name="Ecaron" unicode="&#x11a;" horiz-adv-x="512" 
 />
    <glyph glyph-name="ecaron" unicode="&#x11b;" horiz-adv-x="512" 
 />
    <glyph glyph-name="Gcircumflex" unicode="&#x11c;" horiz-adv-x="512" 
 />
    <glyph glyph-name="gcircumflex" unicode="&#x11d;" horiz-adv-x="512" 
 />
    <glyph glyph-name="Gbreve" unicode="&#x11e;" horiz-adv-x="512" 
 />
    <glyph glyph-name="gbreve" unicode="&#x11f;" horiz-adv-x="512" 
 />
    <glyph glyph-name="Gdotaccent" unicode="&#x120;" horiz-adv-x="512" 
 />
    <glyph glyph-name="gdotaccent" unicode="&#x121;" horiz-adv-x="512" 
 />
    <glyph glyph-name="uni0122" unicode="&#x122;" horiz-adv-x="512" 
 />
    <glyph glyph-name="uni0123" unicode="&#x123;" horiz-adv-x="512" 
 />
    <glyph glyph-name="Hcircumflex" unicode="&#x124;" horiz-adv-x="512" 
 />
    <glyph glyph-name="hcircumflex" unicode="&#x125;" horiz-adv-x="512" 
 />
    <glyph glyph-name="Hbar" unicode="&#x126;" horiz-adv-x="512" 
 />
    <glyph glyph-name="hbar" unicode="&#x127;" horiz-adv-x="512" 
 />
    <glyph glyph-name="Itilde" unicode="&#x128;" horiz-adv-x="512" 
 />
    <glyph glyph-name="itilde" unicode="&#x129;" horiz-adv-x="512" 
 />
    <glyph glyph-name="Imacron" unicode="&#x12a;" horiz-adv-x="512" 
 />
    <glyph glyph-name="imacron" unicode="&#x12b;" horiz-adv-x="512" 
 />
    <glyph glyph-name="Ibreve" unicode="&#x12c;" horiz-adv-x="512" 
 />
    <glyph glyph-name="ibreve" unicode="&#x12d;" horiz-adv-x="512" 
 />
    <glyph glyph-name="Iogonek" unicode="&#x12e;" horiz-adv-x="512" 
 />
    <glyph glyph-name="iogonek" unicode="&#x12f;" horiz-adv-x="512" 
 />
    <glyph glyph-name="Idotaccent" unicode="&#x130;" horiz-adv-x="512" 
 />
    <glyph glyph-name="dotlessi" unicode="&#x131;" horiz-adv-x="512" 
 />
    <glyph glyph-name="IJ" unicode="&#x132;" horiz-adv-x="512" 
 />
    <glyph glyph-name="ij" unicode="&#x133;" horiz-adv-x="512" 
 />
    <glyph glyph-name="Jcircumflex" unicode="&#x134;" horiz-adv-x="512" 
 />
    <glyph glyph-name="jcircumflex" unicode="&#x135;" horiz-adv-x="512" 
 />
    <glyph glyph-name="uni0136" unicode="&#x136;" horiz-adv-x="512" 
 />
    <glyph glyph-name="uni0137" unicode="&#x137;" horiz-adv-x="512" 
 />
    <glyph glyph-name="kgreenlandic" unicode="&#x138;" horiz-adv-x="512" 
 />
    <glyph glyph-name="Lacute" unicode="&#x139;" horiz-adv-x="512" 
 />
    <glyph glyph-name="lacute" unicode="&#x13a;" horiz-adv-x="512" 
 />
    <glyph glyph-name="uni013B" unicode="&#x13b;" horiz-adv-x="512" 
 />
    <glyph glyph-name="uni013C" unicode="&#x13c;" horiz-adv-x="512" 
 />
    <glyph glyph-name="Lcaron" unicode="&#x13d;" horiz-adv-x="512" 
 />
    <glyph glyph-name="lcaron" unicode="&#x13e;" horiz-adv-x="512" 
 />
    <glyph glyph-name="Ldot" unicode="&#x13f;" horiz-adv-x="512" 
 />
    <glyph glyph-name="ldot" unicode="&#x140;" horiz-adv-x="512" 
 />
    <glyph glyph-name="Lslash" unicode="&#x141;" horiz-adv-x="512" 
 />
    <glyph glyph-name="lslash" unicode="&#x142;" horiz-adv-x="512" 
 />
    <glyph glyph-name="Nacute" unicode="&#x143;" horiz-adv-x="512" 
 />
    <glyph glyph-name="nacute" unicode="&#x144;" horiz-adv-x="512" 
 />
    <glyph glyph-name="uni0145" unicode="&#x145;" horiz-adv-x="512" 
 />
    <glyph glyph-name="uni0146" unicode="&#x146;" horiz-adv-x="512" 
 />
    <glyph glyph-name="Ncaron" unicode="&#x147;" horiz-adv-x="512" 
 />
    <glyph glyph-name="ncaron" unicode="&#x148;" horiz-adv-x="512" 
 />
    <glyph glyph-name="napostrophe" unicode="&#x149;" horiz-adv-x="512" 
 />
    <glyph glyph-name="Eng" unicode="&#x14a;" horiz-adv-x="512" 
 />
    <glyph glyph-name="eng" unicode="&#x14b;" horiz-adv-x="512" 
 />
    <glyph glyph-name="Omacron" unicode="&#x14c;" horiz-adv-x="512" 
 />
    <glyph glyph-name="omacron" unicode="&#x14d;" horiz-adv-x="512" 
 />
    <glyph glyph-name="Obreve" unicode="&#x14e;" horiz-adv-x="512" 
 />
    <glyph glyph-name="obreve" unicode="&#x14f;" horiz-adv-x="512" 
 />
    <glyph glyph-name="Ohungarumlaut" unicode="&#x150;" horiz-adv-x="512" 
 />
    <glyph glyph-name="ohungarumlaut" unicode="&#x151;" horiz-adv-x="512" 
 />
    <glyph glyph-name="OE" unicode="&#x152;" horiz-adv-x="512" 
 />
    <glyph glyph-name="oe" unicode="&#x153;" horiz-adv-x="512" 
 />
    <glyph glyph-name="Racute" unicode="&#x154;" horiz-adv-x="512" 
 />
    <glyph glyph-name="racute" unicode="&#x155;" horiz-adv-x="512" 
 />
    <glyph glyph-name="uni0156" unicode="&#x156;" horiz-adv-x="512" 
 />
    <glyph glyph-name="uni0157" unicode="&#x157;" horiz-adv-x="512" 
 />
    <glyph glyph-name="Rcaron" unicode="&#x158;" horiz-adv-x="512" 
 />
    <glyph glyph-name="rcaron" unicode="&#x159;" horiz-adv-x="512" 
 />
    <glyph glyph-name="Sacute" unicode="&#x15a;" horiz-adv-x="512" 
 />
    <glyph glyph-name="sacute" unicode="&#x15b;" horiz-adv-x="512" 
 />
    <glyph glyph-name="Scircumflex" unicode="&#x15c;" horiz-adv-x="512" 
 />
    <glyph glyph-name="scircumflex" unicode="&#x15d;" horiz-adv-x="512" 
 />
    <glyph glyph-name="Scedilla" unicode="&#x15e;" horiz-adv-x="512" 
 />
    <glyph glyph-name="scedilla" unicode="&#x15f;" horiz-adv-x="512" 
 />
    <glyph glyph-name="Scaron" unicode="&#x160;" horiz-adv-x="512" 
 />
    <glyph glyph-name="scaron" unicode="&#x161;" horiz-adv-x="512" 
 />
    <glyph glyph-name="uni0162" unicode="&#x162;" horiz-adv-x="512" 
 />
    <glyph glyph-name="uni0163" unicode="&#x163;" horiz-adv-x="512" 
 />
    <glyph glyph-name="Tcaron" unicode="&#x164;" horiz-adv-x="512" 
 />
    <glyph glyph-name="tcaron" unicode="&#x165;" horiz-adv-x="512" 
 />
    <glyph glyph-name="Tbar" unicode="&#x166;" horiz-adv-x="512" 
 />
    <glyph glyph-name="tbar" unicode="&#x167;" horiz-adv-x="512" 
 />
    <glyph glyph-name="Utilde" unicode="&#x168;" horiz-adv-x="512" 
 />
    <glyph glyph-name="utilde" unicode="&#x169;" horiz-adv-x="512" 
 />
    <glyph glyph-name="Umacron" unicode="&#x16a;" horiz-adv-x="512" 
 />
    <glyph glyph-name="umacron" unicode="&#x16b;" horiz-adv-x="512" 
 />
    <glyph glyph-name="Ubreve" unicode="&#x16c;" horiz-adv-x="512" 
 />
    <glyph glyph-name="ubreve" unicode="&#x16d;" horiz-adv-x="512" 
 />
    <glyph glyph-name="Uring" unicode="&#x16e;" horiz-adv-x="512" 
 />
    <glyph glyph-name="uring" unicode="&#x16f;" horiz-adv-x="512" 
 />
    <glyph glyph-name="Uhungarumlaut" unicode="&#x170;" horiz-adv-x="512" 
 />
    <glyph glyph-name="uhungarumlaut" unicode="&#x171;" horiz-adv-x="512" 
 />
    <glyph glyph-name="Uogonek" unicode="&#x172;" horiz-adv-x="512" 
 />
    <glyph glyph-name="uogonek" unicode="&#x173;" horiz-adv-x="512" 
 />
    <glyph glyph-name="Wcircumflex" unicode="&#x174;" horiz-adv-x="512" 
 />
    <glyph glyph-name="wcircumflex" unicode="&#x175;" horiz-adv-x="512" 
 />
    <glyph glyph-name="Ycircumflex" unicode="&#x176;" horiz-adv-x="512" 
 />
    <glyph glyph-name="ycircumflex" unicode="&#x177;" horiz-adv-x="512" 
 />
    <glyph glyph-name="Ydieresis" unicode="&#x178;" horiz-adv-x="512" 
 />
    <glyph glyph-name="Zacute" unicode="&#x179;" horiz-adv-x="512" 
 />
    <glyph glyph-name="zacute" unicode="&#x17a;" horiz-adv-x="512" 
 />
    <glyph glyph-name="Zdotaccent" unicode="&#x17b;" horiz-adv-x="512" 
 />
    <glyph glyph-name="zdotaccent" unicode="&#x17c;" horiz-adv-x="512" 
 />
    <glyph glyph-name="Zcaron" unicode="&#x17d;" horiz-adv-x="512" 
 />
    <glyph glyph-name="zcaron" unicode="&#x17e;" horiz-adv-x="512" 
 />
    <glyph glyph-name="longs" unicode="&#x17f;" horiz-adv-x="512" 
 />
    <glyph glyph-name="florin" unicode="&#x192;" horiz-adv-x="512" 
 />
    <glyph glyph-name="uni01CD" unicode="&#x1cd;" horiz-adv-x="512" 
 />
    <glyph glyph-name="uni01CE" unicode="&#x1ce;" horiz-adv-x="512" 
 />
    <glyph glyph-name="uni01CF" unicode="&#x1cf;" horiz-adv-x="512" 
 />
    <glyph glyph-name="uni01D0" unicode="&#x1d0;" horiz-adv-x="512" 
 />
    <glyph glyph-name="uni01D1" unicode="&#x1d1;" horiz-adv-x="512" 
 />
    <glyph glyph-name="uni01D2" unicode="&#x1d2;" horiz-adv-x="512" 
 />
    <glyph glyph-name="uni01D3" unicode="&#x1d3;" horiz-adv-x="512" 
 />
    <glyph glyph-name="uni01D4" unicode="&#x1d4;" horiz-adv-x="512" 
 />
    <glyph glyph-name="uni01D5" unicode="&#x1d5;" horiz-adv-x="512" 
 />
    <glyph glyph-name="uni01D6" unicode="&#x1d6;" horiz-adv-x="512" 
 />
    <glyph glyph-name="uni01D7" unicode="&#x1d7;" horiz-adv-x="512" 
 />
    <glyph glyph-name="uni01D8" unicode="&#x1d8;" horiz-adv-x="512" 
 />
    <glyph glyph-name="uni01D9" unicode="&#x1d9;" horiz-adv-x="512" 
 />
    <glyph glyph-name="uni01DA" unicode="&#x1da;" horiz-adv-x="512" 
 />
    <glyph glyph-name="uni01DB" unicode="&#x1db;" horiz-adv-x="512" 
 />
    <glyph glyph-name="uni01DC" unicode="&#x1dc;" horiz-adv-x="512" 
 />
    <glyph glyph-name="uni01F5" unicode="&#x1f5;" horiz-adv-x="512" 
 />
    <glyph glyph-name="Aringacute" unicode="&#x1fa;" horiz-adv-x="512" 
 />
    <glyph glyph-name="aringacute" unicode="&#x1fb;" horiz-adv-x="512" 
 />
    <glyph glyph-name="AEacute" unicode="&#x1fc;" horiz-adv-x="512" 
 />
    <glyph glyph-name="aeacute" unicode="&#x1fd;" horiz-adv-x="512" 
 />
    <glyph glyph-name="Oslashacute" unicode="&#x1fe;" horiz-adv-x="512" 
 />
    <glyph glyph-name="oslashacute" unicode="&#x1ff;" horiz-adv-x="512" 
 />
    <glyph glyph-name="uni0250" unicode="&#x250;" horiz-adv-x="512" 
 />
    <glyph glyph-name="uni0251" unicode="&#x251;" horiz-adv-x="512" 
 />
    <glyph glyph-name="uni0252" unicode="&#x252;" horiz-adv-x="512" 
 />
    <glyph glyph-name="uni0253" unicode="&#x253;" horiz-adv-x="512" 
 />
    <glyph glyph-name="uni0254" unicode="&#x254;" horiz-adv-x="512" 
 />
    <glyph glyph-name="uni0255" unicode="&#x255;" horiz-adv-x="512" 
 />
    <glyph glyph-name="uni0256" unicode="&#x256;" horiz-adv-x="512" 
 />
    <glyph glyph-name="uni0257" unicode="&#x257;" horiz-adv-x="512" 
 />
    <glyph glyph-name="uni0258" unicode="&#x258;" horiz-adv-x="512" 
 />
    <glyph glyph-name="uni0259" unicode="&#x259;" horiz-adv-x="512" 
 />
    <glyph glyph-name="uni025A" unicode="&#x25a;" horiz-adv-x="512" 
 />
    <glyph glyph-name="uni025B" unicode="&#x25b;" horiz-adv-x="512" 
 />
    <glyph glyph-name="uni025C" unicode="&#x25c;" horiz-adv-x="512" 
 />
    <glyph glyph-name="uni025D" unicode="&#x25d;" horiz-adv-x="512" 
 />
    <glyph glyph-name="uni025E" unicode="&#x25e;" horiz-adv-x="512" 
 />
    <glyph glyph-name="uni025F" unicode="&#x25f;" horiz-adv-x="512" 
 />
    <glyph glyph-name="uni0260" unicode="&#x260;" horiz-adv-x="512" 
 />
    <glyph glyph-name="uni0261" unicode="&#x261;" horiz-adv-x="512" 
 />
    <glyph glyph-name="uni0262" unicode="&#x262;" horiz-adv-x="512" 
 />
    <glyph glyph-name="uni0263" unicode="&#x263;" horiz-adv-x="512" 
 />
    <glyph glyph-name="uni0264" unicode="&#x264;" horiz-adv-x="512" 
 />
    <glyph glyph-name="uni0265" unicode="&#x265;" horiz-adv-x="512" 
 />
    <glyph glyph-name="uni0266" unicode="&#x266;" horiz-adv-x="512" 
 />
    <glyph glyph-name="uni0267" unicode="&#x267;" horiz-adv-x="512" 
 />
    <glyph glyph-name="uni0268" unicode="&#x268;" horiz-adv-x="512" 
 />
    <glyph glyph-name="uni0269" unicode="&#x269;" horiz-adv-x="512" 
 />
    <glyph glyph-name="uni026A" unicode="&#x26a;" horiz-adv-x="512" 
 />
    <glyph glyph-name="uni026B" unicode="&#x26b;" horiz-adv-x="512" 
 />
    <glyph glyph-name="uni026C" unicode="&#x26c;" horiz-adv-x="512" 
 />
    <glyph glyph-name="uni026D" unicode="&#x26d;" horiz-adv-x="512" 
 />
    <glyph glyph-name="uni026E" unicode="&#x26e;" horiz-adv-x="512" 
 />
    <glyph glyph-name="uni026F" unicode="&#x26f;" horiz-adv-x="512" 
 />
    <glyph glyph-name="uni0270" unicode="&#x270;" horiz-adv-x="512" 
 />
    <glyph glyph-name="uni0271" unicode="&#x271;" horiz-adv-x="512" 
 />
    <glyph glyph-name="uni0272" unicode="&#x272;" horiz-adv-x="512" 
 />
    <glyph glyph-name="uni0273" unicode="&#x273;" horiz-adv-x="512" 
 />
    <glyph glyph-name="uni0274" unicode="&#x274;" horiz-adv-x="512" 
 />
    <glyph glyph-name="uni0275" unicode="&#x275;" horiz-adv-x="512" 
 />
    <glyph glyph-name="uni0276" unicode="&#x276;" horiz-adv-x="512" 
 />
    <glyph glyph-name="uni0277" unicode="&#x277;" horiz-adv-x="512" 
 />
    <glyph glyph-name="uni0278" unicode="&#x278;" horiz-adv-x="512" 
 />
    <glyph glyph-name="uni0279" unicode="&#x279;" horiz-adv-x="512" 
 />
    <glyph glyph-name="uni027A" unicode="&#x27a;" horiz-adv-x="512" 
 />
    <glyph glyph-name="uni027B" unicode="&#x27b;" horiz-adv-x="512" 
 />
    <glyph glyph-name="uni027C" unicode="&#x27c;" horiz-adv-x="512" 
 />
    <glyph glyph-name="uni027D" unicode="&#x27d;" horiz-adv-x="512" 
 />
    <glyph glyph-name="uni027E" unicode="&#x27e;" horiz-adv-x="512" 
 />
    <glyph glyph-name="uni027F" unicode="&#x27f;" horiz-adv-x="512" 
 />
    <glyph glyph-name="uni0280" unicode="&#x280;" horiz-adv-x="512" 
 />
    <glyph glyph-name="uni0281" unicode="&#x281;" horiz-adv-x="512" 
 />
    <glyph glyph-name="uni0282" unicode="&#x282;" horiz-adv-x="512" 
 />
    <glyph glyph-name="uni0283" unicode="&#x283;" horiz-adv-x="512" 
 />
    <glyph glyph-name="uni0284" unicode="&#x284;" horiz-adv-x="512" 
 />
    <glyph glyph-name="uni0285" unicode="&#x285;" horiz-adv-x="512" 
 />
    <glyph glyph-name="uni0286" unicode="&#x286;" horiz-adv-x="512" 
 />
    <glyph glyph-name="uni0287" unicode="&#x287;" horiz-adv-x="512" 
 />
    <glyph glyph-name="uni0288" unicode="&#x288;" horiz-adv-x="512" 
 />
    <glyph glyph-name="uni0289" unicode="&#x289;" horiz-adv-x="512" 
 />
    <glyph glyph-name="uni028A" unicode="&#x28a;" horiz-adv-x="512" 
 />
    <glyph glyph-name="uni028B" unicode="&#x28b;" horiz-adv-x="512" 
 />
    <glyph glyph-name="uni028C" unicode="&#x28c;" horiz-adv-x="512" 
 />
    <glyph glyph-name="uni028D" unicode="&#x28d;" horiz-adv-x="512" 
 />
    <glyph glyph-name="uni028E" unicode="&#x28e;" horiz-adv-x="512" 
 />
    <glyph glyph-name="uni028F" unicode="&#x28f;" horiz-adv-x="512" 
 />
    <glyph glyph-name="uni0290" unicode="&#x290;" horiz-adv-x="512" 
 />
    <glyph glyph-name="uni0291" unicode="&#x291;" horiz-adv-x="512" 
 />
    <glyph glyph-name="uni0292" unicode="&#x292;" horiz-adv-x="512" 
 />
    <glyph glyph-name="uni0293" unicode="&#x293;" horiz-adv-x="512" 
 />
    <glyph glyph-name="uni0294" unicode="&#x294;" horiz-adv-x="512" 
 />
    <glyph glyph-name="uni0295" unicode="&#x295;" horiz-adv-x="512" 
 />
    <glyph glyph-name="uni0296" unicode="&#x296;" horiz-adv-x="512" 
 />
    <glyph glyph-name="uni0297" unicode="&#x297;" horiz-adv-x="512" 
 />
    <glyph glyph-name="uni0298" unicode="&#x298;" horiz-adv-x="512" 
 />
    <glyph glyph-name="uni0299" unicode="&#x299;" horiz-adv-x="512" 
 />
    <glyph glyph-name="uni029A" unicode="&#x29a;" horiz-adv-x="512" 
 />
    <glyph glyph-name="uni029B" unicode="&#x29b;" horiz-adv-x="512" 
 />
    <glyph glyph-name="uni029C" unicode="&#x29c;" horiz-adv-x="512" 
 />
    <glyph glyph-name="uni029D" unicode="&#x29d;" horiz-adv-x="512" 
 />
    <glyph glyph-name="uni029E" unicode="&#x29e;" horiz-adv-x="512" 
 />
    <glyph glyph-name="uni029F" unicode="&#x29f;" horiz-adv-x="512" 
 />
    <glyph glyph-name="uni02A0" unicode="&#x2a0;" horiz-adv-x="512" 
 />
    <glyph glyph-name="uni02A1" unicode="&#x2a1;" horiz-adv-x="512" 
 />
    <glyph glyph-name="uni02A2" unicode="&#x2a2;" horiz-adv-x="512" 
 />
    <glyph glyph-name="uni02A3" unicode="&#x2a3;" horiz-adv-x="512" 
 />
    <glyph glyph-name="uni02A4" unicode="&#x2a4;" horiz-adv-x="512" 
 />
    <glyph glyph-name="uni02A5" unicode="&#x2a5;" horiz-adv-x="512" 
 />
    <glyph glyph-name="uni02A6" unicode="&#x2a6;" horiz-adv-x="512" 
 />
    <glyph glyph-name="uni02A7" unicode="&#x2a7;" horiz-adv-x="512" 
 />
    <glyph glyph-name="uni02A8" unicode="&#x2a8;" horiz-adv-x="512" 
 />
    <glyph glyph-name="circumflex" unicode="&#x2c6;" horiz-adv-x="512" 
 />
    <glyph glyph-name="caron" unicode="&#x2c7;" horiz-adv-x="512" 
 />
    <glyph glyph-name="uni02C9" unicode="&#x2c9;" horiz-adv-x="512" 
 />
    <glyph glyph-name="breve" unicode="&#x2d8;" horiz-adv-x="512" 
 />
    <glyph glyph-name="dotaccent" unicode="&#x2d9;" horiz-adv-x="512" 
 />
    <glyph glyph-name="ring" unicode="&#x2da;" horiz-adv-x="512" 
 />
    <glyph glyph-name="ogonek" unicode="&#x2db;" horiz-adv-x="512" 
 />
    <glyph glyph-name="tilde" unicode="&#x2dc;" horiz-adv-x="512" 
 />
    <glyph glyph-name="hungarumlaut" unicode="&#x2dd;" horiz-adv-x="512" 
 />
    <glyph glyph-name="uni0374" unicode="&#x374;" horiz-adv-x="512" 
 />
    <glyph glyph-name="uni0375" unicode="&#x375;" horiz-adv-x="512" 
 />
    <glyph glyph-name="uni037A" unicode="&#x37a;" horiz-adv-x="512" 
 />
    <glyph glyph-name="uni037E" unicode="&#x37e;" horiz-adv-x="512" 
 />
    <glyph glyph-name="tonos" unicode="&#x384;" horiz-adv-x="512" 
 />
    <glyph glyph-name="dieresistonos" unicode="&#x385;" horiz-adv-x="512" 
 />
    <glyph glyph-name="Alphatonos" unicode="&#x386;" horiz-adv-x="512" 
 />
    <glyph glyph-name="anoteleia" unicode="&#x387;" horiz-adv-x="512" 
 />
    <glyph glyph-name="Epsilontonos" unicode="&#x388;" horiz-adv-x="512" 
 />
    <glyph glyph-name="Etatonos" unicode="&#x389;" horiz-adv-x="512" 
 />
    <glyph glyph-name="Iotatonos" unicode="&#x38a;" horiz-adv-x="512" 
 />
    <glyph glyph-name="Omicrontonos" unicode="&#x38c;" horiz-adv-x="512" 
 />
    <glyph glyph-name="Upsilontonos" unicode="&#x38e;" horiz-adv-x="512" 
 />
    <glyph glyph-name="Omegatonos" unicode="&#x38f;" horiz-adv-x="512" 
 />
    <glyph glyph-name="iotadieresistonos" unicode="&#x390;" horiz-adv-x="512" 
 />
    <glyph glyph-name="Alpha" unicode="&#x391;" horiz-adv-x="731" 
d="M30 0l259 748h153l259 -748h-152l-53 180h-265l-53 -180h-148zM264 290h199l-98 332h-3z" />
    <glyph glyph-name="Beta" unicode="&#x392;" horiz-adv-x="634" 
d="M222 446h38q96 0 138 25t42 74q0 48 -33.5 69.5t-114.5 21.5h-70v-190zM222 340v-228h77q86 0 125 29t39 92q0 56 -45 81.5t-152 25.5h-44zM599 220q0 -112 -76.5 -166t-247.5 -54h-194v748h184q163 0 235 -45.5t72 -137.5q0 -61 -41.5 -105t-111.5 -58v-2
q85 -12 132.5 -60t47.5 -120z" />
    <glyph glyph-name="Gamma" unicode="&#x393;" horiz-adv-x="585" 
d="M229 627v-627h-148v748h454v-121h-306z" />
    <glyph glyph-name="uni0394" unicode="&#x394;" horiz-adv-x="731" 
d="M598 0h-49h-371h-45h-103l259 748h153l259 -748h-103zM212 114h303l-150 508h-3z" />
    <glyph glyph-name="Epsilon" unicode="&#x395;" horiz-adv-x="616" 
d="M224 632v-183h301v-110h-301v-223h322v-116h-465v748h465v-116h-322z" />
    <glyph glyph-name="Zeta" unicode="&#x396;" horiz-adv-x="668" 
d="M71 748h526v-116l-358 -514v-2h358v-116h-526v116l358 514v2h-358v116z" />
    <glyph glyph-name="Eta" unicode="&#x397;" horiz-adv-x="752" 
d="M527 339h-303v-339h-143v748h143v-299h303v299h144v-748h-144v339z" />
    <glyph glyph-name="Theta" unicode="&#x398;" horiz-adv-x="817" 
d="M252 317v113h313v-113h-313zM137 654q102 104 272 104t271.5 -104t101.5 -280t-101.5 -280t-271.5 -104t-272 104t-102 280t102 280zM243 178q61 -70 165.5 -70t166 70t61.5 196t-61.5 196t-166 70t-166 -70t-61.5 -196t62 -196z" />
    <glyph glyph-name="Iota" unicode="&#x399;" horiz-adv-x="360" 
d="M101 0v748h158v-748h-158z" />
    <glyph glyph-name="Kappa" unicode="&#x39a;" horiz-adv-x="694" 
d="M224 748v-325h2l260 325h168l-297 -359l308 -389h-168l-271 355h-2v-355h-143v748h143z" />
    <glyph glyph-name="Lambda" unicode="&#x39b;" horiz-adv-x="731" 
d="M549 0l-184 622h-3l-184 -622h-148l259 748h153l259 -748h-152z" />
    <glyph glyph-name="Mu" unicode="&#x39c;" horiz-adv-x="885" 
d="M653 546h-2l-136 -546h-149l-137 546h-2l-49 -546h-138l88 748h171l142 -584h2l143 584h171l88 -748h-143z" />
    <glyph glyph-name="Nu" unicode="&#x39d;" horiz-adv-x="752" 
d="M81 0v748h140l307 -509h2v509h141v-748h-141l-307 509h-2v-509h-140z" />
    <glyph glyph-name="Xi" unicode="&#x39e;" horiz-adv-x="637" 
d="M71 0v116h495v-116h-495zM91 339v110h455v-110h-455zM71 632v116h495v-116h-495z" />
    <glyph glyph-name="Omicron" unicode="&#x39f;" horiz-adv-x="817" 
d="M137 654q102 104 272 104t271.5 -104t101.5 -280t-101.5 -280t-271.5 -104t-272 104t-102 280t102 280zM243 178q61 -70 165.5 -70t166 70t61.5 196t-61.5 196t-166 70t-166 -70t-61.5 -196t62 -196z" />
    <glyph glyph-name="Pi" unicode="&#x3a0;" horiz-adv-x="752" 
d="M81 748h590v-748h-144v632h-303v-632h-143v748z" />
    <glyph glyph-name="Rho" unicode="&#x3a1;" horiz-adv-x="643" 
d="M222 266v-266h-141v748h205q169 0 248 -57t79 -171q0 -254 -294 -254h-97zM222 375h84q170 0 170 135q0 63 -40.5 94.5t-129.5 31.5h-84v-261z" />
    <glyph glyph-name="Sigma" unicode="&#x3a3;" horiz-adv-x="596" 
d="M414 387l-191 -271h307v-116h-464v116l191 271l-191 245v116h464v-116h-307z" />
    <glyph glyph-name="Tau" unicode="&#x3a4;" horiz-adv-x="684" 
d="M629 748v-119h-214v-629h-146v629h-214v119h574z" />
    <glyph glyph-name="Upsilon" unicode="&#x3a5;" horiz-adv-x="715" 
d="M190 748l168 -335h2l168 335h162l-259 -451v-297h-147v297l-259 451h165z" />
    <glyph glyph-name="Phi" unicode="&#x3a6;" horiz-adv-x="776" 
d="M460 658q135 -16 210.5 -89.5t75.5 -189.5t-75.5 -189.5t-210.5 -90.5v-99h-144v99q-135 17 -210.5 90.5t-75.5 189.5t75.5 189.5t210.5 89.5v90h144v-90zM460 213q145 28 145 166t-145 166v-332zM316 545q-145 -28 -145 -166t145 -166v332z" />
    <glyph glyph-name="Chi" unicode="&#x3a7;" horiz-adv-x="694" 
d="M346 290h-2l-144 -290h-160l213 379l-208 369h161l142 -280h2l143 280h156l-208 -369l213 -379h-164z" />
    <glyph glyph-name="Psi" unicode="&#x3a8;" horiz-adv-x="831" 
d="M487 267q73 14 107 58t34 124v299h138v-287q0 -145 -67.5 -220.5t-211.5 -89.5v-151h-143v151q-143 14 -210.5 89.5t-67.5 220.5v287h138v-299q0 -80 33.5 -124t106.5 -58v481h143v-481z" />
    <glyph glyph-name="uni03A9" unicode="&#x3a9;" horiz-adv-x="868" 
d="M207 377q0 -114 48.5 -182.5t129.5 -81.5v-113h-335v113h127v2q-117 99 -117 289q0 156 103 255t271 99t271 -99t103 -255q0 -189 -117 -289v-2h127v-113h-335v113q81 13 130 81.5t49 182.5q0 124 -61.5 193.5t-166 69.5t-166 -69.5t-61.5 -193.5z" />
    <glyph glyph-name="Iotadieresis" unicode="&#x3aa;" horiz-adv-x="512" 
 />
    <glyph glyph-name="Upsilondieresis" unicode="&#x3ab;" horiz-adv-x="512" 
 />
    <glyph glyph-name="alphatonos" unicode="&#x3ac;" horiz-adv-x="512" 
 />
    <glyph glyph-name="epsilontonos" unicode="&#x3ad;" horiz-adv-x="512" 
 />
    <glyph glyph-name="etatonos" unicode="&#x3ae;" horiz-adv-x="512" 
 />
    <glyph glyph-name="iotatonos" unicode="&#x3af;" horiz-adv-x="512" 
 />
    <glyph glyph-name="upsilondieresistonos" unicode="&#x3b0;" horiz-adv-x="512" 
 />
    <glyph glyph-name="alpha" unicode="&#x3b1;" horiz-adv-x="685" 
d="M538 253q37 -84 102 -253h-134q-32 109 -37 123q-88 -133 -209 -133q-99 0 -159.5 73t-60.5 203t61 203.5t159 73.5q64 0 111 -31.5t99 -123.5q12 46 33 144h127q-46 -173 -92 -279zM424 250q-43 108 -79.5 149.5t-78.5 41.5q-43 0 -68 -43t-25 -132q0 -87 28 -131
t72 -44q85 0 151 159z" />
    <glyph glyph-name="beta" unicode="&#x3b2;" horiz-adv-x="612" 
d="M286 95q85 0 124.5 32.5t39.5 99.5q0 61 -43 89t-140 28h-10v97h10q160 0 160 109q0 47 -28 73.5t-80 26.5q-60 0 -85 -26t-25 -88v-431q48 -10 77 -10zM209 -3v-222h-133v749q0 234 237 234q111 0 174 -51.5t63 -136.5q0 -63 -42 -108.5t-112 -59.5v-2q84 -11 133 -61.5
t49 -123.5q0 -225 -284 -225q-42 0 -85 7z" />
    <glyph glyph-name="gamma" unicode="&#x3b3;" horiz-adv-x="616" 
d="M375 -225h-133v245q-60 251 -212 512h145q90 -183 134 -375h2q44 192 134 375h142q-153 -261 -212 -512v-245z" />
    <glyph glyph-name="delta" unicode="&#x3b4;" horiz-adv-x="598" 
d="M276 445q-108 -17 -108 -179q0 -86 35 -130.5t96 -44.5t96 44.5t35 130.5q0 87 -32 129t-102 48q-3 1 -9.5 1t-10.5 1zM145 485q-64 40 -64 119q0 71 56 112.5t162.5 41.5t199.5 -39l-26 -101q-85 39 -167 39q-94 0 -94 -56q0 -52 84 -58q267 -19 267 -277
q0 -127 -71 -201.5t-193 -74.5t-193 74.5t-71 201.5q0 156 110 219z" />
    <glyph glyph-name="epsilon" unicode="&#x3b5;" horiz-adv-x="556" 
d="M174 281q-61 15 -94 49t-33 78q0 56 66 95.5t182 39.5q106 0 213 -40l-31 -93q-96 35 -169 35q-126 0 -126 -58q0 -32 44 -48t149 -16h39v-92h-39q-112 0 -156 -17t-44 -53q0 -71 126 -71q88 0 185 33l30 -93q-115 -40 -221 -40q-123 0 -189 42t-66 111q0 51 37.5 89
t96.5 47v2z" />
    <glyph glyph-name="zeta" unicode="&#x3b6;" horiz-adv-x="582" 
d="M289 658v2h-217v108h386v-108q-109 -35 -189 -149t-80 -235q0 -102 38.5 -140.5t140.5 -38.5q194 0 194 -158q0 -83 -57.5 -129t-164.5 -46q-77 0 -159 23l17 99q68 -17 139 -17q95 0 95 66q0 55 -104 55q-145 0 -211.5 64t-66.5 199q0 127 64.5 236.5t174.5 168.5z" />
    <glyph glyph-name="eta" unicode="&#x3b7;" horiz-adv-x="613" 
d="M71 532h124l3 -74h2q30 40 75.5 62.5t93.5 22.5q92 0 135.5 -57t43.5 -186v-525h-131v512q0 88 -20.5 119t-73.5 31q-45 0 -82 -46t-37 -107v-284h-133v532z" />
    <glyph glyph-name="theta" unicode="&#x3b8;" horiz-adv-x="592" 
d="M109 668q67 100 187 100t188 -100.5t68 -294t-68 -293.5t-188 -100t-188 100t-68 293.5t69 294.5zM170 317q7 -115 40.5 -173t85.5 -58t85.5 58t40.5 173h-252zM170 430h252q-7 116 -40.5 174t-85.5 58t-85.5 -58t-40.5 -174z" />
    <glyph glyph-name="iota" unicode="&#x3b9;" horiz-adv-x="464" 
d="M238 532v-337q0 -63 13.5 -83t53.5 -20q49 0 92 18l17 -100q-64 -20 -136 -20q-97 0 -139.5 42t-42.5 139v361h142z" />
    <glyph glyph-name="kappa" unicode="&#x3ba;" horiz-adv-x="604" 
d="M211 319l184 213h161l-234 -254l242 -278h-161l-192 234h-1v-234h-139v532h139v-213h1z" />
    <glyph glyph-name="lambda" unicode="&#x3bb;" horiz-adv-x="603" 
d="M58 758q129 0 198 -50t118 -183l199 -525h-141l-121 376h-2l-127 -376h-147l211 515q-29 84 -68.5 111t-127.5 27z" />
    <glyph glyph-name="uni03BC" unicode="&#x3bc;" horiz-adv-x="608" 
d="M404 532h134v-532h-124l-3 75h-2q-27 -40 -66.5 -62.5t-81.5 -22.5q-34 0 -59 14v-229h-131v757h131v-317q0 -69 19 -94t65 -25q45 0 81.5 45.5t36.5 107.5v283z" />
    <glyph glyph-name="nu" unicode="&#x3bd;" horiz-adv-x="601" 
d="M301 79q63 111 88.5 213t25.5 240h141q0 -145 -34 -253.5t-132 -278.5h-184l-176 532h145l124 -453h2z" />
    <glyph glyph-name="xi" unicode="&#x3be;" horiz-adv-x="587" 
d="M186 -213l17 99q68 -17 139 -17q95 0 95 66q0 55 -104 55q-278 0 -278 208q0 68 44 123t115 73v3q-69 16 -105.5 52.5t-36.5 85.5q0 38 28.5 73.5t81.5 57.5v2h-105v100h386v-100q-132 -3 -194 -35.5t-62 -84.5q0 -105 176 -105h100v-102h-100q-93 0 -141 -33t-48 -86
q0 -62 42 -93.5t137 -31.5t144.5 -43.5t49.5 -120.5q0 -81 -56 -125t-166 -44q-77 0 -159 23z" />
    <glyph glyph-name="omicron" unicode="&#x3bf;" horiz-adv-x="598" 
d="M106 468q71 75 193 75t193 -75t71 -202t-71 -201.5t-193 -74.5t-193 74.5t-71 201.5t71 202zM203 136q35 -45 96 -45t96 44.5t35 130.5t-35 130.5t-96 44.5t-96 -44.5t-35 -130.5t35 -130z" />
    <glyph glyph-name="pi" unicode="&#x3c0;" horiz-adv-x="668" 
d="M402 433h-137v-433h-131v433h-84v99h567v-99h-83v-433h-132v433z" />
    <glyph glyph-name="rho" unicode="&#x3c1;" horiz-adv-x="605" 
d="M60 -225v478q0 142 67.5 216t191.5 74q118 0 182 -71.5t64 -205.5q0 -132 -59 -204t-154 -72q-98 0 -156 75h-2v-290h-134zM437 266q0 86 -32 129t-91 43q-54 0 -87 -44.5t-33 -122.5v-10q0 -80 33 -123.5t87.5 -43.5t88.5 44.5t34 127.5z" />
    <glyph glyph-name="sigma1" unicode="&#x3c2;" horiz-adv-x="512" 
 />
    <glyph glyph-name="sigma" unicode="&#x3c3;" horiz-adv-x="658" 
d="M521 413v-2q42 -61 42 -158q0 -120 -73 -191.5t-191 -71.5q-122 0 -193 74.5t-71 201.5t71 202t193 75q45 0 103.5 -15.5t116.5 -15.5h120v-99h-118zM203 136q35 -45 96 -45t96 44.5t35 130.5t-35 130.5t-96 44.5t-96 -44.5t-35 -130.5t35 -130z" />
    <glyph glyph-name="tau" unicode="&#x3c4;" horiz-adv-x="612" 
d="M377 433v-433h-138v433h-199v99h532v-99h-195z" />
    <glyph glyph-name="upsilon" unicode="&#x3c5;" horiz-adv-x="610" 
d="M560 290q0 -300 -256 -300q-129 0 -183.5 50.5t-54.5 167.5v324h131v-310q0 -69 24.5 -97.5t82.5 -28.5q63 0 93.5 47.5t30.5 163.5q0 106 -47 222l130 24q49 -129 49 -263z" />
    <glyph glyph-name="phi" unicode="&#x3c6;" horiz-adv-x="731" 
d="M268 455q-100 -75 -100 -189q0 -142 131 -169v248q0 104 39.5 151t122.5 47q105 0 170 -75t65 -202q0 -113 -69 -185t-195 -87v-219h-133v219q-126 15 -195 87t-69 185q0 177 156 277zM432 97q131 27 131 169q0 74 -26.5 120.5t-61.5 46.5q-24 0 -33.5 -22t-9.5 -94v-220
z" />
    <glyph glyph-name="chi" unicode="&#x3c7;" horiz-adv-x="598" 
d="M298 67h-2l-119 -292h-147l187 384l-187 373h148l122 -281h2l122 281h144l-187 -373l187 -384h-151z" />
    <glyph glyph-name="psi" unicode="&#x3c8;" horiz-adv-x="756" 
d="M444 99q67 12 95 54.5t28 128.5v250h128v-228q0 -144 -61.5 -220.5t-189.5 -90.5v-218h-133v218q-128 14 -189.5 90.5t-61.5 220.5v228h128v-250q0 -86 28.5 -128.5t94.5 -54.5v608h133v-608z" />
    <glyph glyph-name="omega" unicode="&#x3c9;" horiz-adv-x="838" 
d="M420 126h-2q-16 -65 -59 -100.5t-101 -35.5q-92 0 -150 68t-58 188q0 80 21 159t58 138l129 -18q-75 -126 -75 -276q0 -74 26.5 -114t65.5 -40q37 0 59.5 48t22.5 149v179h123v-179q0 -101 22.5 -149t59.5 -48q40 0 66 40t26 114q0 150 -74 276l129 18q36 -59 57 -138
t21 -159q0 -120 -57.5 -188t-149.5 -68q-59 0 -102 35.5t-58 100.5z" />
    <glyph glyph-name="iotadieresis" unicode="&#x3ca;" horiz-adv-x="512" 
 />
    <glyph glyph-name="upsilondieresis" unicode="&#x3cb;" horiz-adv-x="512" 
 />
    <glyph glyph-name="omicrontonos" unicode="&#x3cc;" horiz-adv-x="512" 
 />
    <glyph glyph-name="upsilontonos" unicode="&#x3cd;" horiz-adv-x="512" 
 />
    <glyph glyph-name="omegatonos" unicode="&#x3ce;" horiz-adv-x="512" 
 />
    <glyph glyph-name="uni0401" unicode="&#x401;" horiz-adv-x="616" 
d="M357 826v144h127v-144h-127zM142 826v144h127v-144h-127zM224 632v-183h301v-110h-301v-223h322v-116h-465v748h465v-116h-322z" />
    <glyph glyph-name="uni0402" unicode="&#x402;" horiz-adv-x="512" 
 />
    <glyph glyph-name="uni0403" unicode="&#x403;" horiz-adv-x="512" 
 />
    <glyph glyph-name="uni0404" unicode="&#x404;" horiz-adv-x="512" 
 />
    <glyph glyph-name="uni0405" unicode="&#x405;" horiz-adv-x="512" 
 />
    <glyph glyph-name="uni0406" unicode="&#x406;" horiz-adv-x="512" 
 />
    <glyph glyph-name="uni0407" unicode="&#x407;" horiz-adv-x="512" 
 />
    <glyph glyph-name="uni0408" unicode="&#x408;" horiz-adv-x="512" 
 />
    <glyph glyph-name="uni0409" unicode="&#x409;" horiz-adv-x="512" 
 />
    <glyph glyph-name="uni040A" unicode="&#x40a;" horiz-adv-x="512" 
 />
    <glyph glyph-name="uni040B" unicode="&#x40b;" horiz-adv-x="512" 
 />
    <glyph glyph-name="uni040C" unicode="&#x40c;" horiz-adv-x="512" 
 />
    <glyph glyph-name="uni040E" unicode="&#x40e;" horiz-adv-x="512" 
 />
    <glyph glyph-name="uni040F" unicode="&#x40f;" horiz-adv-x="512" 
 />
    <glyph glyph-name="uni0410" unicode="&#x410;" horiz-adv-x="731" 
d="M264 290h199l-98 332h-3zM231 180l-53 -180h-148l259 748h153l259 -748h-152l-53 180h-265z" />
    <glyph glyph-name="uni0411" unicode="&#x411;" horiz-adv-x="640" 
d="M222 110h71q90 0 132 33t42 102q0 114 -171 114h-74v-249zM222 467h61q156 0 236.5 -57t80.5 -164q0 -129 -76.5 -187.5t-251.5 -58.5h-191v748h481v-112h-340v-169z" />
    <glyph glyph-name="uni0412" unicode="&#x412;" horiz-adv-x="634" 
d="M222 446h38q96 0 138 25t42 74q0 48 -33.5 69.5t-114.5 21.5h-70v-190zM222 340v-228h77q86 0 125 29t39 92q0 56 -45 81.5t-152 25.5h-44zM599 220q0 -112 -76.5 -166t-247.5 -54h-194v748h184q164 0 235.5 -45.5t71.5 -137.5q0 -61 -41.5 -105t-111.5 -58v-2
q85 -12 132.5 -60t47.5 -120z" />
    <glyph glyph-name="uni0413" unicode="&#x413;" horiz-adv-x="585" 
d="M229 627v-627h-148v748h454v-121h-306z" />
    <glyph glyph-name="uni0414" unicode="&#x414;" horiz-adv-x="780" 
d="M251 116h259v516h-178q0 -178 -6.5 -261t-21 -134.5t-53.5 -120.5zM95 116q65 94 82 181t17 335v116h457v-632h89v-280h-132v164h-436v-164h-132v280h55z" />
    <glyph glyph-name="uni0415" unicode="&#x415;" horiz-adv-x="616" 
d="M224 632v-183h301v-110h-301v-223h322v-116h-465v748h465v-116h-322z" />
    <glyph glyph-name="uni0416" unicode="&#x416;" horiz-adv-x="961" 
d="M774 0l-173 332h-51v-332h-139v332h-52l-173 -332h-151l212 390l-205 358h147l170 -299h52v299h139v-299h51l170 299h148l-205 -358l212 -390h-152z" />
    <glyph glyph-name="uni0417" unicode="&#x417;" horiz-adv-x="603" 
d="M555 581q0 -74 -37 -117.5t-120 -66.5v-2q170 -23 170 -180q0 -106 -76 -165.5t-213 -59.5q-126 0 -249 61l37 112q107 -58 204 -58q76 0 116 31t40 86q0 57 -50 83t-174 26h-47v114h47q214 0 214 110q0 87 -142 87q-81 0 -193 -57l-34 111q123 62 248 62
q122 0 190.5 -48t68.5 -129z" />
    <glyph glyph-name="uni0418" unicode="&#x418;" horiz-adv-x="752" 
d="M671 0h-141v509h-2l-307 -509h-140v748h140v-509h2l307 509h141v-748z" />
    <glyph glyph-name="uni0419" unicode="&#x419;" horiz-adv-x="752" 
d="M168 976h103q3 -40 32.5 -64t72.5 -24t72 24t32 64h104q0 -77 -59 -127t-149 -50t-149 50t-59 127zM671 0h-141v509h-2l-307 -509h-140v748h140v-509h2l307 509h141v-748z" />
    <glyph glyph-name="uni041A" unicode="&#x41a;" horiz-adv-x="694" 
d="M224 748v-325h2l260 325h168l-297 -359l308 -389h-168l-271 355h-2v-355h-143v748h143z" />
    <glyph glyph-name="uni041B" unicode="&#x41b;" horiz-adv-x="762" 
d="M681 0h-143v632h-216v-268q0 -145 -29 -223t-89.5 -110.5t-175.5 -40.5l-9 112q66 4 97 23t46.5 73t15.5 163v387h503v-748z" />
    <glyph glyph-name="uni041C" unicode="&#x41c;" horiz-adv-x="885" 
d="M653 546h-2l-136 -546h-149l-137 546h-2l-49 -546h-138l88 748h171l142 -584h2l143 584h171l88 -748h-143z" />
    <glyph glyph-name="uni041D" unicode="&#x41d;" horiz-adv-x="752" 
d="M527 339h-303v-339h-143v748h143v-299h303v299h144v-748h-144v339z" />
    <glyph glyph-name="uni041E" unicode="&#x41e;" horiz-adv-x="817" 
d="M137 654q102 104 272 104t271.5 -104t101.5 -280t-101.5 -280t-271.5 -104t-272 104t-102 280t102 280zM243 178q61 -70 165.5 -70t166 70t61.5 196t-61.5 196t-166 70t-166 -70t-61.5 -196t62 -196z" />
    <glyph glyph-name="uni041F" unicode="&#x41f;" horiz-adv-x="752" 
d="M81 748h590v-748h-144v632h-303v-632h-143v748z" />
    <glyph glyph-name="uni0420" unicode="&#x420;" horiz-adv-x="643" 
d="M222 266v-266h-141v748h205q169 0 248 -57t79 -171q0 -254 -294 -254h-97zM222 375h84q170 0 170 135q0 63 -40.5 94.5t-129.5 31.5h-84v-261z" />
    <glyph glyph-name="uni0421" unicode="&#x421;" horiz-adv-x="720" 
d="M420 -10q-175 0 -280 104t-105 280q0 177 103.5 280.5t281.5 103.5q136 0 239 -67l-43 -105q-89 56 -182 56q-116 0 -184.5 -72t-68.5 -196q0 -123 71 -196t182 -73q93 0 182 57l43 -106q-103 -66 -239 -66z" />
    <glyph glyph-name="uni0422" unicode="&#x422;" horiz-adv-x="684" 
d="M629 748v-119h-214v-629h-146v629h-214v119h574z" />
    <glyph glyph-name="uni0423" unicode="&#x423;" horiz-adv-x="725" 
d="M62 -10l-10 115q118 0 165 23t77 90l-259 530h166l168 -400h2l168 400h161l-245 -526q-62 -131 -147.5 -181.5t-245.5 -50.5z" />
    <glyph glyph-name="uni0424" unicode="&#x424;" horiz-adv-x="776" 
d="M460 658q135 -16 210.5 -89.5t75.5 -189.5t-75.5 -189.5t-210.5 -90.5v-99h-144v99q-135 17 -210.5 90.5t-75.5 189.5t75.5 189.5t210.5 89.5v90h144v-90zM460 213q145 28 145 166t-145 166v-332zM316 545q-145 -28 -145 -166t145 -166v332z" />
    <glyph glyph-name="uni0425" unicode="&#x425;" horiz-adv-x="694" 
d="M346 290h-2l-144 -290h-160l213 379l-208 369h161l142 -280h2l143 280h156l-208 -369l213 -379h-164z" />
    <glyph glyph-name="uni0426" unicode="&#x426;" horiz-adv-x="824" 
d="M672 116h112v-280h-133v164h-570v748h143v-632h304v632h144v-632z" />
    <glyph glyph-name="uni0427" unicode="&#x427;" horiz-adv-x="698" 
d="M474 261q-56 -31 -133 -31q-143 0 -206.5 60t-63.5 194v264h140v-246q0 -89 32 -120.5t125 -31.5q61 0 106 29v369h143v-748h-143v261z" />
    <glyph glyph-name="uni0428" unicode="&#x428;" horiz-adv-x="995" 
d="M914 0h-833v748h140v-632h208v632h137v-632h208v632h140v-748z" />
    <glyph glyph-name="uni0429" unicode="&#x429;" horiz-adv-x="1056" 
d="M221 116h208v632h136v-632h209v632h139v-632h103v-280h-133v164h-802v748h140v-632z" />
    <glyph glyph-name="uni042A" unicode="&#x42a;" horiz-adv-x="802" 
d="M244 636h-209v112h350v-277h59q156 0 237 -59t81 -166q0 -129 -76.5 -187.5t-251.5 -58.5h-190v636zM385 359v-249h70q90 0 132 33t42 102q0 114 -170 114h-74z" />
    <glyph glyph-name="uni042B" unicode="&#x42b;" horiz-adv-x="909" 
d="M685 0v748h143v-748h-143zM222 110h71q90 0 132 33t42 102q0 114 -171 114h-74v-249zM222 471h61q155 0 236 -59t81 -166q0 -129 -76.5 -187.5t-251.5 -58.5h-191v748h141v-277z" />
    <glyph glyph-name="uni042C" unicode="&#x42c;" horiz-adv-x="639" 
d="M222 110h70q90 0 132 33t42 102q0 114 -170 114h-74v-249zM222 471h60q155 0 236 -59t81 -166q0 -129 -76.5 -187.5t-251.5 -58.5h-190v748h141v-277z" />
    <glyph glyph-name="uni042D" unicode="&#x42d;" horiz-adv-x="725" 
d="M131 332v109h407q-18 95 -83.5 148t-163.5 53q-93 0 -182 -56l-43 105q103 67 239 67q178 0 281.5 -103.5t103.5 -280.5q0 -176 -105 -280t-280 -104q-136 0 -239 66l43 106q89 -57 182 -57q101 0 169.5 60.5t81.5 166.5h-411z" />
    <glyph glyph-name="uni042E" unicode="&#x42e;" horiz-adv-x="1046" 
d="M670 758q153 0 244.5 -104t91.5 -280t-91.5 -280t-244.5 -104q-146 0 -236 94t-99 255h-111v-339h-143v748h143v-299h114q19 144 107.5 226.5t224.5 82.5zM531 178q51 -70 139 -70t138.5 70t50.5 196t-50.5 196t-138.5 70t-139 -70t-51 -196t51 -196z" />
    <glyph glyph-name="uni042F" unicode="&#x42f;" horiz-adv-x="667" 
d="M371 636q-91 0 -130 -26t-39 -83q0 -127 182 -127h60v236h-73zM444 292h-56q-57 0 -80.5 -15.5t-42.5 -64.5l-78 -212h-147l82 215q36 93 85 122v2q-68 21 -107.5 75.5t-39.5 126.5q0 103 76.5 155t244.5 52h205v-748h-142v292z" />
    <glyph glyph-name="uni0430" unicode="&#x430;" horiz-adv-x="590" 
d="M286 543q122 0 175 -48t53 -154v-198q0 -72 15 -143h-126q-6 34 -9 79h-2q-28 -42 -77 -65.5t-106 -23.5q-75 0 -119.5 41.5t-44.5 114.5q0 90 75.5 143.5t216.5 53.5h44v3q0 54 -21.5 75.5t-76.5 21.5q-101 0 -190 -46l-19 100q97 46 212 46zM170 157q0 -33 19.5 -51.5
t53.5 -18.5q58 0 98 38t40 95v35h-44q-81 0 -124 -27t-43 -71z" />
    <glyph glyph-name="uni0431" unicode="&#x431;" horiz-adv-x="627" 
d="M326 -10q-125 0 -192.5 73t-67.5 210v205q0 147 76.5 213.5t244.5 66.5q82 0 155 10v-100q-77 -11 -152 -11q-111 0 -151.5 -37t-40.5 -139v-38h1q58 79 162 79q91 0 150.5 -72t59.5 -194q0 -128 -64.5 -197t-180.5 -69zM442 256q0 77 -32.5 120.5t-85.5 43.5
q-57 0 -91 -42t-34 -117v-10q0 -73 33.5 -116t88.5 -43q57 0 89 42t32 122z" />
    <glyph glyph-name="uni0432" unicode="&#x432;" horiz-adv-x="546" 
d="M506 157q0 -81 -64.5 -119t-210.5 -38h-160v532h151q136 0 198.5 -32t62.5 -98q0 -42 -31 -73.5t-93 -42.5v-1q70 -10 108.5 -44t38.5 -84zM206 322h42q108 0 108 64q0 58 -110 58h-40v-122zM206 238v-150h42q75 0 101.5 20.5t26.5 58.5q0 71 -125 71h-45z" />
    <glyph glyph-name="uni0433" unicode="&#x433;" horiz-adv-x="525" 
d="M210 0h-139v532h419v-104h-280v-428z" />
    <glyph glyph-name="uni0434" unicode="&#x434;" horiz-adv-x="670" 
d="M227 99h207v334h-148q0 -183 -8 -227.5t-51 -106.5zM79 99q41 49 54 79.5t18 79t5 175.5v99h409v-433h70v-222h-131v123h-338v-123h-131v222h44z" />
    <glyph glyph-name="uni0435" unicode="&#x435;" horiz-adv-x="584" 
d="M168 309h250q-1 67 -33.5 102t-90.5 35q-56 0 -89.5 -35.5t-36.5 -101.5zM168 218q5 -60 46.5 -95.5t104.5 -35.5q76 0 151 38l31 -94q-92 -41 -195 -41q-121 0 -196 74.5t-75 201.5q0 129 69.5 203t188.5 74t185 -71t66 -203q0 -25 -3 -51h-373z" />
    <glyph glyph-name="uni0436" unicode="&#x436;" horiz-adv-x="817" 
d="M344 532h129v-211h40l119 211h135l-152 -258l157 -274h-135l-124 222h-40v-222h-129v222h-40l-124 -222h-135l157 273l-152 259h135l119 -211h40v211z" />
    <glyph glyph-name="uni0437" unicode="&#x437;" horiz-adv-x="556" 
d="M382 281v-2q59 -9 96.5 -47t37.5 -89q0 -69 -66 -111t-189 -42q-106 0 -221 40l30 93q97 -33 185 -33q126 0 126 71q0 36 -44 53t-156 17h-39v92h39q105 0 149 16t44 48q0 58 -126 58q-73 0 -169 -35l-31 93q107 40 213 40q116 0 182 -39.5t66 -95.5q0 -44 -33 -78
t-94 -49z" />
    <glyph glyph-name="uni0438" unicode="&#x438;" horiz-adv-x="637" 
d="M206 532v-347h2l220 347h138v-532h-135v347h-2l-220 -347h-138v532h135z" />
    <glyph glyph-name="uni0439" unicode="&#x439;" horiz-adv-x="637" 
d="M206 532v-347h2l220 347h138v-532h-135v347h-2l-220 -347h-138v532h135zM111 771h103q3 -40 32 -64t72 -24t72.5 24t32.5 64h103q0 -77 -58.5 -127t-149 -50t-149 50t-58.5 127z" />
    <glyph glyph-name="uni043A" unicode="&#x43a;" horiz-adv-x="604" 
d="M211 319l184 213h161l-234 -254l242 -278h-161l-192 234h-1v-234h-139v532h139v-213h1z" />
    <glyph glyph-name="uni043B" unicode="&#x43b;" horiz-adv-x="652" 
d="M582 0h-136v430h-166v-171q0 -147 -54.5 -204t-203.5 -65l-8 102q58 3 84.5 18t37.5 53t11 116v253h435v-532z" />
    <glyph glyph-name="uni043C" unicode="&#x43c;" horiz-adv-x="762" 
d="M547 370l-96 -370h-143l-95 370h-2l-45 -370h-126l78 532h167l95 -393h2l95 393h167l78 -532h-128l-45 370h-2z" />
    <glyph glyph-name="uni043D" unicode="&#x43d;" horiz-adv-x="635" 
d="M210 231v-231h-139v532h139v-204h215v204h139v-532h-139v231h-215z" />
    <glyph glyph-name="uni043E" unicode="&#x43e;" horiz-adv-x="598" 
d="M106 468q71 75 193 75t193 -75t71 -202t-71 -201.5t-193 -74.5t-193 74.5t-71 201.5t71 202zM203 136q35 -45 96 -45t96 44.5t35 130.5t-35 130.5t-96 44.5t-96 -44.5t-35 -130.5t35 -130z" />
    <glyph glyph-name="uni043F" unicode="&#x43f;" horiz-adv-x="629" 
d="M71 532h487v-532h-134v430h-219v-430h-134v532z" />
    <glyph glyph-name="uni0440" unicode="&#x440;" horiz-adv-x="615" 
d="M447 266q0 86 -32 129t-90 43q-55 0 -88 -44.5t-33 -122.5v-10q0 -80 33 -123.5t87.5 -43.5t88.5 44.5t34 127.5zM575 266q0 -132 -58.5 -204t-154.5 -72q-98 0 -156 75h-2v-290h-133v757h125l2 -74h2q61 85 162 85q100 0 156.5 -71t56.5 -206z" />
    <glyph glyph-name="uni0441" unicode="&#x441;" horiz-adv-x="552" 
d="M461 127l31 -99q-84 -38 -175 -38q-128 0 -205 74.5t-77 201.5q0 130 74.5 203.5t207.5 73.5q91 0 175 -38l-31 -102q-65 37 -136 37q-73 0 -113.5 -45t-40.5 -129q0 -82 42.5 -129t111.5 -47q72 0 136 37z" />
    <glyph glyph-name="uni0442" unicode="&#x442;" horiz-adv-x="573" 
d="M534 428h-177v-428h-141v428h-176v104h494v-104z" />
    <glyph glyph-name="uni0443" unicode="&#x443;" horiz-adv-x="603" 
d="M58 -236l-8 105q85 0 125 26.5t68 104.5l-208 532h147l124 -392h2l124 392h141l-199 -535q-49 -133 -118 -183t-198 -50z" />
    <glyph glyph-name="uni0444" unicode="&#x444;" horiz-adv-x="791" 
d="M329 -225v252h-2q-42 -37 -99 -37q-88 0 -138 69.5t-50 206.5t50 207t138 70q57 0 99 -37h2v262h133v-262h2q42 37 98 37q88 0 138.5 -70t50.5 -207t-50.5 -206.5t-138.5 -69.5q-56 0 -98 37h-2v-252h-133zM531 437q-42 0 -69 -41v-260q27 -41 69 -41q90 0 90 171
t-90 171zM259 95q42 0 70 41v260q-28 41 -70 41q-89 0 -89 -171t89 -171z" />
    <glyph glyph-name="uni0445" unicode="&#x445;" horiz-adv-x="598" 
d="M298 196h-2l-107 -196h-144l170 271l-165 261h149l101 -186h2l101 186h145l-165 -261l170 -271h-149z" />
    <glyph glyph-name="uni0446" unicode="&#x446;" horiz-adv-x="687" 
d="M559 99h98v-222h-118v123h-468v532h135v-433h218v433h135v-433z" />
    <glyph glyph-name="uni0447" unicode="&#x447;" horiz-adv-x="598" 
d="M394 168q-58 -27 -131 -27q-112 0 -157.5 40.5t-45.5 141.5v209h131v-183q0 -64 19 -83.5t77 -19.5q64 0 107 23v263h133v-532h-133v168z" />
    <glyph glyph-name="uni0448" unicode="&#x448;" horiz-adv-x="821" 
d="M751 0h-680v532h132v-433h144v433h127v-433h144v433h133v-532z" />
    <glyph glyph-name="uni0449" unicode="&#x449;" horiz-adv-x="865" 
d="M203 99h144v433h127v-433h144v433h133v-433h85v-222h-120v123h-645v532h132v-433z" />
    <glyph glyph-name="uni044A" unicode="&#x44a;" horiz-adv-x="659" 
d="M179 433h-149v99h282v-148h57q128 0 192 -49t64 -140q0 -100 -64 -147.5t-209 -47.5h-173v433zM312 285v-186h57q128 0 128 96q0 90 -128 90h-57z" />
    <glyph glyph-name="uni044B" unicode="&#x44b;" horiz-adv-x="780" 
d="M577 0v532h133v-532h-133zM388 195q0 90 -128 90h-56v-186h56q128 0 128 96zM204 384h56q128 0 192 -49t64 -140q0 -100 -64 -147.5t-208 -47.5h-173v532h133v-148z" />
    <glyph glyph-name="uni044C" unicode="&#x44c;" horiz-adv-x="551" 
d="M388 195q0 90 -128 90h-56v-186h56q128 0 128 96zM204 384h56q128 0 192 -49t64 -140q0 -100 -64 -147.5t-208 -47.5h-173v532h133v-148z" />
    <glyph glyph-name="uni044D" unicode="&#x44d;" horiz-adv-x="557" 
d="M106 217v98h276q-11 61 -50 93t-100 32q-71 0 -136 -37l-30 102q84 38 174 38q133 0 207.5 -73.5t74.5 -203.5q0 -127 -77 -201.5t-205 -74.5q-90 0 -174 38l30 99q64 -37 136 -37q57 0 97 33.5t52 93.5h-275z" />
    <glyph glyph-name="uni044E" unicode="&#x44e;" horiz-adv-x="824" 
d="M71 532h131v-217h83q13 108 78.5 168t170.5 60q115 0 182.5 -73.5t67.5 -203.5t-67.5 -203t-182.5 -73q-105 0 -170.5 60t-78.5 167h-83v-217h-131v532zM414 266q0 -177 119.5 -177t119.5 177t-119.5 177t-119.5 -177z" />
    <glyph glyph-name="uni044F" unicode="&#x44f;" horiz-adv-x="567" 
d="M182 243v1q-57 15 -93.5 53t-36.5 91q0 144 266 144h179v-532h-137v201h-42q-39 0 -54.5 -10t-34.5 -50l-61 -141h-133l68 150q19 39 37 60t42 33zM360 295v140h-48q-71 0 -100.5 -14.5t-29.5 -47.5q0 -40 30.5 -59t99.5 -19h48z" />
    <glyph glyph-name="uni0451" unicode="&#x451;" horiz-adv-x="584" 
d="M345 622v143h127v-143h-127zM130 622v143h127v-143h-127zM168 309h250q-1 67 -33.5 102t-90.5 35q-56 0 -89.5 -35.5t-36.5 -101.5zM168 218q5 -60 46.5 -95.5t104.5 -35.5q76 0 151 38l31 -94q-92 -41 -195 -41q-121 0 -196 74.5t-75 201.5q0 129 69.5 203t188.5 74
t185 -71t66 -203q0 -25 -3 -51h-373z" />
    <glyph glyph-name="uni0452" unicode="&#x452;" horiz-adv-x="512" 
 />
    <glyph glyph-name="uni0453" unicode="&#x453;" horiz-adv-x="512" 
 />
    <glyph glyph-name="uni0454" unicode="&#x454;" horiz-adv-x="512" 
 />
    <glyph glyph-name="uni0455" unicode="&#x455;" horiz-adv-x="512" 
 />
    <glyph glyph-name="uni0456" unicode="&#x456;" horiz-adv-x="512" 
 />
    <glyph glyph-name="uni0457" unicode="&#x457;" horiz-adv-x="512" 
 />
    <glyph glyph-name="uni0458" unicode="&#x458;" horiz-adv-x="512" 
 />
    <glyph glyph-name="uni0459" unicode="&#x459;" horiz-adv-x="512" 
 />
    <glyph glyph-name="uni045A" unicode="&#x45a;" horiz-adv-x="512" 
 />
    <glyph glyph-name="uni045B" unicode="&#x45b;" horiz-adv-x="512" 
 />
    <glyph glyph-name="uni045C" unicode="&#x45c;" horiz-adv-x="512" 
 />
    <glyph glyph-name="uni045E" unicode="&#x45e;" horiz-adv-x="512" 
 />
    <glyph glyph-name="uni045F" unicode="&#x45f;" horiz-adv-x="512" 
 />
    <glyph glyph-name="uni0460" unicode="&#x460;" horiz-adv-x="512" 
 />
    <glyph glyph-name="uni0461" unicode="&#x461;" horiz-adv-x="512" 
 />
    <glyph glyph-name="uni0462" unicode="&#x462;" horiz-adv-x="512" 
 />
    <glyph glyph-name="uni0463" unicode="&#x463;" horiz-adv-x="512" 
 />
    <glyph glyph-name="uni0464" unicode="&#x464;" horiz-adv-x="512" 
 />
    <glyph glyph-name="uni0465" unicode="&#x465;" horiz-adv-x="512" 
 />
    <glyph glyph-name="uni0466" unicode="&#x466;" horiz-adv-x="512" 
 />
    <glyph glyph-name="uni0467" unicode="&#x467;" horiz-adv-x="512" 
 />
    <glyph glyph-name="uni0468" unicode="&#x468;" horiz-adv-x="512" 
 />
    <glyph glyph-name="uni0469" unicode="&#x469;" horiz-adv-x="512" 
 />
    <glyph glyph-name="uni046A" unicode="&#x46a;" horiz-adv-x="512" 
 />
    <glyph glyph-name="uni046B" unicode="&#x46b;" horiz-adv-x="512" 
 />
    <glyph glyph-name="uni046C" unicode="&#x46c;" horiz-adv-x="512" 
 />
    <glyph glyph-name="uni046D" unicode="&#x46d;" horiz-adv-x="512" 
 />
    <glyph glyph-name="uni046E" unicode="&#x46e;" horiz-adv-x="512" 
 />
    <glyph glyph-name="uni046F" unicode="&#x46f;" horiz-adv-x="512" 
 />
    <glyph glyph-name="uni0470" unicode="&#x470;" horiz-adv-x="512" 
 />
    <glyph glyph-name="uni0471" unicode="&#x471;" horiz-adv-x="512" 
 />
    <glyph glyph-name="uni0472" unicode="&#x472;" horiz-adv-x="512" 
 />
    <glyph glyph-name="uni0473" unicode="&#x473;" horiz-adv-x="512" 
 />
    <glyph glyph-name="uni0474" unicode="&#x474;" horiz-adv-x="512" 
 />
    <glyph glyph-name="uni0475" unicode="&#x475;" horiz-adv-x="512" 
 />
    <glyph glyph-name="uni0476" unicode="&#x476;" horiz-adv-x="512" 
 />
    <glyph glyph-name="uni0477" unicode="&#x477;" horiz-adv-x="512" 
 />
    <glyph glyph-name="uni0478" unicode="&#x478;" horiz-adv-x="512" 
 />
    <glyph glyph-name="uni0479" unicode="&#x479;" horiz-adv-x="512" 
 />
    <glyph glyph-name="uni047A" unicode="&#x47a;" horiz-adv-x="512" 
 />
    <glyph glyph-name="uni047B" unicode="&#x47b;" horiz-adv-x="512" 
 />
    <glyph glyph-name="uni047C" unicode="&#x47c;" horiz-adv-x="512" 
 />
    <glyph glyph-name="uni047D" unicode="&#x47d;" horiz-adv-x="512" 
 />
    <glyph glyph-name="uni047E" unicode="&#x47e;" horiz-adv-x="512" 
 />
    <glyph glyph-name="uni047F" unicode="&#x47f;" horiz-adv-x="512" 
 />
    <glyph glyph-name="uni0480" unicode="&#x480;" horiz-adv-x="512" 
 />
    <glyph glyph-name="uni0481" unicode="&#x481;" horiz-adv-x="512" 
 />
    <glyph glyph-name="uni0482" unicode="&#x482;" horiz-adv-x="512" 
 />
    <glyph glyph-name="uni0483" unicode="&#x483;" horiz-adv-x="512" 
 />
    <glyph glyph-name="uni0484" unicode="&#x484;" horiz-adv-x="512" 
 />
    <glyph glyph-name="uni0485" unicode="&#x485;" horiz-adv-x="512" 
 />
    <glyph glyph-name="uni0486" unicode="&#x486;" horiz-adv-x="512" 
 />
    <glyph glyph-name="uni0490" unicode="&#x490;" horiz-adv-x="512" 
 />
    <glyph glyph-name="uni0491" unicode="&#x491;" horiz-adv-x="512" 
 />
    <glyph glyph-name="uni0492" unicode="&#x492;" horiz-adv-x="512" 
 />
    <glyph glyph-name="uni0493" unicode="&#x493;" horiz-adv-x="512" 
 />
    <glyph glyph-name="uni0494" unicode="&#x494;" horiz-adv-x="512" 
 />
    <glyph glyph-name="uni0495" unicode="&#x495;" horiz-adv-x="512" 
 />
    <glyph glyph-name="uni0496" unicode="&#x496;" horiz-adv-x="512" 
 />
    <glyph glyph-name="uni0497" unicode="&#x497;" horiz-adv-x="512" 
 />
    <glyph glyph-name="uni0498" unicode="&#x498;" horiz-adv-x="512" 
 />
    <glyph glyph-name="uni0499" unicode="&#x499;" horiz-adv-x="512" 
 />
    <glyph glyph-name="uni049A" unicode="&#x49a;" horiz-adv-x="512" 
 />
    <glyph glyph-name="uni049B" unicode="&#x49b;" horiz-adv-x="512" 
 />
    <glyph glyph-name="uni049C" unicode="&#x49c;" horiz-adv-x="512" 
 />
    <glyph glyph-name="uni049D" unicode="&#x49d;" horiz-adv-x="512" 
 />
    <glyph glyph-name="uni049E" unicode="&#x49e;" horiz-adv-x="512" 
 />
    <glyph glyph-name="uni049F" unicode="&#x49f;" horiz-adv-x="512" 
 />
    <glyph glyph-name="uni04A0" unicode="&#x4a0;" horiz-adv-x="512" 
 />
    <glyph glyph-name="uni04A1" unicode="&#x4a1;" horiz-adv-x="512" 
 />
    <glyph glyph-name="uni04A2" unicode="&#x4a2;" horiz-adv-x="512" 
 />
    <glyph glyph-name="uni04A3" unicode="&#x4a3;" horiz-adv-x="512" 
 />
    <glyph glyph-name="uni04A4" unicode="&#x4a4;" horiz-adv-x="512" 
 />
    <glyph glyph-name="uni04A5" unicode="&#x4a5;" horiz-adv-x="512" 
 />
    <glyph glyph-name="uni04A6" unicode="&#x4a6;" horiz-adv-x="512" 
 />
    <glyph glyph-name="uni04A7" unicode="&#x4a7;" horiz-adv-x="512" 
 />
    <glyph glyph-name="uni04A8" unicode="&#x4a8;" horiz-adv-x="512" 
 />
    <glyph glyph-name="uni04A9" unicode="&#x4a9;" horiz-adv-x="512" 
 />
    <glyph glyph-name="uni04AA" unicode="&#x4aa;" horiz-adv-x="512" 
 />
    <glyph glyph-name="uni04AB" unicode="&#x4ab;" horiz-adv-x="512" 
 />
    <glyph glyph-name="uni04AC" unicode="&#x4ac;" horiz-adv-x="512" 
 />
    <glyph glyph-name="uni04AD" unicode="&#x4ad;" horiz-adv-x="512" 
 />
    <glyph glyph-name="uni04AE" unicode="&#x4ae;" horiz-adv-x="512" 
 />
    <glyph glyph-name="uni04AF" unicode="&#x4af;" horiz-adv-x="512" 
 />
    <glyph glyph-name="uni04B0" unicode="&#x4b0;" horiz-adv-x="512" 
 />
    <glyph glyph-name="uni04B1" unicode="&#x4b1;" horiz-adv-x="512" 
 />
    <glyph glyph-name="uni04B2" unicode="&#x4b2;" horiz-adv-x="512" 
 />
    <glyph glyph-name="uni04B3" unicode="&#x4b3;" horiz-adv-x="512" 
 />
    <glyph glyph-name="uni04B4" unicode="&#x4b4;" horiz-adv-x="512" 
 />
    <glyph glyph-name="uni04B5" unicode="&#x4b5;" horiz-adv-x="512" 
 />
    <glyph glyph-name="uni04B6" unicode="&#x4b6;" horiz-adv-x="512" 
 />
    <glyph glyph-name="uni04B7" unicode="&#x4b7;" horiz-adv-x="512" 
 />
    <glyph glyph-name="uni04B8" unicode="&#x4b8;" horiz-adv-x="512" 
 />
    <glyph glyph-name="uni04B9" unicode="&#x4b9;" horiz-adv-x="512" 
 />
    <glyph glyph-name="uni04BA" unicode="&#x4ba;" horiz-adv-x="512" 
 />
    <glyph glyph-name="uni04BB" unicode="&#x4bb;" horiz-adv-x="512" 
 />
    <glyph glyph-name="uni04BC" unicode="&#x4bc;" horiz-adv-x="512" 
 />
    <glyph glyph-name="uni04BD" unicode="&#x4bd;" horiz-adv-x="512" 
 />
    <glyph glyph-name="uni04BE" unicode="&#x4be;" horiz-adv-x="512" 
 />
    <glyph glyph-name="uni04BF" unicode="&#x4bf;" horiz-adv-x="512" 
 />
    <glyph glyph-name="uni04C0" unicode="&#x4c0;" horiz-adv-x="512" 
 />
    <glyph glyph-name="uni04C1" unicode="&#x4c1;" horiz-adv-x="512" 
 />
    <glyph glyph-name="uni04C2" unicode="&#x4c2;" horiz-adv-x="512" 
 />
    <glyph glyph-name="uni04C3" unicode="&#x4c3;" horiz-adv-x="512" 
 />
    <glyph glyph-name="uni04C4" unicode="&#x4c4;" horiz-adv-x="512" 
 />
    <glyph glyph-name="uni04C7" unicode="&#x4c7;" horiz-adv-x="512" 
 />
    <glyph glyph-name="uni04C8" unicode="&#x4c8;" horiz-adv-x="512" 
 />
    <glyph glyph-name="uni04CB" unicode="&#x4cb;" horiz-adv-x="512" 
 />
    <glyph glyph-name="uni04CC" unicode="&#x4cc;" horiz-adv-x="512" 
 />
    <glyph glyph-name="uni04D0" unicode="&#x4d0;" horiz-adv-x="512" 
 />
    <glyph glyph-name="uni04D1" unicode="&#x4d1;" horiz-adv-x="512" 
 />
    <glyph glyph-name="uni04D2" unicode="&#x4d2;" horiz-adv-x="512" 
 />
    <glyph glyph-name="uni04D3" unicode="&#x4d3;" horiz-adv-x="512" 
 />
    <glyph glyph-name="uni04D4" unicode="&#x4d4;" horiz-adv-x="512" 
 />
    <glyph glyph-name="uni04D5" unicode="&#x4d5;" horiz-adv-x="512" 
 />
    <glyph glyph-name="uni04D6" unicode="&#x4d6;" horiz-adv-x="512" 
 />
    <glyph glyph-name="uni04D7" unicode="&#x4d7;" horiz-adv-x="512" 
 />
    <glyph glyph-name="uni04D8" unicode="&#x4d8;" horiz-adv-x="512" 
 />
    <glyph glyph-name="uni04D9" unicode="&#x4d9;" horiz-adv-x="512" 
 />
    <glyph glyph-name="uni04DA" unicode="&#x4da;" horiz-adv-x="512" 
 />
    <glyph glyph-name="uni04DB" unicode="&#x4db;" horiz-adv-x="512" 
 />
    <glyph glyph-name="uni04DC" unicode="&#x4dc;" horiz-adv-x="512" 
 />
    <glyph glyph-name="uni04DD" unicode="&#x4dd;" horiz-adv-x="512" 
 />
    <glyph glyph-name="uni04DE" unicode="&#x4de;" horiz-adv-x="512" 
 />
    <glyph glyph-name="uni04DF" unicode="&#x4df;" horiz-adv-x="512" 
 />
    <glyph glyph-name="uni04E0" unicode="&#x4e0;" horiz-adv-x="512" 
 />
    <glyph glyph-name="uni04E1" unicode="&#x4e1;" horiz-adv-x="512" 
 />
    <glyph glyph-name="uni04E2" unicode="&#x4e2;" horiz-adv-x="512" 
 />
    <glyph glyph-name="uni04E3" unicode="&#x4e3;" horiz-adv-x="512" 
 />
    <glyph glyph-name="uni04E4" unicode="&#x4e4;" horiz-adv-x="512" 
 />
    <glyph glyph-name="uni04E5" unicode="&#x4e5;" horiz-adv-x="512" 
 />
    <glyph glyph-name="uni04E6" unicode="&#x4e6;" horiz-adv-x="512" 
 />
    <glyph glyph-name="uni04E7" unicode="&#x4e7;" horiz-adv-x="512" 
 />
    <glyph glyph-name="uni04E8" unicode="&#x4e8;" horiz-adv-x="512" 
 />
    <glyph glyph-name="uni04E9" unicode="&#x4e9;" horiz-adv-x="512" 
 />
    <glyph glyph-name="uni04EA" unicode="&#x4ea;" horiz-adv-x="512" 
 />
    <glyph glyph-name="uni04EB" unicode="&#x4eb;" horiz-adv-x="512" 
 />
    <glyph glyph-name="uni04EE" unicode="&#x4ee;" horiz-adv-x="512" 
 />
    <glyph glyph-name="uni04EF" unicode="&#x4ef;" horiz-adv-x="512" 
 />
    <glyph glyph-name="uni04F0" unicode="&#x4f0;" horiz-adv-x="512" 
 />
    <glyph glyph-name="uni04F1" unicode="&#x4f1;" horiz-adv-x="512" 
 />
    <glyph glyph-name="uni04F2" unicode="&#x4f2;" horiz-adv-x="512" 
 />
    <glyph glyph-name="uni04F3" unicode="&#x4f3;" horiz-adv-x="512" 
 />
    <glyph glyph-name="uni04F4" unicode="&#x4f4;" horiz-adv-x="512" 
 />
    <glyph glyph-name="uni04F5" unicode="&#x4f5;" horiz-adv-x="512" 
 />
    <glyph glyph-name="uni04F8" unicode="&#x4f8;" horiz-adv-x="512" 
 />
    <glyph glyph-name="uni04F9" unicode="&#x4f9;" horiz-adv-x="512" 
 />
    <glyph glyph-name="Wgrave" unicode="&#x1e80;" horiz-adv-x="512" 
 />
    <glyph glyph-name="wgrave" unicode="&#x1e81;" horiz-adv-x="512" 
 />
    <glyph glyph-name="Wacute" unicode="&#x1e82;" horiz-adv-x="512" 
 />
    <glyph glyph-name="wacute" unicode="&#x1e83;" horiz-adv-x="512" 
 />
    <glyph glyph-name="Wdieresis" unicode="&#x1e84;" horiz-adv-x="512" 
 />
    <glyph glyph-name="wdieresis" unicode="&#x1e85;" horiz-adv-x="512" 
 />
    <glyph glyph-name="Ygrave" unicode="&#x1ef2;" horiz-adv-x="512" 
 />
    <glyph glyph-name="ygrave" unicode="&#x1ef3;" horiz-adv-x="512" 
 />
    <glyph glyph-name="uni2000" unicode="&#x2000;" 
 />
    <glyph glyph-name="uni2001" unicode="&#x2001;" 
 />
    <glyph glyph-name="uni2002" unicode="&#x2002;" 
 />
    <glyph glyph-name="uni2003" unicode="&#x2003;" 
 />
    <glyph glyph-name="uni2004" unicode="&#x2004;" 
 />
    <glyph glyph-name="uni2005" unicode="&#x2005;" 
 />
    <glyph glyph-name="uni2006" unicode="&#x2006;" 
 />
    <glyph glyph-name="uni2007" unicode="&#x2007;" 
 />
    <glyph glyph-name="uni2008" unicode="&#x2008;" 
 />
    <glyph glyph-name="uni2009" unicode="&#x2009;" 
 />
    <glyph glyph-name="uni200A" unicode="&#x200a;" 
 />
    <glyph glyph-name="uni200B" unicode="&#x200b;" horiz-adv-x="512" 
 />
    <glyph glyph-name="uni200C" unicode="&#x200c;" horiz-adv-x="512" 
 />
    <glyph glyph-name="uni200D" unicode="&#x200d;" horiz-adv-x="512" 
 />
    <glyph glyph-name="uni200E" unicode="&#x200e;" horiz-adv-x="512" 
 />
    <glyph glyph-name="uni200F" unicode="&#x200f;" horiz-adv-x="512" 
 />
    <glyph glyph-name="uni2010" unicode="&#x2010;" horiz-adv-x="252" 
d="M-2 310v117h256v-117h-256z" />
    <glyph glyph-name="uni2011" unicode="&#x2011;" 
 />
    <glyph glyph-name="figuredash" unicode="&#x2012;" 
 />
    <glyph glyph-name="endash" unicode="&#x2013;" 
 />
    <glyph glyph-name="emdash" unicode="&#x2014;" 
 />
    <glyph glyph-name="uni2015" unicode="&#x2015;" horiz-adv-x="1020" 
d="M-2 310v117h1024v-117h-1024z" />
    <glyph glyph-name="underscoredbl" unicode="&#x2017;" 
 />
    <glyph glyph-name="quoteleft" unicode="&#x2018;" horiz-adv-x="344" 
d="M210 502h-170l116 286h123z" />
    <glyph glyph-name="quoteright" unicode="&#x2019;" horiz-adv-x="344" 
d="M304 788l-116 -286h-122l67 286h171z" />
    <glyph glyph-name="quotesinglbase" unicode="&#x201a;" 
 />
    <glyph glyph-name="quotereversed" unicode="&#x201b;" 
 />
    <glyph glyph-name="quotedblleft" unicode="&#x201c;" horiz-adv-x="543" 
d="M414 502h-157l116 286h109zM191 502h-156l116 286h109z" />
    <glyph glyph-name="quotedblright" unicode="&#x201d;" horiz-adv-x="543" 
d="M351 788h157l-116 -286h-109zM129 788h157l-116 -286h-110z" />
    <glyph glyph-name="quotedblbase" unicode="&#x201e;" 
 />
    <glyph glyph-name="uni201F" unicode="&#x201f;" 
 />
    <glyph glyph-name="dagger" unicode="&#x2020;" horiz-adv-x="582" 
d="M526 532v-99h-172v-559h-127v559h-172v99h172v216h127v-216h172z" />
    <glyph glyph-name="daggerdbl" unicode="&#x2021;" horiz-adv-x="602" 
d="M537 433h-172v-194h172v-99h-172v-266h-127v266h-172v99h172v194h-172v99h172v216h127v-216h172v-99z" />
    <glyph glyph-name="bullet" unicode="&#x2022;" 
 />
    <glyph glyph-name="uni2023" unicode="&#x2023;" 
 />
    <glyph glyph-name="onedotenleader" unicode="&#x2024;" 
 />
    <glyph glyph-name="twodotenleader" unicode="&#x2025;" 
d="M686 282v174h164v-174h-164zM174 282v174h164v-174h-164z" />
    <glyph glyph-name="ellipsis" unicode="&#x2026;" 
d="M771 282v174h164v-174h-164zM430 282v174h164v-174h-164zM89 282v174h164v-174h-164z" />
    <glyph glyph-name="uni2027" unicode="&#x2027;" 
 />
    <glyph glyph-name="uni2028" unicode="&#x2028;" 
 />
    <glyph glyph-name="uni2029" unicode="&#x2029;" horiz-adv-x="512" 
 />
    <glyph glyph-name="uni202A" unicode="&#x202a;" horiz-adv-x="512" 
 />
    <glyph glyph-name="uni202B" unicode="&#x202b;" horiz-adv-x="512" 
 />
    <glyph glyph-name="uni202C" unicode="&#x202c;" horiz-adv-x="512" 
 />
    <glyph glyph-name="uni202D" unicode="&#x202d;" horiz-adv-x="512" 
 />
    <glyph glyph-name="uni202E" unicode="&#x202e;" horiz-adv-x="512" 
 />
    <glyph glyph-name="perthousand" unicode="&#x2030;" horiz-adv-x="1053" 
d="M757 343q39 53 110.5 53t111 -53t39.5 -150.5t-39.5 -150t-111 -52.5t-110.5 52.5t-39 150t39 150.5zM440 343q39 53 111 53t110.5 -53t38.5 -150.5t-38.5 -150t-110.5 -52.5t-111.5 52.5t-39.5 150t40 150.5zM482 748h101l-330 -748h-100zM75 706q39 52 110.5 52
t110.5 -53t39 -150t-39 -150.5t-110.5 -53.5t-111 53.5t-39.5 150.5t40 151zM867 84q48 0 48 109t-48 109q-47 0 -47 -109t47 -109zM551 84q47 0 47 109t-47 109q-48 0 -48 -109t48 -109zM185 445q47 0 47 110q0 109 -47 109q-48 0 -48 -109q0 -110 48 -110z" />
    <glyph glyph-name="uni2031" unicode="&#x2031;" 
 />
    <glyph glyph-name="minute" unicode="&#x2032;" horiz-adv-x="310" 
d="M151 556h-96l69 232h157z" />
    <glyph glyph-name="second" unicode="&#x2033;" horiz-adv-x="488" 
d="M334 556h-82l69 232h143zM132 556h-82l69 232h143z" />
    <glyph glyph-name="uni2034" unicode="&#x2034;" 
 />
    <glyph glyph-name="uni2035" unicode="&#x2035;" 
 />
    <glyph glyph-name="uni2036" unicode="&#x2036;" 
 />
    <glyph glyph-name="uni2037" unicode="&#x2037;" 
 />
    <glyph glyph-name="uni2038" unicode="&#x2038;" 
 />
    <glyph glyph-name="guilsinglleft" unicode="&#x2039;" 
 />
    <glyph glyph-name="guilsinglright" unicode="&#x203a;" 
 />
    <glyph glyph-name="uni203B" unicode="&#x203b;" 
d="M261 432q26 -26 26 -63t-26.5 -63t-63 -26t-62 26t-25.5 63t25.5 63t62 26t63.5 -26zM575 118q26 -27 26 -64t-26 -62.5t-63 -25.5t-63 25.5t-26 62.5t26 63t63 26t63 -25zM889 432q25 -26 25 -63t-25.5 -63t-62 -26t-63 26t-26.5 63t26.5 63t63 26t62.5 -26zM575 745
q26 -25 26 -62t-26 -63t-63 -26t-63 26t-26 63t26 62.5t63 25.5t63 -26zM912 712l-338 -338l338 -338l-62 -63l-338 338l-338 -338l-62 63l338 338l-338 338l62 62l338 -338l338 338z" />
    <glyph glyph-name="exclamdbl" unicode="&#x203c;" 
 />
    <glyph glyph-name="uni203D" unicode="&#x203d;" 
 />
    <glyph glyph-name="uni203E" unicode="&#x203e;" 
 />
    <glyph glyph-name="uni203F" unicode="&#x203f;" 
 />
    <glyph glyph-name="uni2040" unicode="&#x2040;" 
 />
    <glyph glyph-name="uni2041" unicode="&#x2041;" 
 />
    <glyph glyph-name="uni2042" unicode="&#x2042;" 
 />
    <glyph glyph-name="uni2043" unicode="&#x2043;" 
 />
    <glyph glyph-name="fraction" unicode="&#x2044;" 
 />
    <glyph glyph-name="uni2045" unicode="&#x2045;" 
 />
    <glyph glyph-name="uni2046" unicode="&#x2046;" 
 />
    <glyph glyph-name="uni2070" unicode="&#x2070;" horiz-adv-x="512" 
 />
    <glyph glyph-name="uni2074" unicode="&#x2074;" horiz-adv-x="512" 
 />
    <glyph glyph-name="uni2075" unicode="&#x2075;" horiz-adv-x="512" 
 />
    <glyph glyph-name="uni2076" unicode="&#x2076;" horiz-adv-x="512" 
 />
    <glyph glyph-name="uni2077" unicode="&#x2077;" horiz-adv-x="512" 
 />
    <glyph glyph-name="uni2078" unicode="&#x2078;" horiz-adv-x="512" 
 />
    <glyph glyph-name="uni2079" unicode="&#x2079;" horiz-adv-x="512" 
 />
    <glyph glyph-name="uni207A" unicode="&#x207a;" horiz-adv-x="512" 
 />
    <glyph glyph-name="uni207B" unicode="&#x207b;" horiz-adv-x="512" 
 />
    <glyph glyph-name="uni207C" unicode="&#x207c;" horiz-adv-x="512" 
 />
    <glyph glyph-name="uni207D" unicode="&#x207d;" horiz-adv-x="512" 
 />
    <glyph glyph-name="uni207E" unicode="&#x207e;" horiz-adv-x="512" 
 />
    <glyph glyph-name="uni207F" unicode="&#x207f;" horiz-adv-x="512" 
 />
    <glyph glyph-name="uni2080" unicode="&#x2080;" horiz-adv-x="512" 
 />
    <glyph glyph-name="uni2081" unicode="&#x2081;" horiz-adv-x="512" 
 />
    <glyph glyph-name="uni2082" unicode="&#x2082;" horiz-adv-x="512" 
 />
    <glyph glyph-name="uni2083" unicode="&#x2083;" horiz-adv-x="512" 
 />
    <glyph glyph-name="uni2084" unicode="&#x2084;" horiz-adv-x="512" 
 />
    <glyph glyph-name="uni2085" unicode="&#x2085;" horiz-adv-x="512" 
 />
    <glyph glyph-name="uni2086" unicode="&#x2086;" horiz-adv-x="512" 
 />
    <glyph glyph-name="uni2087" unicode="&#x2087;" horiz-adv-x="512" 
 />
    <glyph glyph-name="uni2088" unicode="&#x2088;" horiz-adv-x="512" 
 />
    <glyph glyph-name="uni2089" unicode="&#x2089;" horiz-adv-x="512" 
 />
    <glyph glyph-name="uni208A" unicode="&#x208a;" horiz-adv-x="512" 
 />
    <glyph glyph-name="uni208B" unicode="&#x208b;" horiz-adv-x="512" 
 />
    <glyph glyph-name="uni208C" unicode="&#x208c;" horiz-adv-x="512" 
 />
    <glyph glyph-name="uni208D" unicode="&#x208d;" horiz-adv-x="512" 
 />
    <glyph glyph-name="uni208E" unicode="&#x208e;" horiz-adv-x="512" 
 />
    <glyph glyph-name="uni20A0" unicode="&#x20a0;" horiz-adv-x="512" 
 />
    <glyph glyph-name="colonmonetary" unicode="&#x20a1;" horiz-adv-x="512" 
 />
    <glyph glyph-name="uni20A2" unicode="&#x20a2;" horiz-adv-x="512" 
 />
    <glyph glyph-name="franc" unicode="&#x20a3;" horiz-adv-x="512" 
 />
    <glyph glyph-name="lira" unicode="&#x20a4;" horiz-adv-x="512" 
 />
    <glyph glyph-name="uni20A5" unicode="&#x20a5;" horiz-adv-x="512" 
 />
    <glyph glyph-name="uni20A6" unicode="&#x20a6;" horiz-adv-x="512" 
 />
    <glyph glyph-name="peseta" unicode="&#x20a7;" horiz-adv-x="512" 
 />
    <glyph glyph-name="uni20A8" unicode="&#x20a8;" horiz-adv-x="512" 
 />
    <glyph glyph-name="uni20A9" unicode="&#x20a9;" horiz-adv-x="512" 
 />
    <glyph glyph-name="uni20AA" unicode="&#x20aa;" horiz-adv-x="512" 
 />
    <glyph glyph-name="uni2100" unicode="&#x2100;" 
 />
    <glyph glyph-name="uni2101" unicode="&#x2101;" 
 />
    <glyph glyph-name="uni2102" unicode="&#x2102;" 
 />
    <glyph glyph-name="uni2103" unicode="&#x2103;" horiz-adv-x="1068" 
d="M769 -10q-175 0 -280.5 104t-105.5 280q0 177 103.5 280.5t282.5 103.5q135 0 239 -67l-43 -105q-89 56 -183 56q-115 0 -184 -72t-69 -196q0 -123 71 -196t182 -73q94 0 183 57l43 -106q-104 -66 -239 -66zM151 643q-22 -21 -22 -52t21 -52.5t51.5 -21.5t52 21.5
t21.5 52.5t-21.5 52t-52 21t-50.5 -21zM35 591q0 68 49 117.5t118 49.5t118.5 -49.5t49.5 -118t-50 -118t-118.5 -49.5t-117.5 49t-49 119z" />
    <glyph glyph-name="uni2104" unicode="&#x2104;" 
 />
    <glyph glyph-name="uni2105" unicode="&#x2105;" 
 />
    <glyph glyph-name="uni2106" unicode="&#x2106;" 
 />
    <glyph glyph-name="uni2107" unicode="&#x2107;" 
 />
    <glyph glyph-name="uni2108" unicode="&#x2108;" 
 />
    <glyph glyph-name="uni2109" unicode="&#x2109;" 
 />
    <glyph glyph-name="uni210A" unicode="&#x210a;" 
 />
    <glyph glyph-name="uni210B" unicode="&#x210b;" 
 />
    <glyph glyph-name="uni210C" unicode="&#x210c;" 
 />
    <glyph glyph-name="uni210D" unicode="&#x210d;" 
 />
    <glyph glyph-name="uni210E" unicode="&#x210e;" 
 />
    <glyph glyph-name="uni210F" unicode="&#x210f;" 
 />
    <glyph glyph-name="uni2110" unicode="&#x2110;" 
 />
    <glyph glyph-name="Ifraktur" unicode="&#x2111;" 
 />
    <glyph glyph-name="uni2112" unicode="&#x2112;" 
 />
    <glyph glyph-name="uni2113" unicode="&#x2113;" 
 />
    <glyph glyph-name="uni2114" unicode="&#x2114;" 
 />
    <glyph glyph-name="uni2115" unicode="&#x2115;" 
 />
    <glyph glyph-name="uni2116" unicode="&#x2116;" horiz-adv-x="1089" 
d="M641 0v85h382v-85h-382zM685 514q53 59 146.5 59t147.5 -59t54 -161.5t-54 -162t-147.5 -59.5t-147 59.5t-53.5 162t54 161.5zM216 529h-2v-529h-133v748h157l217 -530h2v530h133v-748h-158zM831 219q84 0 84 133t-84 133q-82 0 -82 -133t82 -133z" />
    <glyph glyph-name="uni2117" unicode="&#x2117;" 
 />
    <glyph glyph-name="weierstrass" unicode="&#x2118;" 
 />
    <glyph glyph-name="uni2119" unicode="&#x2119;" 
 />
    <glyph glyph-name="uni211A" unicode="&#x211a;" 
 />
    <glyph glyph-name="uni211B" unicode="&#x211b;" 
 />
    <glyph glyph-name="Rfraktur" unicode="&#x211c;" 
 />
    <glyph glyph-name="uni211D" unicode="&#x211d;" 
 />
    <glyph glyph-name="prescription" unicode="&#x211e;" 
 />
    <glyph glyph-name="uni211F" unicode="&#x211f;" 
 />
    <glyph glyph-name="uni2120" unicode="&#x2120;" 
 />
    <glyph glyph-name="uni2121" unicode="&#x2121;" 
 />
    <glyph glyph-name="trademark" unicode="&#x2122;" horiz-adv-x="536" vert-adv-y="1000" 
d="M316 787h2l25 -134h49l25 134h2l4 -134h67l-12 276h-84l-25 -141h-3l-25 141h-84l-13 -276h68zM247 924h-229v-65h68v-191h93v191h68v65z" />
    <glyph glyph-name="uni2123" unicode="&#x2123;" 
 />
    <glyph glyph-name="uni2124" unicode="&#x2124;" 
 />
    <glyph glyph-name="uni2125" unicode="&#x2125;" 
 />
    <glyph glyph-name="Omega" unicode="&#x2126;" 
 />
    <glyph glyph-name="uni2127" unicode="&#x2127;" 
 />
    <glyph glyph-name="uni2128" unicode="&#x2128;" 
 />
    <glyph glyph-name="uni2129" unicode="&#x2129;" 
 />
    <glyph glyph-name="uni212A" unicode="&#x212a;" 
 />
    <glyph glyph-name="uni212B" unicode="&#x212b;" horiz-adv-x="731" 
d="M417 973q-22 20 -51.5 20t-50.5 -21t-21 -50.5t21 -50.5t50.5 -21t50.5 21t21 50.5t-20 51.5zM30 0l259 748h153l259 -748h-152l-53 180h-265l-53 -180h-148zM465 1021q41 -42 41 -99.5t-41.5 -99t-99 -41.5t-99 41.5t-41.5 99t41.5 99t99 41.5t99.5 -41zM264 290h199
l-98 332h-3z" />
    <glyph glyph-name="uni212C" unicode="&#x212c;" 
 />
    <glyph glyph-name="uni212D" unicode="&#x212d;" 
 />
    <glyph glyph-name="estimated" unicode="&#x212e;" 
 />
    <glyph glyph-name="uni212F" unicode="&#x212f;" 
 />
    <glyph glyph-name="uni2130" unicode="&#x2130;" 
 />
    <glyph glyph-name="uni2131" unicode="&#x2131;" 
 />
    <glyph glyph-name="uni2132" unicode="&#x2132;" 
 />
    <glyph glyph-name="uni2133" unicode="&#x2133;" 
 />
    <glyph glyph-name="uni2134" unicode="&#x2134;" 
 />
    <glyph glyph-name="aleph" unicode="&#x2135;" 
 />
    <glyph glyph-name="uni2136" unicode="&#x2136;" 
 />
    <glyph glyph-name="uni2137" unicode="&#x2137;" 
 />
    <glyph glyph-name="uni2138" unicode="&#x2138;" 
 />
    <glyph glyph-name="onethird" unicode="&#x2153;" horiz-adv-x="512" 
 />
    <glyph glyph-name="twothirds" unicode="&#x2154;" horiz-adv-x="512" 
 />
    <glyph glyph-name="uni2155" unicode="&#x2155;" horiz-adv-x="512" 
 />
    <glyph glyph-name="uni2156" unicode="&#x2156;" horiz-adv-x="512" 
 />
    <glyph glyph-name="uni2157" unicode="&#x2157;" horiz-adv-x="512" 
 />
    <glyph glyph-name="uni2158" unicode="&#x2158;" horiz-adv-x="512" 
 />
    <glyph glyph-name="uni2159" unicode="&#x2159;" horiz-adv-x="512" 
 />
    <glyph glyph-name="uni215A" unicode="&#x215a;" horiz-adv-x="512" 
 />
    <glyph glyph-name="oneeighth" unicode="&#x215b;" horiz-adv-x="512" 
 />
    <glyph glyph-name="threeeighths" unicode="&#x215c;" horiz-adv-x="512" 
 />
    <glyph glyph-name="fiveeighths" unicode="&#x215d;" horiz-adv-x="512" 
 />
    <glyph glyph-name="seveneighths" unicode="&#x215e;" horiz-adv-x="512" 
 />
    <glyph glyph-name="uni215F" unicode="&#x215f;" horiz-adv-x="512" 
 />
    <glyph glyph-name="uni2160" unicode="&#x2160;" horiz-adv-x="340" 
d="M91 0v748h158v-748h-158z" />
    <glyph glyph-name="uni2161" unicode="&#x2161;" horiz-adv-x="639" 
d="M394 0v748h154v-748h-154zM91 0v748h154v-748h-154z" />
    <glyph glyph-name="uni2162" unicode="&#x2162;" horiz-adv-x="893" 
d="M651 0v748h151v-748h-151zM372 0v748h149v-748h-149zM91 0v748h151v-748h-151z" />
    <glyph glyph-name="uni2163" unicode="&#x2163;" horiz-adv-x="994" 
d="M445 748l184 -608h2l185 608h149l-259 -748h-154l-259 748h152zM91 0v748h154v-748h-154z" />
    <glyph glyph-name="uni2164" unicode="&#x2164;" horiz-adv-x="731" 
d="M182 748l184 -608h2l185 608h148l-259 -748h-153l-259 748h152z" />
    <glyph glyph-name="uni2165" unicode="&#x2165;" horiz-adv-x="994" 
d="M549 748h152l-259 -748h-153l-259 748h148l186 -608h2zM750 0v748h153v-748h-153z" />
    <glyph glyph-name="uni2166" unicode="&#x2166;" horiz-adv-x="1271" 
d="M549 748h153l-260 -748h-153l-259 748h148l186 -608h2zM1030 0v748h150v-748h-150zM750 0v748h150v-748h-150z" />
    <glyph glyph-name="uni2167" unicode="&#x2167;" horiz-adv-x="1510" 
d="M1269 0v748h150v-748h-150zM1006 0v748h150v-748h-150zM743 0v748h150v-748h-150zM549 748h153l-260 -748h-153l-259 748h148l186 -608h2z" />
    <glyph glyph-name="uni2168" unicode="&#x2168;" horiz-adv-x="1020" 
d="M610 290h-2l-144 -290h-160l213 379l-208 369h161l142 -280h2l143 280h156l-207 -369l213 -379h-164zM101 0v748h154v-748h-154z" />
    <glyph glyph-name="uni2169" unicode="&#x2169;" horiz-adv-x="694" 
d="M346 290h-2l-144 -290h-160l213 379l-208 369h161l142 -280h2l143 280h156l-208 -369l213 -379h-164z" />
    <glyph glyph-name="uni216A" unicode="&#x216a;" horiz-adv-x="512" 
 />
    <glyph glyph-name="uni216B" unicode="&#x216b;" horiz-adv-x="512" 
 />
    <glyph glyph-name="uni216C" unicode="&#x216c;" horiz-adv-x="512" 
 />
    <glyph glyph-name="uni216D" unicode="&#x216d;" horiz-adv-x="512" 
 />
    <glyph glyph-name="uni216E" unicode="&#x216e;" horiz-adv-x="512" 
 />
    <glyph glyph-name="uni216F" unicode="&#x216f;" horiz-adv-x="512" 
 />
    <glyph glyph-name="uni2170" unicode="&#x2170;" 
d="M101 645v123h142v-123h-142zM101 0v532h142v-532h-142z" />
    <glyph glyph-name="uni2171" unicode="&#x2171;" 
d="M379 645v123h138v-123h-138zM379 0v532h138v-532h-138zM91 645v123h138v-123h-138zM91 0v532h138v-532h-138z" />
    <glyph glyph-name="uni2172" unicode="&#x2172;" 
d="M624 645v123h137v-123h-137zM624 0v532h137v-532h-137zM357 645v123h138v-123h-138zM357 0v532h138v-532h-138zM91 645v123h137v-123h-137zM91 0v532h137v-532h-137z" />
    <glyph glyph-name="uni2173" unicode="&#x2173;" 
d="M422 532l124 -453h2l124 453h141l-176 -532h-184l-177 532h146zM91 645v123h138v-123h-138zM91 0v532h138v-532h-138z" />
    <glyph glyph-name="uni2174" unicode="&#x2174;" 
d="M175 532l124 -453h2l124 453h141l-176 -532h-184l-176 532h145z" />
    <glyph glyph-name="uni2175" unicode="&#x2175;" 
d="M421 532h145l-176 -532h-184l-176 532h141l124 -453h2zM613 645v123h139v-123h-139zM613 0v532h139v-532h-139z" />
    <glyph glyph-name="uni2176" unicode="&#x2176;" 
d="M865 645v123h137v-123h-137zM865 0v532h137v-532h-137zM613 645v123h137v-123h-137zM613 0v532h137v-532h-137zM420 532h145l-176 -532h-184l-175 532h141l123 -453h2z" />
    <glyph glyph-name="uni2177" unicode="&#x2177;" 
d="M1112 645v123h136v-123h-136zM1112 0v532h136v-532h-136zM862 645v123h137v-123h-137zM862 0v532h137v-532h-137zM613 645v123h137v-123h-137zM613 0v532h137v-532h-137zM420 532h145l-175 -532h-184l-176 532h141l124 -453h2z" />
    <glyph glyph-name="uni2178" unicode="&#x2178;" 
d="M531 196h-2l-106 -196h-144l171 271l-166 261h148l102 -186h2l101 186h145l-166 -261l171 -271h-149zM91 645v123h138v-123h-138zM91 0v532h138v-532h-138z" />
    <glyph glyph-name="uni2179" unicode="&#x2179;" 
d="M298 196h-2l-107 -196h-144l170 271l-165 261h149l101 -186h2l101 186h145l-165 -261l170 -271h-149z" />
    <glyph glyph-name="uni217A" unicode="&#x217a;" horiz-adv-x="512" 
 />
    <glyph glyph-name="uni217B" unicode="&#x217b;" horiz-adv-x="512" 
 />
    <glyph glyph-name="uni217C" unicode="&#x217c;" horiz-adv-x="512" 
 />
    <glyph glyph-name="uni217D" unicode="&#x217d;" horiz-adv-x="512" 
 />
    <glyph glyph-name="uni217E" unicode="&#x217e;" horiz-adv-x="512" 
 />
    <glyph glyph-name="uni217F" unicode="&#x217f;" horiz-adv-x="512" 
 />
    <glyph glyph-name="uni2180" unicode="&#x2180;" horiz-adv-x="512" 
 />
    <glyph glyph-name="uni2181" unicode="&#x2181;" horiz-adv-x="512" 
 />
    <glyph glyph-name="uni2182" unicode="&#x2182;" horiz-adv-x="512" 
 />
    <glyph glyph-name="arrowleft" unicode="&#x2190;" 
d="M326 314l152 -132l-65 -74l-308 266l308 266l65 -75l-152 -132h552v-119h-552z" />
    <glyph glyph-name="arrowup" unicode="&#x2191;" horiz-adv-x="748" 
d="M314 560l-132 -152l-74 65l266 307l266 -307l-75 -65l-132 152v-552h-119v552z" />
    <glyph glyph-name="arrowright" unicode="&#x2192;" 
d="M146 314v119h552l-152 132l65 75l308 -266l-308 -266l-65 74l152 132h-552z" />
    <glyph glyph-name="arrowdown" unicode="&#x2193;" horiz-adv-x="748" 
d="M433 187l132 153l75 -66l-266 -307l-266 307l74 66l132 -153v552h119v-552z" />
    <glyph glyph-name="arrowboth" unicode="&#x2194;" horiz-adv-x="512" 
 />
    <glyph glyph-name="arrowupdn" unicode="&#x2195;" horiz-adv-x="512" 
 />
    <glyph glyph-name="uni2196" unicode="&#x2196;" horiz-adv-x="512" 
 />
    <glyph glyph-name="uni2197" unicode="&#x2197;" horiz-adv-x="512" 
 />
    <glyph glyph-name="uni2198" unicode="&#x2198;" horiz-adv-x="512" 
 />
    <glyph glyph-name="uni2199" unicode="&#x2199;" horiz-adv-x="512" 
 />
    <glyph glyph-name="uni219A" unicode="&#x219a;" horiz-adv-x="512" 
 />
    <glyph glyph-name="uni219B" unicode="&#x219b;" horiz-adv-x="512" 
 />
    <glyph glyph-name="uni219C" unicode="&#x219c;" horiz-adv-x="512" 
 />
    <glyph glyph-name="uni219D" unicode="&#x219d;" horiz-adv-x="512" 
 />
    <glyph glyph-name="uni219E" unicode="&#x219e;" horiz-adv-x="512" 
 />
    <glyph glyph-name="uni219F" unicode="&#x219f;" horiz-adv-x="512" 
 />
    <glyph glyph-name="uni21A0" unicode="&#x21a0;" horiz-adv-x="512" 
 />
    <glyph glyph-name="uni21A1" unicode="&#x21a1;" horiz-adv-x="512" 
 />
    <glyph glyph-name="uni21A2" unicode="&#x21a2;" horiz-adv-x="512" 
 />
    <glyph glyph-name="uni21A3" unicode="&#x21a3;" horiz-adv-x="512" 
 />
    <glyph glyph-name="uni21A4" unicode="&#x21a4;" horiz-adv-x="512" 
 />
    <glyph glyph-name="uni21A5" unicode="&#x21a5;" horiz-adv-x="512" 
 />
    <glyph glyph-name="uni21A6" unicode="&#x21a6;" horiz-adv-x="512" 
 />
    <glyph glyph-name="uni21A7" unicode="&#x21a7;" horiz-adv-x="512" 
 />
    <glyph glyph-name="arrowupdnbse" unicode="&#x21a8;" horiz-adv-x="512" 
 />
    <glyph glyph-name="uni21A9" unicode="&#x21a9;" horiz-adv-x="512" 
 />
    <glyph glyph-name="uni21AA" unicode="&#x21aa;" horiz-adv-x="512" 
 />
    <glyph glyph-name="uni21AB" unicode="&#x21ab;" horiz-adv-x="512" 
 />
    <glyph glyph-name="uni21AC" unicode="&#x21ac;" horiz-adv-x="512" 
 />
    <glyph glyph-name="uni21AD" unicode="&#x21ad;" horiz-adv-x="512" 
 />
    <glyph glyph-name="uni21AE" unicode="&#x21ae;" horiz-adv-x="512" 
 />
    <glyph glyph-name="uni21AF" unicode="&#x21af;" horiz-adv-x="512" 
 />
    <glyph glyph-name="uni21B0" unicode="&#x21b0;" horiz-adv-x="512" 
 />
    <glyph glyph-name="uni21B1" unicode="&#x21b1;" horiz-adv-x="512" 
 />
    <glyph glyph-name="uni21B2" unicode="&#x21b2;" horiz-adv-x="512" 
 />
    <glyph glyph-name="uni21B3" unicode="&#x21b3;" horiz-adv-x="512" 
 />
    <glyph glyph-name="uni21B4" unicode="&#x21b4;" horiz-adv-x="512" 
 />
    <glyph glyph-name="carriagereturn" unicode="&#x21b5;" horiz-adv-x="512" 
 />
    <glyph glyph-name="uni21B6" unicode="&#x21b6;" horiz-adv-x="512" 
 />
    <glyph glyph-name="uni21B7" unicode="&#x21b7;" horiz-adv-x="512" 
 />
    <glyph glyph-name="uni21B8" unicode="&#x21b8;" horiz-adv-x="512" 
 />
    <glyph glyph-name="uni21B9" unicode="&#x21b9;" horiz-adv-x="512" 
 />
    <glyph glyph-name="uni21BA" unicode="&#x21ba;" horiz-adv-x="512" 
 />
    <glyph glyph-name="uni21BB" unicode="&#x21bb;" horiz-adv-x="512" 
 />
    <glyph glyph-name="uni21BC" unicode="&#x21bc;" horiz-adv-x="512" 
 />
    <glyph glyph-name="uni21BD" unicode="&#x21bd;" horiz-adv-x="512" 
 />
    <glyph glyph-name="uni21BE" unicode="&#x21be;" horiz-adv-x="512" 
 />
    <glyph glyph-name="uni21BF" unicode="&#x21bf;" horiz-adv-x="512" 
 />
    <glyph glyph-name="uni21C0" unicode="&#x21c0;" horiz-adv-x="512" 
 />
    <glyph glyph-name="uni21C1" unicode="&#x21c1;" horiz-adv-x="512" 
 />
    <glyph glyph-name="uni21C2" unicode="&#x21c2;" horiz-adv-x="512" 
 />
    <glyph glyph-name="uni21C3" unicode="&#x21c3;" horiz-adv-x="512" 
 />
    <glyph glyph-name="uni21C4" unicode="&#x21c4;" horiz-adv-x="512" 
 />
    <glyph glyph-name="uni21C5" unicode="&#x21c5;" horiz-adv-x="512" 
 />
    <glyph glyph-name="uni21C6" unicode="&#x21c6;" horiz-adv-x="512" 
 />
    <glyph glyph-name="uni21C7" unicode="&#x21c7;" horiz-adv-x="512" 
 />
    <glyph glyph-name="uni21C8" unicode="&#x21c8;" horiz-adv-x="512" 
 />
    <glyph glyph-name="uni21C9" unicode="&#x21c9;" horiz-adv-x="512" 
 />
    <glyph glyph-name="uni21CA" unicode="&#x21ca;" horiz-adv-x="512" 
 />
    <glyph glyph-name="uni21CB" unicode="&#x21cb;" horiz-adv-x="512" 
 />
    <glyph glyph-name="uni21CC" unicode="&#x21cc;" horiz-adv-x="512" 
 />
    <glyph glyph-name="uni21CD" unicode="&#x21cd;" horiz-adv-x="512" 
 />
    <glyph glyph-name="uni21CE" unicode="&#x21ce;" horiz-adv-x="512" 
 />
    <glyph glyph-name="uni21CF" unicode="&#x21cf;" horiz-adv-x="512" 
 />
    <glyph glyph-name="arrowdblleft" unicode="&#x21d0;" horiz-adv-x="512" 
 />
    <glyph glyph-name="arrowdblup" unicode="&#x21d1;" horiz-adv-x="512" 
 />
    <glyph glyph-name="arrowdblright" unicode="&#x21d2;" 
d="M146 271v69h629l39 34l-39 34h-629v68h550l-140 123l45 51l318 -276l-318 -277l-45 51l140 123h-550z" />
    <glyph glyph-name="arrowdbldown" unicode="&#x21d3;" horiz-adv-x="512" 
 />
    <glyph glyph-name="arrowdblboth" unicode="&#x21d4;" 
d="M607 599l45 51l318 -276l-318 -277l-45 51l141 123h-472l141 -123l-45 -51l-318 277l318 276l45 -51l-141 -123h472zM826 408h-628l-39 -34l39 -34h628l39 34z" />
    <glyph glyph-name="uni21D5" unicode="&#x21d5;" horiz-adv-x="512" 
 />
    <glyph glyph-name="uni21D6" unicode="&#x21d6;" horiz-adv-x="512" 
 />
    <glyph glyph-name="uni21D7" unicode="&#x21d7;" horiz-adv-x="512" 
 />
    <glyph glyph-name="uni21D8" unicode="&#x21d8;" horiz-adv-x="512" 
 />
    <glyph glyph-name="uni21D9" unicode="&#x21d9;" horiz-adv-x="512" 
 />
    <glyph glyph-name="uni21DA" unicode="&#x21da;" horiz-adv-x="512" 
 />
    <glyph glyph-name="uni21DB" unicode="&#x21db;" horiz-adv-x="512" 
 />
    <glyph glyph-name="uni21DC" unicode="&#x21dc;" horiz-adv-x="512" 
 />
    <glyph glyph-name="uni21DD" unicode="&#x21dd;" horiz-adv-x="512" 
 />
    <glyph glyph-name="uni21DE" unicode="&#x21de;" horiz-adv-x="512" 
 />
    <glyph glyph-name="uni21DF" unicode="&#x21df;" horiz-adv-x="512" 
 />
    <glyph glyph-name="uni21E0" unicode="&#x21e0;" horiz-adv-x="512" 
 />
    <glyph glyph-name="uni21E1" unicode="&#x21e1;" horiz-adv-x="512" 
 />
    <glyph glyph-name="uni21E2" unicode="&#x21e2;" horiz-adv-x="512" 
 />
    <glyph glyph-name="uni21E3" unicode="&#x21e3;" horiz-adv-x="512" 
 />
    <glyph glyph-name="uni21E4" unicode="&#x21e4;" horiz-adv-x="512" 
 />
    <glyph glyph-name="uni21E5" unicode="&#x21e5;" horiz-adv-x="512" 
 />
    <glyph glyph-name="uni21E6" unicode="&#x21e6;" horiz-adv-x="512" 
 />
    <glyph glyph-name="uni21E7" unicode="&#x21e7;" horiz-adv-x="512" 
 />
    <glyph glyph-name="uni21E8" unicode="&#x21e8;" horiz-adv-x="512" 
 />
    <glyph glyph-name="uni21E9" unicode="&#x21e9;" horiz-adv-x="512" 
 />
    <glyph glyph-name="uni21EA" unicode="&#x21ea;" horiz-adv-x="512" 
 />
    <glyph glyph-name="universal" unicode="&#x2200;" horiz-adv-x="721" 
d="M544 748h152l-259 -748h-153l-259 748h148l53 -181h264zM458 458h-199l98 -332h2z" />
    <glyph glyph-name="uni2201" unicode="&#x2201;" horiz-adv-x="512" 
 />
    <glyph glyph-name="partialdiff" unicode="&#x2202;" horiz-adv-x="635" 
d="M96 580l-37 109q51 29 119 49t115 20q152 0 227 -99.5t75 -317.5q0 -351 -280 -351q-126 0 -203 72.5t-77 193.5q0 120 64 184.5t182 64.5q91 0 158 -48l1 1q-6 95 -44 137t-110 42q-78 0 -190 -57zM315 99q66 0 102.5 40t36.5 117q0 69 -37.5 108.5t-101.5 39.5
q-65 0 -102.5 -39t-37.5 -109q0 -77 37 -117t103 -40z" />
    <glyph glyph-name="existential" unicode="&#x2203;" horiz-adv-x="616" 
d="M392 632h-321v116h465v-748h-465v116h321v223h-301v110h301v183z" />
    <glyph glyph-name="uni2204" unicode="&#x2204;" horiz-adv-x="512" 
 />
    <glyph glyph-name="emptyset" unicode="&#x2205;" horiz-adv-x="512" 
 />
    <glyph glyph-name="Delta" unicode="&#x2206;" horiz-adv-x="512" 
 />
    <glyph glyph-name="gradient" unicode="&#x2207;" horiz-adv-x="721" 
d="M510 634h-303l150 -508h2zM173 748h371h49h103l-259 -748h-153l-259 748h103h45z" />
    <glyph glyph-name="element" unicode="&#x2208;" horiz-adv-x="629" 
d="M563 7h-249q-126 0 -202.5 72.5t-76.5 187t76.5 186.5t202.5 72h249v-102h-234q-74 0 -122 -29.5t-60 -81.5h416v-92h-416q12 -51 60 -80.5t122 -29.5h234v-103z" />
    <glyph glyph-name="notelement" unicode="&#x2209;" horiz-adv-x="512" 
 />
    <glyph glyph-name="uni220A" unicode="&#x220a;" horiz-adv-x="512" 
 />
    <glyph glyph-name="suchthat" unicode="&#x220b;" horiz-adv-x="629" 
d="M66 220v92h415q-11 52 -59 81.5t-122 29.5h-234v102h248q126 0 203 -72t77 -186.5t-77 -187t-203 -72.5h-248v103h234q74 0 122 29.5t59 80.5h-415z" />
    <glyph glyph-name="uni220C" unicode="&#x220c;" horiz-adv-x="512" 
 />
    <glyph glyph-name="uni220D" unicode="&#x220d;" horiz-adv-x="512" 
 />
    <glyph glyph-name="uni220E" unicode="&#x220e;" horiz-adv-x="512" 
 />
    <glyph glyph-name="product" unicode="&#x220f;" horiz-adv-x="512" 
 />
    <glyph glyph-name="uni2210" unicode="&#x2210;" horiz-adv-x="512" 
 />
    <glyph glyph-name="summation" unicode="&#x2211;" horiz-adv-x="731" 
d="M666 748v-120h-439l251 -347l-251 -386h439v-120h-600v120l250 385l-250 348v120h600z" />
    <glyph glyph-name="minus" unicode="&#x2212;" horiz-adv-x="512" 
 />
    <glyph glyph-name="uni2213" unicode="&#x2213;" horiz-adv-x="512" 
 />
    <glyph glyph-name="uni2214" unicode="&#x2214;" horiz-adv-x="512" 
 />
    <glyph glyph-name="uni2215" unicode="&#x2215;" horiz-adv-x="512" 
 />
    <glyph glyph-name="uni2216" unicode="&#x2216;" horiz-adv-x="512" 
 />
    <glyph glyph-name="asteriskmath" unicode="&#x2217;" horiz-adv-x="512" 
 />
    <glyph glyph-name="uni2218" unicode="&#x2218;" horiz-adv-x="512" 
 />
    <glyph glyph-name="uni2219" unicode="&#x2219;" horiz-adv-x="512" 
 />
    <glyph glyph-name="radical" unicode="&#x221a;" horiz-adv-x="778" 
d="M40 451h227l124 -454h2l243 832h128l-282 -911h-184l-144 437h-114v96z" />
    <glyph glyph-name="uni221B" unicode="&#x221b;" horiz-adv-x="512" 
 />
    <glyph glyph-name="uni221C" unicode="&#x221c;" horiz-adv-x="512" 
 />
    <glyph glyph-name="proportional" unicode="&#x221d;" horiz-adv-x="723" 
d="M425 166h-2q-65 -125 -180 -125q-91 0 -149.5 62.5t-58.5 163t59 163t149 62.5q119 0 193 -125h2q66 125 178 125q19 0 57 -7v-115q-30 6 -51 6q-99 0 -139 -103q41 -116 142 -116q19 0 48 7v-117q-38 -6 -55 -6q-119 0 -193 125zM378 259q-20 55 -53.5 86t-74.5 31
q-48 0 -76.5 -30t-28.5 -80t28.5 -79.5t76.5 -29.5q89 0 128 102z" />
    <glyph glyph-name="infinity" unicode="&#x221e;" horiz-adv-x="862" 
d="M244 492q120 0 193 -125h2q65 125 179 125q92 0 150.5 -62.5t58.5 -163.5q0 -96 -59.5 -160.5t-149.5 -64.5q-119 0 -193 125h-2q-65 -125 -179 -125q-91 0 -150 62.5t-59 163t59.5 163t149.5 62.5zM378 259q-20 55 -53.5 86t-73.5 31q-48 0 -76.5 -30t-28.5 -80
t28.5 -79.5t76.5 -29.5q88 0 127 102zM484 273q20 -55 53.5 -85.5t73.5 -30.5q47 0 76 31.5t29 77.5q0 50 -28.5 80t-76.5 30q-88 0 -127 -103z" />
    <glyph glyph-name="orthogonal" unicode="&#x221f;" horiz-adv-x="748" 
d="M208 655v-535h484v-120h-611v655h127z" />
    <glyph glyph-name="angle" unicode="&#x2220;" horiz-adv-x="776" 
d="M253 120h463v-120h-686l430 686l107 -66z" />
    <glyph glyph-name="uni2221" unicode="&#x2221;" horiz-adv-x="512" 
 />
    <glyph glyph-name="uni2222" unicode="&#x2222;" horiz-adv-x="512" 
 />
    <glyph glyph-name="uni2223" unicode="&#x2223;" horiz-adv-x="512" 
 />
    <glyph glyph-name="uni2224" unicode="&#x2224;" horiz-adv-x="512" 
 />
    <glyph glyph-name="uni2225" unicode="&#x2225;" horiz-adv-x="819" 
d="M315 -66l-98 70l475 679l98 -69zM127 54l-97 69l474 680l98 -70z" />
    <glyph glyph-name="uni2226" unicode="&#x2226;" horiz-adv-x="512" 
 />
    <glyph glyph-name="logicaland" unicode="&#x2227;" horiz-adv-x="596" 
d="M421 0l-124 495h-2l-124 -495h-141l176 573h184l176 -573h-145z" />
    <glyph glyph-name="logicalor" unicode="&#x2228;" horiz-adv-x="596" 
d="M175 573l124 -494h2l124 494h141l-176 -573h-184l-176 573h145z" />
    <glyph glyph-name="intersection" unicode="&#x2229;" horiz-adv-x="659" 
d="M186 323v-323h-115v321q0 125 70 199t189 74t189 -74t70 -199v-321h-116v323q0 79 -38 122t-105.5 43t-105.5 -43t-38 -122z" />
    <glyph glyph-name="union" unicode="&#x222a;" horiz-adv-x="659" 
d="M473 251v322h116v-320q0 -126 -70 -199.5t-189 -73.5t-189 73.5t-70 199.5v320h115v-322q0 -80 38 -123t105.5 -43t105.5 43t38 123z" />
    <glyph glyph-name="integral" unicode="&#x222b;" horiz-adv-x="629" 
d="M219 -36l41 611q5 87 59.5 135t146.5 48q61 0 123 -16l-17 -118q-45 11 -92 11q-66 0 -70 -77l-41 -611q-5 -86 -59.5 -134.5t-146.5 -48.5q-62 0 -123 16l16 119q45 -12 92 -12q65 0 71 77z" />
    <glyph glyph-name="uni222C" unicode="&#x222c;" horiz-adv-x="956" 
d="M552 -36l41 611q5 87 59.5 135t146.5 48q61 0 123 -16l-17 -118q-45 11 -92 11q-67 0 -71 -77l-41 -611q-5 -86 -59 -134.5t-146 -48.5q-62 0 -123 16l16 119q45 -12 92 -12q65 0 71 77zM214 -36l41 611q5 87 59.5 135t146.5 48q61 0 123 -16l-17 -118q-45 11 -92 11
q-66 0 -71 -77l-40 -611q-6 -86 -60 -134.5t-146 -48.5q-62 0 -123 16l16 119q45 -12 92 -12q65 0 71 77z" />
    <glyph glyph-name="uni222D" unicode="&#x222d;" horiz-adv-x="512" 
 />
    <glyph glyph-name="uni222E" unicode="&#x222e;" horiz-adv-x="649" 
d="M390 109q47 19 76.5 62t29.5 95q0 46 -23 85.5t-62 62.5zM419 530q83 -29 134 -101.5t51 -162.5q0 -100 -63 -177t-159 -97l-3 -45q-5 -86 -59.5 -134.5t-146.5 -48.5q-61 0 -123 16l17 119q45 -12 92 -12q64 0 70 77l2 38q-83 30 -134.5 102t-51.5 162q0 101 63 177.5
t159 97.5l3 34q5 87 59.5 135t146.5 48q62 0 123 -16l-16 -118q-45 11 -93 11q-64 0 -70 -77zM260 424q-48 -20 -77 -62.5t-29 -95.5q0 -47 23.5 -86t62.5 -61z" />
    <glyph glyph-name="uni222F" unicode="&#x222f;" horiz-adv-x="512" 
 />
    <glyph glyph-name="uni2230" unicode="&#x2230;" horiz-adv-x="512" 
 />
    <glyph glyph-name="uni2231" unicode="&#x2231;" horiz-adv-x="512" 
 />
    <glyph glyph-name="uni2232" unicode="&#x2232;" horiz-adv-x="512" 
 />
    <glyph glyph-name="uni2233" unicode="&#x2233;" horiz-adv-x="512" 
 />
    <glyph glyph-name="therefore" unicode="&#x2234;" horiz-adv-x="762" 
d="M497 0v174h163v-174h-163zM101 0v174h164v-174h-164zM299 392v174h164v-174h-164z" />
    <glyph glyph-name="uni2235" unicode="&#x2235;" horiz-adv-x="762" 
d="M497 392v174h163v-174h-163zM101 392v174h164v-174h-164zM299 0v174h164v-174h-164z" />
    <glyph glyph-name="uni2236" unicode="&#x2236;" horiz-adv-x="512" 
 />
    <glyph glyph-name="uni2237" unicode="&#x2237;" horiz-adv-x="512" 
 />
    <glyph glyph-name="uni2238" unicode="&#x2238;" horiz-adv-x="512" 
 />
    <glyph glyph-name="uni2239" unicode="&#x2239;" horiz-adv-x="512" 
 />
    <glyph glyph-name="uni223A" unicode="&#x223a;" horiz-adv-x="512" 
 />
    <glyph glyph-name="uni223B" unicode="&#x223b;" horiz-adv-x="512" 
 />
    <glyph glyph-name="similar" unicode="&#x223c;" horiz-adv-x="512" 
 />
    <glyph glyph-name="uni223D" unicode="&#x223d;" horiz-adv-x="862" 
d="M618 492q95 0 152 -62t57 -164t-58 -163.5t-157 -61.5q-47 0 -89 12l13 109q35 -11 72 -11q50 0 79 29.5t29 82.5q0 52 -27 82.5t-74 30.5q-48 0 -79.5 -36t-53.5 -101q-14 -43 -31.5 -75t-44.5 -61.5t-68 -45.5t-94 -16q-94 0 -151.5 62t-57.5 163q0 103 58.5 164.5
t156.5 61.5q47 0 89 -13l-12 -108q-36 11 -73 11q-50 0 -79 -29.5t-29 -83.5q0 -52 27.5 -82t73.5 -30q48 0 79.5 35.5t53.5 101.5q14 43 31.5 74.5t44.5 61.5t68 46t94 16z" />
    <glyph glyph-name="uni223E" unicode="&#x223e;" horiz-adv-x="512" 
 />
    <glyph glyph-name="uni223F" unicode="&#x223f;" horiz-adv-x="512" 
 />
    <glyph glyph-name="uni2240" unicode="&#x2240;" horiz-adv-x="512" 
 />
    <glyph glyph-name="uni2241" unicode="&#x2241;" horiz-adv-x="512" 
 />
    <glyph glyph-name="uni2242" unicode="&#x2242;" horiz-adv-x="512" 
 />
    <glyph glyph-name="uni2243" unicode="&#x2243;" horiz-adv-x="512" 
 />
    <glyph glyph-name="uni2244" unicode="&#x2244;" horiz-adv-x="512" 
 />
    <glyph glyph-name="congruent" unicode="&#x2245;" horiz-adv-x="512" 
 />
    <glyph glyph-name="uni2246" unicode="&#x2246;" horiz-adv-x="512" 
 />
    <glyph glyph-name="uni2247" unicode="&#x2247;" horiz-adv-x="512" 
 />
    <glyph glyph-name="approxequal" unicode="&#x2248;" horiz-adv-x="512" 
 />
    <glyph glyph-name="uni2249" unicode="&#x2249;" horiz-adv-x="512" 
 />
    <glyph glyph-name="uni224A" unicode="&#x224a;" horiz-adv-x="512" 
 />
    <glyph glyph-name="uni224B" unicode="&#x224b;" horiz-adv-x="512" 
 />
    <glyph glyph-name="uni224C" unicode="&#x224c;" horiz-adv-x="512" 
 />
    <glyph glyph-name="uni224D" unicode="&#x224d;" horiz-adv-x="512" 
 />
    <glyph glyph-name="uni224E" unicode="&#x224e;" horiz-adv-x="512" 
 />
    <glyph glyph-name="uni224F" unicode="&#x224f;" horiz-adv-x="512" 
 />
    <glyph glyph-name="uni2250" unicode="&#x2250;" horiz-adv-x="512" 
 />
    <glyph glyph-name="uni2251" unicode="&#x2251;" horiz-adv-x="512" 
 />
    <glyph glyph-name="uni2252" unicode="&#x2252;" horiz-adv-x="772" 
d="M488 -87v150h157v-150h-157zM86 125v107h600v-107h-600zM86 361v108h600v-108h-600zM127 530v151h157v-151h-157z" />
    <glyph glyph-name="uni2253" unicode="&#x2253;" horiz-adv-x="512" 
 />
    <glyph glyph-name="uni2254" unicode="&#x2254;" horiz-adv-x="512" 
 />
    <glyph glyph-name="uni2255" unicode="&#x2255;" horiz-adv-x="512" 
 />
    <glyph glyph-name="uni2256" unicode="&#x2256;" horiz-adv-x="512" 
 />
    <glyph glyph-name="uni2257" unicode="&#x2257;" horiz-adv-x="512" 
 />
    <glyph glyph-name="uni2258" unicode="&#x2258;" horiz-adv-x="512" 
 />
    <glyph glyph-name="uni2259" unicode="&#x2259;" horiz-adv-x="512" 
 />
    <glyph glyph-name="uni225A" unicode="&#x225a;" horiz-adv-x="512" 
 />
    <glyph glyph-name="uni225B" unicode="&#x225b;" horiz-adv-x="512" 
 />
    <glyph glyph-name="uni225C" unicode="&#x225c;" horiz-adv-x="512" 
 />
    <glyph glyph-name="uni225D" unicode="&#x225d;" horiz-adv-x="512" 
 />
    <glyph glyph-name="uni225E" unicode="&#x225e;" horiz-adv-x="512" 
 />
    <glyph glyph-name="uni225F" unicode="&#x225f;" horiz-adv-x="512" 
 />
    <glyph glyph-name="notequal" unicode="&#x2260;" horiz-adv-x="772" 
d="M86 118v109h212l47 140h-259v109h295l49 148l117 -39l-36 -109h175v-109h-212l-47 -140h259v-109h-295l-49 -148l-117 39l36 109h-175z" />
    <glyph glyph-name="equivalence" unicode="&#x2261;" horiz-adv-x="772" 
d="M86 54v103h600v-103h-600zM86 246v102h600v-102h-600zM86 437v103h600v-103h-600z" />
    <glyph glyph-name="uni2262" unicode="&#x2262;" horiz-adv-x="512" 
 />
    <glyph glyph-name="uni2263" unicode="&#x2263;" horiz-adv-x="512" 
 />
    <glyph glyph-name="lessequal" unicode="&#x2264;" horiz-adv-x="512" 
 />
    <glyph glyph-name="greaterequal" unicode="&#x2265;" horiz-adv-x="512" 
 />
    <glyph glyph-name="uni2266" unicode="&#x2266;" horiz-adv-x="772" 
d="M86 -85v97h600v-97h-600zM86 87v97h600v-97h-600zM686 602l-510 -135v-2l510 -135v-112l-600 178v140l600 178v-112z" />
    <glyph glyph-name="uni2267" unicode="&#x2267;" horiz-adv-x="772" 
d="M86 -85v97h600v-97h-600zM86 87v97h600v-97h-600zM86 602v112l600 -178v-140l-600 -178v112l510 135v2z" />
    <glyph glyph-name="uni2268" unicode="&#x2268;" horiz-adv-x="512" 
 />
    <glyph glyph-name="uni2269" unicode="&#x2269;" horiz-adv-x="512" 
 />
    <glyph glyph-name="uni226A" unicode="&#x226a;" horiz-adv-x="1001" 
d="M921 525l-403 -227v-2l403 -227v-120l-485 283v129l485 284v-120zM535 525l-403 -227v-2l403 -227v-120l-485 283v129l485 284v-120z" />
    <glyph glyph-name="uni226B" unicode="&#x226b;" horiz-adv-x="1001" 
d="M81 525v120l484 -284v-129l-484 -283v120l402 227v2zM467 525v120l484 -284v-129l-484 -283v120l402 227v2z" />
    <glyph glyph-name="uni226C" unicode="&#x226c;" horiz-adv-x="512" 
 />
    <glyph glyph-name="uni226D" unicode="&#x226d;" horiz-adv-x="512" 
 />
    <glyph glyph-name="uni226E" unicode="&#x226e;" horiz-adv-x="512" 
 />
    <glyph glyph-name="uni226F" unicode="&#x226f;" horiz-adv-x="512" 
 />
    <glyph glyph-name="uni2270" unicode="&#x2270;" horiz-adv-x="512" 
 />
    <glyph glyph-name="uni2271" unicode="&#x2271;" horiz-adv-x="512" 
 />
    <glyph glyph-name="uni2272" unicode="&#x2272;" horiz-adv-x="512" 
 />
    <glyph glyph-name="uni2273" unicode="&#x2273;" horiz-adv-x="512" 
 />
    <glyph glyph-name="uni2274" unicode="&#x2274;" horiz-adv-x="512" 
 />
    <glyph glyph-name="uni2275" unicode="&#x2275;" horiz-adv-x="512" 
 />
    <glyph glyph-name="uni2276" unicode="&#x2276;" horiz-adv-x="512" 
 />
    <glyph glyph-name="uni2277" unicode="&#x2277;" horiz-adv-x="512" 
 />
    <glyph glyph-name="uni2278" unicode="&#x2278;" horiz-adv-x="512" 
 />
    <glyph glyph-name="uni2279" unicode="&#x2279;" horiz-adv-x="512" 
 />
    <glyph glyph-name="uni227A" unicode="&#x227a;" horiz-adv-x="512" 
 />
    <glyph glyph-name="uni227B" unicode="&#x227b;" horiz-adv-x="512" 
 />
    <glyph glyph-name="uni227C" unicode="&#x227c;" horiz-adv-x="512" 
 />
    <glyph glyph-name="uni227D" unicode="&#x227d;" horiz-adv-x="512" 
 />
    <glyph glyph-name="uni227E" unicode="&#x227e;" horiz-adv-x="512" 
 />
    <glyph glyph-name="uni227F" unicode="&#x227f;" horiz-adv-x="512" 
 />
    <glyph glyph-name="uni2280" unicode="&#x2280;" horiz-adv-x="512" 
 />
    <glyph glyph-name="uni2281" unicode="&#x2281;" horiz-adv-x="512" 
 />
    <glyph glyph-name="propersubset" unicode="&#x2282;" horiz-adv-x="711" 
d="M332 113h313v-106h-331q-126 0 -202.5 72.5t-76.5 187t76.5 186.5t202.5 72h331v-105h-313q-84 0 -131 -41.5t-47 -112t47 -112t131 -41.5z" />
    <glyph glyph-name="propersuperset" unicode="&#x2283;" horiz-adv-x="711" 
d="M379 113q84 0 131 41.5t47 112t-47 112t-131 41.5h-313v105h330q126 0 203 -72t77 -186.5t-77 -187t-203 -72.5h-330v106h313z" />
    <glyph glyph-name="notsubset" unicode="&#x2284;" horiz-adv-x="512" 
 />
    <glyph glyph-name="uni2285" unicode="&#x2285;" horiz-adv-x="512" 
 />
    <glyph glyph-name="reflexsubset" unicode="&#x2286;" horiz-adv-x="782" 
d="M96 -54v102h600v-102h-600zM383 249h313v-106h-330q-126 0 -203 72.5t-77 187t77 187.5t203 73h330v-107h-313q-84 0 -131 -41.5t-47 -112t47 -112t131 -41.5z" />
    <glyph glyph-name="reflexsuperset" unicode="&#x2287;" horiz-adv-x="782" 
d="M86 -54v102h600v-102h-600zM399 249q84 0 131.5 41.5t47.5 112t-47.5 112t-131.5 41.5h-313v107h331q126 0 202.5 -73t76.5 -187.5t-76.5 -187t-202.5 -72.5h-331v106h313z" />
    <glyph glyph-name="uni2288" unicode="&#x2288;" horiz-adv-x="512" 
 />
    <glyph glyph-name="uni2289" unicode="&#x2289;" horiz-adv-x="512" 
 />
    <glyph glyph-name="uni228A" unicode="&#x228a;" horiz-adv-x="512" 
 />
    <glyph glyph-name="uni228B" unicode="&#x228b;" horiz-adv-x="512" 
 />
    <glyph glyph-name="uni228C" unicode="&#x228c;" horiz-adv-x="512" 
 />
    <glyph glyph-name="uni228D" unicode="&#x228d;" horiz-adv-x="512" 
 />
    <glyph glyph-name="uni228E" unicode="&#x228e;" horiz-adv-x="512" 
 />
    <glyph glyph-name="uni228F" unicode="&#x228f;" horiz-adv-x="512" 
 />
    <glyph glyph-name="uni2290" unicode="&#x2290;" horiz-adv-x="512" 
 />
    <glyph glyph-name="uni2291" unicode="&#x2291;" horiz-adv-x="512" 
 />
    <glyph glyph-name="uni2292" unicode="&#x2292;" horiz-adv-x="512" 
 />
    <glyph glyph-name="uni2293" unicode="&#x2293;" horiz-adv-x="512" 
 />
    <glyph glyph-name="uni2294" unicode="&#x2294;" horiz-adv-x="512" 
 />
    <glyph glyph-name="circleplus" unicode="&#x2295;" horiz-adv-x="512" 
 />
    <glyph glyph-name="uni2296" unicode="&#x2296;" horiz-adv-x="512" 
 />
    <glyph glyph-name="circlemultiply" unicode="&#x2297;" horiz-adv-x="512" 
 />
    <glyph glyph-name="uni2298" unicode="&#x2298;" horiz-adv-x="512" 
 />
    <glyph glyph-name="uni2299" unicode="&#x2299;" horiz-adv-x="512" 
 />
    <glyph glyph-name="uni229A" unicode="&#x229a;" horiz-adv-x="512" 
 />
    <glyph glyph-name="uni229B" unicode="&#x229b;" horiz-adv-x="512" 
 />
    <glyph glyph-name="uni229C" unicode="&#x229c;" horiz-adv-x="512" 
 />
    <glyph glyph-name="uni229D" unicode="&#x229d;" horiz-adv-x="512" 
 />
    <glyph glyph-name="uni229E" unicode="&#x229e;" horiz-adv-x="512" 
 />
    <glyph glyph-name="uni229F" unicode="&#x229f;" horiz-adv-x="512" 
 />
    <glyph glyph-name="uni22A0" unicode="&#x22a0;" horiz-adv-x="512" 
 />
    <glyph glyph-name="uni22A1" unicode="&#x22a1;" horiz-adv-x="512" 
 />
    <glyph glyph-name="uni22A2" unicode="&#x22a2;" horiz-adv-x="512" 
 />
    <glyph glyph-name="uni22A3" unicode="&#x22a3;" horiz-adv-x="512" 
 />
    <glyph glyph-name="uni22A4" unicode="&#x22a4;" horiz-adv-x="512" 
 />
    <glyph glyph-name="perpendicular" unicode="&#x22a5;" horiz-adv-x="889" 
d="M71 0v123h302v625h143v-625h302v-123h-747z" />
    <glyph glyph-name="uni22A6" unicode="&#x22a6;" horiz-adv-x="512" 
 />
    <glyph glyph-name="uni22A7" unicode="&#x22a7;" horiz-adv-x="512" 
 />
    <glyph glyph-name="uni22A8" unicode="&#x22a8;" horiz-adv-x="512" 
 />
    <glyph glyph-name="uni22A9" unicode="&#x22a9;" horiz-adv-x="512" 
 />
    <glyph glyph-name="uni22AA" unicode="&#x22aa;" horiz-adv-x="512" 
 />
    <glyph glyph-name="uni22AB" unicode="&#x22ab;" horiz-adv-x="512" 
 />
    <glyph glyph-name="uni22AC" unicode="&#x22ac;" horiz-adv-x="512" 
 />
    <glyph glyph-name="uni22AD" unicode="&#x22ad;" horiz-adv-x="512" 
 />
    <glyph glyph-name="uni22AE" unicode="&#x22ae;" horiz-adv-x="512" 
 />
    <glyph glyph-name="uni22AF" unicode="&#x22af;" horiz-adv-x="512" 
 />
    <glyph glyph-name="uni22B0" unicode="&#x22b0;" horiz-adv-x="512" 
 />
    <glyph glyph-name="uni22B1" unicode="&#x22b1;" horiz-adv-x="512" 
 />
    <glyph glyph-name="uni22B2" unicode="&#x22b2;" horiz-adv-x="512" 
 />
    <glyph glyph-name="uni22B3" unicode="&#x22b3;" horiz-adv-x="512" 
 />
    <glyph glyph-name="uni22B4" unicode="&#x22b4;" horiz-adv-x="512" 
 />
    <glyph glyph-name="uni22B5" unicode="&#x22b5;" horiz-adv-x="512" 
 />
    <glyph glyph-name="uni22B6" unicode="&#x22b6;" horiz-adv-x="512" 
 />
    <glyph glyph-name="uni22B7" unicode="&#x22b7;" horiz-adv-x="512" 
 />
    <glyph glyph-name="uni22B8" unicode="&#x22b8;" horiz-adv-x="512" 
 />
    <glyph glyph-name="uni22B9" unicode="&#x22b9;" horiz-adv-x="512" 
 />
    <glyph glyph-name="uni22BA" unicode="&#x22ba;" horiz-adv-x="512" 
 />
    <glyph glyph-name="uni22BB" unicode="&#x22bb;" horiz-adv-x="512" 
 />
    <glyph glyph-name="uni22BC" unicode="&#x22bc;" horiz-adv-x="512" 
 />
    <glyph glyph-name="uni22BD" unicode="&#x22bd;" horiz-adv-x="512" 
 />
    <glyph glyph-name="uni22BE" unicode="&#x22be;" horiz-adv-x="512" 
 />
    <glyph glyph-name="uni22BF" unicode="&#x22bf;" horiz-adv-x="807" 
d="M656 70v457l-457 -457h457zM726 0h-696l696 696v-696z" />
    <glyph glyph-name="uni22C0" unicode="&#x22c0;" horiz-adv-x="512" 
 />
    <glyph glyph-name="uni22C1" unicode="&#x22c1;" horiz-adv-x="512" 
 />
    <glyph glyph-name="uni22C2" unicode="&#x22c2;" horiz-adv-x="512" 
 />
    <glyph glyph-name="uni22C3" unicode="&#x22c3;" horiz-adv-x="512" 
 />
    <glyph glyph-name="uni22C4" unicode="&#x22c4;" horiz-adv-x="512" 
 />
    <glyph glyph-name="dotmath" unicode="&#x22c5;" horiz-adv-x="512" 
 />
    <glyph glyph-name="uni22C6" unicode="&#x22c6;" horiz-adv-x="512" 
 />
    <glyph glyph-name="uni22C7" unicode="&#x22c7;" horiz-adv-x="512" 
 />
    <glyph glyph-name="uni22C8" unicode="&#x22c8;" horiz-adv-x="512" 
 />
    <glyph glyph-name="uni22C9" unicode="&#x22c9;" horiz-adv-x="512" 
 />
    <glyph glyph-name="uni22CA" unicode="&#x22ca;" horiz-adv-x="512" 
 />
    <glyph glyph-name="uni22CB" unicode="&#x22cb;" horiz-adv-x="512" 
 />
    <glyph glyph-name="uni22CC" unicode="&#x22cc;" horiz-adv-x="512" 
 />
    <glyph glyph-name="uni22CD" unicode="&#x22cd;" horiz-adv-x="512" 
 />
    <glyph glyph-name="uni22CE" unicode="&#x22ce;" horiz-adv-x="512" 
 />
    <glyph glyph-name="uni22CF" unicode="&#x22cf;" horiz-adv-x="512" 
 />
    <glyph glyph-name="uni22D0" unicode="&#x22d0;" horiz-adv-x="512" 
 />
    <glyph glyph-name="uni22D1" unicode="&#x22d1;" horiz-adv-x="512" 
 />
    <glyph glyph-name="uni22D2" unicode="&#x22d2;" horiz-adv-x="512" 
 />
    <glyph glyph-name="uni22D3" unicode="&#x22d3;" horiz-adv-x="512" 
 />
    <glyph glyph-name="uni22D4" unicode="&#x22d4;" horiz-adv-x="512" 
 />
    <glyph glyph-name="uni22D5" unicode="&#x22d5;" horiz-adv-x="512" 
 />
    <glyph glyph-name="uni22D6" unicode="&#x22d6;" horiz-adv-x="512" 
 />
    <glyph glyph-name="uni22D7" unicode="&#x22d7;" horiz-adv-x="512" 
 />
    <glyph glyph-name="uni22D8" unicode="&#x22d8;" horiz-adv-x="512" 
 />
    <glyph glyph-name="uni22D9" unicode="&#x22d9;" horiz-adv-x="512" 
 />
    <glyph glyph-name="uni22DA" unicode="&#x22da;" horiz-adv-x="512" 
 />
    <glyph glyph-name="uni22DB" unicode="&#x22db;" horiz-adv-x="512" 
 />
    <glyph glyph-name="uni22DC" unicode="&#x22dc;" horiz-adv-x="512" 
 />
    <glyph glyph-name="uni22DD" unicode="&#x22dd;" horiz-adv-x="512" 
 />
    <glyph glyph-name="uni22DE" unicode="&#x22de;" horiz-adv-x="512" 
 />
    <glyph glyph-name="uni22DF" unicode="&#x22df;" horiz-adv-x="512" 
 />
    <glyph glyph-name="uni22E0" unicode="&#x22e0;" horiz-adv-x="512" 
 />
    <glyph glyph-name="uni22E1" unicode="&#x22e1;" horiz-adv-x="512" 
 />
    <glyph glyph-name="uni22E2" unicode="&#x22e2;" horiz-adv-x="512" 
 />
    <glyph glyph-name="uni22E3" unicode="&#x22e3;" horiz-adv-x="512" 
 />
    <glyph glyph-name="uni22E4" unicode="&#x22e4;" horiz-adv-x="512" 
 />
    <glyph glyph-name="uni22E5" unicode="&#x22e5;" horiz-adv-x="512" 
 />
    <glyph glyph-name="uni22E6" unicode="&#x22e6;" horiz-adv-x="512" 
 />
    <glyph glyph-name="uni22E7" unicode="&#x22e7;" horiz-adv-x="512" 
 />
    <glyph glyph-name="uni22E8" unicode="&#x22e8;" horiz-adv-x="512" 
 />
    <glyph glyph-name="uni22E9" unicode="&#x22e9;" horiz-adv-x="512" 
 />
    <glyph glyph-name="uni22EA" unicode="&#x22ea;" horiz-adv-x="512" 
 />
    <glyph glyph-name="uni22EB" unicode="&#x22eb;" horiz-adv-x="512" 
 />
    <glyph glyph-name="uni22EC" unicode="&#x22ec;" horiz-adv-x="512" 
 />
    <glyph glyph-name="uni22ED" unicode="&#x22ed;" horiz-adv-x="512" 
 />
    <glyph glyph-name="uni22EE" unicode="&#x22ee;" horiz-adv-x="512" 
 />
    <glyph glyph-name="uni22EF" unicode="&#x22ef;" horiz-adv-x="512" 
 />
    <glyph glyph-name="uni22F0" unicode="&#x22f0;" horiz-adv-x="512" 
 />
    <glyph glyph-name="uni22F1" unicode="&#x22f1;" horiz-adv-x="512" 
 />
    <glyph glyph-name="house" unicode="&#x2302;" horiz-adv-x="512" 
 />
    <glyph glyph-name="revlogicalnot" unicode="&#x2310;" horiz-adv-x="512" 
 />
    <glyph glyph-name="uni2312" unicode="&#x2312;" 
d="M963 715v-108q-199 133 -451 133t-451 -133v108q191 138 451 138t451 -138z" />
    <glyph glyph-name="integraltp" unicode="&#x2320;" horiz-adv-x="512" 
 />
    <glyph glyph-name="integralbt" unicode="&#x2321;" horiz-adv-x="512" 
 />
    <glyph glyph-name="uni2460" unicode="&#x2460;" 
d="M467 652h120v-567h-120v439h-1l-152 -113v128zM843 38q-137 -137 -331 -137t-331 137t-137 330.5t137 331t331 137.5t331 -137.5t137 -331t-137 -330.5zM240 96q112 -113 272 -113t273 113t113 272.5t-113 273t-273 113.5t-273 -113.5t-113 -273t114 -272.5z" />
    <glyph glyph-name="uni2461" unicode="&#x2461;" 
d="M479 180v-1h224v-94h-378v94q156 122 205 182q52 63 52 121q0 41 -22.5 61.5t-65.5 20.5q-66 0 -158 -45v109q78 32 174 32q93 0 141 -44q50 -45 50 -122q0 -71 -45 -138t-177 -176zM240 96q112 -113 272 -113t273 113t113 272.5t-113 273t-273 113.5t-273 -113.5
t-113 -273t114 -272.5zM843 38q-137 -137 -331 -137t-331 137t-137 330.5t137 331t331 137.5t331 -137.5t137 -331t-137 -330.5z" />
    <glyph glyph-name="uni2462" unicode="&#x2462;" 
d="M498 77q-94 0 -170 32v101q82 -39 164 -39q51 0 78.5 21.5t27.5 61.5q0 41 -35 59q-35 19 -123 19h-36v92h36q75 0 113 20q37 21 37 60q0 32 -24.5 47t-72.5 15q-76 0 -159 -39v102q77 31 175 31q91 0 142 -36.5t51 -99.5q0 -57 -26 -88q-30 -35 -89 -51v-1q62 -8 94 -43
t32 -93q0 -81 -57.5 -126t-157.5 -45zM240 96q112 -113 272 -113t273 113t113 272.5t-113 273t-273 113.5t-273 -113.5t-113 -273t114 -272.5zM843 38q-137 -137 -331 -137t-331 137t-137 330.5t137 331t331 137.5t331 -137.5t137 -331t-137 -330.5z" />
    <glyph glyph-name="uni2463" unicode="&#x2463;" 
d="M614 290h85v-91h-85v-114h-112v114h-256v91l256 362h112v-362zM502 290v214h-2l-148 -212v-2h150zM240 96q112 -113 272 -113t273 113t113 272.5t-113 273t-273 113.5t-273 -113.5t-113 -273t114 -272.5zM843 38q-137 -137 -331 -137t-331 137t-137 330.5t137 331
t331 137.5t331 -137.5t137 -331t-137 -330.5z" />
    <glyph glyph-name="uni2464" unicode="&#x2464;" 
d="M530 454q85 0 132 -46q47 -48 47 -130q0 -92 -49 -142q-56 -59 -183 -59q-81 0 -145 23v102q84 -32 141 -32q68 0 97 34q24 26 24 74q0 41 -21 64t-65 23q-43 0 -77 -31h-99l15 318h337v-94h-231l-7 -123h3q38 19 81 19zM240 96q112 -113 272 -113t273 113t113 272.5
t-113 273t-273 113.5t-273 -113.5t-113 -273t114 -272.5zM843 38q-137 -137 -331 -137t-331 137t-137 330.5t137 331t331 137.5t331 -137.5t137 -331t-137 -330.5z" />
    <glyph glyph-name="uni2465" unicode="&#x2465;" 
d="M667 645v-93q-56 21 -114 21q-55 0 -93 -37q-36 -36 -44 -108h2q21 18 50 28q30 10 71 10q90 0 140 -49t50 -137q0 -97 -57.5 -150t-157.5 -53q-113 0 -167 74q-48 65 -48 183q0 162 66 245q64 81 184 81q59 0 118 -15zM514 164q47 0 75 30q26 27 26 84q0 51 -26 78
q-29 29 -75 29q-45 0 -72.5 -29.5t-27.5 -77.5q0 -53 27.5 -83.5t72.5 -30.5zM240 96q112 -113 272 -113t273 113t113 272.5t-113 273t-273 113.5t-273 -113.5t-113 -273t114 -272.5zM843 38q-137 -137 -331 -137t-331 137t-137 330.5t137 331t331 137.5t331 -137.5
t137 -331t-137 -330.5z" />
    <glyph glyph-name="uni2466" unicode="&#x2466;" 
d="M318 652h392v-87q-1 -2 -3 -8.5t-4 -8.5q-66 -113 -111 -216q-49 -111 -93 -247h-124q89 253 219 463v1l1 2q1 1 0 3t0 3l-1 1h-262l-14 7v87zM240 96q112 -113 272 -113t273 113t113 272.5t-113 273t-273 113.5t-273 -113.5t-113 -273t114 -272.5zM843 38
q-137 -137 -331 -137t-331 137t-137 330.5t137 331t331 137.5t331 -137.5t137 -331t-137 -330.5z" />
    <glyph glyph-name="uni2467" unicode="&#x2467;" 
d="M502 341q-50 -17 -72 -38q-27 -24 -27 -57q0 -38 30 -61.5t79 -23.5q48 0 78 23q28 23 28 62q0 35 -24 56q-23 21 -92 39zM715 517q0 -43 -30 -78q-23 -26 -68 -47v-2q115 -44 115 -149q0 -75 -58 -120q-58 -44 -162 -44t-162 44q-58 45 -58 120q0 42 27 77t83 60v2
q-43 22 -67 56q-26 35 -26 81q0 64 53.5 103.5t149.5 39.5t149.5 -39.5t53.5 -103.5zM515 423q39 12 62 30q28 22 28 53t-24 51t-69 20q-43 0 -67 -20t-24 -51q0 -30 25 -51q26 -21 69 -32zM240 96q112 -113 272 -113t273 113t113 272.5t-113 273t-273 113.5t-273 -113.5
t-113 -273t114 -272.5zM843 38q-137 -137 -331 -137t-331 137t-137 330.5t137 331t331 137.5t331 -137.5t137 -331t-137 -330.5z" />
    <glyph glyph-name="uni2468" unicode="&#x2468;" 
d="M349 185q59 -21 122.5 -21t97.5 37q36 37 39 108h-2q-21 -18 -51 -27q-34 -11 -70 -11q-90 0 -140 50.5t-50 144.5q0 90 58.5 142t156.5 52q103 0 159 -62q56 -64 56 -186q0 -176 -69 -259q-63 -76 -181 -76q-63 0 -126 15v93zM510 573q-47 0 -75 -27q-26 -27 -26 -78
q0 -58 26 -86q28 -30 75 -30q46 0 74 31q26 30 26 85q0 48 -27 77q-28 28 -73 28zM240 96q112 -113 272 -113t273 113t113 272.5t-113 273t-273 113.5t-273 -113.5t-113 -273t114 -272.5zM843 38q-137 -137 -331 -137t-331 137t-137 330.5t137 331t331 137.5t331 -137.5
t137 -331t-137 -330.5z" />
    <glyph glyph-name="uni2469" unicode="&#x2469;" 
d="M314 652h103v-567h-103v414h-1l-103 -107v155zM672 513q-15 42 -45.5 42t-44.5 -42q-15 -43 -15 -144.5t15 -144.5q14 -42 44.5 -42t45.5 42q14 43 14 144.5t-14 144.5zM746 145q-39 -68 -119 -68q-81 0 -121 68q-39 68 -39 223.5t39 223.5q40 68 121 68q80 0 119 -68
q40 -70 40 -223.5t-40 -223.5zM240 96q112 -113 272 -113t273 113t113 272.5t-113 273t-273 113.5t-273 -113.5t-113 -273t114 -272.5zM843 38q-137 -137 -331 -137t-331 137t-137 330.5t137 331t331 137.5t331 -137.5t137 -331t-137 -330.5z" />
    <glyph glyph-name="uni246A" unicode="&#x246a;" 
d="M626 652h102v-567h-102v414h-1l-105 -107v155zM335 652h102v-567h-102v414h-1l-104 -107v155zM240 96q112 -113 272 -113t273 113t113 272.5t-113 273t-273 113.5t-273 -113.5t-113 -273t114 -272.5zM843 38q-137 -137 -331 -137t-331 137t-137 330.5t137 331t331 137.5
t331 -137.5t137 -331t-137 -330.5z" />
    <glyph glyph-name="uni246B" unicode="&#x246b;" 
d="M620 198h147v-113h-277v113q100 108 132 158q32 52 37 101q4 36 -8 59q-12 29 -40 29q-42 0 -112 -44v128q59 31 127 31q66 0 102 -45q37 -46 37 -125q0 -65 -30 -128q-27 -58 -115 -163v-1zM314 652h103v-567h-103v414h-1l-103 -107v155zM240 96q112 -113 272 -113
t273 113t113 272.5t-113 273t-273 113.5t-273 -113.5t-113 -273t114 -272.5zM843 38q-137 -137 -331 -137t-331 137t-137 330.5t137 331t331 137.5t331 -137.5t137 -331t-137 -330.5z" />
    <glyph glyph-name="uni246C" unicode="&#x246c;" 
d="M616 77q-67 0 -121 28v122q62 -38 116 -38q30 0 47 18q17 16 17 48q0 34 -21.5 49t-83.5 15h-22v109h22q55 0 78 17t23 53q0 26 -15 38t-48 12q-49 0 -109 -38v122q56 28 124 28q66 0 104 -37.5t38 -100.5q0 -58 -17 -89q-19 -32 -61 -50v-2q41 -7 63 -42q21 -34 21 -91
q0 -81 -41 -126t-114 -45zM314 652h103v-567h-103v414h-1l-103 -107v155zM843 38q-137 -137 -331 -137t-331 137t-137 330.5t137 331t331 137.5t331 -137.5t137 -331t-137 -330.5zM240 96q112 -113 272 -113t273 113t113 272.5t-113 273t-273 113.5t-273 -113.5t-113 -273
t114 -272.5z" />
    <glyph glyph-name="uni246D" unicode="&#x246d;" 
d="M631 486h-1l-90 -184v-2h91v186zM314 652h103v-567h-103v414h-1l-103 -107v155zM724 190v-105h-93v105h-176v110l176 352h93v-352h57v-110h-57zM240 96q112 -113 272 -113t273 113t113 272.5t-113 273t-273 113.5t-273 -113.5t-113 -273t114 -272.5zM843 38
q-137 -137 -331 -137t-331 137t-137 330.5t137 331t331 137.5t331 -137.5t137 -331t-137 -330.5z" />
    <glyph glyph-name="uni246E" unicode="&#x246e;" 
d="M641 457q61 0 95 -46t34 -132q0 -96 -38 -146q-41 -56 -132 -56q-55 0 -104 21v117q58 -28 100 -28q46 0 64 31q14 21 14 61q0 34 -12 53q-13 19 -39 19q-22 0 -45 -29h-83l10 330h247v-112h-158l-4 -98h2q25 15 49 15zM314 652h103v-567h-103v414h-1l-103 -107v155z
M240 96q112 -113 272 -113t273 113t113 272.5t-113 273t-273 113.5t-273 -113.5t-113 -273t114 -272.5zM843 38q-137 -137 -331 -137t-331 137t-137 330.5t137 331t331 137.5t331 -137.5t137 -331t-137 -330.5z" />
    <glyph glyph-name="uni246F" unicode="&#x246f;" 
d="M314 652h103v-567h-103v414h-1l-103 -107v155zM672 203q16 27 16 73q0 48 -15.5 72.5t-44.5 24.5t-45.5 -25.5t-16.5 -71.5q0 -48 16.5 -73.5t45 -25.5t44.5 26zM628 77q-75 0 -115 64q-41 67 -41 193q0 162 47 245q46 81 133 81q42 0 87 -15v-107q-39 22 -84 22
q-37 0 -59 -31q-25 -33 -29 -94l1 -1q31 32 79 32q65 0 101 -48q34 -47 34 -138q0 -96 -42 -150q-41 -53 -112 -53zM240 96q112 -113 272 -113t273 113t113 272.5t-113 273t-273 113.5t-273 -113.5t-113 -273t114 -272.5zM843 38q-137 -137 -331 -137t-331 137t-137 330.5
t137 331t331 137.5t331 -137.5t137 -331t-137 -330.5z" />
    <glyph glyph-name="uni2470" unicode="&#x2470;" 
d="M485 652h283v-112q-50 -124 -78 -212q-38 -122 -65 -243h-106q62 237 157 452v3h-191v112zM314 652h103v-567h-103v414h-1l-103 -107v155zM843 38q-137 -137 -331 -137t-331 137t-137 330.5t137 331t331 137.5t331 -137.5t137 -331t-137 -330.5zM240 96
q112 -113 272 -113t273 113t113 272.5t-113 273t-273 113.5t-273 -113.5t-113 -273t114 -272.5z" />
    <glyph glyph-name="uni2471" unicode="&#x2471;" 
d="M314 652h103v-567h-103v414h-1l-103 -107v155zM509 121q-42 45 -42 120q0 44 20 78q19 30 55 55v2q-31 24 -46 57q-18 37 -18 81q0 64 40 106q40 40 108.5 40t108.5 -40q40 -42 40 -106q0 -38 -20 -73q-16 -25 -47 -49v-2q38 -24 59 -61q19 -36 19 -88q0 -75 -42 -120
q-41 -44 -117.5 -44t-117.5 44zM631 427q28 15 39.5 32.5t11.5 41.5q0 26 -15.5 44.5t-40 18.5t-40 -18.5t-15.5 -44.5q0 -23 14 -41q13 -18 46 -33zM616 333q-31 -21 -42.5 -39.5t-11.5 -46.5q0 -31 18.5 -52.5t46 -21.5t46.5 22q17 20 17 52q0 31 -13 47q-14 17 -61 39z
M240 96q112 -113 272 -113t273 113t113 272.5t-113 273t-273 113.5t-273 -113.5t-113 -273t114 -272.5zM843 38q-137 -137 -331 -137t-331 137t-137 330.5t137 331t331 137.5t331 -137.5t137 -331t-137 -330.5z" />
    <glyph glyph-name="uni2472" unicode="&#x2472;" 
d="M314 652h103v-567h-103v414h-1l-103 -107v155zM581 536q-16 -23 -16 -67q0 -45 13 -72q15 -32 48 -32q31 0 47 29q14 27 14 75q0 41 -17 67q-17 24 -44.5 24t-44.5 -24zM626 660q74 0 114 -63q41 -65 41 -185q0 -154 -40 -240q-45 -95 -140 -95q-44 0 -92 15v108
q42 -23 88 -23q43 0 67 35q21 32 22 90l-1 1q-31 -32 -79 -32q-69 0 -103 54q-32 48 -32 141q0 91 41 142q41 52 114 52zM240 96q112 -113 272 -113t273 113t113 272.5t-113 273t-273 113.5t-273 -113.5t-113 -273t114 -272.5zM843 38q-137 -137 -331 -137t-331 137
t-137 330.5t137 331t331 137.5t331 -137.5t137 -331t-137 -330.5z" />
    <glyph glyph-name="uni2473" unicode="&#x2473;" 
d="M353 198h137v-113h-239q110 -102 261 -102q160 0 273 113t113 272.5t-113 273t-273 113.5t-273 -113.5t-113 -272.5q0 -155 107 -268v97q58 66 86 105q36 49 52 79q24 49 24 95q0 33 -12 50.5t-37 17.5q-39 0 -104 -44v128q54 31 117 31q62 0 96 -45q33 -44 33 -125
q0 -66 -27 -128q-27 -60 -108 -163v-1zM706 224q13 40 13 144.5t-13 144.5q-15 42 -42.5 42t-41.5 -42q-14 -40 -14 -144.5t14 -144.5q14 -42 41.5 -42t42.5 42zM552 145q-37 70 -37 223.5t37 223.5q37 68 111.5 68t111.5 -68q37 -70 37 -223.5t-37 -223.5
q-37 -68 -111.5 -68t-111.5 68zM843 38q-137 -137 -331 -137t-331 137t-137 330.5t137 331t331 137.5t331 -137.5t137 -331t-137 -330.5z" />
    <glyph glyph-name="uni2474" unicode="&#x2474;" 
 />
    <glyph glyph-name="uni2475" unicode="&#x2475;" 
 />
    <glyph glyph-name="uni2476" unicode="&#x2476;" 
 />
    <glyph glyph-name="uni2477" unicode="&#x2477;" 
 />
    <glyph glyph-name="uni2478" unicode="&#x2478;" 
 />
    <glyph glyph-name="uni2479" unicode="&#x2479;" 
 />
    <glyph glyph-name="uni247A" unicode="&#x247a;" 
 />
    <glyph glyph-name="uni247B" unicode="&#x247b;" 
 />
    <glyph glyph-name="uni247C" unicode="&#x247c;" 
 />
    <glyph glyph-name="uni247D" unicode="&#x247d;" 
 />
    <glyph glyph-name="uni247E" unicode="&#x247e;" 
 />
    <glyph glyph-name="uni247F" unicode="&#x247f;" 
 />
    <glyph glyph-name="uni2480" unicode="&#x2480;" 
 />
    <glyph glyph-name="uni2481" unicode="&#x2481;" 
 />
    <glyph glyph-name="uni2482" unicode="&#x2482;" 
 />
    <glyph glyph-name="uni2483" unicode="&#x2483;" 
 />
    <glyph glyph-name="uni2484" unicode="&#x2484;" 
 />
    <glyph glyph-name="uni2485" unicode="&#x2485;" 
 />
    <glyph glyph-name="uni2486" unicode="&#x2486;" 
 />
    <glyph glyph-name="uni2487" unicode="&#x2487;" 
 />
    <glyph glyph-name="uni2488" unicode="&#x2488;" 
 />
    <glyph glyph-name="uni2489" unicode="&#x2489;" 
 />
    <glyph glyph-name="uni248A" unicode="&#x248a;" 
 />
    <glyph glyph-name="uni248B" unicode="&#x248b;" 
 />
    <glyph glyph-name="uni248C" unicode="&#x248c;" 
 />
    <glyph glyph-name="uni248D" unicode="&#x248d;" 
 />
    <glyph glyph-name="uni248E" unicode="&#x248e;" 
 />
    <glyph glyph-name="uni248F" unicode="&#x248f;" 
 />
    <glyph glyph-name="uni2490" unicode="&#x2490;" 
 />
    <glyph glyph-name="uni2491" unicode="&#x2491;" 
 />
    <glyph glyph-name="uni2492" unicode="&#x2492;" 
 />
    <glyph glyph-name="uni2493" unicode="&#x2493;" 
 />
    <glyph glyph-name="uni2494" unicode="&#x2494;" 
 />
    <glyph glyph-name="uni2495" unicode="&#x2495;" 
 />
    <glyph glyph-name="uni2496" unicode="&#x2496;" 
 />
    <glyph glyph-name="uni2497" unicode="&#x2497;" 
 />
    <glyph glyph-name="uni2498" unicode="&#x2498;" 
 />
    <glyph glyph-name="uni2499" unicode="&#x2499;" 
 />
    <glyph glyph-name="uni249A" unicode="&#x249a;" 
 />
    <glyph glyph-name="uni249B" unicode="&#x249b;" 
 />
    <glyph glyph-name="uni249C" unicode="&#x249c;" 
 />
    <glyph glyph-name="uni249D" unicode="&#x249d;" 
 />
    <glyph glyph-name="uni249E" unicode="&#x249e;" 
 />
    <glyph glyph-name="uni249F" unicode="&#x249f;" 
 />
    <glyph glyph-name="uni24A0" unicode="&#x24a0;" 
 />
    <glyph glyph-name="uni24A1" unicode="&#x24a1;" 
 />
    <glyph glyph-name="uni24A2" unicode="&#x24a2;" 
 />
    <glyph glyph-name="uni24A3" unicode="&#x24a3;" 
 />
    <glyph glyph-name="uni24A4" unicode="&#x24a4;" 
 />
    <glyph glyph-name="uni24A5" unicode="&#x24a5;" 
 />
    <glyph glyph-name="uni24A6" unicode="&#x24a6;" 
 />
    <glyph glyph-name="uni24A7" unicode="&#x24a7;" 
 />
    <glyph glyph-name="uni24A8" unicode="&#x24a8;" 
 />
    <glyph glyph-name="uni24A9" unicode="&#x24a9;" 
 />
    <glyph glyph-name="uni24AA" unicode="&#x24aa;" 
 />
    <glyph glyph-name="uni24AB" unicode="&#x24ab;" 
 />
    <glyph glyph-name="uni24AC" unicode="&#x24ac;" 
 />
    <glyph glyph-name="uni24AD" unicode="&#x24ad;" 
 />
    <glyph glyph-name="uni24AE" unicode="&#x24ae;" 
 />
    <glyph glyph-name="uni24AF" unicode="&#x24af;" 
 />
    <glyph glyph-name="uni24B0" unicode="&#x24b0;" 
 />
    <glyph glyph-name="uni24B1" unicode="&#x24b1;" 
 />
    <glyph glyph-name="uni24B2" unicode="&#x24b2;" 
 />
    <glyph glyph-name="uni24B3" unicode="&#x24b3;" 
 />
    <glyph glyph-name="uni24B4" unicode="&#x24b4;" 
 />
    <glyph glyph-name="uni24B5" unicode="&#x24b5;" 
 />
    <glyph glyph-name="uni24B6" unicode="&#x24b6;" 
 />
    <glyph glyph-name="uni24B7" unicode="&#x24b7;" 
 />
    <glyph glyph-name="uni24B8" unicode="&#x24b8;" 
 />
    <glyph glyph-name="uni24B9" unicode="&#x24b9;" 
 />
    <glyph glyph-name="uni24BA" unicode="&#x24ba;" 
 />
    <glyph glyph-name="uni24BB" unicode="&#x24bb;" 
 />
    <glyph glyph-name="uni24BC" unicode="&#x24bc;" 
 />
    <glyph glyph-name="uni24BD" unicode="&#x24bd;" 
 />
    <glyph glyph-name="uni24BE" unicode="&#x24be;" 
 />
    <glyph glyph-name="uni24BF" unicode="&#x24bf;" 
 />
    <glyph glyph-name="uni24C0" unicode="&#x24c0;" 
 />
    <glyph glyph-name="uni24C1" unicode="&#x24c1;" 
 />
    <glyph glyph-name="uni24C2" unicode="&#x24c2;" 
 />
    <glyph glyph-name="uni24C3" unicode="&#x24c3;" 
 />
    <glyph glyph-name="uni24C4" unicode="&#x24c4;" 
 />
    <glyph glyph-name="uni24C5" unicode="&#x24c5;" 
 />
    <glyph glyph-name="uni24C6" unicode="&#x24c6;" 
 />
    <glyph glyph-name="uni24C7" unicode="&#x24c7;" 
 />
    <glyph glyph-name="uni24C8" unicode="&#x24c8;" 
 />
    <glyph glyph-name="uni24C9" unicode="&#x24c9;" 
 />
    <glyph glyph-name="uni24CA" unicode="&#x24ca;" 
 />
    <glyph glyph-name="uni24CB" unicode="&#x24cb;" 
 />
    <glyph glyph-name="uni24CC" unicode="&#x24cc;" 
 />
    <glyph glyph-name="uni24CD" unicode="&#x24cd;" 
 />
    <glyph glyph-name="uni24CE" unicode="&#x24ce;" 
 />
    <glyph glyph-name="uni24CF" unicode="&#x24cf;" 
 />
    <glyph glyph-name="uni24D0" unicode="&#x24d0;" 
 />
    <glyph glyph-name="uni24D1" unicode="&#x24d1;" 
 />
    <glyph glyph-name="uni24D2" unicode="&#x24d2;" 
 />
    <glyph glyph-name="uni24D3" unicode="&#x24d3;" 
 />
    <glyph glyph-name="uni24D4" unicode="&#x24d4;" 
 />
    <glyph glyph-name="uni24D5" unicode="&#x24d5;" 
 />
    <glyph glyph-name="uni24D6" unicode="&#x24d6;" 
 />
    <glyph glyph-name="uni24D7" unicode="&#x24d7;" 
 />
    <glyph glyph-name="uni24D8" unicode="&#x24d8;" 
 />
    <glyph glyph-name="uni24D9" unicode="&#x24d9;" 
 />
    <glyph glyph-name="uni24DA" unicode="&#x24da;" 
 />
    <glyph glyph-name="uni24DB" unicode="&#x24db;" 
 />
    <glyph glyph-name="uni24DC" unicode="&#x24dc;" 
 />
    <glyph glyph-name="uni24DD" unicode="&#x24dd;" 
 />
    <glyph glyph-name="uni24DE" unicode="&#x24de;" 
 />
    <glyph glyph-name="uni24DF" unicode="&#x24df;" 
 />
    <glyph glyph-name="uni24E0" unicode="&#x24e0;" 
 />
    <glyph glyph-name="uni24E1" unicode="&#x24e1;" 
 />
    <glyph glyph-name="uni24E2" unicode="&#x24e2;" 
 />
    <glyph glyph-name="uni24E3" unicode="&#x24e3;" 
 />
    <glyph glyph-name="uni24E4" unicode="&#x24e4;" 
 />
    <glyph glyph-name="uni24E5" unicode="&#x24e5;" 
 />
    <glyph glyph-name="uni24E6" unicode="&#x24e6;" 
 />
    <glyph glyph-name="uni24E7" unicode="&#x24e7;" 
 />
    <glyph glyph-name="uni24E8" unicode="&#x24e8;" 
 />
    <glyph glyph-name="uni24E9" unicode="&#x24e9;" 
 />
    <glyph glyph-name="uni24EA" unicode="&#x24ea;" 
 />
    <glyph glyph-name="SF100000" unicode="&#x2500;" 
d="M0 338v61h1024v-61h-1024z" />
    <glyph glyph-name="uni2501" unicode="&#x2501;" 
d="M0 276v185h1024v-185h-1024z" />
    <glyph glyph-name="SF110000" unicode="&#x2502;" 
d="M481 -143v1024h62v-1024h-62z" />
    <glyph glyph-name="uni2503" unicode="&#x2503;" 
d="M420 -143v1024h184v-1024h-184z" />
    <glyph glyph-name="uni2504" unicode="&#x2504;" horiz-adv-x="512" 
 />
    <glyph glyph-name="uni2505" unicode="&#x2505;" horiz-adv-x="512" 
 />
    <glyph glyph-name="uni2506" unicode="&#x2506;" horiz-adv-x="512" 
 />
    <glyph glyph-name="uni2507" unicode="&#x2507;" horiz-adv-x="512" 
 />
    <glyph glyph-name="uni2508" unicode="&#x2508;" horiz-adv-x="512" 
 />
    <glyph glyph-name="uni2509" unicode="&#x2509;" horiz-adv-x="512" 
 />
    <glyph glyph-name="uni250A" unicode="&#x250a;" horiz-adv-x="512" 
 />
    <glyph glyph-name="uni250B" unicode="&#x250b;" horiz-adv-x="512" 
 />
    <glyph glyph-name="SF010000" unicode="&#x250c;" 
d="M481 399h543v-61h-481v-481h-62v542z" />
    <glyph glyph-name="uni250D" unicode="&#x250d;" horiz-adv-x="512" 
 />
    <glyph glyph-name="uni250E" unicode="&#x250e;" horiz-adv-x="512" 
 />
    <glyph glyph-name="uni250F" unicode="&#x250f;" 
d="M1024 461v-185h-420v-419h-184v604h604z" />
    <glyph glyph-name="SF030000" unicode="&#x2510;" 
d="M543 399v-542h-62v481h-481v61h543z" />
    <glyph glyph-name="uni2511" unicode="&#x2511;" horiz-adv-x="512" 
 />
    <glyph glyph-name="uni2512" unicode="&#x2512;" horiz-adv-x="512" 
 />
    <glyph glyph-name="uni2513" unicode="&#x2513;" 
d="M0 461h604v-604h-184v419h-420v185z" />
    <glyph glyph-name="SF020000" unicode="&#x2514;" 
d="M481 338v543h62v-482h481v-61h-543z" />
    <glyph glyph-name="uni2515" unicode="&#x2515;" horiz-adv-x="512" 
 />
    <glyph glyph-name="uni2516" unicode="&#x2516;" horiz-adv-x="512" 
 />
    <glyph glyph-name="uni2517" unicode="&#x2517;" 
d="M1024 276h-604v605h184v-420h420v-185z" />
    <glyph glyph-name="SF040000" unicode="&#x2518;" 
d="M543 338h-543v61h481v482h62v-543z" />
    <glyph glyph-name="uni2519" unicode="&#x2519;" horiz-adv-x="512" 
 />
    <glyph glyph-name="uni251A" unicode="&#x251a;" horiz-adv-x="512" 
 />
    <glyph glyph-name="uni251B" unicode="&#x251b;" 
d="M0 276v185h420v420h184v-605h-604z" />
    <glyph glyph-name="SF080000" unicode="&#x251c;" 
d="M1024 399v-61h-481v-481h-62v1024h62v-482h481z" />
    <glyph glyph-name="uni251D" unicode="&#x251d;" 
d="M481 -143v1024h62v-420h481v-185h-481v-419h-62z" />
    <glyph glyph-name="uni251E" unicode="&#x251e;" horiz-adv-x="512" 
 />
    <glyph glyph-name="uni251F" unicode="&#x251f;" horiz-adv-x="512" 
 />
    <glyph glyph-name="uni2520" unicode="&#x2520;" 
d="M420 -143v1024h184v-482h420v-61h-420v-481h-184z" />
    <glyph glyph-name="uni2521" unicode="&#x2521;" horiz-adv-x="512" 
 />
    <glyph glyph-name="uni2522" unicode="&#x2522;" horiz-adv-x="512" 
 />
    <glyph glyph-name="uni2523" unicode="&#x2523;" 
d="M420 -143v1024h184v-420h420v-185h-420v-419h-184z" />
    <glyph glyph-name="SF090000" unicode="&#x2524;" 
d="M543 -143h-62v481h-481v61h481v482h62v-1024z" />
    <glyph glyph-name="uni2525" unicode="&#x2525;" 
d="M543 -143h-62v419h-481v185h481v420h62v-1024z" />
    <glyph glyph-name="uni2526" unicode="&#x2526;" horiz-adv-x="512" 
 />
    <glyph glyph-name="uni2527" unicode="&#x2527;" horiz-adv-x="512" 
 />
    <glyph glyph-name="uni2528" unicode="&#x2528;" 
d="M604 -143h-184v481h-420v61h420v482h184v-1024z" />
    <glyph glyph-name="uni2529" unicode="&#x2529;" horiz-adv-x="512" 
 />
    <glyph glyph-name="uni252A" unicode="&#x252a;" horiz-adv-x="512" 
 />
    <glyph glyph-name="uni252B" unicode="&#x252b;" 
d="M604 -143h-184v419h-420v185h420v420h184v-1024z" />
    <glyph glyph-name="SF060000" unicode="&#x252c;" 
d="M481 -143v481h-481v61h1024v-61h-481v-481h-62z" />
    <glyph glyph-name="uni252D" unicode="&#x252d;" horiz-adv-x="512" 
 />
    <glyph glyph-name="uni252E" unicode="&#x252e;" horiz-adv-x="512" 
 />
    <glyph glyph-name="uni252F" unicode="&#x252f;" 
d="M1024 461v-185h-481v-419h-62v419h-481v185h1024z" />
    <glyph glyph-name="uni2530" unicode="&#x2530;" 
d="M0 399h1024v-61h-420v-481h-184v481h-420v61z" />
    <glyph glyph-name="uni2531" unicode="&#x2531;" horiz-adv-x="512" 
 />
    <glyph glyph-name="uni2532" unicode="&#x2532;" horiz-adv-x="512" 
 />
    <glyph glyph-name="uni2533" unicode="&#x2533;" 
d="M1024 461v-185h-420v-419h-184v419h-420v185h1024z" />
    <glyph glyph-name="SF070000" unicode="&#x2534;" 
d="M1024 399v-61h-1024v61h481v482h62v-482h481z" />
    <glyph glyph-name="uni2535" unicode="&#x2535;" horiz-adv-x="512" 
 />
    <glyph glyph-name="uni2536" unicode="&#x2536;" horiz-adv-x="512" 
 />
    <glyph glyph-name="uni2537" unicode="&#x2537;" 
d="M1024 276h-1024v185h481v420h62v-420h481v-185z" />
    <glyph glyph-name="uni2538" unicode="&#x2538;" 
d="M0 338v61h420v482h184v-482h420v-61h-1024z" />
    <glyph glyph-name="uni2539" unicode="&#x2539;" horiz-adv-x="512" 
 />
    <glyph glyph-name="uni253A" unicode="&#x253a;" horiz-adv-x="512" 
 />
    <glyph glyph-name="uni253B" unicode="&#x253b;" 
d="M1024 276h-1024v185h420v420h184v-420h420v-185z" />
    <glyph glyph-name="SF050000" unicode="&#x253c;" 
d="M543 -143h-62v481h-481v61h481v482h62v-482h481v-61h-481v-481z" />
    <glyph glyph-name="uni253D" unicode="&#x253d;" horiz-adv-x="512" 
 />
    <glyph glyph-name="uni253E" unicode="&#x253e;" horiz-adv-x="512" 
 />
    <glyph glyph-name="uni253F" unicode="&#x253f;" 
d="M1024 461v-185h-481v-419h-62v419h-481v185h481v420h62v-420h481z" />
    <glyph glyph-name="uni2540" unicode="&#x2540;" horiz-adv-x="512" 
 />
    <glyph glyph-name="uni2541" unicode="&#x2541;" horiz-adv-x="512" 
 />
    <glyph glyph-name="uni2542" unicode="&#x2542;" 
d="M604 -143h-184v481h-420v61h420v482h184v-482h420v-61h-420v-481z" />
    <glyph glyph-name="uni2543" unicode="&#x2543;" horiz-adv-x="512" 
 />
    <glyph glyph-name="uni2544" unicode="&#x2544;" horiz-adv-x="512" 
 />
    <glyph glyph-name="uni2545" unicode="&#x2545;" horiz-adv-x="512" 
 />
    <glyph glyph-name="uni2546" unicode="&#x2546;" horiz-adv-x="512" 
 />
    <glyph glyph-name="uni2547" unicode="&#x2547;" horiz-adv-x="512" 
 />
    <glyph glyph-name="uni2548" unicode="&#x2548;" horiz-adv-x="512" 
 />
    <glyph glyph-name="uni2549" unicode="&#x2549;" horiz-adv-x="512" 
 />
    <glyph glyph-name="uni254A" unicode="&#x254a;" horiz-adv-x="512" 
 />
    <glyph glyph-name="uni254B" unicode="&#x254b;" 
d="M604 881v-420h420v-185h-420v-419h-184v419h-420v185h420v420h184z" />
    <glyph glyph-name="uni254C" unicode="&#x254c;" horiz-adv-x="512" 
 />
    <glyph glyph-name="uni254D" unicode="&#x254d;" horiz-adv-x="512" 
 />
    <glyph glyph-name="uni254E" unicode="&#x254e;" horiz-adv-x="512" 
 />
    <glyph glyph-name="uni254F" unicode="&#x254f;" horiz-adv-x="512" 
 />
    <glyph glyph-name="SF430000" unicode="&#x2550;" horiz-adv-x="512" 
 />
    <glyph glyph-name="SF240000" unicode="&#x2551;" horiz-adv-x="512" 
 />
    <glyph glyph-name="SF510000" unicode="&#x2552;" horiz-adv-x="512" 
 />
    <glyph glyph-name="SF520000" unicode="&#x2553;" horiz-adv-x="512" 
 />
    <glyph glyph-name="SF390000" unicode="&#x2554;" horiz-adv-x="512" 
 />
    <glyph glyph-name="SF220000" unicode="&#x2555;" horiz-adv-x="512" 
 />
    <glyph glyph-name="SF210000" unicode="&#x2556;" horiz-adv-x="512" 
 />
    <glyph glyph-name="SF250000" unicode="&#x2557;" horiz-adv-x="512" 
 />
    <glyph glyph-name="SF500000" unicode="&#x2558;" horiz-adv-x="512" 
 />
    <glyph glyph-name="SF490000" unicode="&#x2559;" horiz-adv-x="512" 
 />
    <glyph glyph-name="SF380000" unicode="&#x255a;" horiz-adv-x="512" 
 />
    <glyph glyph-name="SF280000" unicode="&#x255b;" horiz-adv-x="512" 
 />
    <glyph glyph-name="SF270000" unicode="&#x255c;" horiz-adv-x="512" 
 />
    <glyph glyph-name="SF260000" unicode="&#x255d;" horiz-adv-x="512" 
 />
    <glyph glyph-name="SF360000" unicode="&#x255e;" horiz-adv-x="512" 
 />
    <glyph glyph-name="SF370000" unicode="&#x255f;" horiz-adv-x="512" 
 />
    <glyph glyph-name="SF420000" unicode="&#x2560;" horiz-adv-x="512" 
 />
    <glyph glyph-name="SF190000" unicode="&#x2561;" horiz-adv-x="512" 
 />
    <glyph glyph-name="SF200000" unicode="&#x2562;" horiz-adv-x="512" 
 />
    <glyph glyph-name="SF230000" unicode="&#x2563;" horiz-adv-x="512" 
 />
    <glyph glyph-name="SF470000" unicode="&#x2564;" horiz-adv-x="512" 
 />
    <glyph glyph-name="SF480000" unicode="&#x2565;" horiz-adv-x="512" 
 />
    <glyph glyph-name="SF410000" unicode="&#x2566;" horiz-adv-x="512" 
 />
    <glyph glyph-name="SF450000" unicode="&#x2567;" horiz-adv-x="512" 
 />
    <glyph glyph-name="SF460000" unicode="&#x2568;" horiz-adv-x="512" 
 />
    <glyph glyph-name="SF400000" unicode="&#x2569;" horiz-adv-x="512" 
 />
    <glyph glyph-name="SF540000" unicode="&#x256a;" horiz-adv-x="512" 
 />
    <glyph glyph-name="SF530000" unicode="&#x256b;" horiz-adv-x="512" 
 />
    <glyph glyph-name="SF440000" unicode="&#x256c;" horiz-adv-x="512" 
 />
    <glyph glyph-name="uni256D" unicode="&#x256d;" horiz-adv-x="512" 
 />
    <glyph glyph-name="uni256E" unicode="&#x256e;" horiz-adv-x="512" 
 />
    <glyph glyph-name="uni256F" unicode="&#x256f;" horiz-adv-x="512" 
 />
    <glyph glyph-name="uni2570" unicode="&#x2570;" horiz-adv-x="512" 
 />
    <glyph glyph-name="uni2571" unicode="&#x2571;" horiz-adv-x="512" 
 />
    <glyph glyph-name="uni2572" unicode="&#x2572;" horiz-adv-x="512" 
 />
    <glyph glyph-name="uni2573" unicode="&#x2573;" horiz-adv-x="512" 
 />
    <glyph glyph-name="uni2574" unicode="&#x2574;" horiz-adv-x="512" 
 />
    <glyph glyph-name="uni2575" unicode="&#x2575;" horiz-adv-x="512" 
 />
    <glyph glyph-name="uni2576" unicode="&#x2576;" horiz-adv-x="512" 
 />
    <glyph glyph-name="uni2577" unicode="&#x2577;" horiz-adv-x="512" 
 />
    <glyph glyph-name="uni2578" unicode="&#x2578;" horiz-adv-x="512" 
 />
    <glyph glyph-name="uni2579" unicode="&#x2579;" horiz-adv-x="512" 
 />
    <glyph glyph-name="uni257A" unicode="&#x257a;" horiz-adv-x="512" 
 />
    <glyph glyph-name="uni257B" unicode="&#x257b;" horiz-adv-x="512" 
 />
    <glyph glyph-name="uni257C" unicode="&#x257c;" horiz-adv-x="512" 
 />
    <glyph glyph-name="uni257D" unicode="&#x257d;" horiz-adv-x="512" 
 />
    <glyph glyph-name="uni257E" unicode="&#x257e;" horiz-adv-x="512" 
 />
    <glyph glyph-name="uni257F" unicode="&#x257f;" horiz-adv-x="512" 
 />
    <glyph glyph-name="upblock" unicode="&#x2580;" horiz-adv-x="512" 
 />
    <glyph glyph-name="uni2581" unicode="&#x2581;" horiz-adv-x="512" 
 />
    <glyph glyph-name="uni2582" unicode="&#x2582;" horiz-adv-x="512" 
 />
    <glyph glyph-name="uni2583" unicode="&#x2583;" horiz-adv-x="512" 
 />
    <glyph glyph-name="dnblock" unicode="&#x2584;" horiz-adv-x="512" 
 />
    <glyph glyph-name="uni2585" unicode="&#x2585;" horiz-adv-x="512" 
 />
    <glyph glyph-name="uni2586" unicode="&#x2586;" horiz-adv-x="512" 
 />
    <glyph glyph-name="uni2587" unicode="&#x2587;" horiz-adv-x="512" 
 />
    <glyph glyph-name="block" unicode="&#x2588;" horiz-adv-x="512" 
 />
    <glyph glyph-name="uni2589" unicode="&#x2589;" horiz-adv-x="512" 
 />
    <glyph glyph-name="uni258A" unicode="&#x258a;" horiz-adv-x="512" 
 />
    <glyph glyph-name="uni258B" unicode="&#x258b;" horiz-adv-x="512" 
 />
    <glyph glyph-name="lfblock" unicode="&#x258c;" horiz-adv-x="512" 
 />
    <glyph glyph-name="uni258D" unicode="&#x258d;" horiz-adv-x="512" 
 />
    <glyph glyph-name="uni258E" unicode="&#x258e;" horiz-adv-x="512" 
 />
    <glyph glyph-name="uni258F" unicode="&#x258f;" horiz-adv-x="512" 
 />
    <glyph glyph-name="rtblock" unicode="&#x2590;" horiz-adv-x="512" 
 />
    <glyph glyph-name="ltshade" unicode="&#x2591;" horiz-adv-x="512" 
 />
    <glyph glyph-name="shade" unicode="&#x2592;" horiz-adv-x="512" 
 />
    <glyph glyph-name="dkshade" unicode="&#x2593;" horiz-adv-x="512" 
 />
    <glyph glyph-name="uni2594" unicode="&#x2594;" horiz-adv-x="512" 
 />
    <glyph glyph-name="uni2595" unicode="&#x2595;" horiz-adv-x="512" 
 />
    <glyph glyph-name="filledbox" unicode="&#x25a0;" 
d="M138 0v748h748v-748h-748z" />
    <glyph glyph-name="H22073" unicode="&#x25a1;" 
d="M200 686v-625h624v625h-624zM886 0h-748v748h748v-748z" />
    <glyph glyph-name="uni25A2" unicode="&#x25a2;" 
 />
    <glyph glyph-name="uni25A3" unicode="&#x25a3;" 
 />
    <glyph glyph-name="uni25A4" unicode="&#x25a4;" 
 />
    <glyph glyph-name="uni25A5" unicode="&#x25a5;" 
 />
    <glyph glyph-name="uni25A6" unicode="&#x25a6;" 
 />
    <glyph glyph-name="uni25A7" unicode="&#x25a7;" 
 />
    <glyph glyph-name="uni25A8" unicode="&#x25a8;" 
 />
    <glyph glyph-name="uni25A9" unicode="&#x25a9;" 
 />
    <glyph glyph-name="H18543" unicode="&#x25aa;" 
 />
    <glyph glyph-name="H18551" unicode="&#x25ab;" 
 />
    <glyph glyph-name="filledrect" unicode="&#x25ac;" 
 />
    <glyph glyph-name="uni25AD" unicode="&#x25ad;" 
 />
    <glyph glyph-name="uni25AE" unicode="&#x25ae;" 
 />
    <glyph glyph-name="uni25AF" unicode="&#x25af;" 
 />
    <glyph glyph-name="uni25B0" unicode="&#x25b0;" 
 />
    <glyph glyph-name="uni25B1" unicode="&#x25b1;" 
 />
    <glyph glyph-name="triagup" unicode="&#x25b2;" 
d="M973 0h-922l461 799z" />
    <glyph glyph-name="uni25B3" unicode="&#x25b3;" 
d="M973 0h-922l461 799zM512 676l-354 -615h708z" />
    <glyph glyph-name="uni25B4" unicode="&#x25b4;" 
 />
    <glyph glyph-name="uni25B5" unicode="&#x25b5;" 
 />
    <glyph glyph-name="uni25B6" unicode="&#x25b6;" 
 />
    <glyph glyph-name="uni25B7" unicode="&#x25b7;" 
 />
    <glyph glyph-name="uni25B8" unicode="&#x25b8;" 
 />
    <glyph glyph-name="uni25B9" unicode="&#x25b9;" 
 />
    <glyph glyph-name="triagrt" unicode="&#x25ba;" 
 />
    <glyph glyph-name="uni25BB" unicode="&#x25bb;" 
 />
    <glyph glyph-name="triagdn" unicode="&#x25bc;" 
d="M973 758l-461 -799l-461 799h922z" />
    <glyph glyph-name="uni25BD" unicode="&#x25bd;" 
d="M512 82l354 614h-708zM512 -41l-461 799h922z" />
    <glyph glyph-name="uni25BE" unicode="&#x25be;" 
 />
    <glyph glyph-name="uni25BF" unicode="&#x25bf;" 
 />
    <glyph glyph-name="uni25C0" unicode="&#x25c0;" 
 />
    <glyph glyph-name="uni25C1" unicode="&#x25c1;" 
 />
    <glyph glyph-name="uni25C2" unicode="&#x25c2;" 
 />
    <glyph glyph-name="uni25C3" unicode="&#x25c3;" 
 />
    <glyph glyph-name="triaglf" unicode="&#x25c4;" 
 />
    <glyph glyph-name="uni25C5" unicode="&#x25c5;" 
 />
    <glyph glyph-name="uni25C6" unicode="&#x25c6;" 
d="M512 -108l-481 482l481 481l481 -481z" />
    <glyph glyph-name="uni25C7" unicode="&#x25c7;" 
d="M512 768l-394 -394l394 -394l394 394zM512 -108l-481 482l481 481l481 -481z" />
    <glyph glyph-name="uni25C8" unicode="&#x25c8;" 
 />
    <glyph glyph-name="uni25C9" unicode="&#x25c9;" 
 />
    <glyph glyph-name="lozenge" unicode="&#x25ca;" 
 />
    <glyph glyph-name="circle" unicode="&#x25cb;" 
d="M799 88q-119 -119 -287 -119t-286 119t-118 286t118 285.5t286 118.5t286 -118.5t118 -285.5t-117 -286zM269 131q101 -100 243 -100t242.5 100t100.5 242.5t-100.5 243t-242.5 100.5t-242.5 -100.5t-100.5 -243t100 -242.5z" />
    <glyph glyph-name="uni25CC" unicode="&#x25cc;" 
 />
    <glyph glyph-name="uni25CD" unicode="&#x25cd;" 
 />
    <glyph glyph-name="uni25CE" unicode="&#x25ce;" 
d="M380 242q54 -56 132 -56t132 55t54 133t-54 132.5t-132 54.5t-132.5 -54.5t-54.5 -132.5t55 -132zM687 198q-73 -73 -175 -73t-175.5 72.5t-73.5 176t73.5 176.5t175.5 73t175 -73t73 -176.5t-73 -175.5zM799 88q-119 -119 -287 -119t-286 119t-118 286t118 285.5
t286 118.5t286 -118.5t118 -285.5t-117 -286zM269 131q101 -100 243 -100t242.5 100t100.5 242.5t-100.5 243t-242.5 100.5t-242.5 -100.5t-100.5 -243t100 -242.5z" />
    <glyph glyph-name="H18533" unicode="&#x25cf;" 
d="M799 88q-119 -119 -287 -119t-286 119t-118 286t118 285.5t286 118.5t286 -118.5t118 -285.5t-117 -286z" />
    <glyph glyph-name="uni25D0" unicode="&#x25d0;" 
 />
    <glyph glyph-name="uni25D1" unicode="&#x25d1;" 
 />
    <glyph glyph-name="uni25D2" unicode="&#x25d2;" 
 />
    <glyph glyph-name="uni25D3" unicode="&#x25d3;" 
 />
    <glyph glyph-name="uni25D4" unicode="&#x25d4;" 
 />
    <glyph glyph-name="uni25D5" unicode="&#x25d5;" 
 />
    <glyph glyph-name="uni25D6" unicode="&#x25d6;" 
 />
    <glyph glyph-name="uni25D7" unicode="&#x25d7;" 
 />
    <glyph glyph-name="invbullet" unicode="&#x25d8;" 
 />
    <glyph glyph-name="invcircle" unicode="&#x25d9;" 
 />
    <glyph glyph-name="uni25DA" unicode="&#x25da;" 
 />
    <glyph glyph-name="uni25DB" unicode="&#x25db;" 
 />
    <glyph glyph-name="uni25DC" unicode="&#x25dc;" 
 />
    <glyph glyph-name="uni25DD" unicode="&#x25dd;" 
 />
    <glyph glyph-name="uni25DE" unicode="&#x25de;" 
 />
    <glyph glyph-name="uni25DF" unicode="&#x25df;" 
 />
    <glyph glyph-name="uni25E0" unicode="&#x25e0;" 
 />
    <glyph glyph-name="uni25E1" unicode="&#x25e1;" 
 />
    <glyph glyph-name="uni25E2" unicode="&#x25e2;" 
 />
    <glyph glyph-name="uni25E3" unicode="&#x25e3;" 
 />
    <glyph glyph-name="uni25E4" unicode="&#x25e4;" 
 />
    <glyph glyph-name="uni25E5" unicode="&#x25e5;" 
 />
    <glyph glyph-name="openbullet" unicode="&#x25e6;" 
 />
    <glyph glyph-name="uni25E7" unicode="&#x25e7;" 
 />
    <glyph glyph-name="uni25E8" unicode="&#x25e8;" 
 />
    <glyph glyph-name="uni25E9" unicode="&#x25e9;" 
 />
    <glyph glyph-name="uni25EA" unicode="&#x25ea;" 
 />
    <glyph glyph-name="uni25EB" unicode="&#x25eb;" 
 />
    <glyph glyph-name="uni25EC" unicode="&#x25ec;" 
 />
    <glyph glyph-name="uni25ED" unicode="&#x25ed;" 
 />
    <glyph glyph-name="uni25EE" unicode="&#x25ee;" 
 />
    <glyph glyph-name="uni25EF" unicode="&#x25ef;" 
d="M701 -75q-90 -38 -189 -38t-189 38.5t-155.5 104t-103.5 155t-38 189t38 189t103.5 155t155.5 104t189 38.5t189 -38.5t155.5 -104t103.5 -155t38 -189t-38 -189t-103.5 -155t-155.5 -104.5zM212 74q124 -125 300 -125t300.5 124.5t124.5 300.5t-124.5 300.5
t-300.5 124.5t-300.5 -124.5t-124.5 -300.5t125 -300z" />
    <glyph glyph-name="uni2600" unicode="&#x2600;" 
 />
    <glyph glyph-name="uni2601" unicode="&#x2601;" 
 />
    <glyph glyph-name="uni2602" unicode="&#x2602;" 
 />
    <glyph glyph-name="uni2603" unicode="&#x2603;" 
 />
    <glyph glyph-name="uni2604" unicode="&#x2604;" 
 />
    <glyph glyph-name="uni2605" unicode="&#x2605;" 
d="M993 527l-297 -216l113 -350l-297 217l-297 -217l113 350l-297 216h367l114 350l114 -350h367z" />
    <glyph glyph-name="uni2606" unicode="&#x2606;" 
d="M512 248l190 -139l-72 224l190 138h-235l-73 223l-73 -223h-235l190 -138l-72 -224zM512 178l-297 -217l113 350l-297 216h367l114 350l114 -350h367l-297 -216l113 -350z" />
    <glyph glyph-name="uni2607" unicode="&#x2607;" 
 />
    <glyph glyph-name="uni2608" unicode="&#x2608;" 
 />
    <glyph glyph-name="uni2609" unicode="&#x2609;" 
 />
    <glyph glyph-name="uni260A" unicode="&#x260a;" 
 />
    <glyph glyph-name="uni260B" unicode="&#x260b;" 
 />
    <glyph glyph-name="uni260C" unicode="&#x260c;" 
 />
    <glyph glyph-name="uni260D" unicode="&#x260d;" 
 />
    <glyph glyph-name="uni260E" unicode="&#x260e;" 
 />
    <glyph glyph-name="uni260F" unicode="&#x260f;" 
 />
    <glyph glyph-name="uni2610" unicode="&#x2610;" 
 />
    <glyph glyph-name="uni2611" unicode="&#x2611;" 
 />
    <glyph glyph-name="uni2612" unicode="&#x2612;" 
 />
    <glyph glyph-name="uni2613" unicode="&#x2613;" 
 />
    <glyph glyph-name="uni261A" unicode="&#x261a;" 
 />
    <glyph glyph-name="uni261B" unicode="&#x261b;" 
 />
    <glyph glyph-name="uni261C" unicode="&#x261c;" 
 />
    <glyph glyph-name="uni261D" unicode="&#x261d;" 
 />
    <glyph glyph-name="uni261E" unicode="&#x261e;" 
 />
    <glyph glyph-name="uni261F" unicode="&#x261f;" 
 />
    <glyph glyph-name="uni2620" unicode="&#x2620;" 
 />
    <glyph glyph-name="uni2621" unicode="&#x2621;" 
 />
    <glyph glyph-name="uni2622" unicode="&#x2622;" 
 />
    <glyph glyph-name="uni2623" unicode="&#x2623;" 
 />
    <glyph glyph-name="uni2624" unicode="&#x2624;" 
 />
    <glyph glyph-name="uni2625" unicode="&#x2625;" 
 />
    <glyph glyph-name="uni2626" unicode="&#x2626;" 
 />
    <glyph glyph-name="uni2627" unicode="&#x2627;" 
 />
    <glyph glyph-name="uni2628" unicode="&#x2628;" 
 />
    <glyph glyph-name="uni2629" unicode="&#x2629;" 
 />
    <glyph glyph-name="uni262A" unicode="&#x262a;" 
 />
    <glyph glyph-name="uni262B" unicode="&#x262b;" 
 />
    <glyph glyph-name="uni262C" unicode="&#x262c;" 
 />
    <glyph glyph-name="uni262D" unicode="&#x262d;" 
 />
    <glyph glyph-name="uni262E" unicode="&#x262e;" 
 />
    <glyph glyph-name="uni262F" unicode="&#x262f;" 
 />
    <glyph glyph-name="uni2630" unicode="&#x2630;" 
 />
    <glyph glyph-name="uni2631" unicode="&#x2631;" 
 />
    <glyph glyph-name="uni2632" unicode="&#x2632;" 
 />
    <glyph glyph-name="uni2633" unicode="&#x2633;" 
 />
    <glyph glyph-name="uni2634" unicode="&#x2634;" 
 />
    <glyph glyph-name="uni2635" unicode="&#x2635;" 
 />
    <glyph glyph-name="uni2636" unicode="&#x2636;" 
 />
    <glyph glyph-name="uni2637" unicode="&#x2637;" 
 />
    <glyph glyph-name="uni2638" unicode="&#x2638;" 
 />
    <glyph glyph-name="uni2639" unicode="&#x2639;" 
 />
    <glyph glyph-name="smileface" unicode="&#x263a;" 
 />
    <glyph glyph-name="invsmileface" unicode="&#x263b;" 
 />
    <glyph glyph-name="sun" unicode="&#x263c;" 
 />
    <glyph glyph-name="uni263D" unicode="&#x263d;" 
 />
    <glyph glyph-name="uni263E" unicode="&#x263e;" 
 />
    <glyph glyph-name="uni263F" unicode="&#x263f;" 
 />
    <glyph glyph-name="female" unicode="&#x2640;" horiz-adv-x="612" 
d="M552 229v-69h-211v-191h-70v191h-211v69h211v111q-90 13 -150.5 82.5t-60.5 161.5q0 101 72.5 173t174 72t173.5 -72t72 -173q0 -92 -60.5 -161.5t-150.5 -82.5v-111h211zM182 460q51 -52 124 -52t124.5 51.5t51.5 124t-51.5 124.5t-124.5 52t-124.5 -52t-51.5 -124.5
t52 -123.5z" />
    <glyph glyph-name="uni2641" unicode="&#x2641;" 
 />
    <glyph glyph-name="male" unicode="&#x2642;" horiz-adv-x="863" 
d="M683 678h-262v70h382v-382h-70v262l-246 -245q50 -66 50 -147q0 -102 -72.5 -174t-174 -72t-173.5 72t-72 173.5t72 173.5t174 72q82 0 147 -49zM167 112q51 -53 124 -53t124.5 52t51.5 124.5t-51.5 124.5t-124.5 52t-124.5 -52t-51.5 -124.5t52 -123.5z" />
    <glyph glyph-name="uni2643" unicode="&#x2643;" 
 />
    <glyph glyph-name="uni2644" unicode="&#x2644;" 
 />
    <glyph glyph-name="uni2645" unicode="&#x2645;" 
 />
    <glyph glyph-name="uni2646" unicode="&#x2646;" 
 />
    <glyph glyph-name="uni2647" unicode="&#x2647;" 
 />
    <glyph glyph-name="uni2648" unicode="&#x2648;" 
 />
    <glyph glyph-name="uni2649" unicode="&#x2649;" 
 />
    <glyph glyph-name="uni264A" unicode="&#x264a;" 
 />
    <glyph glyph-name="uni264B" unicode="&#x264b;" 
 />
    <glyph glyph-name="uni264C" unicode="&#x264c;" 
 />
    <glyph glyph-name="uni264D" unicode="&#x264d;" 
 />
    <glyph glyph-name="uni264E" unicode="&#x264e;" 
 />
    <glyph glyph-name="uni264F" unicode="&#x264f;" 
 />
    <glyph glyph-name="uni2650" unicode="&#x2650;" 
 />
    <glyph glyph-name="uni2651" unicode="&#x2651;" 
 />
    <glyph glyph-name="uni2652" unicode="&#x2652;" 
 />
    <glyph glyph-name="uni2653" unicode="&#x2653;" 
 />
    <glyph glyph-name="uni2654" unicode="&#x2654;" 
 />
    <glyph glyph-name="uni2655" unicode="&#x2655;" 
 />
    <glyph glyph-name="uni2656" unicode="&#x2656;" 
 />
    <glyph glyph-name="uni2657" unicode="&#x2657;" 
 />
    <glyph glyph-name="uni2658" unicode="&#x2658;" 
 />
    <glyph glyph-name="uni2659" unicode="&#x2659;" 
 />
    <glyph glyph-name="uni265A" unicode="&#x265a;" 
 />
    <glyph glyph-name="uni265B" unicode="&#x265b;" 
 />
    <glyph glyph-name="uni265C" unicode="&#x265c;" 
 />
    <glyph glyph-name="uni265D" unicode="&#x265d;" 
 />
    <glyph glyph-name="uni265E" unicode="&#x265e;" 
 />
    <glyph glyph-name="uni265F" unicode="&#x265f;" 
 />
    <glyph glyph-name="spade" unicode="&#x2660;" 
 />
    <glyph glyph-name="uni2661" unicode="&#x2661;" 
 />
    <glyph glyph-name="uni2662" unicode="&#x2662;" 
 />
    <glyph glyph-name="club" unicode="&#x2663;" 
 />
    <glyph glyph-name="uni2664" unicode="&#x2664;" 
 />
    <glyph glyph-name="heart" unicode="&#x2665;" 
 />
    <glyph glyph-name="diamond" unicode="&#x2666;" 
 />
    <glyph glyph-name="uni2667" unicode="&#x2667;" 
 />
    <glyph glyph-name="uni2668" unicode="&#x2668;" 
 />
    <glyph glyph-name="uni2669" unicode="&#x2669;" 
 />
    <glyph glyph-name="musicalnote" unicode="&#x266a;" horiz-adv-x="628" 
d="M194 200q31 0 58 -11l1 2v577h63q5 -15 47.5 -52.5t89.5 -77.5t86 -100.5t39 -117.5q0 -108 -136 -193l-28 39q58 43 78.5 73.5t20.5 70.5q0 47 -51 99t-146 93v-459q0 -72 -41 -112.5t-112 -40.5q-49 0 -81 26t-32 66q0 50 40 84t104 34z" />
    <glyph glyph-name="musicalnotedbl" unicode="&#x266b;" 
 />
    <glyph glyph-name="uni266C" unicode="&#x266c;" 
 />
    <glyph glyph-name="uni266D" unicode="&#x266d;" horiz-adv-x="678" 
d="M132 768h69v-313q104 77 217 77q80 0 124.5 -42.5t44.5 -115.5q0 -130 -118.5 -230t-336.5 -154v778zM201 383v-303q113 39 173 108t60 157q0 100 -92 100q-69 0 -141 -62z" />
    <glyph glyph-name="uni266E" unicode="&#x266e;" 
 />
    <glyph glyph-name="uni266F" unicode="&#x266f;" horiz-adv-x="715" 
d="M504 631l120 29v-130l-120 -29v-160l120 30v-130l-120 -30v-191h-63v175l-168 -41v-174h-62v157l-120 -29v130l120 29v160l-120 -30v130l120 30v170h62v-154l168 41v154h63v-137zM441 484l-168 -42v-158l168 42v158z" />
    <glyph glyph-name="uni2701" unicode="&#x2701;" 
 />
    <glyph glyph-name="uni2702" unicode="&#x2702;" 
 />
    <glyph glyph-name="uni2703" unicode="&#x2703;" 
 />
    <glyph glyph-name="uni2704" unicode="&#x2704;" 
 />
    <glyph glyph-name="uni2706" unicode="&#x2706;" 
 />
    <glyph glyph-name="uni2707" unicode="&#x2707;" 
 />
    <glyph glyph-name="uni2708" unicode="&#x2708;" 
 />
    <glyph glyph-name="uni2709" unicode="&#x2709;" 
 />
    <glyph glyph-name="uni270C" unicode="&#x270c;" 
 />
    <glyph glyph-name="uni270D" unicode="&#x270d;" 
 />
    <glyph glyph-name="uni270E" unicode="&#x270e;" 
 />
    <glyph glyph-name="uni270F" unicode="&#x270f;" 
 />
    <glyph glyph-name="uni2710" unicode="&#x2710;" 
 />
    <glyph glyph-name="uni2711" unicode="&#x2711;" 
 />
    <glyph glyph-name="uni2712" unicode="&#x2712;" 
 />
    <glyph glyph-name="uni2713" unicode="&#x2713;" 
 />
    <glyph glyph-name="uni2714" unicode="&#x2714;" 
 />
    <glyph glyph-name="uni2715" unicode="&#x2715;" 
 />
    <glyph glyph-name="uni2716" unicode="&#x2716;" 
 />
    <glyph glyph-name="uni2717" unicode="&#x2717;" 
 />
    <glyph glyph-name="uni2718" unicode="&#x2718;" 
 />
    <glyph glyph-name="uni2719" unicode="&#x2719;" 
 />
    <glyph glyph-name="uni271A" unicode="&#x271a;" 
 />
    <glyph glyph-name="uni271B" unicode="&#x271b;" 
 />
    <glyph glyph-name="uni271C" unicode="&#x271c;" 
 />
    <glyph glyph-name="uni271D" unicode="&#x271d;" 
 />
    <glyph glyph-name="uni271E" unicode="&#x271e;" 
 />
    <glyph glyph-name="uni271F" unicode="&#x271f;" 
 />
    <glyph glyph-name="uni2720" unicode="&#x2720;" 
 />
    <glyph glyph-name="uni2721" unicode="&#x2721;" 
 />
    <glyph glyph-name="uni2722" unicode="&#x2722;" 
 />
    <glyph glyph-name="uni2723" unicode="&#x2723;" 
 />
    <glyph glyph-name="uni2724" unicode="&#x2724;" 
 />
    <glyph glyph-name="uni2725" unicode="&#x2725;" 
 />
    <glyph glyph-name="uni2726" unicode="&#x2726;" 
 />
    <glyph glyph-name="uni2727" unicode="&#x2727;" 
 />
    <glyph glyph-name="uni2729" unicode="&#x2729;" 
 />
    <glyph glyph-name="uni272A" unicode="&#x272a;" 
 />
    <glyph glyph-name="uni272B" unicode="&#x272b;" 
 />
    <glyph glyph-name="uni272C" unicode="&#x272c;" 
 />
    <glyph glyph-name="uni272D" unicode="&#x272d;" 
 />
    <glyph glyph-name="uni272E" unicode="&#x272e;" 
 />
    <glyph glyph-name="uni272F" unicode="&#x272f;" 
 />
    <glyph glyph-name="uni2730" unicode="&#x2730;" 
 />
    <glyph glyph-name="uni2731" unicode="&#x2731;" 
 />
    <glyph glyph-name="uni2732" unicode="&#x2732;" 
 />
    <glyph glyph-name="uni2733" unicode="&#x2733;" 
 />
    <glyph glyph-name="uni2734" unicode="&#x2734;" 
 />
    <glyph glyph-name="uni2735" unicode="&#x2735;" 
 />
    <glyph glyph-name="uni2736" unicode="&#x2736;" 
 />
    <glyph glyph-name="uni2737" unicode="&#x2737;" 
 />
    <glyph glyph-name="uni2738" unicode="&#x2738;" 
 />
    <glyph glyph-name="uni2739" unicode="&#x2739;" 
 />
    <glyph glyph-name="uni273A" unicode="&#x273a;" 
 />
    <glyph glyph-name="uni273B" unicode="&#x273b;" 
 />
    <glyph glyph-name="uni273C" unicode="&#x273c;" 
 />
    <glyph glyph-name="uni273D" unicode="&#x273d;" 
 />
    <glyph glyph-name="uni273E" unicode="&#x273e;" 
 />
    <glyph glyph-name="uni273F" unicode="&#x273f;" 
 />
    <glyph glyph-name="uni2740" unicode="&#x2740;" 
 />
    <glyph glyph-name="uni2741" unicode="&#x2741;" 
 />
    <glyph glyph-name="uni2742" unicode="&#x2742;" 
 />
    <glyph glyph-name="uni2743" unicode="&#x2743;" 
 />
    <glyph glyph-name="uni2744" unicode="&#x2744;" 
 />
    <glyph glyph-name="uni2745" unicode="&#x2745;" 
 />
    <glyph glyph-name="uni2746" unicode="&#x2746;" 
 />
    <glyph glyph-name="uni2747" unicode="&#x2747;" 
 />
    <glyph glyph-name="uni2748" unicode="&#x2748;" 
 />
    <glyph glyph-name="uni2749" unicode="&#x2749;" 
 />
    <glyph glyph-name="uni274A" unicode="&#x274a;" 
 />
    <glyph glyph-name="uni274B" unicode="&#x274b;" 
 />
    <glyph glyph-name="uni274D" unicode="&#x274d;" 
 />
    <glyph glyph-name="uni274F" unicode="&#x274f;" 
 />
    <glyph glyph-name="uni2750" unicode="&#x2750;" 
 />
    <glyph glyph-name="uni2751" unicode="&#x2751;" 
 />
    <glyph glyph-name="uni2752" unicode="&#x2752;" 
 />
    <glyph glyph-name="uni2756" unicode="&#x2756;" 
 />
    <glyph glyph-name="uni2758" unicode="&#x2758;" 
 />
    <glyph glyph-name="uni2759" unicode="&#x2759;" 
 />
    <glyph glyph-name="uni275A" unicode="&#x275a;" 
 />
    <glyph glyph-name="uni275B" unicode="&#x275b;" 
 />
    <glyph glyph-name="uni275C" unicode="&#x275c;" 
 />
    <glyph glyph-name="uni275D" unicode="&#x275d;" 
 />
    <glyph glyph-name="uni275E" unicode="&#x275e;" 
 />
    <glyph glyph-name="uni2761" unicode="&#x2761;" 
 />
    <glyph glyph-name="uni2762" unicode="&#x2762;" 
 />
    <glyph glyph-name="uni2763" unicode="&#x2763;" 
 />
    <glyph glyph-name="uni2764" unicode="&#x2764;" 
 />
    <glyph glyph-name="uni2765" unicode="&#x2765;" 
 />
    <glyph glyph-name="uni2766" unicode="&#x2766;" 
 />
    <glyph glyph-name="uni2767" unicode="&#x2767;" 
 />
    <glyph glyph-name="uni2776" unicode="&#x2776;" 
 />
    <glyph glyph-name="uni2777" unicode="&#x2777;" 
 />
    <glyph glyph-name="uni2778" unicode="&#x2778;" 
 />
    <glyph glyph-name="uni2779" unicode="&#x2779;" 
 />
    <glyph glyph-name="uni277A" unicode="&#x277a;" 
 />
    <glyph glyph-name="uni277B" unicode="&#x277b;" 
 />
    <glyph glyph-name="uni277C" unicode="&#x277c;" 
 />
    <glyph glyph-name="uni277D" unicode="&#x277d;" 
 />
    <glyph glyph-name="uni277E" unicode="&#x277e;" 
 />
    <glyph glyph-name="uni277F" unicode="&#x277f;" 
 />
    <glyph glyph-name="uni2780" unicode="&#x2780;" 
 />
    <glyph glyph-name="uni2781" unicode="&#x2781;" 
 />
    <glyph glyph-name="uni2782" unicode="&#x2782;" 
 />
    <glyph glyph-name="uni2783" unicode="&#x2783;" 
 />
    <glyph glyph-name="uni2784" unicode="&#x2784;" 
 />
    <glyph glyph-name="uni2785" unicode="&#x2785;" 
 />
    <glyph glyph-name="uni2786" unicode="&#x2786;" 
 />
    <glyph glyph-name="uni2787" unicode="&#x2787;" 
 />
    <glyph glyph-name="uni2788" unicode="&#x2788;" 
 />
    <glyph glyph-name="uni2789" unicode="&#x2789;" 
 />
    <glyph glyph-name="uni278A" unicode="&#x278a;" 
 />
    <glyph glyph-name="uni278B" unicode="&#x278b;" 
 />
    <glyph glyph-name="uni278C" unicode="&#x278c;" 
 />
    <glyph glyph-name="uni278D" unicode="&#x278d;" 
 />
    <glyph glyph-name="uni278E" unicode="&#x278e;" 
 />
    <glyph glyph-name="uni278F" unicode="&#x278f;" 
 />
    <glyph glyph-name="uni2790" unicode="&#x2790;" 
 />
    <glyph glyph-name="uni2791" unicode="&#x2791;" 
 />
    <glyph glyph-name="uni2792" unicode="&#x2792;" 
 />
    <glyph glyph-name="uni2793" unicode="&#x2793;" 
 />
    <glyph glyph-name="uni2794" unicode="&#x2794;" 
 />
    <glyph glyph-name="uni2798" unicode="&#x2798;" 
 />
    <glyph glyph-name="uni2799" unicode="&#x2799;" 
 />
    <glyph glyph-name="uni279A" unicode="&#x279a;" 
 />
    <glyph glyph-name="uni279B" unicode="&#x279b;" 
 />
    <glyph glyph-name="uni279C" unicode="&#x279c;" 
 />
    <glyph glyph-name="uni279D" unicode="&#x279d;" 
 />
    <glyph glyph-name="uni279E" unicode="&#x279e;" 
 />
    <glyph glyph-name="uni279F" unicode="&#x279f;" 
 />
    <glyph glyph-name="uni27A0" unicode="&#x27a0;" 
 />
    <glyph glyph-name="uni27A1" unicode="&#x27a1;" 
 />
    <glyph glyph-name="uni27A2" unicode="&#x27a2;" 
 />
    <glyph glyph-name="uni27A3" unicode="&#x27a3;" 
 />
    <glyph glyph-name="uni27A4" unicode="&#x27a4;" 
 />
    <glyph glyph-name="uni27A5" unicode="&#x27a5;" 
 />
    <glyph glyph-name="uni27A6" unicode="&#x27a6;" 
 />
    <glyph glyph-name="uni27A7" unicode="&#x27a7;" 
 />
    <glyph glyph-name="uni27A8" unicode="&#x27a8;" 
 />
    <glyph glyph-name="uni27A9" unicode="&#x27a9;" 
 />
    <glyph glyph-name="uni27AA" unicode="&#x27aa;" 
 />
    <glyph glyph-name="uni27AB" unicode="&#x27ab;" 
 />
    <glyph glyph-name="uni27AC" unicode="&#x27ac;" 
 />
    <glyph glyph-name="uni27AD" unicode="&#x27ad;" 
 />
    <glyph glyph-name="uni27AE" unicode="&#x27ae;" 
 />
    <glyph glyph-name="uni27AF" unicode="&#x27af;" 
 />
    <glyph glyph-name="uni27B1" unicode="&#x27b1;" 
 />
    <glyph glyph-name="uni27B2" unicode="&#x27b2;" 
 />
    <glyph glyph-name="uni27B3" unicode="&#x27b3;" 
 />
    <glyph glyph-name="uni27B4" unicode="&#x27b4;" 
 />
    <glyph glyph-name="uni27B5" unicode="&#x27b5;" 
 />
    <glyph glyph-name="uni27B6" unicode="&#x27b6;" 
 />
    <glyph glyph-name="uni27B7" unicode="&#x27b7;" 
 />
    <glyph glyph-name="uni27B8" unicode="&#x27b8;" 
 />
    <glyph glyph-name="uni27B9" unicode="&#x27b9;" 
 />
    <glyph glyph-name="uni27BA" unicode="&#x27ba;" 
 />
    <glyph glyph-name="uni27BB" unicode="&#x27bb;" 
 />
    <glyph glyph-name="uni27BC" unicode="&#x27bc;" 
 />
    <glyph glyph-name="uni27BD" unicode="&#x27bd;" 
 />
    <glyph glyph-name="uni27BE" unicode="&#x27be;" 
 />
    <glyph glyph-name="uni3000" unicode="&#x3000;" 
 />
    <glyph glyph-name="uni3001" unicode="&#x3001;" 
d="M58 144l101 86q94 -103 196 -229l-106 -78q-89 113 -191 221z" />
    <glyph glyph-name="uni3002" unicode="&#x3002;" 
d="M220 244q69 0 118 -49.5t49 -117.5q0 -70 -49 -119t-117.5 -49t-118.5 49.5t-50 118t49.5 118t118.5 49.5zM168 129q-22 -21 -22 -52t21.5 -52.5t52.5 -21.5t52 21.5t21 52.5t-21 52t-52 21t-52 -21z" />
    <glyph glyph-name="uni3003" unicode="&#x3003;" 
d="M607 6l-129 63q186 300 221 649l141 -16q-35 -375 -233 -696zM255 61l-128 62q190 274 231 595l140 -16q-38 -346 -243 -641z" />
    <glyph glyph-name="uni3004" unicode="&#x3004;" 
 />
    <glyph glyph-name="uni3005" unicode="&#x3005;" 
d="M323 261l90 95q69 -52 137 -109q129 153 172 303h-309q-98 -199 -247 -359l-110 77q217 235 323 553l133 -24q-22 -69 -47 -131h397v-116q-48 -197 -214 -392q73 -69 143 -145l-102 -88q-166 187 -366 336z" />
    <glyph glyph-name="uni3006" unicode="&#x3006;" 
d="M383 450q-139 0 -160 -321q121 150 256 297q-50 24 -96 24zM673 443q109 -88 209 -227l-105 -92q-98 147 -190 228q-219 -236 -354 -419l-139 42q0 301 75.5 445.5t205.5 144.5q93 0 187 -49q169 179 300 298l100 -89q-115 -101 -289 -282z" />
    <glyph glyph-name="uni3007" unicode="&#x3007;" 
d="M836 45q-135 -134 -324 -134t-323.5 134t-134.5 323.5t134.5 323.5t323.5 134t323.5 -134t134.5 -323.5t-134 -323.5zM279 135q96 -97 233 -97t234 96.5t97 234t-97 234t-234 96.5t-234 -96.5t-97 -234t98 -233.5z" />
    <glyph glyph-name="uni3008" unicode="&#x3008;" 
d="M655 369l274 -482h-141l-273 482l273 481h141z" />
    <glyph glyph-name="uni3009" unicode="&#x3009;" 
d="M369 369l-274 481h141l273 -481l-273 -482h-141z" />
    <glyph glyph-name="uni300A" unicode="&#x300a;" 
d="M655 369l274 -482h-133l-274 482l274 481h133zM454 369l273 -482h-133l-273 482l273 481h133z" />
    <glyph glyph-name="uni300B" unicode="&#x300b;" 
d="M369 369l-274 481h133l274 -481l-274 -482h-133zM570 369l-273 481h133l273 -481l-273 -482h-133z" />
    <glyph glyph-name="uni300C" unicode="&#x300c;" 
d="M663 65h-131v782h427v-110h-296v-672z" />
    <glyph glyph-name="uni300D" unicode="&#x300d;" 
d="M361 673h131v-783h-427v110h296v673z" />
    <glyph glyph-name="uni300E" unicode="&#x300e;" 
d="M563 95h79v598h242v78h-321v-676zM563 20h-75v827h471v-230h-242v-597h-154z" />
    <glyph glyph-name="uni300F" unicode="&#x300f;" 
d="M461 642h-79v-598h-242v-78h321v676zM461 717h75v-827h-471v230h242v597h154z" />
    <glyph glyph-name="uni3010" unicode="&#x3010;" 
d="M604 -113v963h325q-98 -94 -151.5 -219.5t-53.5 -262t53.5 -261.5t151.5 -220h-325z" />
    <glyph glyph-name="uni3011" unicode="&#x3011;" 
d="M420 -113h-325q98 95 151.5 220t53.5 261.5t-53.5 262t-151.5 219.5h325v-963z" />
    <glyph glyph-name="uni3012" unicode="&#x3012;" 
d="M438 387h-336v120h820v-120h-336v-433h-148v433zM102 653v120h820v-120h-820z" />
    <glyph glyph-name="uni3013" unicode="&#x3013;" 
d="M123 -41v307h778v-307h-778zM123 471v307h778v-307h-778z" />
    <glyph glyph-name="uni3014" unicode="&#x3014;" 
d="M903 753l-276 -81v-606l276 -81v-103l-403 116v741l403 116v-102z" />
    <glyph glyph-name="uni3015" unicode="&#x3015;" 
d="M121 753v102l403 -116v-741l-403 -116v103l276 81v606z" />
    <glyph glyph-name="uni3016" unicode="&#x3016;" 
 />
    <glyph glyph-name="uni3017" unicode="&#x3017;" 
 />
    <glyph glyph-name="uni3018" unicode="&#x3018;" 
 />
    <glyph glyph-name="uni3019" unicode="&#x3019;" 
 />
    <glyph glyph-name="uni301A" unicode="&#x301a;" 
 />
    <glyph glyph-name="uni301B" unicode="&#x301b;" 
 />
    <glyph glyph-name="uni301C" unicode="&#x301c;" 
 />
    <glyph glyph-name="uni301D" unicode="&#x301d;" 
d="M652 614l-130 233h144l68 -233h-82zM853 614l-129 233h143l68 -233h-82z" />
    <glyph glyph-name="uni301E" unicode="&#x301e;" 
 />
    <glyph glyph-name="uni301F" unicode="&#x301f;" 
d="M372 123l130 -233h-144l-68 233h82zM171 123l129 -233h-143l-68 233h82z" />
    <glyph glyph-name="uni3020" unicode="&#x3020;" 
 />
    <glyph glyph-name="uni3030" unicode="&#x3030;" 
 />
    <glyph glyph-name="uni3031" unicode="&#x3031;" 
 />
    <glyph glyph-name="uni3032" unicode="&#x3032;" 
 />
    <glyph glyph-name="uni3033" unicode="&#x3033;" 
 />
    <glyph glyph-name="uni3034" unicode="&#x3034;" 
 />
    <glyph glyph-name="uni3035" unicode="&#x3035;" 
 />
    <glyph glyph-name="uni3036" unicode="&#x3036;" 
 />
    <glyph glyph-name="uni3037" unicode="&#x3037;" 
 />
    <glyph glyph-name="uni3041" unicode="&#x3041;" horiz-adv-x="687" 
d="M66 447h143v42h93l-1 -42h311v-101h-311v-47h172q60 -3 95.5 -25t51 -56t15.5 -70t-20 -80.5t-55.5 -62t-81.5 -17.5h-45v92h50q14 0 29 11.5t20 28t5 29.5t-5 25.5t-15 21.5t-24 10h-47q-8 -52 -28 -98q-23 -48 -63.5 -76t-85.5 -32h-71q-45 0 -81 22t-51 56t-15 70
t15.5 70t51 56t82.5 25h9v47h-143v101zM320 115q17 20 26 46q7 21 11 45h-56v-106q11 5 19 15zM193 206q-14 -1 -24 -10t-15 -21.5t-5 -25.5t5 -25t15 -22t24 -10h16v114h-16z" />
    <glyph glyph-name="uni3042" unicode="&#x3042;" horiz-adv-x="832" 
d="M69 559h179v53h116l-1 -53h388v-126h-388v-59h215q75 -3 119 -31t63.5 -70.5t19.5 -86.5q0 -59 -25 -108t-69.5 -71t-101.5 -21h-56v115h62q18 0 36.5 14t24.5 35t6 37t-6 31.5t-18.5 27t-30.5 12.5h-58q-10 -65 -35 -123q-29 -59 -79.5 -94.5t-106.5 -39.5h-89
q-57 -1 -101.5 27t-63.5 70.5t-19 87.5q0 44 19.5 86.5t63.5 70.5t103 31h12v59h-179v126zM386 144q22 25 33 58q8 26 13 56h-69v-133q13 7 23 19zM228 258q-18 -1 -30.5 -12.5t-18.5 -27t-6 -31.5t6 -31.5t18.5 -27.5t30.5 -12h20v142h-20z" />
    <glyph glyph-name="uni3043" unicode="&#x3043;" horiz-adv-x="677" 
d="M171 472v-234q-1 -33 4.5 -60.5t22 -49t63.5 -23.5h49v-107h-86q-56 3 -92.5 38t-52.5 85q-15 50 -16 107v244h108zM507 47v189q1 33 -4.5 60.5t-25.5 49t-50 23.5h-62v107h89q56 -3 92.5 -38t52.5 -85q15 -50 16 -107v-199h-108z" />
    <glyph glyph-name="uni3044" unicode="&#x3044;" horiz-adv-x="834" 
d="M209 595v-293q-1 -41 5.5 -75.5t27.5 -61.5t79 -29h62v-134h-108q-70 4 -115.5 47.5t-65.5 106.5q-19 63 -20 134v305h135zM629 63v237q1 41 -5.5 75.5t-31.5 61.5t-63 29h-78v134h112q70 -4 115.5 -47.5t65.5 -106.5q19 -63 20 -134v-249h-135z" />
    <glyph glyph-name="uni3045" unicode="&#x3045;" horiz-adv-x="679" 
d="M134 473h423v-107h-423v107zM51 307h403q5 0 10 -1h5q56 -2 92 -28t52 -58.5t16 -66.5t-15.5 -67t-52 -59t-92.5 -26h-315v107h320q15 0 25 7.5t14.5 18t4.5 20.5q0 9 -4.5 19.5t-14.5 18t-25 7.5h-423v108z" />
    <glyph glyph-name="uni3046" unicode="&#x3046;" horiz-adv-x="812" 
d="M159 592h528v-134h-528v134zM55 384h504q6 0 12 -1h6q70 -2 115 -34.5t65 -73.5t20 -83q0 -43 -19.5 -84t-65 -73.5t-115.5 -32.5h-394v134h400q19 0 31.5 9.5t18.5 22.5t6 25t-6 25t-18.5 22.5t-31.5 9.5h-528v134z" />
    <glyph glyph-name="uni3047" unicode="&#x3047;" horiz-adv-x="631" 
d="M418 436q5 0 10 -1h5q56 -1 92 -24t52 -52t16 -59t-16 -59.5t-52 -51.5q-34 -22 -109 -23h-71q11 -22 20 -33q16 -23 44 -25h174v-107h-198q-57 3 -91 59q-26 44 -49 95q-11 -4 -20 -11q-27 -21 -38 -42l-72 -115l-86 61l76 121q27 45 74 75t94 29h175q12 0 19.5 5t11 11
t3.5 12t-3.5 12t-11 10.5t-19.5 5.5h-393v107h210v52h108v-52h45z" />
    <glyph glyph-name="uni3048" unicode="&#x3048;" horiz-adv-x="784" 
d="M517 546q6 0 12 -1h6q70 -2 115 -30.5t65 -65t20 -73.5q0 -38 -19.5 -74.5t-64.5 -64.5q-43 -27 -137 -29h-88q13 -27 24 -41q21 -29 55 -31h218v-134h-248q-71 4 -113 74q-33 55 -62 119q-13 -6 -24 -14q-34 -26 -48 -53l-90 -144l-107 77l94 151q34 56 93 93.5
t117 36.5h219q15 0 24.5 6t14 13.5t4.5 15.5q0 7 -4.5 14.5t-14 13.5t-24.5 7h-491v134h262v65h135v-65h57z" />
    <glyph glyph-name="uni3049" unicode="&#x3049;" horiz-adv-x="664" 
d="M63 448h179v45h92v-45h160v-101h-160v-47h101q60 -3 95.5 -25t54 -56t19.5 -70q0 -45 -15.5 -76.5t-52 -55.5t-92.5 -24h-78v101h83q15 0 28 8.5t19.5 32.5t-2.5 41q-5 12 -15 21.5t-24 10.5h-121v-63q1 -66 -36 -105q-37 -40 -106 -39q-45 0 -81 22t-51 56t-15 71
q0 35 15.5 69t49 56t93.5 25h39v47h-179v101zM527 398q0 23 17 39.5t42 16.5t42 -16.5t17 -39.5t-17 -39.5t-42 -16.5t-42 16.5t-17 39.5zM207 208q-24 -1 -39 -10.5t-20 -22t-5 -24.5q0 -13 5 -25.5t15 -22t24 -9.5q29 0 42 14.5t13 36.5v63h-35z" />
    <glyph glyph-name="uni304A" unicode="&#x304a;" horiz-adv-x="826" 
d="M73 559h223v57h115v-57h200v-126h-200v-59h127q75 -3 119 -31t67.5 -70.5t24.5 -87.5q0 -56 -19.5 -95t-65 -69.5t-115.5 -30.5h-98v127h104q19 0 35 10.5t24 40.5t-3 51q-6 15 -18.5 27t-30.5 13h-151v-78q1 -83 -45 -132q-46 -50 -132 -48q-57 -1 -101.5 27t-63.5 70.5
t-19 88.5q0 43 19.5 85.5t61.5 70.5t117 31h48v59h-223v126zM652 497q0 29 21.5 49.5t52.5 20.5t52.5 -20.5t21.5 -49.5t-21.5 -49.5t-52.5 -20.5t-52.5 20.5t-21.5 49.5zM252 259q-30 -1 -48.5 -13t-24.5 -27.5t-6 -30.5q0 -16 6 -32t18.5 -27.5t30.5 -11.5q36 0 52 18
t16 46v78h-44z" />
    <glyph glyph-name="uni304B" unicode="&#x304b;" horiz-adv-x="846" 
d="M423 556q70 0 115 -47t65 -106.5t20 -121.5t-19.5 -121.5t-65 -106.5t-115.5 -51h-100v134h66q40 2 64.5 26.5t35.5 55.5t11 63t-12 63t-37.5 55.5t-61.5 22.5h-73v-132q-1 -71 -20 -134q-20 -63 -67 -109.5t-174 -44.5v134q73 2 93.5 29t26.5 61.5t6 75.5v120h-130v134
h130v56h135v-56h107zM732 576l100 -212h-148l-100 212h148z" />
    <glyph glyph-name="uni304C" unicode="&#x304c;" horiz-adv-x="837" 
d="M492 628q0 30 21 51t51 21t51 -21t21 -51t-21 -51t-51 -21t-51 21t-21 51zM664 628q0 30 21 51t51 21t51 -21t21 -51t-21 -51t-51 -21t-51 21t-21 51zM423 556q70 0 115 -47t65 -106.5t20 -121.5t-19.5 -121.5t-65 -106.5t-115.5 -51h-100v134h66q40 2 64.5 26.5
t35.5 55.5t11 63t-12 63t-37.5 55.5t-61.5 22.5h-73v-132q-1 -71 -20 -134q-20 -63 -67 -109.5t-174 -44.5v134q73 2 93.5 29t26.5 61.5t6 75.5v120h-130v134h130v56h135v-56h107zM752 524l100 -212h-148l-100 212h148z" />
    <glyph glyph-name="uni304D" unicode="&#x304d;" horiz-adv-x="811" 
d="M71 558h316l-11 54h136l10 -54h227v-122h-207l8 -45h199v-122h-179l14 -81h-136l-15 81h-362v122h342l-7 45h-335v122zM68 216h160q35 -52 59 -67t62 -17h354v-130h-384q-71 4 -117 44t-66 70z" />
    <glyph glyph-name="uni304E" unicode="&#x304e;" horiz-adv-x="811" 
d="M524 656q0 30 21 51t51 21t51 -21t21 -51t-21 -51t-51 -21t-51 21t-21 51zM696 656q0 30 21 51t51 21t51 -21t21 -51t-21 -51t-51 -21t-51 21t-21 51zM71 558h316l-11 54h136l10 -54h227v-122h-207l8 -45h199v-122h-179l14 -81h-136l-15 81h-362v122h342l-7 45h-335v122z
M68 216h160q35 -52 59 -67t62 -17h354v-130h-384q-71 4 -117 44t-66 70z" />
    <glyph glyph-name="uni304F" unicode="&#x304f;" horiz-adv-x="791" 
d="M139 176q-70 42 -71 122q1 79 71.5 120t194.5 83l382 119v-144l-313 -90q-45 -14 -85 -27t-74 -31q-35 -13 -39 -30q4 -18 38.5 -33.5t74.5 -28.5t85 -27l313 -93v-144l-382 122q-122 42 -195 82z" />
    <glyph glyph-name="uni3050" unicode="&#x3050;" horiz-adv-x="879" 
d="M546 336q0 30 21 51t51 21t51 -21t21 -51t-21 -51t-51 -21t-51 21t-21 51zM718 336q0 30 21 51t51 21t51 -21t21 -51t-21 -51t-51 -21t-51 21t-21 51zM139 176q-70 42 -71 122q1 79 71.5 120t194.5 83l382 119v-144l-313 -90q-45 -14 -85 -27t-74 -31q-35 -13 -39 -30
q4 -18 38.5 -33.5t74.5 -28.5t85 -27l313 -93v-144l-382 122q-122 42 -195 82z" />
    </font>
</defs>
</svg>
