<?xml version="1.0" standalone="no"?>
<!DOCTYPE svg PUBLIC "-//W3C//DTD SVG 1.1//EN" "http://www.w3.org/Graphics/SVG/1.1/DTD/svg11.dtd" >
<svg>
<metadata>
Created by FontForge 20120731 at Mon Jul 22 13:07:25 2019
 By www-data
(c) ZESSTYPE 2015
</metadata>
<defs>
<font id="BlackHanSans-Regular" horiz-adv-x="840" >
  <font-face 
    font-family="Black Han Sans"
    font-weight="400"
    font-stretch="expanded"
    units-per-em="1000"
    panose-1="0 0 0 0 0 0 0 0 0 0"
    ascent="790"
    descent="-210"
    x-height="600"
    cap-height="750"
    bbox="-141 -236 1419 1278"
    underline-thickness="80"
    underline-position="-180"
    unicode-range="U+0020-D7A3"
  />
<missing-glyph horiz-adv-x="1024" 
 />
    <glyph glyph-name=".notdef" horiz-adv-x="1024" 
 />
    <glyph glyph-name=".null" horiz-adv-x="0" 
 />
    <glyph glyph-name="nonmarkingreturn" horiz-adv-x="333" 
 />
    <glyph glyph-name="space" unicode=" " horiz-adv-x="300" 
 />
    <glyph glyph-name="exclam" unicode="!" horiz-adv-x="308" 
d="M65 400l-5 350h188l-5 -350l-10 -172h-158zM154 178q40 0 66.5 -26t26.5 -68t-26.5 -68t-66.5 -26t-67 27t-27 67q0 42 27 68t67 26z" />
    <glyph glyph-name="quotedbl" unicode="&#x22;" horiz-adv-x="370" 
d="M40 572h120l20 188h-120zM190 572h120l20 188h-120z" />
    <glyph glyph-name="numbersign" unicode="#" horiz-adv-x="754" 
d="M694 590h-100l11 130h-148l-11 -130h-100l11 130h-148l-11 -130h-100l-12 -140h100l-14 -150h-100l-12 -140h100l-11 -130h148l11 130h100l-11 -130h148l11 130h100l12 140h-100l14 150h100zM320 300l14 150h100l-14 -150h-100z" />
    <glyph glyph-name="dollar" unicode="$" horiz-adv-x="551" 
d="M222 635l3 83h127l-3 -80q40 -2 75 -6.5t65 -9.5l-29 -155h-150q-35 0 -46.5 -11t-12.5 -42l63 -7q57 -6 96 -21t62.5 -38t33.5 -53t10 -66q0 -54 -9.5 -95t-31.5 -69t-59 -44t-92 -20l-3 -101h-129l4 101q-95 8 -161 24l29 159q81 -22 174 -22q19 0 36.5 1t34.5 3v42
l-62 7q-60 6 -98 23t-59.5 43.5t-29.5 61t-8 75.5q0 54 11.5 92.5t33 64.5t53.5 40t72 20z" />
    <glyph glyph-name="percent" unicode="%" horiz-adv-x="862" 
d="M472 170q0 94 43 139.5t142 45.5t142 -45.5t43 -139.5t-43 -139.5t-142 -45.5q-96 0 -140.5 44.5t-44.5 140.5zM630 209v-107h22q21 0 26.5 4.5t5.5 24.5v107h-22q-21 0 -26.5 -4.5t-5.5 -24.5zM20 455q0 94 43 139.5t142 45.5t142 -45.5t43 -139.5t-43 -139.5
t-142 -45.5q-96 0 -140.5 44.5t-44.5 140.5zM178 494v-107h22q21 0 26.5 4.5t5.5 24.5v107h-22q-21 0 -26.5 -4.5t-5.5 -24.5zM594 625h65l-345 -600q-10 -17 -17.5 -21t-31.5 -4h-65l345 600q10 17 17.5 21t31.5 4z" />
    <glyph glyph-name="ampersand" unicode="&#x26;" horiz-adv-x="795" 
d="M322 759q14 0 27.5 -1t26.5 -3v-163q-20 5 -32 5q-33 0 -56 -18.5t-23 -50.5q0 -24 17.5 -46.5t52.5 -22.5h132l58 130h150v-130h87v-155h-87v-304h-348q-65 0 -119.5 11.5t-93.5 37.5t-61 67t-22 99q0 135 134 175q-54 17 -83 60t-29 102q0 54 24.5 93t63.5 64.5
t86.5 37.5t94.5 12zM459 304h-124q-23 0 -39.5 -7t-27.5 -17.5t-16 -24t-5 -26.5q0 -38 27 -58.5t66 -20.5h119v154z" />
    <glyph glyph-name="quotesingle" unicode="'" horiz-adv-x="260" 
d="M40 572h160l20 188h-160z" />
    <glyph glyph-name="parenleft" unicode="(" horiz-adv-x="423" 
d="M288 226q0 -76 75 -76v-150q-70 0 -120 12.5t-81.5 42.5t-46.5 80t-15 126v228q0 71 13 120.5t43.5 80.5t81 45.5t125.5 14.5v-150q-75 0 -75 -77v-297z" />
    <glyph glyph-name="parenright" unicode=")" horiz-adv-x="423" 
d="M60 150q75 0 75 76v297q0 77 -75 77v150q70 0 120 -12.5t81.5 -42.5t46.5 -80t15 -126v-228q0 -70 -13 -120t-43.5 -81t-81 -45.5t-125.5 -14.5v150z" />
    <glyph glyph-name="asterisk" unicode="*" horiz-adv-x="518" 
d="M327 676l103 37l48 -137l-108 -28l74 -93l-115 -83l-70 98l-68 -97l-119 80l75 95l-107 28l44 137l108 -37l-9 114h153z" />
    <glyph glyph-name="plus" unicode="+" horiz-adv-x="480" 
d="M315 450v105h-150v-105h-105v-150h105v-105h150v105h105v150h-105z" />
    <glyph glyph-name="comma" unicode="," horiz-adv-x="270" 
d="M40 -40h150l40 198h-160z" />
    <glyph glyph-name="hyphen" unicode="-" horiz-adv-x="480" 
d="M60 300h360v150h-360v-150z" />
    <glyph glyph-name="period" unicode="." horiz-adv-x="267" 
d="M134 178q40 0 66.5 -26t26.5 -68t-26.5 -68t-66.5 -26t-67 27t-27 67q0 42 27 68t67 26z" />
    <glyph glyph-name="slash" unicode="/" horiz-adv-x="508" 
d="M60 0h188l200 750h-188z" />
    <glyph glyph-name="zero" unicode="0" horiz-adv-x="600" 
d="M33 313q0 77 9.5 137.5t38.5 102.5t81.5 64.5t138.5 22.5q87 0 139.5 -22.5t81 -64.5t37.5 -103t9 -138q0 -76 -9.5 -137t-38 -103t-81 -64.5t-138.5 -22.5t-138.5 22.5t-81.5 65t-38.5 103.5t-9.5 137zM239 426v-280h42q45 0 63 9.5t18 43.5v280h-47q-44 0 -60 -9
t-16 -44z" />
    <glyph glyph-name="one" unicode="1" horiz-adv-x="600" 
d="M566 160h-112v465h-158l-230 -52v-160l178 12v-265h-178v-160h500v160z" />
    <glyph glyph-name="two" unicode="2" horiz-adv-x="600" 
d="M75 453l-26 149q128 38 251 38q58 0 105.5 -6.5t81.5 -27t52.5 -59.5t18.5 -105q0 -49 -12 -83.5t-44 -62.5t-89 -53t-147 -55v-28h282v-160h-513v125q0 28 3.5 51.5t13 44.5t26 40.5t41.5 40.5q14 12 32.5 23t40 21.5t44 20.5t42.5 19t36 16.5t29 13.5v54
q-23 2 -43.5 3.5t-39.5 1.5q-94 0 -185 -22z" />
    <glyph glyph-name="three" unicode="3" horiz-adv-x="600" 
d="M177 385l172 20v65q-15 2 -39 3.5t-58 1.5q-66 0 -167 -21l-26 148q123 38 236 38q46 0 91.5 -3t81.5 -18.5t58 -47.5t22 -90q0 -100 -83 -144v-5q99 -40 99 -149q0 -70 -25.5 -109.5t-67.5 -59.5t-95 -24.5t-107 -4.5q-109 0 -222 26l28 165q97 -23 161 -23q67 0 113 6
v64l-172 17v145z" />
    <glyph glyph-name="four" unicode="4" horiz-adv-x="600" 
d="M524 0v100h65v172h-65v353h-354l-154 -400v-125h308v-100h200zM324 475v-203h-99l89 203h10z" />
    <glyph glyph-name="five" unicode="5" horiz-adv-x="600" 
d="M42 11l28 165q97 -23 167 -23q71 0 117 6v50l-75 8q-62 6 -103 16t-65.5 26.5t-34.5 42t-10 63.5q0 5 2.5 70t7.5 190h455l-15 -172l-237 14v-51l59 -7q66 -8 110 -24t71 -40.5t38.5 -58t11.5 -77.5q0 -63 -17 -106t-40 -66q-20 -18 -48 -28.5t-59.5 -16t-63.5 -6.5
t-58 -1q-128 0 -241 26z" />
    <glyph glyph-name="six" unicode="6" horiz-adv-x="600" 
d="M565 200q0 -67 -19.5 -108.5t-54.5 -65.5t-84 -32.5t-107 -8.5q-75 0 -126 19t-82 59t-44 102t-13 147q0 87 15 149t51 102t96.5 58.5t151.5 18.5q19 0 46 -2.5t54.5 -6t52.5 -8t40 -9.5l-30 -153q-41 7 -79 10.5t-75 3.5q-73 0 -108 -9v-51h50q58 0 107 -8.5t84 -32.5
t54.5 -65.5t19.5 -108.5zM350 178v79h-41q-33 0 -46 -7.5t-13 -34.5v-79h41q33 0 46 7.5t13 34.5z" />
    <glyph glyph-name="seven" unicode="7" horiz-adv-x="600" 
d="M554 625h-495l15 -177l240 3l-179 -451h226l193 500v125z" />
    <glyph glyph-name="eight" unicode="8" horiz-adv-x="600" 
d="M180 625q53 15 120 15q46 0 89.5 -8.5t78 -29.5t55.5 -55.5t21 -87.5q0 -95 -67 -144v-7q38 -18 63 -56t25 -81q0 -186 -265 -186t-265 186q0 43 25 81t63 56v7q-67 46 -67 144q0 66 36 108t88 58zM350 178v23l-69 33q-13 6 -20 6q-11 0 -11 -17v-87h41q33 0 46 7.5
t13 34.5zM250 442v-19l65 -34q7 -4 15 -4q20 0 20 18v81h-41q-33 0 -46 -7.5t-13 -34.5z" />
    <glyph glyph-name="nine" unicode="9" horiz-adv-x="600" 
d="M349 159v58l-50 1q-80 2 -131.5 15t-81 39t-41 64t-11.5 89q0 67 19.5 109t54.5 65.5t84 32t107 8.5q75 0 126 -19t82 -59t44 -101.5t13 -147.5t-13.5 -148t-43.5 -102t-79 -59t-121 -19q-141 0 -254 26l28 165q97 -23 158 -23q64 0 110 6zM249 447v-71h41q33 0 46 7.5
t13 34.5v71h-41q-33 0 -46 -7.5t-13 -34.5z" />
    <glyph glyph-name="colon" unicode=":" horiz-adv-x="307" 
d="M154 288q40 0 66.5 -26t26.5 -68t-26.5 -68t-66.5 -26t-67 27t-27 67q0 42 27 68t67 26zM154 660q40 0 66.5 -26t26.5 -68t-26.5 -68t-66.5 -26t-67 27t-27 67q0 42 27 68t67 26z" />
    <glyph glyph-name="semicolon" unicode=";" horiz-adv-x="310" 
d="M60 90l30 198h160l-40 -198h-150zM154 660q40 0 66.5 -26t26.5 -68t-26.5 -68t-66.5 -26t-67 27t-27 67q0 42 27 68t67 26z" />
    <glyph glyph-name="less" unicode="&#x3c;" horiz-adv-x="444" 
d="M255 375l169 -375h-195l-169 375l169 375h195z" />
    <glyph glyph-name="equal" unicode="=" horiz-adv-x="480" 
d="M60 390h360v140h-360v-140zM60 220h360v140h-360v-140z" />
    <glyph glyph-name="greater" unicode="&#x3e;" horiz-adv-x="444" 
d="M215 750l169 -375l-169 -375h-195l169 375l-169 375h195z" />
    <glyph glyph-name="question" unicode="?" horiz-adv-x="421" 
d="M190 178q40 0 66.5 -26t26.5 -68t-26.5 -68t-66.5 -26t-67 27t-27 67q0 42 27 68t67 26zM401 573q0 -36 -4.5 -65t-14 -55t-25 -51.5t-36.5 -54.5q-27 -36 -40 -61.5t-13 -60.5h-160q0 34 4.5 60.5t13 49.5t21.5 44t29 44q15 21 25 38t17 33.5t10 34.5t3 40v1
q0 20 -21 20q-20 0 -20 -20v-54l-160 -10l-10 67q0 84 50 130.5t140 46.5q91 0 141 -46.5t50 -130.5z" />
    <glyph glyph-name="at" unicode="@" horiz-adv-x="816" 
d="M408 268q24 0 24 32v143q0 32 -24 32q-22 0 -22 -32v-143q0 -32 22 -32zM60 418q0 80 23.5 143.5t68 107.5t109.5 67.5t147 23.5q80 0 144 -22t109.5 -65t70 -107t24.5 -148v-108q0 -78 -42.5 -121.5t-118.5 -43.5q-29 0 -54 7.5t-40 20.5q-14 -13 -39.5 -20.5
t-53.5 -7.5q-78 0 -121.5 43.5t-43.5 121.5v123q0 78 43.5 121.5t121.5 43.5t121.5 -43.5t43.5 -121.5v-133q0 -32 22 -32q24 0 24 32v127q0 102 -56.5 157.5t-159.5 55.5q-97 0 -150 -55.5t-53 -157.5v-109q0 -102 54 -157.5t151 -55.5q68 0 111 22l124 -65
q-35 -36 -94.5 -56.5t-137.5 -20.5q-82 0 -146.5 22.5t-109.5 65t-68.5 104.5t-23.5 140v101z" />
    <glyph glyph-name="A" unicode="A" horiz-adv-x="731" 
d="M266 119h198l28 -119h253l-194 750h-371l-194 -750h253zM372 520l48 -210h-110l49 210h13z" />
    <glyph glyph-name="B" unicode="B" horiz-adv-x="710" 
d="M491 0h-431v750h389q108 0 154 -42t46 -122q0 -81 -29 -124.5t-79 -57.5v-7q145 -25 145 -198q0 -90 -47.5 -144.5t-147.5 -54.5zM394 299h-94v-123h92q51 0 51 62q0 61 -49 61zM376 586h-76v-112h74q46 0 46 56t-44 56z" />
    <glyph glyph-name="C" unicode="C" horiz-adv-x="600" 
d="M558 215l18 -202q-77 -31 -190 -31q-107 0 -177 23.5t-111 71.5t-57.5 122t-16.5 175q0 98 15.5 171.5t55.5 123t108.5 74.5t173.5 25q23 0 51.5 -2.5t56 -6.5t52 -9.5t39.5 -12.5l-36 -184q-80 17 -143 17q-65 0 -90 -12t-25 -48v-314q23 -5 46.5 -7.5t48.5 -2.5
q100 0 181 29z" />
    <glyph glyph-name="D" unicode="D" horiz-adv-x="774" 
d="M396 0h-336v750h336q101 0 169 -20.5t109 -65.5t58.5 -116t17.5 -172t-17.5 -172.5t-58.5 -116.5t-109 -66t-169 -21zM400 558h-100v-366h100q50 0 71.5 11.5t21.5 52.5v238q0 41 -21.5 52.5t-71.5 11.5z" />
    <glyph glyph-name="E" unicode="E" horiz-adv-x="636" 
d="M540 457h-240v101h258l30 192h-528v-750h534v192h-294v91h240v174z" />
    <glyph glyph-name="F" unicode="F" horiz-adv-x="564" 
d="M504 457h-204v101h222l30 192h-492v-750h240v278h204v179z" />
    <glyph glyph-name="G" unicode="G" horiz-adv-x="720" 
d="M444 221v32h-61v184h289v-401q-142 -54 -295 -54q-105 0 -173.5 25t-108.5 74.5t-55.5 123t-15.5 171.5q0 104 19 178.5t63 122t117 69.5t181 22q24 0 56.5 -2.5t65.5 -7t62.5 -10t47.5 -11.5l-36 -184q-49 8 -93 12.5t-82 4.5q-79 0 -111 -12t-32 -48v-340h79
q44 0 63.5 9.5t19.5 41.5z" />
    <glyph glyph-name="H" unicode="H" horiz-adv-x="780" 
d="M720 0v750h-240v-265h-180v265h-240v-750h240v265h180v-265h240z" />
    <glyph glyph-name="I" unicode="I" horiz-adv-x="360" 
d="M300 0v750h-240v-750h240z" />
    <glyph glyph-name="J" unicode="J" horiz-adv-x="439" 
d="M211 0h-187l-24 192h100q35 0 48 11q9 9 9 25v330h-99v192h339v-552q0 -98 -47.5 -148t-138.5 -50z" />
    <glyph glyph-name="K" unicode="K" horiz-adv-x="712" 
d="M305 326h-5v-326h-240v750h240v-306h5q1 18 4 32.5t8 25.5l117 248h260l-180 -368l186 -382h-260l-123 269q-5 11 -8 25t-4 32z" />
    <glyph glyph-name="L" unicode="L" horiz-adv-x="546" 
d="M540 192h-240v558h-240v-750h480v192z" />
    <glyph glyph-name="M" unicode="M" horiz-adv-x="973" 
d="M295 364h7l93 -364h183l92 364h8l14 -364h251l-45 750h-314l-93 -382h-9l-93 382h-313l-46 -750h251z" />
    <glyph glyph-name="N" unicode="N" horiz-adv-x="786" 
d="M726 0h-226l-183 266q-5 7 -8 21t-4 37h-5v-324h-240v750h226l183 -266q5 -7 8 -21t4 -37h5v324h240v-750z" />
    <glyph glyph-name="O" unicode="O" horiz-adv-x="756" 
d="M24 374q0 103 17.5 177.5t59 122.5t109.5 71t168 23q101 0 168.5 -23t109 -71t59 -122.5t17.5 -177.5q0 -98 -16 -171.5t-56.5 -122.5t-109 -73.5t-172.5 -24.5t-172.5 24.5t-109 73.5t-56.5 122.5t-16 171.5zM282 499v-312h100q50 0 71.5 11.5t21.5 52.5v312h-101
q-48 0 -70 -11.5t-22 -52.5z" />
    <glyph glyph-name="P" unicode="P" horiz-adv-x="708" 
d="M456 181h-156v-181h-240v750h378q258 0 258 -277q0 -61 -12 -114t-40.5 -92.5t-74 -62.5t-113.5 -23zM355 558h-55v-185h55q44 0 63.5 9t19.5 42v84q0 32 -19.5 41t-63.5 9z" />
    <glyph glyph-name="Q" unicode="Q" horiz-adv-x="756" 
d="M462 -18v46l-102 -28q-98 0 -162.5 24.5t-103 72t-54.5 117t-16 160.5q0 103 18 177.5t59 122.5t109 71t167 23t167 -23t110 -71.5t60 -123t18 -176.5q0 -77 -16 -137.5t-48 -108.5l87 -50l-63 -138zM282 499v-312h100q50 0 71.5 11.5t21.5 52.5v312h-101
q-48 0 -70 -11.5t-22 -52.5z" />
    <glyph glyph-name="R" unicode="R" horiz-adv-x="738" 
d="M584 250l130 -250h-264l-98 223h-52v-223h-240v750h378q258 0 258 -263q0 -180 -112 -237zM355 558h-55v-150h55q44 0 63.5 9t19.5 41v50q0 32 -19.5 41t-63.5 9z" />
    <glyph glyph-name="S" unicode="S" horiz-adv-x="692" 
d="M30 13l34 198q110 -27 199 -27q45 0 79.5 1.5t61.5 5.5v60l-108 9q-73 7 -122 24t-78.5 46.5t-42 71t-12.5 97.5q0 77 16 128.5t51 83t90.5 44.5t135.5 13q159 0 288 -30l-30 -192q-112 18 -179 18t-114 -6v-59l86 -8q79 -8 132 -26.5t85.5 -48.5t46 -71t13.5 -94
q0 -76 -20 -128t-48 -79q-23 -22 -57 -34.5t-72 -18.5t-76.5 -7.5t-69.5 -1.5q-78 0 -150 8t-139 23z" />
    <glyph glyph-name="T" unicode="T" horiz-adv-x="600" 
d="M594 750h-588v-192h174v-558h240v558h174v192z" />
    <glyph glyph-name="U" unicode="U" horiz-adv-x="728" 
d="M42 750h240v-563h85q46 0 62.5 12t16.5 52v499h240v-421q0 -96 -12.5 -162t-48 -107.5t-98.5 -59.5t-163 -18t-163 18t-98.5 59t-48 107.5t-12.5 162.5v421z" />
    <glyph glyph-name="V" unicode="V" horiz-adv-x="722" 
d="M366 274h-11l-102 476h-253l186 -750h350l186 750h-253z" />
    <glyph glyph-name="W" unicode="W" horiz-adv-x="985" 
d="M677 331h-7l-86 419h-183l-87 -419h-7l-56 419h-251l118 -750h313l54 276h14l55 -276h314l117 750h-251z" />
    <glyph glyph-name="X" unicode="X" horiz-adv-x="710" 
d="M0 750l163 -370l-163 -380h254l89 216h11l90 -216h266l-166 388l166 362h-260l-83 -200h-12l-83 200h-272z" />
    <glyph glyph-name="Y" unicode="Y" horiz-adv-x="672" 
d="M0 750l216 -546v-204h240v204l216 546h-265l-67 -264h-9l-66 264h-265z" />
    <glyph glyph-name="Z" unicode="Z" horiz-adv-x="707" 
d="M677 192h-305l-4 7l304 401v150h-612l22 -192h252l3 -7l-307 -401v-150h647v192z" />
    <glyph glyph-name="bracketleft" unicode="[" horiz-adv-x="429" 
d="M369 600h-82v-450h82v-150h-269v750h269v-150z" />
    <glyph glyph-name="backslash" unicode="\" horiz-adv-x="508" 
d="M60 750l200 -750h188l-200 750h-188z" />
    <glyph glyph-name="bracketright" unicode="]" horiz-adv-x="429" 
d="M329 750v-750h-269v150h82v450h-82v150h269z" />
    <glyph glyph-name="asciicircum" unicode="^" horiz-adv-x="493" 
d="M453 480h-161l-46 92l-45 -92h-161l131 280h151z" />
    <glyph glyph-name="underscore" unicode="_" horiz-adv-x="480" 
d="M60 0h360v150h-360v-150z" />
    <glyph glyph-name="grave" unicode="`" horiz-adv-x="756" 
d="M374 858l-54 171l-156 9l126 -168z" />
    <glyph glyph-name="a" unicode="a" horiz-adv-x="680" 
d="M344 618q288 0 288 -198v-420h-120l-68 68q-18 -20 -42.5 -36t-52.5 -27t-57 -17t-56 -6q-51 0 -91.5 10.5t-68.5 33.5t-43 61t-15 93q0 216 326 216h48v43q-19 1 -34.5 2t-28.5 1q-135 0 -233 -33l-29 172q120 37 277 37zM260 206v-49h50q52 0 68 12q14 13 14 31v57h-49
q-43 0 -63 -9t-20 -42z" />
    <glyph glyph-name="b" unicode="b" horiz-adv-x="714" 
d="M60 30v750l240 18v-199q44 19 120 19q72 0 121 -26t79.5 -69.5t44 -101.5t13.5 -121q0 -169 -78 -243.5t-236 -74.5t-304 48zM300 398v-241h37q44 0 63.5 9t19.5 42v235h-37q-26 0 -42 -2t-28 -13q-12 -10 -13 -30z" />
    <glyph glyph-name="c" unicode="c" horiz-adv-x="551" 
d="M500 180l15 -173q-62 -25 -161 -25q-168 0 -243 78.5t-75 239.5t75 239.5t243 78.5q107 0 161 -25l-29 -163q-32 6 -57 9.5t-44 3.5q-91 0 -91 -64v-215q17 -3 39.5 -5t50.5 -2q56 0 116 23z" />
    <glyph glyph-name="d" unicode="d" horiz-adv-x="714" 
d="M654 798v-798h-120l-52 50q-51 -68 -188 -68q-72 0 -121 26t-79.5 69.5t-44 101.5t-13.5 121q0 60 12 114.5t40 95.5t74 65.5t114 24.5h138v180zM294 392v-235h37q41 0 60.5 7.5t22.5 35.5v243h-37q-44 0 -63.5 -9t-19.5 -42z" />
    <glyph glyph-name="e" unicode="e" horiz-adv-x="678" 
d="M294 204v-42q18 -2 36 -3t36 -1q112 0 226 36l28 -176q-135 -36 -266 -36q-168 0 -243 78.5t-75 239.5t75.5 239.5t242.5 78.5q84 0 140 -10.5t90.5 -35t49 -66t14.5 -104.5q0 -52 -17.5 -89.5t-58.5 -61.5t-109 -35.5t-169 -11.5zM294 392v-49h49q44 0 63.5 9t19.5 42
v49h-49q-44 0 -63.5 -9t-19.5 -42z" />
    <glyph glyph-name="f" unicode="f" horiz-adv-x="430" 
d="M434 641l-98 9v-50h72v-156h-72v-444h-240v444h-60v156h60l8 72q17 138 212 138q51 0 132 -12z" />
    <glyph glyph-name="g" unicode="g" horiz-adv-x="643" 
d="M28 -162l31 179q103 -35 239 -35q20 0 34.5 0.5t22.5 1.5v42q-54 0 -88 2.5t-51 7.5q-34 9 -43 18q-11 9 -13 14.5t-2 16.5l36 103q-86 16 -131 65.5t-45 154.5q0 104 71 157t230 53q29 0 54 -1.5t48 -5.5l105 80l126 -121l-69 -80q16 -41 16 -108q0 -47 -11 -82
t-36.5 -59t-66.5 -37.5t-102 -18.5l-5 -29q65 -4 110 -12.5t73 -26.5t40.5 -46t12.5 -71q0 -72 -29 -112t-75.5 -59t-105 -23t-117.5 -4q-119 0 -259 36zM244 408v-78h37q43 0 63 9t20 41v78h-38q-43 0 -62.5 -9t-19.5 -41z" />
    <glyph glyph-name="h" unicode="h" horiz-adv-x="714" 
d="M300 370v-370h-240v780l240 18v-220q77 40 170 40q94 0 142 -36.5t48 -101.5v-480h-240v420h-37q-44 0 -63.5 -9t-19.5 -41z" />
    <glyph glyph-name="i" unicode="i" horiz-adv-x="360" 
d="M300 0h-240v570l240 30v-600zM47 713q0 27 6 45.5t21 30t41 16.5t66 5t65.5 -5t40.5 -16.5t21 -30t6 -45.5t-6 -45t-21 -29.5t-40.5 -16t-65.5 -4.5q-29 0 -53.5 2t-42.5 11.5t-28 28.5t-10 53z" />
    <glyph glyph-name="j" unicode="j" horiz-adv-x="360" 
d="M114 -198h-174v156l62 12q38 8 48 20.5t10 27.5v552l240 30v-600q0 -98 -47.5 -148t-138.5 -50zM47 713q0 27 6 45.5t21 30t41 16.5t66 5t65.5 -5t40.5 -16.5t21 -30t6 -45.5t-6 -45t-21 -29.5t-40.5 -16t-65.5 -4.5q-29 0 -53.5 2t-42.5 11.5t-28 28.5t-10 53z" />
    <glyph glyph-name="k" unicode="k" horiz-adv-x="672" 
d="M660 0l-145 314l139 286h-259l-87 -198h-8v396l-240 -18v-780h240v238h8l93 -238h259z" />
    <glyph glyph-name="l" unicode="l" horiz-adv-x="371" 
d="M60 780l240 18v-626q19 -4 34 -6t25 -3l-11 -176q-153 0 -203 18q-42 15 -63.5 39t-21.5 69v667z" />
    <glyph glyph-name="m" unicode="m" horiz-adv-x="1025" 
d="M396 0v420h-17q-16 0 -30.5 -1t-25.5 -6.5t-17 -16.5t-6 -31v-365h-240v600h120l54 -55q73 73 192 73q118 0 172 -49q75 49 170 49q97 0 150.5 -36.5t53.5 -101.5v-480h-240v420h-17q-14 0 -28 -1t-24.5 -5.5t-18 -14.5t-8.5 -27v-372h-240z" />
    <glyph glyph-name="n" unicode="n" horiz-adv-x="714" 
d="M60 600h120l60 -60q111 78 240 78q85 0 132.5 -36.5t47.5 -101.5v-480h-240v420h-37q-41 0 -62 -8.5t-21 -37.5v-374h-240v600z" />
    <glyph glyph-name="o" unicode="o" horiz-adv-x="731" 
d="M36 300q0 161 75 239.5t243 78.5t243 -78.5t75 -239.5t-75 -239.5t-243 -78.5q-164 0 -241 77t-77 241zM294 392v-235h37q44 0 63.5 9t19.5 42v235h-37q-44 0 -63.5 -9t-19.5 -42z" />
    <glyph glyph-name="p" unicode="p" horiz-adv-x="714" 
d="M60 -198v798h120l44 -60q53 78 196 78q72 0 121 -26t79.5 -69.5t44 -101.5t13.5 -121q0 -61 -12 -115t-40 -95.5t-74 -65.5t-114 -24h-138v-180zM300 398v-241h37q44 0 63.5 9t19.5 42v235h-37q-26 0 -42 -2t-28 -13q-12 -10 -13 -30z" />
    <glyph glyph-name="q" unicode="q" horiz-adv-x="714" 
d="M500 566l34 34h120v-781l-240 -17v198q-46 -18 -120 -18t-124 27.5t-79.5 73t-42 105.5t-12.5 124q0 67 16.5 123t51 96.5t88 63.5t126.5 23q106 0 182 -52zM294 392v-235h37q44 0 63.5 9t19.5 42v235h-37q-44 0 -63.5 -9t-19.5 -42z" />
    <glyph glyph-name="r" unicode="r" horiz-adv-x="450" 
d="M60 0v600h120l66 -67q72 66 178 85l14 -227q-14 0 -34 -4t-40.5 -10t-37.5 -14.5t-26 -19.5v-343h-240z" />
    <glyph glyph-name="s" unicode="s" horiz-adv-x="631" 
d="M118 576q77 42 211 42q135 0 247 -37l-28 -163q-47 14 -93 20t-94 6q-14 0 -34.5 -1t-46.5 -4v-38q55 0 113 -5.5t105.5 -26t78 -61t30.5 -110.5q0 -49 -11 -87.5t-34 -61.5q-24 -23 -49.5 -37t-66.5 -20q-32 -5 -68.5 -7.5t-78.5 -2.5q-147 0 -269 35l30 170
q51 -15 105 -23t113 -8q27 0 51.5 1t47.5 4v38q-96 0 -160.5 12.5t-104 38.5t-56 68t-16.5 100q0 116 78 158z" />
    <glyph glyph-name="t" unicode="t" horiz-adv-x="437" 
d="M84 445h-60v155h60v96l240 60v-156h83v-155h-83v-273q15 -3 33 -5.5t38 -3.5l-11 -176q-164 0 -214 18q-42 15 -64 38.5t-22 69.5v332z" />
    <glyph glyph-name="u" unicode="u" horiz-adv-x="632" 
d="M14 600h240v-443h37q44 0 63.5 9t19.5 42v392h240v-600h-120l-70 68q-72 -86 -205 -86q-107 0 -156 45.5t-49 152.5v420z" />
    <glyph glyph-name="v" unicode="v" horiz-adv-x="624" 
d="M474 0l150 600h-240l-66 -390h-12l-66 390h-240l150 -600h324z" />
    <glyph glyph-name="w" unicode="w" horiz-adv-x="960" 
d="M420 0l52 258h9l47 -258h295l120 600h-235l-58 -356h-13l-67 356h-180l-76 -356h-13l-49 356h-235l120 -600h283z" />
    <glyph glyph-name="x" unicode="x" horiz-adv-x="648" 
d="M6 600l150 -290l-156 -310h250l68 162h6l74 -162h250l-156 293l150 307h-250l-62 -149h-7l-67 149h-250z" />
    <glyph glyph-name="y" unicode="y" horiz-adv-x="624" 
d="M260 62h-126l-134 538h240l66 -390h12l66 390h240l-150 -600q-16 -59 -36.5 -97t-47.5 -60.5t-62.5 -31.5t-82.5 -9h-233v156l113 22q87 20 113 43q7 6 13 14t11 18z" />
    <glyph glyph-name="z" unicode="z" horiz-adv-x="636" 
d="M30 0h576v180h-235l-4 7l232 293v120h-545l18 -180h190l3 -7l-235 -293v-120z" />
    <glyph glyph-name="braceleft" unicode="{" horiz-adv-x="455" 
d="M135 468v33q0 69 14 116.5t44.5 77t80 42.5t121.5 13v-150q-74 0 -74 -76v-107l-42 -42l42 -42v-108q0 -76 74 -76v-149q-67 0 -116 11.5t-81 40t-47.5 76.5t-15.5 121v33h-75v186h75z" />
    <glyph glyph-name="bar" unicode="|" horiz-adv-x="388" 
d="M100 -30h188v810h-188v-810z" />
    <glyph glyph-name="braceright" unicode="}" horiz-adv-x="455" 
d="M320 468h75v-186h-75v-33q0 -69 -14 -116.5t-44.5 -77t-80 -42.5t-121.5 -13v149q74 0 74 76v108l42 42l-42 42v107q0 76 -74 76v150q67 0 116 -11.5t81 -39.5t47.5 -76.5t15.5 -121.5v-33z" />
    <glyph glyph-name="asciitilde" unicode="~" horiz-adv-x="600" 
d="M481 420l107 -90q-32 -58 -79 -92.5t-98 -34.5q-52 0 -114 33q-62 32 -84 32t-44 -16.5t-51 -49.5l-106 91q21 29 41 52.5t41 41t44.5 27t51.5 9.5q38 0 102 -34q64 -35 93 -35q48 0 96 66z" />
    <glyph glyph-name="cent" unicode="&#xa2;" horiz-adv-x="600" 
d="M345 840h42l12 -924l-42 9zM558 215l18 -202q-77 -31 -190 -31q-107 0 -177 23.5t-111 71.5t-57.5 122t-16.5 175q0 98 15.5 171.5t55.5 123t108.5 74.5t173.5 25q23 0 51.5 -2.5t56 -6.5t52 -9.5t39.5 -12.5l-36 -184q-80 17 -143 17q-65 0 -90 -12t-25 -48v-314
q23 -5 46.5 -7.5t48.5 -2.5q100 0 181 29z" />
    <glyph glyph-name="sterling" unicode="&#xa3;" horiz-adv-x="600" 
d="M48 62q-3 14 -2.5 25t7.5 21t22 18q64 36 88 93.5t4 131.5h-113v59h102q-1 11 -3.5 32.5t-4 38t-1.5 31.5q0 49 18.5 88.5t52.5 64.5t82 36.5t104 5.5l12 -1q2 -1 6 -2q14 -2 20 -3t15.5 -4t13 -3.5t8 -3.5t5.5 -4t2.5 -5t1 -6t-2.5 -8t-3.5 -9.5t-5.5 -11.5
q-6 -14 -10 -23q-9 1 -26.5 4.5t-31.5 6t-27 3.5q-59 6 -96.5 -20.5t-40.5 -76.5q-2 -12 -1 -32t2 -32t2.5 -32.5t2.5 -33.5h167v-61h-153q4 -30 2 -59.5t-10 -56t-26.5 -52.5t-47.5 -48h335v-71h-469z" />
    <glyph glyph-name="yen" unicode="&#xa5;" horiz-adv-x="672" 
d="M276 -2v209h-192v61h190v88h-190v63h158l-208 367q72 0 104 -2q7 -2 15 -7.5t11 -12.5l161 -321q1 -2 2.5 -4t2 -3.5t1.5 -1.5q128 240 173 327q5 10 16 18t23 8q3 0 7 -1q11 -1 24.5 -1t32 0.5t29.5 0.5l-222 -366h160v-64h-191v-86h190v-62h-191v-211z" />
    <glyph glyph-name="questiondown" unicode="&#xbf;" horiz-adv-x="421" 
d="M240 586q-40 1 -66 27.5t-25 68.5t28.5 67.5t67.5 24.5t66 -28.5t25 -67.5q-1 -42 -28.5 -67.5t-67.5 -24.5zM19 196l2 34l4 31l7 28l9 27l11 25l15 26l18 26l20 27l24 33l17 28l11 27l4 33l160 -4l-2 -32l-4 -28l-6 -26l-8 -24l-11 -22l-12 -21l-14 -21l-16 -22l-14 -20
l-12 -18l-10 -16l-8 -17l-6 -16l-5 -18l-2 -19l-2 -21v-1l5 -15l34 -14l42 20l14 50v0l110 -6l6 -43l-14 -74l-39 -55l-61 -34l-80 -9l-80 13l-60 37l-36 56z" />
    <glyph glyph-name="Agrave" unicode="&#xc0;" horiz-adv-x="797" 
d="M378 809l-194 105l17 142l202 -157zM296 119h198l28 -119h253l-194 750h-371l-194 -750h253zM402 520l48 -210h-110l49 210h13z" />
    <glyph glyph-name="Aacute" unicode="&#xc1;" horiz-adv-x="809" 
d="M405 821l261 177l-156 105l-147 -198zM308 119h198l28 -119h253l-194 750h-371l-194 -750h253zM414 520l48 -210h-110l49 210h13z" />
    <glyph glyph-name="Acircumflex" unicode="&#xc2;" horiz-adv-x="809" 
d="M412 987l-211 -124l67 -49l144 111l140 -104l64 52zM308 119h198l28 -119h253l-194 750h-371l-194 -750h253zM414 520l48 -210h-110l49 210h13z" />
    <glyph glyph-name="Atilde" unicode="&#xc3;" horiz-adv-x="827" 
d="M657 978l57 -50q-32 -58 -79 -92.5t-98 -34.5q-14 0 -114 33q-65 21 -84 32q-61 33 -102 3q-22 -17 -51 -50l-48 72q21 29 41 52.5t41 41t44.5 27t51.5 9.5q45 0 102 -34q50 -30 125 -51q70 -18 114 42zM320 119h198l28 -119h253l-194 750h-371l-194 -750h253zM426 520
l48 -210h-110l49 210h13z" />
    <glyph glyph-name="Adieresis" unicode="&#xc4;" horiz-adv-x="827" 
d="M142 900q0 27 6 45.5t21 30t41 16.5t66 5t65.5 -5t40.5 -16.5t21 -30t6 -45.5t-6 -45t-21 -29.5t-40.5 -16t-65.5 -4.5q-29 0 -53.5 2t-42.5 11.5t-28 28.5t-10 53zM472 894q0 27 6 45.5t21 30t41 16.5t66 5t65.5 -5t40.5 -16.5t21 -30t6 -45.5t-6 -45t-21 -29.5
t-40.5 -16t-65.5 -4.5q-29 0 -53.5 2t-42.5 11.5t-28 28.5t-10 53zM320 119h198l28 -119h253l-194 750h-371l-194 -750h253zM426 520l48 -210h-110l49 210h13z" />
    <glyph glyph-name="Aring" unicode="&#xc5;" horiz-adv-x="817" 
d="M286 918q0 27 6 45.5t21 30t41 16.5t66 5t65.5 -5t40.5 -16.5t21 -30t6 -45.5t-6 -45t-21 -29.5t-40.5 -16t-65.5 -4.5q-29 0 -53.5 2t-42.5 11.5t-28 28.5t-10 53zM310 119h198l28 -119h253l-194 750h-371l-194 -750h253zM416 520l48 -210h-110l49 210h13z" />
    <glyph glyph-name="AE" unicode="&#xc6;" horiz-adv-x="996" 
d="M392 527l48 -210h-110l49 210h13zM200 757l-194 -750h253l27 119h198l28 -119l477 -7v192h-294v91h240v174h-240v101h258l30 192z" />
    <glyph glyph-name="Ccedilla" unicode="&#xc7;" horiz-adv-x="600" 
d="M354 -15q-92 3 -145 21q-70 23 -111 71t-57.5 122t-16.5 175q0 98 15.5 171.5t55.5 123t108.5 74.5t173.5 25q23 0 51.5 -2.5t56 -6.5t52 -9.5t39.5 -12.5l-36 -184q-80 17 -143 17q-65 0 -90 -12t-25 -48v-314q23 -5 46.5 -7.5t48.5 -2.5q100 0 181 29l18 -202
q-71 -29 -182 -29v0l3 -11l5 -6l6 -7l6 -6l5 -5l4 -6l3 -5l2 -6l2 -6l1 -7l1 -7l-3 -16l-10 -12l-16 -8l-22 -3l-22 2l-16 7l-11 12l-4 16l2 9l30 2v0l4 -11l11 -5l9 3l2 4h-1v4l-1 5l-1 3l-2 4l-2 3l-2 4l-4 4l-3 4l-5 5l-4 4l-3 5l-3 5l-2 5l-2 8zM394 -16zM354 -15z" />
    <glyph glyph-name="Egrave" unicode="&#xc8;" horiz-adv-x="636" 
d="M329 789l-194 105l17 142l202 -157zM540 457h-240v101h258l30 192h-528v-750h534v192h-294v91h240v174z" />
    <glyph glyph-name="Eacute" unicode="&#xc9;" horiz-adv-x="636" 
d="M340 771l261 177l-156 105l-147 -198zM540 457h-240v101h258l30 192h-528v-750h534v192h-294v91h240v174z" />
    <glyph glyph-name="Ecircumflex" unicode="&#xca;" horiz-adv-x="636" 
d="M333 976l-211 -124l67 -49l144 111l140 -104l64 52zM540 457h-240v101h258l30 192h-528v-750h534v192h-294v91h240v174z" />
    <glyph glyph-name="Edieresis" unicode="&#xcb;" horiz-adv-x="636" 
d="M389 887q0 27 6 45.5t21 30t41 16.5t66 5t65.5 -5t40.5 -16.5t21 -30t6 -45.5t-6 -45t-21 -29.5t-40.5 -16t-65.5 -4.5q-29 0 -53.5 2t-42.5 11.5t-28 28.5t-10 53zM3 889q0 27 6 45.5t21 30t41 16.5t66 5t65.5 -5t40.5 -16.5t21 -30t6 -45.5t-6 -45t-21 -29.5t-40.5 -16
t-65.5 -4.5q-29 0 -53.5 2t-42.5 11.5t-28 28.5t-10 53zM540 457h-240v101h258l30 192h-528v-750h534v192h-294v91h240v174z" />
    <glyph glyph-name="Iacute" unicode="&#xcd;" horiz-adv-x="352" 
d="M300 0v750h-240v-750h240zM173 797l261 177l-156 105l-147 -198z" />
    <glyph glyph-name="Icircumflex" unicode="&#xce;" horiz-adv-x="360" 
d="M186 947l-211 -124l67 -49l144 111l140 -104l64 52zM300 0v750h-240v-750h240z" />
    <glyph glyph-name="Idieresis" unicode="&#xcf;" horiz-adv-x="360" 
d="M-102 906q0 26 6 45t21 30t41 16t66 5t66 -5t41 -16t21 -30t6 -45q0 -28 -6 -46t-21 -29t-41 -16t-66 -5q-28 0 -53 2t-43 12t-28 29t-10 53zM228 900q0 26 6 45t21 30t41 16t66 5t66 -5t41 -16t21 -30t6 -45q0 -28 -6 -46t-21 -29t-41 -16t-66 -5q-28 0 -53 2t-43 12
t-28 29t-10 53zM300 0v750h-240v-750h240z" />
    <glyph glyph-name="Eth" unicode="&#xd0;" horiz-adv-x="774" 
d="M300 429v129h100q50 0 71.5 -11.5t21.5 -52.5v-238q0 -41 -21.5 -52.5t-71.5 -11.5h-100v97v35l126 -2v104zM61 426h-155v-104l152 3l2 -325h336q101 0 169 21t109 66t58.5 116.5t17.5 172.5t-17.5 172t-58.5 116t-109 65.5t-169 20.5h-336zM60 291zM60 439z" />
    <glyph glyph-name="Ntilde" unicode="&#xd1;" horiz-adv-x="786" 
d="M633 981l57 -50q-32 -58 -79 -92.5t-98 -34.5q-14 0 -114 33q-65 21 -84 32q-61 33 -102 3q-22 -17 -51 -50l-48 72q21 29 41 52.5t41 41t44.5 27t51.5 9.5q45 0 102 -34q50 -30 125 -51q70 -18 114 42zM726 0h-226l-183 266q-5 7 -8 21t-4 37h-5v-324h-240v750h226
l183 -266q5 -7 8 -21t4 -37h5v324h240v-750z" />
    <glyph glyph-name="Ograve" unicode="&#xd2;" horiz-adv-x="756" 
d="M394 820l-261 177l156 105l147 -198zM24 374q0 103 17.5 177.5t59 122.5t109.5 71t168 23q101 0 168.5 -23t109 -71t59 -122.5t17.5 -177.5q0 -98 -16 -171.5t-56.5 -122.5t-109 -73.5t-172.5 -24.5t-172.5 24.5t-109 73.5t-56.5 122.5t-16 171.5zM282 499v-312h100
q50 0 71.5 11.5t21.5 52.5v312h-101q-48 0 -70 -11.5t-22 -52.5z" />
    <glyph glyph-name="Oacute" unicode="&#xd3;" horiz-adv-x="756" 
d="M384 801l261 177l-156 105l-147 -198zM24 374q0 103 17.5 177.5t59 122.5t109.5 71t168 23q101 0 168.5 -23t109 -71t59 -122.5t17.5 -177.5q0 -98 -16 -171.5t-56.5 -122.5t-109 -73.5t-172.5 -24.5t-172.5 24.5t-109 73.5t-56.5 122.5t-16 171.5zM282 499v-312h100
q50 0 71.5 11.5t21.5 52.5v312h-101q-48 0 -70 -11.5t-22 -52.5z" />
    <glyph glyph-name="Ocircumflex" unicode="&#xd4;" horiz-adv-x="756" 
d="M372 982l-211 -124l67 -49l144 111l140 -104l64 52zM24 374q0 103 17.5 177.5t59 122.5t109.5 71t168 23q101 0 168.5 -23t109 -71t59 -122.5t17.5 -177.5q0 -98 -16 -171.5t-56.5 -122.5t-109 -73.5t-172.5 -24.5t-172.5 24.5t-109 73.5t-56.5 122.5t-16 171.5zM282 499
v-312h100q50 0 71.5 11.5t21.5 52.5v312h-101q-48 0 -70 -11.5t-22 -52.5z" />
    <glyph glyph-name="Otilde" unicode="&#xd5;" horiz-adv-x="763" 
d="M608 989l57 -50q-32 -58 -79 -92.5t-98 -34.5q-14 0 -114 33q-65 21 -84 32q-61 33 -102 3q-22 -17 -51 -50l-48 72q21 29 41 52.5t41 41t44.5 27t51.5 9.5q45 0 102 -34q50 -30 125 -51q70 -18 114 42zM24 374q0 103 17.5 177.5t59 122.5t109.5 71t168 23
q101 0 168.5 -23t109 -71t59 -122.5t17.5 -177.5q0 -98 -16 -171.5t-56.5 -122.5t-109 -73.5t-172.5 -24.5t-172.5 24.5t-109 73.5t-56.5 122.5t-16 171.5zM282 499v-312h100q50 0 71.5 11.5t21.5 52.5v312h-101q-48 0 -70 -11.5t-22 -52.5z" />
    <glyph glyph-name="Odieresis" unicode="&#xd6;" horiz-adv-x="763" 
d="M440 896q0 27 6 45.5t21 30t41 16.5t66 5t65.5 -5t40.5 -16.5t21 -30t6 -45.5t-6 -45t-21 -29.5t-40.5 -16t-65.5 -4.5q-29 0 -53.5 2t-42.5 11.5t-28 28.5t-10 53zM54 898q0 27 6 45.5t21 30t41 16.5t66 5t65.5 -5t40.5 -16.5t21 -30t6 -45.5t-6 -45t-21 -29.5
t-40.5 -16t-65.5 -4.5q-29 0 -53.5 2t-42.5 11.5t-28 28.5t-10 53zM24 374q0 103 17.5 177.5t59 122.5t109.5 71t168 23q101 0 168.5 -23t109 -71t59 -122.5t17.5 -177.5q0 -98 -16 -171.5t-56.5 -122.5t-109 -73.5t-172.5 -24.5t-172.5 24.5t-109 73.5t-56.5 122.5
t-16 171.5zM282 499v-312h100q50 0 71.5 11.5t21.5 52.5v312h-101q-48 0 -70 -11.5t-22 -52.5z" />
    <glyph glyph-name="multiply" unicode="&#xd7;" horiz-adv-x="600" 
d="M299 210l135 -135l102 102l-135 135l135 135l-102 102l-135 -135l-135 135l-102 -102l135 -135l-135 -135l102 -102z" />
    <glyph glyph-name="Oslash" unicode="&#xd8;" horiz-adv-x="857" 
d="M347 263v-76h100q50 0 71 12q22 11 22 52l1 107zM540 317zM345 406l196 84l-1 73h-101q-48 0 -70 -11q-21 -11 -22 -53zM908 591l-128 -39q17 -75 17 -178q0 -98 -16 -171.5t-56.5 -122.5t-109 -73.5t-172.5 -24.5t-172.5 24.5t-108.5 73.5q-35 41 -51 100l-84 -54
l-38 130l102 59q-1 29 -2 59q-3 89 19 185q16 67 57.5 115t109.5 71t168 23q101 0 167 -22.5t110 -71.5q15 -16 41 -66l119 51zM111 180zM110 183zM761 608z" />
    <glyph glyph-name="Ugrave" unicode="&#xd9;" horiz-adv-x="728" 
d="M382 804l-194 105l17 142l202 -157zM42 750h240v-563h85q46 0 62.5 12t16.5 52v499h240v-421q0 -96 -12.5 -162t-48 -107.5t-98.5 -59.5t-163 -18t-163 18t-98.5 59t-48 107.5t-12.5 162.5v421z" />
    <glyph glyph-name="Uacute" unicode="&#xda;" horiz-adv-x="728" 
d="M382 777l261 177l-156 105l-147 -198zM42 750h240v-563h85q46 0 62.5 12t16.5 52v499h240v-421q0 -96 -12.5 -162t-48 -107.5t-98.5 -59.5t-163 -18t-163 18t-98.5 59t-48 107.5t-12.5 162.5v421z" />
    <glyph glyph-name="Ucircumflex" unicode="&#xdb;" horiz-adv-x="728" 
d="M372 982l-211 -124l67 -49l144 111l140 -104l64 52zM42 750h240v-563h85q46 0 62.5 12t16.5 52v499h240v-421q0 -96 -12.5 -162t-48 -107.5t-98.5 -59.5t-163 -18t-163 18t-98.5 59t-48 107.5t-12.5 162.5v421z" />
    <glyph glyph-name="Udieresis" unicode="&#xdc;" horiz-adv-x="728" 
d="M440 917q0 27 6 45.5t21 30t41 16.5t66 5t65.5 -5t40.5 -16.5t21 -30t6 -45.5t-6 -45t-21 -29.5t-40.5 -16t-65.5 -4.5q-29 0 -53.5 2t-42.5 11.5t-28 28.5t-10 53zM26 919q0 27 6 45.5t21 30t41 16.5t66 5t65.5 -5t40.5 -16.5t21 -30t6 -45.5t-6 -45t-21 -29.5
t-40.5 -16t-65.5 -4.5q-29 0 -53.5 2t-42.5 11.5t-28 28.5t-10 53zM42 750h240v-563h85q46 0 62.5 12t16.5 52v499h240v-421q0 -96 -12.5 -162t-48 -107.5t-98.5 -59.5t-163 -18t-163 18t-98.5 59t-48 107.5t-12.5 162.5v421z" />
    <glyph glyph-name="Yacute" unicode="&#xdd;" horiz-adv-x="672" 
d="M342 751l261 177l-156 105l-147 -198zM0 750l216 -546v-204h240v204l216 546h-265l-67 -264h-9l-66 264h-265z" />
    <glyph glyph-name="Thorn" unicode="&#xde;" horiz-adv-x="708" 
d="M450 99h-156l-2 -99h-240l2 668v106l238 6v-112h140q258 0 258 -277q0 -61 -12 -114t-40.5 -92.5t-74 -62.5t-113.5 -23zM349 476h-55v-185h55q44 0 63.5 9t19.5 42v84q0 32 -19.5 41t-63.5 9z" />
    <glyph glyph-name="agrave" unicode="&#xe0;" horiz-adv-x="680" 
d="M343 650l-194 105l17 142l202 -157zM344 618q288 0 288 -198v-420h-120l-68 68q-18 -20 -42.5 -36t-52.5 -27t-57 -17t-56 -6q-51 0 -91.5 10.5t-68.5 33.5t-43 61t-15 93q0 216 326 216h48v43q-19 1 -34.5 2t-28.5 1q-135 0 -233 -33l-29 172q120 37 277 37zM260 206
v-49h50q52 0 68 12q14 13 14 31v57h-49q-43 0 -63 -9t-20 -42z" />
    <glyph glyph-name="aacute" unicode="&#xe1;" horiz-adv-x="680" 
d="M333 640l261 177l-156 105l-147 -198zM344 618q288 0 288 -198v-420h-120l-68 68q-18 -20 -42.5 -36t-52.5 -27t-57 -17t-56 -6q-51 0 -91.5 10.5t-68.5 33.5t-43 61t-15 93q0 216 326 216h48v43q-19 1 -34.5 2t-28.5 1q-135 0 -233 -33l-29 172q120 37 277 37zM260 206
v-49h50q52 0 68 12q14 13 14 31v57h-49q-43 0 -63 -9t-20 -42z" />
    <glyph glyph-name="acircumflex" unicode="&#xe2;" horiz-adv-x="680" 
d="M343 828l-211 -124l67 -49l144 111l140 -104l64 52zM344 618q288 0 288 -198v-420h-120l-68 68q-18 -20 -42.5 -36t-52.5 -27t-57 -17t-56 -6q-51 0 -91.5 10.5t-68.5 33.5t-43 61t-15 93q0 216 326 216h48v43q-19 1 -34.5 2t-28.5 1q-135 0 -233 -33l-29 172
q120 37 277 37zM260 206v-49h50q52 0 68 12q14 13 14 31v57h-49q-43 0 -63 -9t-20 -42z" />
    <glyph glyph-name="atilde" unicode="&#xe3;" horiz-adv-x="680" 
d="M566 851l57 -50q-32 -58 -79 -92.5t-98 -34.5q-14 0 -114 33q-65 21 -84 32q-61 33 -102 3q-22 -17 -51 -50l-48 72q21 29 41 52.5t41 41t44.5 27t51.5 9.5q45 0 102 -34q50 -30 125 -51q70 -18 114 42zM344 618q288 0 288 -198v-420h-120l-68 68q-18 -20 -42.5 -36
t-52.5 -27t-57 -17t-56 -6q-51 0 -91.5 10.5t-68.5 33.5t-43 61t-15 93q0 216 326 216h48v43q-19 1 -34.5 2t-28.5 1q-135 0 -233 -33l-29 172q120 37 277 37zM260 206v-49h50q52 0 68 12q14 13 14 31v57h-49q-43 0 -63 -9t-20 -42z" />
    <glyph glyph-name="adieresis" unicode="&#xe4;" horiz-adv-x="680" 
d="M71 765q0 27 6 45.5t21 30t41 16.5t66 5t65.5 -5t40.5 -16.5t21 -30t6 -45.5t-6 -45t-21 -29.5t-40.5 -16t-65.5 -4.5q-29 0 -53.5 2t-42.5 11.5t-28 28.5t-10 53zM373 765q0 27 6 45.5t21 30t41 16.5t66 5t65.5 -5t40.5 -16.5t21 -30t6 -45.5t-6 -45t-21 -29.5
t-40.5 -16t-65.5 -4.5q-29 0 -53.5 2t-42.5 11.5t-28 28.5t-10 53zM344 618q288 0 288 -198v-420h-120l-68 68q-18 -20 -42.5 -36t-52.5 -27t-57 -17t-56 -6q-51 0 -91.5 10.5t-68.5 33.5t-43 61t-15 93q0 216 326 216h48v43q-19 1 -34.5 2t-28.5 1q-135 0 -233 -33l-29 172
q120 37 277 37zM260 206v-49h50q52 0 68 12q14 13 14 31v57h-49q-43 0 -63 -9t-20 -42z" />
    <glyph glyph-name="aring" unicode="&#xe5;" horiz-adv-x="679" 
d="M225 763q0 27 6 45.5t21 30t41 16.5t66 5t65.5 -5t40.5 -16.5t21 -30t6 -45.5t-6 -45t-21 -29.5t-40.5 -16t-65.5 -4.5q-29 0 -53.5 2t-42.5 11.5t-28 28.5t-10 53zM344 618q288 0 288 -198v-420h-120l-68 68q-18 -20 -42.5 -36t-52.5 -27t-57 -17t-56 -6
q-51 0 -91.5 10.5t-68.5 33.5t-43 61t-15 93q0 216 326 216h48v43q-19 1 -34.5 2t-28.5 1q-135 0 -233 -33l-29 172q120 37 277 37zM260 206v-49h50q52 0 68 12q14 13 14 31v57h-49q-43 0 -63 -9t-20 -42z" />
    <glyph glyph-name="ae" unicode="&#xe6;" horiz-adv-x="982" 
d="M471 589zM602 402v-48h49q44 0 63.5 9t19.5 41v50h-49q-44 0 -63.5 -9t-19.5 -43zM610 287zM422 68q-18 -20 -42.5 -36t-52.5 -27t-57 -17t-56 -6q-51 0 -91.5 10.5t-68.5 33.5t-43 61t-15 93q0 216 326 216h48v43q-19 1 -34.5 2t-28.5 1q-135 0 -233 -33l-29 172
q120 37 277 37q93 0 149 -29q72 40 191 39q84 0 140 -10t90.5 -35t49 -66t14.5 -105q0 -52 -17.5 -89t-58.5 -61t-109 -36t-169 -12v-42q18 -2 36 -2q18 -2 36 -2q112 0 226 36l28 -176q-135 -36 -266 -36q-162 0 -240 76zM425 65zM238 206v-49h50q52 0 68 12q14 13 14 31
v57h-49q-43 0 -63 -9t-20 -42z" />
    <glyph glyph-name="ccedilla" unicode="&#xe7;" horiz-adv-x="551" 
d="M385 -17q78 3 130 24l-15 173q-60 -23 -116 -23q-28 0 -50.5 2t-39.5 5v215q0 64 91 64q19 0 44 -3.5t57 -9.5l29 163q-54 25 -161 25q-168 0 -243 -78.5t-75 -239.5t75 -239.5t243 -78.5l-3 -7l2 -8l2 -5l3 -5l3 -5l4 -4l5 -5l3 -4l4 -4l2 -4l2 -3l2 -4l1 -3l1 -5v-4h1
l-2 -4l-9 -3l-11 5l-4 11v0l-30 -2l-2 -9l4 -16l11 -12l16 -7l22 -2l22 3l16 8l10 12l3 16l-1 7l-1 7l-2 6l-2 6l-3 5l-4 6l-5 5l-6 6l-6 7zM385 -17zM359 -18z" />
    <glyph glyph-name="egrave" unicode="&#xe8;" horiz-adv-x="678" 
d="M360 662l-194 105l17 142l202 -157zM294 204v-42q18 -2 36 -3t36 -1q112 0 226 36l28 -176q-135 -36 -266 -36q-168 0 -243 78.5t-75 239.5t75.5 239.5t242.5 78.5q84 0 140 -10.5t90.5 -35t49 -66t14.5 -104.5q0 -52 -17.5 -89.5t-58.5 -61.5t-109 -35.5t-169 -11.5z
M294 392v-49h49q44 0 63.5 9t19.5 42v49h-49q-44 0 -63.5 -9t-19.5 -42z" />
    <glyph glyph-name="eacute" unicode="&#xe9;" horiz-adv-x="678" 
d="M349 658l261 177l-156 105l-147 -198zM294 204v-42q18 -2 36 -3t36 -1q112 0 226 36l28 -176q-135 -36 -266 -36q-168 0 -243 78.5t-75 239.5t75.5 239.5t242.5 78.5q84 0 140 -10.5t90.5 -35t49 -66t14.5 -104.5q0 -52 -17.5 -89.5t-58.5 -61.5t-109 -35.5t-169 -11.5z
M294 392v-49h49q44 0 63.5 9t19.5 42v49h-49q-44 0 -63.5 -9t-19.5 -42z" />
    <glyph glyph-name="ecircumflex" unicode="&#xea;" horiz-adv-x="678" 
d="M344 825l-211 -124l67 -49l144 111l140 -104l64 52zM294 204v-42q18 -2 36 -3t36 -1q112 0 226 36l28 -176q-135 -36 -266 -36q-168 0 -243 78.5t-75 239.5t75.5 239.5t242.5 78.5q84 0 140 -10.5t90.5 -35t49 -66t14.5 -104.5q0 -52 -17.5 -89.5t-58.5 -61.5t-109 -35.5
t-169 -11.5zM294 392v-49h49q44 0 63.5 9t19.5 42v49h-49q-44 0 -63.5 -9t-19.5 -42z" />
    <glyph glyph-name="edieresis" unicode="&#xeb;" horiz-adv-x="678" 
d="M64 747q0 27 6 45.5t21 30t41 16.5t66 5t65 -5t40 -16.5t21 -30t6 -45.5t-6 -45t-21 -29.5t-40 -16t-65 -4.5q-30 0 -54 2t-42 11.5t-28 28.5t-10 53zM366 747q0 27 6 45.5t21 30t41 16.5t66 5t65 -5t40 -16.5t21 -30t6 -45.5t-6 -45t-21 -29.5t-40 -16t-65 -4.5
q-30 0 -54 2t-42 11.5t-28 28.5t-10 53zM294 204v-42q18 -2 36 -3t36 -1q112 0 226 36l28 -176q-135 -36 -266 -36q-168 0 -243 78.5t-75 239.5t75.5 239.5t242.5 78.5q84 0 140 -10.5t90.5 -35t49 -66t14.5 -104.5q0 -52 -17.5 -89.5t-58.5 -61.5t-109 -35.5t-169 -11.5z
M294 392v-49h49q44 0 63.5 9t19.5 42v49h-49q-44 0 -63.5 -9t-19.5 -42z" />
    <glyph glyph-name="igrave" unicode="&#xec;" horiz-adv-x="360" 
d="M263 666l-124 290l-133 -133l166 -182zM300 0h-240v570l240 30v-600z" />
    <glyph glyph-name="iacute" unicode="&#xed;" horiz-adv-x="360" 
d="M150 644l261 177l-156 105l-147 -198zM300 0h-240v570l240 30v-600z" />
    <glyph glyph-name="icircumflex" unicode="&#xee;" horiz-adv-x="360" 
d="M180 795l-211 -124l67 -49l144 111l140 -104l64 52zM300 0h-240v570l240 30v-600z" />
    <glyph glyph-name="idieresis" unicode="&#xef;" horiz-adv-x="360" 
d="M-88 743q0 27 6 45.5t21 30t41 16.5t66 5t65.5 -5t40.5 -16.5t21 -30t6 -45.5t-6 -45t-21 -29.5t-40.5 -16t-65.5 -4.5q-29 0 -53.5 2t-42.5 11.5t-28 28.5t-10 53zM214 743q0 27 6 45.5t21 30t41 16.5t66 5t65.5 -5t40.5 -16.5t21 -30t6 -45.5t-6 -45t-21 -29.5
t-40.5 -16t-65.5 -4.5q-29 0 -53.5 2t-42.5 11.5t-28 28.5t-10 53zM300 0h-240v570l240 30v-600z" />
    <glyph glyph-name="eth" unicode="&#xf0;" horiz-adv-x="708" 
d="M594 832l57 -50q-32 -58 -79 -92.5t-98 -34.5q-14 0 -114 33q-65 21 -84 32q-61 33 -102 2q-22 -16 -51 -49l-48 72q21 29 41 52.5t41 41t44.5 27t51.5 9.5q45 0 102 -34q50 -30 125 -51q70 -18 114 42zM36 300q0 161 75 239.5t243 78.5t243 -78.5t75 -239.5t-75 -239.5
t-243 -78.5q-164 0 -241 77t-77 241zM294 392v-235h37q44 0 63.5 9t19.5 42v235h-37q-44 0 -63.5 -9t-19.5 -42z" />
    <glyph glyph-name="ntilde" unicode="&#xf1;" horiz-adv-x="714" 
d="M594 832l57 -50q-32 -58 -79 -92.5t-98 -34.5q-14 0 -114 33q-65 21 -84 32q-61 33 -102 2q-22 -16 -51 -49l-48 72q21 29 41 52.5t41 41t44.5 27t51.5 9.5q45 0 102 -34q50 -30 125 -51q70 -18 114 42zM60 600h120l60 -60q111 78 240 78q85 0 132.5 -36.5t47.5 -101.5
v-480h-240v420h-37q-41 0 -62 -8.5t-21 -37.5v-374h-240v600z" />
    <glyph glyph-name="ograve" unicode="&#xf2;" horiz-adv-x="708" 
d="M399 648l-261 177l156 105l147 -198zM36 300q0 161 75 239.5t243 78.5t243 -78.5t75 -239.5t-75 -239.5t-243 -78.5q-164 0 -241 77t-77 241zM294 392v-235h37q44 0 63.5 9t19.5 42v235h-37q-44 0 -63.5 -9t-19.5 -42z" />
    <glyph glyph-name="oacute" unicode="&#xf3;" horiz-adv-x="708" 
d="M354 632l261 177l-156 105l-147 -198zM36 300q0 161 75 239.5t243 78.5t243 -78.5t75 -239.5t-75 -239.5t-243 -78.5q-164 0 -241 77t-77 241zM294 392v-235h37q44 0 63.5 9t19.5 42v235h-37q-44 0 -63.5 -9t-19.5 -42z" />
    <glyph glyph-name="ocircumflex" unicode="&#xf4;" horiz-adv-x="731" 
d="M354 814l-211 -124l67 -49l144 111l140 -104l64 52zM36 300q0 161 75 239.5t243 78.5t243 -78.5t75 -239.5t-75 -239.5t-243 -78.5q-164 0 -241 77t-77 241zM294 392v-235h37q44 0 63.5 9t19.5 42v235h-37q-44 0 -63.5 -9t-19.5 -42z" />
    <glyph glyph-name="otilde" unicode="&#xf5;" horiz-adv-x="735" 
d="M586 814l57 -50q-32 -58 -79 -92t-98 -34q-14 0 -114 32q-65 22 -84 32q-61 34 -102 4q-22 -18 -51 -50l-48 72q21 28 41 52t41 41t44.5 27t51.5 10q45 0 102 -34q50 -30 125 -52q70 -18 114 42zM36 300q0 161 75 239.5t243 78.5t243 -78.5t75 -239.5t-75 -239.5
t-243 -78.5q-164 0 -241 77t-77 241zM294 392v-235h37q44 0 63.5 9t19.5 42v235h-37q-44 0 -63.5 -9t-19.5 -42z" />
    <glyph glyph-name="odieresis" unicode="&#xf6;" horiz-adv-x="735" 
d="M36 300q0 161 75 239.5t243 78.5t243 -78.5t75 -239.5t-75 -239.5t-243 -78.5q-164 0 -241 77t-77 241zM294 392v-235h37q44 0 63.5 9t19.5 42v235h-37q-44 0 -63.5 -9t-19.5 -42zM434 764q0 27 6 45.5t21 30t41 16.5t66 5t65.5 -5t40.5 -16.5t21 -30t6 -45.5t-6 -45
t-21 -29.5t-40.5 -16t-65.5 -4.5q-29 0 -53.5 2t-42.5 11.5t-28 28.5t-10 53zM48 766q0 27 6 45.5t21 30t41 16.5t66 5t65.5 -5t40.5 -16.5t21 -30t6 -45.5t-6 -45t-21 -29.5t-40.5 -16t-65.5 -4.5q-29 0 -53.5 2t-42.5 11.5t-28 28.5t-10 53z" />
    <glyph glyph-name="divide" unicode="&#xf7;" horiz-adv-x="600" 
d="M377 167v-90q0 -29 -39 -29h-80q-39 0 -39 29v90q0 28 39 28h80q39 0 39 -28zM377 547v-90q0 -29 -39 -29h-80q-39 0 -39 29v90q0 28 39 28h80q39 0 39 -28zM527 240h-455v144h455v-144z" />
    <glyph glyph-name="oslash" unicode="&#xf8;" horiz-adv-x="708" 
d="M733 585l42 -115l-106 -56q3 -8 3 -114q0 -161 -75 -239.5t-243 -78.5q-164 0 -241 77q-31 31 -39 52l-74 -35l-58 50l100 72q-6 20 -6 102q0 161 75 239.5t243 78.5q161 0 243 -78q13 -13 25 -26zM236 199v-76h100q50 0 71 12q22 11 22 52l1 107zM429 253zM234 342
l196 84l-1 73h-101q-48 0 -70 -11q-21 -11 -22 -53z" />
    <glyph glyph-name="ugrave" unicode="&#xf9;" horiz-adv-x="708" 
d="M348 635l-194 105l17 142l202 -157zM48 600h240v-443h37q44 0 63.5 9t19.5 42v392h240v-600h-120l-70 68q-72 -86 -205 -86q-107 0 -156 45.5t-49 152.5v420z" />
    <glyph glyph-name="uacute" unicode="&#xfa;" horiz-adv-x="708" 
d="M354 626l261 177l-156 105l-147 -198zM48 600h240v-443h37q44 0 63.5 9t19.5 42v392h240v-600h-120l-70 68q-72 -86 -205 -86q-107 0 -156 45.5t-49 152.5v420z" />
    <glyph glyph-name="ucircumflex" unicode="&#xfb;" horiz-adv-x="708" 
d="M350 814l-211 -124l67 -49l144 111l140 -104l64 52zM48 600h240v-443h37q44 0 63.5 9t19.5 42v392h240v-600h-120l-70 68q-72 -86 -205 -86q-107 0 -156 45.5t-49 152.5v420z" />
    <glyph glyph-name="udieresis" unicode="&#xfc;" horiz-adv-x="708" 
d="M64 747q0 27 6 45.5t21 30t41 16.5t66 5t65 -5t40 -16.5t21 -30t6 -45.5t-6 -45t-21 -29.5t-40 -16t-65 -4.5q-30 0 -54 2t-42 11.5t-28 28.5t-10 53zM366 747q0 27 6 45.5t21 30t41 16.5t66 5t65 -5t40 -16.5t21 -30t6 -45.5t-6 -45t-21 -29.5t-40 -16t-65 -4.5
q-30 0 -54 2t-42 11.5t-28 28.5t-10 53zM48 600h240v-443h37q44 0 63.5 9t19.5 42v392h240v-600h-120l-70 68q-72 -86 -205 -86q-107 0 -156 45.5t-49 152.5v420z" />
    <glyph glyph-name="yacute" unicode="&#xfd;" horiz-adv-x="706" 
d="M357 614l261 177l-156 105l-147 -198zM308 62h-126l-134 538h240l66 -390h12l66 390h240l-150 -600q-16 -59 -36.5 -97t-47.5 -60.5t-62.5 -31.5t-82.5 -9h-233v156l113 22q87 20 113 43q7 6 13 14t11 18z" />
    <glyph glyph-name="thorn" unicode="&#xfe;" horiz-adv-x="714" 
d="M60 -198l-1 962h216v-146q73 -6 145 -3t121 -23t79.5 -69.5t44 -101.5t13.5 -121q0 -61 -12 -115t-40 -95.5t-74 -65.5t-114 -24h-138v-180zM300 398v-241h37q44 0 63.5 9t19.5 42v235h-37q-26 0 -42 -2t-28 -13q-12 -10 -13 -30z" />
    <glyph glyph-name="ydieresis" unicode="&#xff;" horiz-adv-x="706" 
d="M72 733q0 27 6 45.5t21 30t41 16.5t66 5t65 -5t40 -16.5t21 -30t6 -45.5t-6 -45t-21 -29.5t-40 -16t-65 -4.5q-30 0 -54 2t-42 11.5t-28 28.5t-10 53zM374 733q0 27 6 45.5t21 30t41 16.5t66 5t65 -5t40 -16.5t21 -30t6 -45.5t-6 -45t-21 -29.5t-40 -16t-65 -4.5
q-30 0 -54 2t-42 11.5t-28 28.5t-10 53zM308 62h-126l-134 538h240l66 -390h12l66 390h240l-150 -600q-16 -59 -36.5 -97t-47.5 -60.5t-62.5 -31.5t-82.5 -9h-233v156l113 22q87 20 113 43q7 6 13 14t11 18z" />
    <glyph glyph-name="Amacron" unicode="&#x100;" horiz-adv-x="797" 
d="M224 811l360 33l2 88l-360 -42zM296 119h198l28 -119h253l-194 750h-371l-194 -750h253zM402 520l48 -210h-110l49 210h13z" />
    <glyph glyph-name="amacron" unicode="&#x101;" horiz-adv-x="680" 
d="M159 688l360 33l2 88l-360 -42zM344 618q288 0 288 -198v-420h-120l-68 68q-18 -20 -42.5 -36t-52.5 -27t-57 -17t-56 -6q-51 0 -91.5 10.5t-68.5 33.5t-43 61t-15 93q0 216 326 216h48v43q-19 1 -34.5 2t-28.5 1q-135 0 -233 -33l-29 172q120 37 277 37zM260 206v-49h50
q52 0 68 12q14 13 14 31v57h-49q-43 0 -63 -9t-20 -42z" />
    <glyph glyph-name="Abreve" unicode="&#x102;" horiz-adv-x="797" 
d="M175 903l117 -48l102 -19l84 16l125 50l-48 -66l-70 -31l-50 -15h-93l-54 13l-62 26zM296 119h198l28 -119h253l-194 750h-371l-194 -750h253zM402 520l48 -210h-110l49 210h13z" />
    <glyph glyph-name="abreve" unicode="&#x103;" horiz-adv-x="680" 
d="M121 789l117 -48l102 -19l84 16l125 50l-48 -66l-70 -31l-50 -15h-93l-54 13l-62 26zM344 618q288 0 288 -198v-420h-120l-68 68q-18 -20 -42.5 -36t-52.5 -27t-57 -17t-56 -6q-51 0 -91.5 10.5t-68.5 33.5t-43 61t-15 93q0 216 326 216h48v43q-19 1 -34.5 2t-28.5 1
q-135 0 -233 -33l-29 172q120 37 277 37zM260 206v-49h50q52 0 68 12q14 13 14 31v57h-49q-43 0 -63 -9t-20 -42z" />
    <glyph glyph-name="Aogonek" unicode="&#x104;" horiz-adv-x="817" 
d="M763 0h26l-194 750h-371l-194 -750h253l27 119h198l28 -119h176l-10 -18l-6 -7l-6 -6l-5 -5l-4 -6l-3 -5l-2 -6l-2 -6l-1 -7l-1 -7l3 -16l10 -12l16 -8l22 -3l22 2l16 7l11 12l4 16l-2 9l-30 2v0l-4 -11l-11 -5l-9 3l-2 4h1v4l1 5l1 3l2 4l2 3l2 4l4 4l3 4l5 5l4 4l3 5
l3 5l2 5l3 18h9zM712 0zM416 520l48 -210h-110l49 210h13z" />
    <glyph glyph-name="aogonek" unicode="&#x105;" horiz-adv-x="680" 
d="M573 0h-61l-68 68q-18 -20 -42.5 -36t-52.5 -27t-57 -17t-56 -6q-51 0 -91.5 10.5t-68.5 33.5t-43 61t-15 93q0 216 326 216h48v43q-19 1 -34.5 2t-28.5 1q-135 0 -233 -33l-29 172q120 37 277 37q288 0 288 -198v-420h-12l-3 -14l-3 -5l-3 -5l-4 -4l-5 -5l-3 -4l-4 -4
l-2 -4l-2 -3l-2 -4l-1 -3l-1 -5v-4h-1l2 -4l9 -3l11 5l4 11v0l30 -2l2 -9l-4 -16l-11 -12l-16 -7l-22 -2l-22 3l-16 8l-10 12l-3 16l1 7l1 7l2 6l2 6l3 5l4 6l5 5l6 6zM573 0zM609 0zM260 206v-49h50q52 0 68 12q14 13 14 31v57h-49q-43 0 -63 -9t-20 -42z" />
    <glyph glyph-name="Cacute" unicode="&#x106;" horiz-adv-x="600" 
d="M333 811l261 177l-156 105l-147 -198zM558 215l18 -202q-77 -31 -190 -31q-107 0 -177 23.5t-111 71.5t-57.5 122t-16.5 175q0 98 15.5 171.5t55.5 123t108.5 74.5t173.5 25q23 0 51.5 -2.5t56 -6.5t52 -9.5t39.5 -12.5l-36 -184q-80 17 -143 17q-65 0 -90 -12t-25 -48
v-314q23 -5 46.5 -7.5t48.5 -2.5q100 0 181 29z" />
    <glyph glyph-name="cacute" unicode="&#x107;" horiz-adv-x="564" 
d="M316 647l261 177l-156 105l-147 -198zM500 180l15 -173q-62 -25 -161 -25q-168 0 -243 78.5t-75 239.5t75 239.5t243 78.5q107 0 161 -25l-29 -163q-32 6 -57 9.5t-44 3.5q-91 0 -91 -64v-215q17 -3 39.5 -5t50.5 -2q56 0 116 23z" />
    <glyph glyph-name="Ccaron" unicode="&#x10c;" horiz-adv-x="600" 
d="M368 839l198 144l-72 42l-180 -105l-136 63l-24 -51zM558 215l18 -202q-77 -31 -190 -31q-107 0 -177 23.5t-111 71.5t-57.5 122t-16.5 175q0 98 15.5 171.5t55.5 123t108.5 74.5t173.5 25q23 0 51.5 -2.5t56 -6.5t52 -9.5t39.5 -12.5l-36 -184q-80 17 -143 17
q-65 0 -90 -12t-25 -48v-314q23 -5 46.5 -7.5t48.5 -2.5q100 0 181 29z" />
    <glyph glyph-name="ccaron" unicode="&#x10d;" horiz-adv-x="564" 
d="M500 180l15 -173q-62 -25 -161 -25q-168 0 -243 78.5t-75 239.5t75 239.5t243 78.5q107 0 161 -25l-29 -163q-32 6 -57 9.5t-44 3.5q-91 0 -91 -64v-215q17 -3 39.5 -5t50.5 -2q56 0 116 23zM343 644l198 144l-72 42l-180 -105l-136 63l-24 -51z" />
    <glyph glyph-name="Dcaron" unicode="&#x10e;" horiz-adv-x="774" 
d="M368 839l198 144l-72 42l-180 -105l-136 63l-24 -51zM396 0h-336v750h336q101 0 169 -20.5t109 -65.5t58.5 -116t17.5 -172t-17.5 -172.5t-58.5 -116.5t-109 -66t-169 -21zM400 558h-100v-366h100q50 0 71.5 11.5t21.5 52.5v238q0 41 -21.5 52.5t-71.5 11.5z" />
    <glyph glyph-name="dcaron" unicode="&#x10f;" horiz-adv-x="756" 
d="M700 630l126 176l-95 48l-57 -184zM654 798v-798h-120l-52 50q-51 -68 -188 -68q-72 0 -121 26t-79.5 69.5t-44 101.5t-13.5 121q0 60 12 114.5t40 95.5t74 65.5t114 24.5h138v180zM294 392v-235h37q41 0 60.5 7.5t22.5 35.5v243h-37q-44 0 -63.5 -9t-19.5 -42z" />
    <glyph glyph-name="Dcroat" unicode="&#x110;" horiz-adv-x="774" 
d="M300 429v129h100q50 0 71.5 -11.5t21.5 -52.5v-238q0 -41 -21.5 -52.5t-71.5 -11.5h-100v97v35l126 -2v104zM61 426h-155v-104l152 3l2 -325h336q101 0 169 21t109 66t58.5 116.5t17.5 172.5t-17.5 172t-58.5 116t-109 65.5t-169 20.5h-336zM60 291zM60 439z" />
    <glyph glyph-name="dcroat" unicode="&#x111;" horiz-adv-x="714" 
d="M654 798v-80h107v-76l-107 -6v-636h-120l-52 50q-51 -68 -188 -68q-72 0 -121 26t-79.5 69.5t-44 101.5t-13.5 121q0 60 12 114.5t40 95.5t74 65.5t114 24.5h138v42l-143 6l-14 84h157v48zM294 392v-235h37q41 0 60.5 7.5t22.5 35.5v243h-37q-44 0 -63.5 -9t-19.5 -42z
" />
    <glyph glyph-name="Emacron" unicode="&#x112;" horiz-adv-x="636" 
d="M169 799l360 33l2 88l-360 -42zM540 457h-240v101h258l30 192h-528v-750h534v192h-294v91h240v174z" />
    <glyph glyph-name="emacron" unicode="&#x113;" horiz-adv-x="678" 
d="M188 683l360 33l2 88l-360 -42zM294 204v-42q18 -2 36 -3t36 -1q112 0 226 36l28 -176q-135 -36 -266 -36q-168 0 -243 78.5t-75 239.5t75.5 239.5t242.5 78.5q84 0 140 -10.5t90.5 -35t49 -66t14.5 -104.5q0 -52 -17.5 -89.5t-58.5 -61.5t-109 -35.5t-169 -11.5z
M294 392v-49h49q44 0 63.5 9t19.5 42v49h-49q-44 0 -63.5 -9t-19.5 -42z" />
    <glyph glyph-name="Ebreve" unicode="&#x114;" horiz-adv-x="636" 
d="M368 839l198 144l-72 42l-180 -105l-136 63l-24 -51zM540 457h-240v101h258l30 192h-528v-750h534v192h-294v91h240v174z" />
    <glyph glyph-name="ebreve" unicode="&#x115;" horiz-adv-x="678" 
d="M372 667l198 144l-72 42l-180 -105l-136 63l-24 -51zM294 204v-42q18 -2 36 -3t36 -1q112 0 226 36l28 -176q-135 -36 -266 -36q-168 0 -243 78.5t-75 239.5t75.5 239.5t242.5 78.5q84 0 140 -10.5t90.5 -35t49 -66t14.5 -104.5q0 -52 -17.5 -89.5t-58.5 -61.5
t-109 -35.5t-169 -11.5zM294 392v-49h49q44 0 63.5 9t19.5 42v49h-49q-44 0 -63.5 -9t-19.5 -42z" />
    <glyph glyph-name="Edotaccent" unicode="&#x116;" horiz-adv-x="636" 
d="M203 896q0 27 6 45.5t21 30t41 16.5t66 5t65.5 -5t40.5 -16.5t21 -30t6 -45.5t-6 -45t-21 -29.5t-40.5 -16t-65.5 -4.5q-29 0 -53.5 2t-42.5 11.5t-28 28.5t-10 53zM540 457h-240v101h258l30 192h-528v-750h534v192h-294v91h240v174z" />
    <glyph glyph-name="edotaccent" unicode="&#x117;" horiz-adv-x="678" 
d="M240 749q0 27 6 45.5t21 30t41 16.5t66 5t65.5 -5t40.5 -16.5t21 -30t6 -45.5t-6 -45t-21 -29.5t-40.5 -16t-65.5 -4.5q-29 0 -53.5 2t-42.5 11.5t-28 28.5t-10 53zM294 204v-42q18 -2 36 -3t36 -1q112 0 226 36l28 -176q-135 -36 -266 -36q-168 0 -243 78.5t-75 239.5
t75.5 239.5t242.5 78.5q84 0 140 -10.5t90.5 -35t49 -66t14.5 -104.5q0 -52 -17.5 -89.5t-58.5 -61.5t-109 -35.5t-169 -11.5zM294 392v-49h49q44 0 63.5 9t19.5 42v49h-49q-44 0 -63.5 -9t-19.5 -42z" />
    <glyph glyph-name="Eogonek" unicode="&#x118;" horiz-adv-x="636" 
d="M523 0h-463v750h528l-30 -192h-258v-101h240v-174h-240v-91h294v-192h-22l-9 -14l-3 -5l-4 -4l-5 -5l-3 -4l-4 -4l-2 -4l-2 -3l-2 -4l-1 -3l-1 -5v-4h-1l2 -4l9 -3l11 5l4 11v0l30 -2l2 -9l-4 -16l-11 -12l-16 -7l-22 -2l-22 3l-16 8l-10 12l-3 16l1 7l1 7l2 6l2 6l3 5
l4 6l5 5l6 6zM523 0z" />
    <glyph glyph-name="eogonek" unicode="&#x119;" horiz-adv-x="678" 
d="M513 -5q-80 -13 -159 -13q-168 0 -243 78.5t-75 239.5t75.5 239.5t242.5 78.5q84 0 140 -10.5t90.5 -35t49 -66t14.5 -104.5q0 -52 -17.5 -89.5t-58.5 -61.5t-109 -35.5t-169 -11.5v-42q18 -2 36 -3t36 -1q112 0 226 36l28 -176l-52 -13l-8 -14l-10 -14l-5 -5l-3 -4
l-4 -4l-2 -4l-2 -3l-2 -4l-1 -3l-1 -5v-4h-1l2 -4l9 -3l11 5l4 11v0l30 -2l2 -9l-4 -16l-11 -12l-16 -7l-22 -2l-22 3l-16 8l-10 12l-3 16l1 7l1 7l2 6l2 6l3 5l4 6l5 5zM513 -5zM294 392v-49h49q44 0 63.5 9t19.5 42v49h-49q-44 0 -63.5 -9t-19.5 -42z" />
    <glyph glyph-name="Ecaron" unicode="&#x11a;" horiz-adv-x="636" 
d="M368 839l198 144l-72 42l-180 -105l-136 63l-24 -51zM540 457h-240v101h258l30 192h-528v-750h534v192h-294v91h240v174z" />
    <glyph glyph-name="ecaron" unicode="&#x11b;" horiz-adv-x="678" 
d="M372 667l198 144l-72 42l-180 -105l-136 63l-24 -51zM294 204v-42q18 -2 36 -3t36 -1q112 0 226 36l28 -176q-135 -36 -266 -36q-168 0 -243 78.5t-75 239.5t75.5 239.5t242.5 78.5q84 0 140 -10.5t90.5 -35t49 -66t14.5 -104.5q0 -52 -17.5 -89.5t-58.5 -61.5
t-109 -35.5t-169 -11.5zM294 392v-49h49q44 0 63.5 9t19.5 42v49h-49q-44 0 -63.5 -9t-19.5 -42z" />
    <glyph glyph-name="Gbreve" unicode="&#x11e;" horiz-adv-x="720" 
d="M144 932l117 -48l102 -19l84 16l125 50l-48 -66l-70 -31l-50 -15h-93l-54 13l-62 26zM444 221v32h-61v184h289v-401q-142 -54 -295 -54q-105 0 -173.5 25t-108.5 74.5t-55.5 123t-15.5 171.5q0 104 19 178.5t63 122t117 69.5t181 22q24 0 56.5 -2.5t65.5 -7t62.5 -10
t47.5 -11.5l-36 -184q-49 8 -93 12.5t-82 4.5q-79 0 -111 -12t-32 -48v-340h79q44 0 63.5 9.5t19.5 41.5z" />
    <glyph glyph-name="gbreve" unicode="&#x11f;" horiz-adv-x="643" 
d="M91 826l117 -48l102 -19l84 16l125 50l-48 -66l-70 -31l-50 -15h-93l-54 13l-62 26zM28 -162l31 179q103 -35 239 -35q20 0 34.5 0.5t22.5 1.5v42q-54 0 -88 2.5t-51 7.5q-34 9 -43 18q-11 9 -13 14.5t-2 16.5l36 103q-86 16 -131 65.5t-45 154.5q0 104 71 157t230 53
q29 0 54 -1.5t48 -5.5l105 80l126 -121l-69 -80q16 -41 16 -108q0 -47 -11 -82t-36.5 -59t-66.5 -37.5t-102 -18.5l-5 -29q65 -4 110 -12.5t73 -26.5t40.5 -46t12.5 -71q0 -72 -29 -112t-75.5 -59t-105 -23t-117.5 -4q-119 0 -259 36zM244 408v-78h37q43 0 63 9t20 41v78
h-38q-43 0 -62.5 -9t-19.5 -41z" />
    <glyph glyph-name="uni0122" unicode="&#x122;" horiz-adv-x="720" 
d="M353 -43q26 0 43 -19t17 -50q0 -51 -43 -77q-66 -38 -47 -17l24 40l-34 23q-42 35 -3 80q17 20 43 20zM444 221v32h-61v184h289v-401q-142 -54 -295 -54q-105 0 -173.5 25t-108.5 74.5t-55.5 123t-15.5 171.5q0 104 19 178.5t63 122t117 69.5t181 22q24 0 56.5 -2.5
t65.5 -7t62.5 -10t47.5 -11.5l-36 -184q-49 8 -93 12.5t-82 4.5q-79 0 -111 -12t-32 -48v-340h79q44 0 63.5 9.5t19.5 41.5z" />
    <glyph glyph-name="uni0123" unicode="&#x123;" horiz-adv-x="643" 
d="M321 721q-26 -3 -45.5 13.5t-23.5 47.5q-6 51 34 82q60 45 44 23l-19 -44l36 -18q47 -29 14 -78q-14 -23 -40 -26zM28 -162l31 179q103 -35 239 -35q20 0 34.5 0.5t22.5 1.5v42q-54 0 -88 2.5t-51 7.5q-34 9 -43 18q-11 9 -13 14.5t-2 16.5l36 103q-86 16 -131 65.5
t-45 154.5q0 104 71 157t230 53q29 0 54 -1.5t48 -5.5l105 80l126 -121l-69 -80q16 -41 16 -108q0 -47 -11 -82t-36.5 -59t-66.5 -37.5t-102 -18.5l-5 -29q65 -4 110 -12.5t73 -26.5t40.5 -46t12.5 -71q0 -72 -29 -112t-75.5 -59t-105 -23t-117.5 -4q-119 0 -259 36z
M244 408v-78h37q43 0 63 9t20 41v78h-38q-43 0 -62.5 -9t-19.5 -41z" />
    <glyph glyph-name="Imacron" unicode="&#x12a;" horiz-adv-x="360" 
d="M12 786l360 33l2 88l-360 -42zM300 0v750h-240v-750h240z" />
    <glyph glyph-name="imacron" unicode="&#x12b;" horiz-adv-x="360" 
d="M14 641l360 33l2 88l-360 -42zM300 0h-240v570l240 30v-600z" />
    <glyph glyph-name="Iogonek" unicode="&#x12e;" horiz-adv-x="360" 
d="M60 0v750h240v-750h-196l-5 -18l-3 -5l-4 -4l-5 -5l-3 -4l-4 -4l-2 -4l-2 -3l-2 -4l-1 -3l-1 -5v-4h-1l2 -4l9 -3l11 5l4 11v0l30 -2l2 -9l-4 -16l-11 -12l-16 -7l-22 -2l-22 3l-16 8l-10 12l-3 16l1 7l1 7l2 6l2 6l3 5l4 6l5 5l6 6zM59 -4z" />
    <glyph glyph-name="iogonek" unicode="&#x12f;" horiz-adv-x="360" 
d="M111 0h189v600l-240 -30v-570l-4 -10l-5 -5l-4 -6l-3 -5l-2 -6l-2 -6l-1 -7l-1 -7l3 -16l10 -12l16 -8l22 -3l22 2l16 7l11 12l4 16l-2 9l-30 2v0l-4 -11l-11 -5l-9 3l-2 4h1v4l1 5l1 3l2 4l2 3l2 4l4 4l3 4l5 5l4 4zM47 713q0 27 6 45.5t21 30t41 16.5t66 5t65.5 -5
t40.5 -16.5t21 -30t6 -45.5t-6 -45t-21 -29.5t-40.5 -16t-65.5 -4.5q-29 0 -53.5 2t-42.5 11.5t-28 28.5t-10 53z" />
    <glyph glyph-name="Idotaccent" unicode="&#x130;" horiz-adv-x="360" 
d="M47 905q0 27 6 45.5t21 30t41 16.5t66 5t65.5 -5t40.5 -16.5t21 -30t6 -45.5t-6 -45t-21 -29.5t-40.5 -16t-65.5 -4.5q-29 0 -53.5 2t-42.5 11.5t-28 28.5t-10 53zM300 0v750h-240v-750h240z" />
    <glyph glyph-name="dotlessi" unicode="&#x131;" horiz-adv-x="360" 
d="M43 796q0 27 6 45.5t21 30t41 16.5t66 5t65.5 -5t40.5 -16.5t21 -30t6 -45.5t-6 -45t-21 -29.5t-40.5 -16t-65.5 -4.5q-29 0 -53.5 2t-42.5 11.5t-28 28.5t-10 53zM300 0h-240v570l240 30v-600z" />
    <glyph glyph-name="uni0136" unicode="&#x136;" horiz-adv-x="712" 
d="M353 -43q26 0 43 -19t17 -50q0 -51 -43 -77q-66 -38 -47 -17l24 40l-34 23q-42 35 -3 80q17 20 43 20zM305 326h-5v-326h-240v750h240v-306h5q1 18 4 32.5t8 25.5l117 248h260l-180 -368l186 -382h-260l-123 269q-5 11 -8 25t-4 32z" />
    <glyph glyph-name="uni0137" unicode="&#x137;" horiz-adv-x="672" 
d="M353 -43q26 0 43 -19t17 -50q0 -51 -43 -77q-66 -38 -47 -17l24 40l-34 23q-42 35 -3 80q17 20 43 20zM660 0l-145 314l139 286h-259l-87 -198h-8v396l-240 -18v-780h240v238h8l93 -238h259z" />
    <glyph glyph-name="kgreenlandic" unicode="&#x138;" horiz-adv-x="712" 
d="M305 326h-5v-326h-240v750h240v-306h5q1 18 4 32.5t8 25.5l117 248h260l-180 -368l186 -382h-260l-123 269q-5 11 -8 25t-4 32z" />
    <glyph glyph-name="Lacute" unicode="&#x139;" horiz-adv-x="546" 
d="M170 787l261 177l-156 105l-147 -198zM540 192h-240v558h-240v-750h480v192z" />
    <glyph glyph-name="lacute" unicode="&#x13a;" horiz-adv-x="371" 
d="M172 810l261 177l-156 105l-147 -198zM60 780l240 18v-626q19 -4 34 -6t25 -3l-11 -176q-153 0 -203 18q-42 15 -63.5 39t-21.5 69v667z" />
    <glyph glyph-name="uni013B" unicode="&#x13b;" horiz-adv-x="546" 
d="M315 -30q26 0 43 -19t17 -50q0 -51 -43 -77q-66 -37 -47 -17l24 41l-33 22q-43 35 -4 80q17 20 43 20zM540 192h-240v558h-240v-750h480v192z" />
    <glyph glyph-name="uni013C" unicode="&#x13c;" horiz-adv-x="371" 
d="M211 -52q26 0 43.5 -19t17.5 -50q0 -52 -44 -77q-65 -38 -47 -17l25 40l-34 23q-42 35 -4 80q18 20 43 20zM60 780l240 18v-626q19 -4 34 -6t25 -3l-11 -176q-153 0 -203 18q-42 15 -63.5 39t-21.5 69v667z" />
    <glyph glyph-name="Lcaron" unicode="&#x13d;" horiz-adv-x="546" 
d="M352 661l126 176l-95 48l-57 -184zM540 192h-240v558h-240v-750h480v192z" />
    <glyph glyph-name="lcaron" unicode="&#x13e;" horiz-adv-x="371" 
d="M352 661l126 176l-95 48l-57 -184zM60 780l240 18v-626q19 -4 34 -6t25 -3l-11 -176q-153 0 -203 18q-42 15 -63.5 39t-21.5 69v667z" />
    <glyph glyph-name="Ldot" unicode="&#x13f;" horiz-adv-x="546" 
d="M433 471l-3 -72l81 3l-9 75zM540 192h-240v558h-240v-750h480v192z" />
    <glyph glyph-name="ldot" unicode="&#x140;" horiz-adv-x="1000" 
 />
    <glyph glyph-name="Lslash" unicode="&#x141;" horiz-adv-x="546" 
d="M540 192h-240v309l180 51v84l-180 -54v168h-240l-9 -219l-180 -63l-12 -72l201 42v-438h480v192z" />
    <glyph glyph-name="lslash" unicode="&#x142;" horiz-adv-x="360" 
d="M300 0h-240l-3 285l-126 -33l18 126l105 33l6 159l240 30v-150l123 33l-21 -93l-105 -33z" />
    <glyph glyph-name="Nacute" unicode="&#x143;" horiz-adv-x="786" 
d="M426 787l126 176l-95 48l-57 -184zM726 0h-226l-183 266q-5 7 -8 21t-4 37h-5v-324h-240v750h226l183 -266q5 -7 8 -21t4 -37h5v324h240v-750z" />
    <glyph glyph-name="nacute" unicode="&#x144;" horiz-adv-x="714" 
d="M368 656l126 176l-95 48l-57 -184zM60 600h120l60 -60q111 78 240 78q85 0 132.5 -36.5t47.5 -101.5v-480h-240v420h-37q-41 0 -62 -8.5t-21 -37.5v-374h-240v600z" />
    <glyph glyph-name="uni0145" unicode="&#x145;" horiz-adv-x="786" 
d="M401 -34q26 0 43 -19t17 -50q0 -51 -43 -77q-66 -38 -47 -17l24 40l-34 23q-42 35 -3 80q17 20 43 20zM726 0h-226l-183 266q-5 7 -8 21t-4 37h-5v-324h-240v750h226l183 -266q5 -7 8 -21t4 -37h5v324h240v-750z" />
    <glyph glyph-name="uni0146" unicode="&#x146;" horiz-adv-x="714" 
d="M362 -43q26 0 43 -19t17 -50q0 -51 -44 -77q-65 -38 -47 -17l25 40l-34 23q-42 35 -3 80q17 20 43 20zM60 600h120l60 -60q111 78 240 78q85 0 132.5 -36.5t47.5 -101.5v-480h-240v420h-37q-41 0 -62 -8.5t-21 -37.5v-374h-240v600z" />
    <glyph glyph-name="Ncaron" unicode="&#x147;" horiz-adv-x="786" 
d="M420 780l198 144l-72 42l-180 -105l-136 63l-24 -51zM726 0h-226l-183 266q-5 7 -8 21t-4 37h-5v-324h-240v750h226l183 -266q5 -7 8 -21t4 -37h5v324h240v-750z" />
    <glyph glyph-name="ncaron" unicode="&#x148;" horiz-adv-x="714" 
d="M390 653l198 144l-72 42l-180 -105l-136 63l-24 -51zM60 600h120l60 -60q111 78 240 78q85 0 132.5 -36.5t47.5 -101.5v-480h-240v420h-37q-41 0 -62 -8.5t-21 -37.5v-374h-240v600z" />
    <glyph glyph-name="napostrophe" unicode="&#x149;" horiz-adv-x="714" 
d="M0 558l126 176l-95 48l-57 -184zM60 600h120l60 -60q111 78 240 78q85 0 132.5 -36.5t47.5 -101.5v-480h-240v420h-37q-41 0 -62 -8.5t-21 -37.5v-374h-240v600z" />
    <glyph glyph-name="Ohungarumlaut" unicode="&#x150;" horiz-adv-x="756" 
d="M513 799l126 176l-95 48l-57 -184zM197 821l126 176l-95 48l-57 -184zM24 374q0 103 17.5 177.5t59 122.5t109.5 71t168 23q101 0 168.5 -23t109 -71t59 -122.5t17.5 -177.5q0 -98 -16 -171.5t-56.5 -122.5t-109 -73.5t-172.5 -24.5t-172.5 24.5t-109 73.5t-56.5 122.5
t-16 171.5zM282 499v-312h100q50 0 71.5 11.5t21.5 52.5v312h-101q-48 0 -70 -11.5t-22 -52.5z" />
    <glyph glyph-name="ohungarumlaut" unicode="&#x151;" horiz-adv-x="731" 
d="M483 651l126 176l-95 48l-57 -184zM228 662l126 176l-95 48l-57 -184zM36 300q0 161 75 239.5t243 78.5t243 -78.5t75 -239.5t-75 -239.5t-243 -78.5q-164 0 -241 77t-77 241zM294 392v-235h37q44 0 63.5 9t19.5 42v235h-37q-44 0 -63.5 -9t-19.5 -42z" />
    <glyph glyph-name="OE" unicode="&#x152;" horiz-adv-x="1104" 
d="M549 221l-7 343l-17 10q-66 14 -129.5 5t-88.5 -21t-25 -48v-314q23 -5 46.5 -7.5t48.5 -2.5q72 0 172 35zM570 0l-17 32q-67 -27 -166.5 -34.5t-173.5 12t-115 67.5t-57.5 122t-16.5 175q0 98 15.5 171.5t55.5 123t108.5 74.5t173.5 25q23 0 51.5 -2.5t69.5 -18.5t38 3
h544l-30 -192h-258v-101h240v-174h-240v-91h294v-192h-516z" />
    <glyph glyph-name="oe" unicode="&#x153;" horiz-adv-x="1007" 
d="M494 212l-9 223q-32 6 -57 9.5t-44 3.5q-91 0 -91 -64v-215q17 -3 39.5 -5t50.5 -2q72 0 111 15v35zM525 594q65 24 158 24q84 0 140 -10.5t90.5 -35t49 -66t14.5 -104.5q0 -52 -17.5 -89.5t-58.5 -61.5t-109 -35.5t-169 -11.5v-42q18 -2 36 -3t36 -1q112 0 226 36
l28 -176q-135 -36 -266 -36q-106 0 -169 30q-62 -25 -161 -25q-168 0 -243 78.5t-75 239.5t75 239.5t243 78.5q108 0 172 -29zM525 594zM623 392v-49h49q44 0 63.5 9t19.5 42v49h-49q-44 0 -63.5 -9t-19.5 -42z" />
    <glyph glyph-name="Racute" unicode="&#x154;" horiz-adv-x="738" 
d="M261 750h24l67 183l95 -48l-89 -135h80q258 0 258 -263q0 -180 -112 -237l130 -250h-264l-98 223h-52v-223h-240v750h201zM355 558h-55v-150h55q44 0 63.5 9t19.5 41v50q0 32 -19.5 41t-63.5 9z" />
    <glyph glyph-name="racute" unicode="&#x155;" horiz-adv-x="450" 
d="M245 638l126 176l-95 48l-57 -184zM60 0v600h120l66 -67q72 66 178 85l14 -227q-14 0 -34 -4t-40.5 -10t-37.5 -14.5t-26 -19.5v-343h-240z" />
    <glyph glyph-name="Rcaron" unicode="&#x158;" horiz-adv-x="738" 
d="M368 839l198 144l-72 42l-180 -105l-136 63l-24 -51zM584 250l130 -250h-264l-98 223h-52v-223h-240v750h378q258 0 258 -263q0 -180 -112 -237zM355 558h-55v-150h55q44 0 63.5 9t19.5 41v50q0 32 -19.5 41t-63.5 9z" />
    <glyph glyph-name="rcaron" unicode="&#x159;" horiz-adv-x="450" 
d="M259 623l198 144l-72 42l-180 -105l-136 63l-24 -51zM60 0v600h120l66 -67q72 66 178 85l14 -227q-14 0 -34 -4t-40.5 -10t-37.5 -14.5t-26 -19.5v-343h-240z" />
    <glyph glyph-name="Sacute" unicode="&#x15a;" horiz-adv-x="692" 
d="M322 809l181 182l-100 52l-126 -204zM30 13l34 198q110 -27 199 -27q45 0 79.5 1.5t61.5 5.5v60l-108 9q-73 7 -122 24t-78.5 46.5t-42 71t-12.5 97.5q0 77 16 128.5t51 83t90.5 44.5t135.5 13q159 0 288 -30l-30 -192q-112 18 -179 18t-114 -6v-59l86 -8
q79 -8 132 -26.5t85.5 -48.5t46 -71t13.5 -94q0 -76 -20 -128t-48 -79q-23 -22 -57 -34.5t-72 -18.5t-76.5 -7.5t-69.5 -1.5q-78 0 -150 8t-139 23z" />
    <glyph glyph-name="sacute" unicode="&#x15b;" horiz-adv-x="631" 
d="M294 674l157 156l-82 44l-120 -170zM118 576q77 42 211 42q135 0 247 -37l-28 -163q-47 14 -93 20t-94 6q-14 0 -34.5 -1t-46.5 -4v-38q55 0 113 -5.5t105.5 -26t78 -61t30.5 -110.5q0 -49 -11 -87.5t-34 -61.5q-24 -23 -49.5 -37t-66.5 -20q-32 -5 -68.5 -7.5
t-78.5 -2.5q-147 0 -269 35l30 170q51 -15 105 -23t113 -8q27 0 51.5 1t47.5 4v38q-96 0 -160.5 12.5t-104 38.5t-56 68t-16.5 100q0 116 78 158z" />
    <glyph glyph-name="Scedilla" unicode="&#x15e;" horiz-adv-x="692" 
d="M313 -20l-8 2q-78 0 -143 8t-132 23l34 198q110 -27 199 -27q45 0 79.5 1.5t61.5 5.5v60l-108 9q-67 6 -122 24q-49 17 -78.5 46.5t-42 71t-12.5 97.5q0 77 16 128.5t51 83t90.5 44.5t135.5 13q159 0 288 -30l-30 -192q-112 18 -179 18t-114 -6v-59l86 -8q76 -7 132 -27
q53 -18 85.5 -48t46 -71t13.5 -94q0 -76 -20 -128t-48 -79q-23 -22 -57 -34.5t-72 -18.5t-77 -7q-17 -1 -32 -2l11 -10l5 -5l4 -6l3 -5l2 -6l2 -6l1 -7l1 -7l-3 -16l-10 -12l-16 -8l-22 -3l-22 2l-16 7l-11 12l-4 16l2 9l30 2v0l4 -11l11 -5l9 3l2 4h-1v4l-1 5l-1 3l-2 4
l-2 3l-2 4l-4 4l-3 4l-5 5l-4 4zM356 -18z" />
    <glyph glyph-name="scedilla" unicode="&#x15f;" horiz-adv-x="631" 
d="M271 -18q-129 2 -241 35l30 170q51 -15 105 -23t113 -8q27 0 51.5 1t47.5 4v38q-96 0 -160.5 12.5t-104 38.5t-56 68t-16.5 100q0 116 78 158q77 42 211 42q135 0 247 -37l-28 -163q-47 14 -93 20t-94 6q-14 0 -34.5 -1t-46.5 -4v-38q55 0 113 -5.5t105.5 -26t78 -61
t30.5 -110.5q0 -49 -11 -87.5t-34 -61.5q-24 -23 -49.5 -37t-66.5 -20q-32 -5 -68 -8q-45 -2 -59 -2l10 -12l5 -5l4 -6l3 -5l2 -6l2 -6l1 -7l1 -7l-3 -16l-10 -12l-16 -8l-22 -3l-22 2l-16 7l-11 12l-4 16l2 9l30 2v0l4 -11l11 -5l9 3l2 4h-1v4l-1 5l-1 3l-2 4l-2 3l-2 4
l-4 4l-3 4l-5 5l-4 4zM273 -18z" />
    <glyph glyph-name="Scaron" unicode="&#x160;" horiz-adv-x="692" 
d="M360 785l198 144l-72 42l-180 -105l-136 63l-24 -51zM30 13l34 198q110 -27 199 -27q45 0 79.5 1.5t61.5 5.5v60l-108 9q-73 7 -122 24t-78.5 46.5t-42 71t-12.5 97.5q0 77 16 128.5t51 83t90.5 44.5t135.5 13q159 0 288 -30l-30 -192q-112 18 -179 18t-114 -6v-59l86 -8
q79 -8 132 -26.5t85.5 -48.5t46 -71t13.5 -94q0 -76 -20 -128t-48 -79q-23 -22 -57 -34.5t-72 -18.5t-76.5 -7.5t-69.5 -1.5q-78 0 -150 8t-139 23z" />
    <glyph glyph-name="scaron" unicode="&#x161;" horiz-adv-x="631" 
d="M324 639l198 144l-72 42l-180 -105l-136 63l-24 -51zM118 576q77 42 211 42q135 0 247 -37l-28 -163q-47 14 -93 20t-94 6q-14 0 -34.5 -1t-46.5 -4v-38q55 0 113 -5.5t105.5 -26t78 -61t30.5 -110.5q0 -49 -11 -87.5t-34 -61.5q-24 -23 -49.5 -37t-66.5 -20
q-32 -5 -68.5 -7.5t-78.5 -2.5q-147 0 -269 35l30 170q51 -15 105 -23t113 -8q27 0 51.5 1t47.5 4v38q-96 0 -160.5 12.5t-104 38.5t-56 68t-16.5 100q0 116 78 158z" />
    <glyph glyph-name="uni0162" unicode="&#x162;" horiz-adv-x="600" 
d="M332 0h88v558h174v192h-588v-192h174v-558h101l2 -5l3 -5l3 -5l4 -4l5 -5l3 -4l4 -4l2 -4l2 -3l2 -4l1 -3l1 -5v-4h1l-2 -4l-9 -3l-11 5l-4 11v0l-30 -2l-2 -9l4 -16l11 -12l16 -7l22 -2l22 3l16 8l10 12l3 16l-1 7l-1 7l-2 6l-2 6l-3 5l-4 6l-5 5l-6 6z" />
    <glyph glyph-name="uni0163" unicode="&#x163;" horiz-adv-x="437" 
d="M237 -10q-35 4 -67 15q-42 15 -64 38.5t-22 69.5v332h-60v155h60v96l240 60v-156h83v-155h-83v-273q15 -3 33 -5.5t38 -3.5l-11 -176q-32 2 -98 2l4 -5l6 -6l5 -5l4 -6l3 -5l2 -6l2 -6l1 -7l1 -7l-3 -16l-10 -12l-16 -8l-22 -3l-22 2l-16 7l-11 12l-4 16l2 9l30 2v0
l4 -11l11 -5l9 3l2 4h-1v4l-1 5l-1 3l-2 4l-2 3l-2 4l-4 4l-3 4l-5 5l-4 4l-3 5z" />
    <glyph glyph-name="Tcaron" unicode="&#x164;" horiz-adv-x="600" 
d="M334 769l198 144l-72 42l-180 -105l-136 63l-24 -51zM594 750h-588v-192h174v-558h240v558h174v192z" />
    <glyph glyph-name="tcaron" unicode="&#x165;" horiz-adv-x="437" 
d="M389 663l126 176l-95 48l-57 -184zM84 445h-60v155h60v96l240 60v-156h83v-155h-83v-273q15 -3 33 -5.5t38 -3.5l-11 -176q-164 0 -214 18q-42 15 -64 38.5t-22 69.5v332z" />
    <glyph glyph-name="Umacron" unicode="&#x16a;" horiz-adv-x="728" 
d="M196 804h360v150h-360v-150zM42 750h240v-563h85q46 0 62.5 12t16.5 52v499h240v-421q0 -96 -12.5 -162t-48 -107.5t-98.5 -59.5t-163 -18t-163 18t-98.5 59t-48 107.5t-12.5 162.5v421z" />
    <glyph glyph-name="umacron" unicode="&#x16b;" horiz-adv-x="708" 
d="M170 677h360v150h-360v-150zM48 600h240v-443h37q44 0 63.5 9t19.5 42v392h240v-600h-120l-70 68q-72 -86 -205 -86q-107 0 -156 45.5t-49 152.5v420z" />
    <glyph glyph-name="Uring" unicode="&#x16e;" horiz-adv-x="728" 
d="M236 890q0 27 6 45.5t21 30t41 16.5t66 5t65.5 -5t40.5 -16.5t21 -30t6 -45.5t-6 -45t-21 -29.5t-40.5 -16t-65.5 -4.5q-29 0 -53.5 2t-42.5 11.5t-28 28.5t-10 53zM42 750h240v-563h85q46 0 62.5 12t16.5 52v499h240v-421q0 -96 -12.5 -162t-48 -107.5t-98.5 -59.5
t-163 -18t-163 18t-98.5 59t-48 107.5t-12.5 162.5v421z" />
    <glyph glyph-name="uring" unicode="&#x16f;" horiz-adv-x="708" 
d="M220 749q0 27 6 45.5t21 30t41 16.5t66 5t65.5 -5t40.5 -16.5t21 -30t6 -45.5t-6 -45t-21 -29.5t-40.5 -16t-65.5 -4.5q-29 0 -53.5 2t-42.5 11.5t-28 28.5t-10 53zM48 600h240v-443h37q44 0 63.5 9t19.5 42v392h240v-600h-120l-70 68q-72 -86 -205 -86q-107 0 -156 45.5
t-49 152.5v420z" />
    <glyph glyph-name="Uhungarumlaut" unicode="&#x170;" horiz-adv-x="728" 
d="M502 788l126 176l-95 48l-57 -184zM247 799l126 176l-95 48l-57 -184zM42 750h240v-563h85q46 0 62.5 12t16.5 52v499h240v-421q0 -96 -12.5 -162t-48 -107.5t-98.5 -59.5t-163 -18t-163 18t-98.5 59t-48 107.5t-12.5 162.5v421z" />
    <glyph glyph-name="uhungarumlaut" unicode="&#x171;" horiz-adv-x="708" 
d="M483 651l126 176l-95 48l-57 -184zM228 662l126 176l-95 48l-57 -184zM48 600h240v-443h37q44 0 63.5 9t19.5 42v392h240v-600h-120l-70 68q-72 -86 -205 -86q-107 0 -156 45.5t-49 152.5v420z" />
    <glyph glyph-name="Uogonek" unicode="&#x172;" horiz-adv-x="728" 
d="M346 -18q-88 2 -145 18q-63 18 -98.5 59t-48 107.5t-12.5 162.5v421h240v-563h85q46 0 62.5 12t16.5 52v499h240v-421q0 -96 -12.5 -162t-48 -107.5t-98.5 -59.5q-57 -16 -129 -18l-6 -14l-4 -4l-5 -5l-3 -4l-4 -4l-2 -4l-2 -3l-2 -4l-1 -3l-1 -5v-4h-1l2 -4l9 -3l11 5
l4 11v0l30 -2l2 -9l-4 -16l-11 -12l-16 -7l-22 -2l-22 3l-16 8l-10 12l-3 16l1 7l1 7l2 6l2 6l3 5l4 6l5 5zM346 -18zM389 -18z" />
    <glyph glyph-name="uogonek" unicode="&#x173;" horiz-adv-x="708" 
d="M538 0h-10l-70 68q-72 -86 -205 -86q-107 0 -156 45.5t-49 152.5v420h240v-443h37q44 0 63.5 9t19.5 42v392h240v-600h-75l6 -9l-2 -7l-3 -4l-4 -4l-2 -4l-2 -3l-2 -4l-1 -3l-1 -5v-4h-1l2 -4l9 -3l11 5l4 11v0l30 -2l2 -9l-4 -16l-11 -12l-16 -7l-22 -2l-22 3l-16 8
l-10 12l-3 16l1 7l1 7l2 6l2 6l3 5l4 6zM538 0zM573 0z" />
    <glyph glyph-name="Ydieresis" unicode="&#x178;" horiz-adv-x="672" 
d="M44 890q0 27 6 45.5t21 30t41 16.5t66 5t65.5 -5t40.5 -16.5t21 -30t6 -45.5t-6 -45t-21 -29.5t-40.5 -16t-65.5 -4.5q-29 0 -53.5 2t-42.5 11.5t-28 28.5t-10 53zM374 884q0 27 6 45.5t21 30t41 16.5t66 5t65.5 -5t40.5 -16.5t21 -30t6 -45.5t-6 -45t-21 -29.5
t-40.5 -16t-65.5 -4.5q-29 0 -53.5 2t-42.5 11.5t-28 28.5t-10 53zM0 750l216 -546v-204h240v204l216 546h-265l-67 -264h-9l-66 264h-265z" />
    <glyph glyph-name="Zacute" unicode="&#x179;" horiz-adv-x="707" 
d="M372 778l126 176l-95 48l-57 -184zM677 192h-305l-4 7l304 401v150h-612l22 -192h252l3 -7l-307 -401v-150h647v192z" />
    <glyph glyph-name="zacute" unicode="&#x17a;" horiz-adv-x="636" 
d="M350 628l126 176l-95 48l-57 -184zM30 0h576v180h-235l-4 7l232 293v120h-545l18 -180h190l3 -7l-235 -293v-120z" />
    <glyph glyph-name="Zcaron" unicode="&#x17d;" horiz-adv-x="707" 
d="M372 779l198 144l-72 42l-180 -105l-136 63l-24 -51zM677 192h-305l-4 7l304 401v150h-612l22 -192h252l3 -7l-307 -401v-150h647v192z" />
    <glyph glyph-name="zcaron" unicode="&#x17e;" horiz-adv-x="636" 
d="M336 638l198 144l-72 42l-180 -105l-136 63l-24 -51zM30 0h576v180h-235l-4 7l232 293v120h-545l18 -180h190l3 -7l-235 -293v-120z" />
    <glyph glyph-name="Ohorn" unicode="&#x1a0;" horiz-adv-x="756" 
d="M720 875q26 0 43 -19t17 -50q0 -51 -44 -77q-65 -38 -47 -17l25 40l-34 23q-42 35 -3 80q17 20 43 20zM24 374q0 103 17.5 177.5t59 122.5t109.5 71t168 23q101 0 168.5 -23t109 -71t59 -122.5t17.5 -177.5q0 -98 -16 -171.5t-56.5 -122.5t-109 -73.5t-172.5 -24.5
t-172.5 24.5t-109 73.5t-56.5 122.5t-16 171.5zM282 499v-312h100q50 0 71.5 11.5t21.5 52.5v312h-101q-48 0 -70 -11.5t-22 -52.5z" />
    <glyph glyph-name="ohorn" unicode="&#x1a1;" horiz-adv-x="731" 
d="M618 749q26 0 43 -19t17 -50q0 -51 -44 -77q-65 -38 -47 -17l25 40l-34 23q-42 35 -3 80q17 20 43 20zM36 300q0 161 75 239.5t243 78.5t243 -78.5t75 -239.5t-75 -239.5t-243 -78.5q-164 0 -241 77t-77 241zM294 392v-235h37q44 0 63.5 9t19.5 42v235h-37
q-44 0 -63.5 -9t-19.5 -42z" />
    <glyph glyph-name="Uhorn" unicode="&#x1af;" horiz-adv-x="728" 
d="M782 815q21 -6 26 -17.5t-9 -23.5q-24 -21 -71 -21q-70 0 -46 4l39 10l-17 17q-18 24 34 33q23 4 44 -2zM42 750h240v-563h85q46 0 62.5 12t16.5 52v499h240v-421q0 -96 -12.5 -162t-48 -107.5t-98.5 -59.5t-163 -18t-163 18t-98.5 59t-48 107.5t-12.5 162.5v421z" />
    <glyph glyph-name="uhorn" unicode="&#x1b0;" horiz-adv-x="708" 
d="M738 672q21 -6 26 -17.5t-9 -23.5q-24 -21 -71 -21q-70 0 -46 4l39 10l-17 17q-18 24 34 33q23 4 44 -2zM48 600h240v-443h37q44 0 63.5 9t19.5 42v392h240v-600h-120l-70 68q-72 -86 -205 -86q-107 0 -156 45.5t-49 152.5v420z" />
    <glyph glyph-name="uni01C5" unicode="&#x1c5;" horiz-adv-x="1328" 
d="M1038 638l198 144l-72 42l-180 -105l-136 63l-24 -51zM732 0h576v180h-235l-4 7l232 293v120h-545l18 -180h190l3 -7l-235 -293v-120zM396 0h-336v750h336q101 0 169 -20.5t109 -65.5t58.5 -116t17.5 -172t-17.5 -172.5t-58.5 -116.5t-109 -66t-169 -21zM400 558h-100
v-366h100q50 0 71.5 11.5t21.5 52.5v238q0 41 -21.5 52.5t-71.5 11.5z" />
    <glyph glyph-name="uni01C6" unicode="&#x1c6;" horiz-adv-x="1266" 
d="M973 638l198 144l-72 42l-180 -105l-136 63l-24 -51zM667 0h576v180h-235l-4 7l232 293v120h-545l18 -180h190l3 -7l-235 -293v-120zM654 798v-798h-120l-52 50q-51 -68 -188 -68q-72 0 -121 26t-79.5 69.5t-44 101.5t-13.5 121q0 60 12 114.5t40 95.5t74 65.5t114 24.5
h138v180zM294 392v-235h37q41 0 60.5 7.5t22.5 35.5v243h-37q-44 0 -63.5 -9t-19.5 -42z" />
    <glyph glyph-name="uni01C8" unicode="&#x1c8;" horiz-adv-x="814" 
d="M606 -195h-174v156l62 12q38 8 48 20.5t10 27.5v552l240 30v-600q0 -98 -47.5 -148t-138.5 -50zM539 716q0 27 6 45.5t21 30t41 16.5t66 5t65.5 -5t40.5 -16.5t21 -30t6 -45.5t-6 -45t-21 -29.5t-40.5 -16t-65.5 -4.5q-29 0 -53.5 2t-42.5 11.5t-28 28.5t-10 53zM540 192
h-240v558h-240v-750h480v192z" />
    <glyph glyph-name="uni01C9" unicode="&#x1c9;" horiz-adv-x="671" 
d="M446 -201h-174v156l62 12q38 8 48 20.5t10 27.5v552l240 30v-600q0 -98 -47.5 -148t-138.5 -50zM379 710q0 27 6 45.5t21 30t41 16.5t66 5t65.5 -5t40.5 -16.5t21 -30t6 -45.5t-6 -45t-21 -29.5t-40.5 -16t-65.5 -4.5q-29 0 -53.5 2t-42.5 11.5t-28 28.5t-10 53zM60 780
l240 18v-626q19 -4 34 -6t25 -3l-11 -176q-153 0 -203 18q-42 15 -63.5 39t-21.5 69v667z" />
    <glyph glyph-name="uni01CB" unicode="&#x1cb;" horiz-adv-x="1032" 
d="M815 -209h-174v156l62 12q38 8 48 20.5t10 27.5v552l240 30v-600q0 -98 -47.5 -148t-138.5 -50zM748 702q0 27 6 45.5t21 30t41 16.5t66 5t65.5 -5t40.5 -16.5t21 -30t6 -45.5t-6 -45t-21 -29.5t-40.5 -16t-65.5 -4.5q-29 0 -53.5 2t-42.5 11.5t-28 28.5t-10 53zM726 0
h-226l-183 266q-5 7 -8 21t-4 37h-5v-324h-240v750h226l183 -266q5 -7 8 -21t4 -37h5v324h240v-750z" />
    <glyph glyph-name="uni01CC" unicode="&#x1cc;" horiz-adv-x="952" 
d="M731 -215h-174v156l62 12q38 8 48 20.5t10 27.5v552l240 30v-600q0 -98 -47.5 -148t-138.5 -50zM664 696q0 27 6 45.5t21 30t41 16.5t66 5t65.5 -5t40.5 -16.5t21 -30t6 -45.5t-6 -45t-21 -29.5t-40.5 -16t-65.5 -4.5q-29 0 -53.5 2t-42.5 11.5t-28 28.5t-10 53zM60 600
h120l60 -60q111 78 240 78q85 0 132.5 -36.5t47.5 -101.5v-480h-240v420h-37q-41 0 -62 -8.5t-21 -37.5v-374h-240v600z" />
    <glyph glyph-name="uni0218" unicode="&#x218;" horiz-adv-x="692" 
d="M319 -29q26 0 43 -19t17 -50q0 -52 -43 -77q-66 -38 -47 -17l24 40l-33 23q-43 35 -4 80q17 20 43 20zM30 13l34 198q110 -27 199 -27q45 0 79.5 1.5t61.5 5.5v60l-108 9q-73 7 -122 24t-78.5 46.5t-42 71t-12.5 97.5q0 77 16 128.5t51 83t90.5 44.5t135.5 13
q159 0 288 -30l-30 -192q-112 18 -179 18t-114 -6v-59l86 -8q79 -8 132 -26.5t85.5 -48.5t46 -71t13.5 -94q0 -76 -20 -128t-48 -79q-23 -22 -57 -34.5t-72 -18.5t-76.5 -7.5t-69.5 -1.5q-78 0 -150 8t-139 23z" />
    <glyph glyph-name="uni0219" unicode="&#x219;" horiz-adv-x="631" 
d="M319 -29q26 0 43 -19t17 -50q0 -52 -43 -77q-66 -38 -47 -17l24 40l-33 23q-43 35 -4 80q17 20 43 20zM118 576q77 42 211 42q135 0 247 -37l-28 -163q-47 14 -93 20t-94 6q-14 0 -34.5 -1t-46.5 -4v-38q55 0 113 -5.5t105.5 -26t78 -61t30.5 -110.5q0 -49 -11 -87.5
t-34 -61.5q-24 -23 -49.5 -37t-66.5 -20q-32 -5 -68.5 -7.5t-78.5 -2.5q-147 0 -269 35l30 170q51 -15 105 -23t113 -8q27 0 51.5 1t47.5 4v38q-96 0 -160.5 12.5t-104 38.5t-56 68t-16.5 100q0 116 78 158z" />
    <glyph glyph-name="uni021A" unicode="&#x21a;" horiz-adv-x="600" 
d="M319 -29q26 0 43 -19t17 -50q0 -52 -43 -77q-66 -38 -47 -17l24 40l-33 23q-43 35 -4 80q17 20 43 20zM594 750h-588v-192h174v-558h240v558h174v192z" />
    <glyph glyph-name="uni021B" unicode="&#x21b;" horiz-adv-x="437" 
d="M279 -36q26 0 43.5 -19t17.5 -50q0 -52 -44 -77q-65 -38 -47 -17l25 40l-34 23q-42 35 -4 80q18 20 43 20zM84 445h-60v155h60v96l240 60v-156h83v-155h-83v-273q15 -3 33 -5.5t38 -3.5l-11 -176q-164 0 -214 18q-42 15 -64 38.5t-22 69.5v332z" />
    <glyph glyph-name="Iota" unicode="&#x399;" horiz-adv-x="360" 
d="M300 0v750h-240v-750h240z" />
    <glyph glyph-name="uni04F2" unicode="&#x4f2;" horiz-adv-x="706" 
d="M479 846l126 176l-95 48l-57 -184zM224 857l126 176l-95 48l-57 -184zM298 276h-126l-134 538h240l66 -390h12l66 390h240l-150 -600q-16 -58 -36.5 -96t-47.5 -61t-62.5 -32t-82.5 -9h-233v156l113 22q87 20 113 44q7 6 13 14t11 18z" />
    <glyph glyph-name="uni04F3" unicode="&#x4f3;" horiz-adv-x="706" 
d="M483 651l126 176l-95 48l-57 -184zM228 662l126 176l-95 48l-57 -184zM308 62h-126l-134 538h240l66 -390h12l66 390h240l-150 -600q-16 -59 -36.5 -97t-47.5 -60.5t-62.5 -31.5t-82.5 -9h-233v156l113 22q87 20 113 43q7 6 13 14t11 18z" />
    <glyph glyph-name="uni1EA0" unicode="&#x1ea0;" horiz-adv-x="797" 
d="M295 -103q0 10 3 17.5t10 12t18.5 6.5t30.5 2q18 0 30 -2t19 -6.5t9.5 -12t2.5 -17.5q0 -11 -2.5 -18t-9.5 -11.5t-19 -6.5t-30 -2q-13 0 -24.5 1t-20 4.5t-13 11t-4.5 21.5zM296 119h198l28 -119h253l-194 750h-371l-194 -750h253zM402 520l48 -210h-110l49 210h13z" />
    <glyph glyph-name="uni1EA1" unicode="&#x1ea1;" horiz-adv-x="680" 
d="M295 -103q0 10 3 17.5t10 12t18.5 6.5t30.5 2q18 0 30 -2t19 -6.5t9.5 -12t2.5 -17.5q0 -11 -2.5 -18t-9.5 -11.5t-19 -6.5t-30 -2q-13 0 -24.5 1t-20 4.5t-13 11t-4.5 21.5zM344 618q288 0 288 -198v-420h-120l-68 68q-18 -20 -42.5 -36t-52.5 -27t-57 -17t-56 -6
q-51 0 -91.5 10.5t-68.5 33.5t-43 61t-15 93q0 216 326 216h48v43q-19 1 -34.5 2t-28.5 1q-135 0 -233 -33l-29 172q120 37 277 37zM260 206v-49h50q52 0 68 12q14 13 14 31v57h-49q-43 0 -63 -9t-20 -42z" />
    <glyph glyph-name="uni1EA2" unicode="&#x1ea2;" horiz-adv-x="797" 
d="M462 930q0 -12 -2 -22q-1 -11 -5 -19q-4 -10 -9.5 -18.5t-13.5 -18.5q-11 -13 -16 -21q-4 -10 -4 -22l-28 -31q-47 53 -31 63q1 0 5 7q7 14 8 15q5 7 11 15q5 7 9 14q6 8 7 11q2 10 3 12q2 1 2 14v0q0 7 -8 7t-8 -7v-18l-61 -4l-3 23q0 29 18.5 45.5t53.5 16.5
q34 0 53 -16.5t19 -45.5zM296 119h198l28 -119h253l-194 750h-371l-194 -750h253zM402 520l48 -210h-110l49 210h13z" />
    <glyph glyph-name="uni1EA3" unicode="&#x1ea3;" horiz-adv-x="680" 
d="M425 787q1 -12 -1 -23q-1 -10 -6 -19q-3 -9 -8.5 -17.5t-14.5 -19.5q-10 -12 -15 -21q-4 -9 -5 -21l-27 -31q-47 53 -31 63q1 0 4 6l8 15q6 8 11 16q6 7 10 13q6 9 6 12q3 10 4 12q1 0 1 14v0q1 7 -8 7q-7 0 -7 -7v-19l-61 -3l-4 23q1 29 19.5 45.5t52.5 15.5
q35 1 54 -15.5t18 -45.5zM344 618q288 0 288 -198v-420h-120l-68 68q-18 -20 -42.5 -36t-52.5 -27t-57 -17t-56 -6q-51 0 -91.5 10.5t-68.5 33.5t-43 61t-15 93q0 216 326 216h48v43q-19 1 -34.5 2t-28.5 1q-135 0 -233 -33l-29 172q120 37 277 37zM260 206v-49h50
q52 0 68 12q14 13 14 31v57h-49q-43 0 -63 -9t-20 -42z" />
    <glyph glyph-name="uni1EA4" unicode="&#x1ea4;" horiz-adv-x="797" 
d="M381 909l240 177l-156 63l-126 -198zM186 779l117 48l102 19l84 -16l125 -50l-48 66l-70 31l-50 15h-93l-54 -13l-62 -26zM296 119h198l28 -119h253l-194 750h-371l-194 -750h253zM402 520l48 -210h-110l49 210h13z" />
    <glyph glyph-name="uni1EA5" unicode="&#x1ea5;" horiz-adv-x="680" 
d="M328 774l240 177l-156 63l-126 -198zM119 636l117 48l102 19l84 -16l125 -50l-48 66l-70 31l-50 15h-93l-54 -13l-62 -26zM344 618q288 0 288 -198v-420h-120l-68 68q-18 -20 -42.5 -36t-52.5 -27t-57 -17t-56 -6q-51 0 -91.5 10.5t-68.5 33.5t-43 61t-15 93
q0 216 326 216h48v43q-19 1 -34.5 2t-28.5 1q-135 0 -233 -33l-29 172q120 37 277 37zM260 206v-49h50q52 0 68 12q14 13 14 31v57h-49q-43 0 -63 -9t-20 -42z" />
    <glyph glyph-name="uni1EA6" unicode="&#x1ea6;" horiz-adv-x="797" 
d="M209 891l35 29l-137 171l-84 -69zM463 955l-116 -2l-194 -135l31 -37l221 107l207 -110l43 34zM296 119h198l28 -119h253l-194 750h-371l-194 -750h253zM402 520l48 -210h-110l49 210h13z" />
    <glyph glyph-name="uni1EA7" unicode="&#x1ea7;" horiz-adv-x="680" 
d="M147 745l35 29l-137 171l-84 -69zM401 809l-116 -2l-194 -135l31 -37l221 107l207 -110l43 34zM344 618q288 0 288 -198v-420h-120l-68 68q-18 -20 -42.5 -36t-52.5 -27t-57 -17t-56 -6q-51 0 -91.5 10.5t-68.5 33.5t-43 61t-15 93q0 216 326 216h48v43q-19 1 -34.5 2
t-28.5 1q-135 0 -233 -33l-29 172q120 37 277 37zM260 206v-49h50q52 0 68 12q14 13 14 31v57h-49q-43 0 -63 -9t-20 -42z" />
    <glyph glyph-name="uni1EAE" unicode="&#x1eae;" horiz-adv-x="797" 
d="M381 909l240 177l-156 63l-126 -198zM175 903l117 -48l102 -19l84 16l125 50l-48 -66l-70 -31l-50 -15h-93l-54 13l-62 26zM296 119h198l28 -119h253l-194 750h-371l-194 -750h253zM402 520l48 -210h-110l49 210h13z" />
    <glyph glyph-name="uni1EAF" unicode="&#x1eaf;" horiz-adv-x="680" 
d="M328 774l240 177l-156 63l-126 -198zM121 789l117 -48l102 -19l84 16l125 50l-48 -66l-70 -31l-50 -15h-93l-54 13l-62 26zM344 618q288 0 288 -198v-420h-120l-68 68q-18 -20 -42.5 -36t-52.5 -27t-57 -17t-56 -6q-51 0 -91.5 10.5t-68.5 33.5t-43 61t-15 93
q0 216 326 216h48v43q-19 1 -34.5 2t-28.5 1q-135 0 -233 -33l-29 172q120 37 277 37zM260 206v-49h50q52 0 68 12q14 13 14 31v57h-49q-43 0 -63 -9t-20 -42z" />
    <glyph glyph-name="uni1EB0" unicode="&#x1eb0;" horiz-adv-x="797" 
d="M392 905l-240 177l156 63l126 -198zM175 903l117 -48l102 -19l84 16l125 50l-48 -66l-70 -31l-50 -15h-93l-54 13l-62 26zM296 119h198l28 -119h253l-194 750h-371l-194 -750h253zM402 520l48 -210h-110l49 210h13z" />
    <glyph glyph-name="uni1EB1" unicode="&#x1eb1;" horiz-adv-x="680" 
d="M352 778l-240 177l156 63l126 -198zM121 789l117 -48l102 -19l84 16l125 50l-48 -66l-70 -31l-50 -15h-93l-54 13l-62 26zM344 618q288 0 288 -198v-420h-120l-68 68q-18 -20 -42.5 -36t-52.5 -27t-57 -17t-56 -6q-51 0 -91.5 10.5t-68.5 33.5t-43 61t-15 93
q0 216 326 216h48v43q-19 1 -34.5 2t-28.5 1q-135 0 -233 -33l-29 172q120 37 277 37zM260 206v-49h50q52 0 68 12q14 13 14 31v57h-49q-43 0 -63 -9t-20 -42z" />
    <glyph glyph-name="uni1EB6" unicode="&#x1eb6;" horiz-adv-x="797" 
d="M342 -84q0 10 2.5 17.5t9.5 12t19 6.5t31 2q18 0 29.5 -2t18.5 -6.5t10 -12t3 -17.5q0 -11 -3 -18t-10 -11.5t-18.5 -6.5t-29.5 -2q-14 0 -25 1t-19.5 4.5t-13 11t-4.5 21.5zM175 903l117 -48l102 -19l84 16l125 50l-48 -66l-70 -31l-50 -15h-93l-54 13l-62 26zM296 119
h198l28 -119h253l-194 750h-371l-194 -750h253zM402 520l48 -210h-110l49 210h13z" />
    <glyph glyph-name="uni1EB7" unicode="&#x1eb7;" horiz-adv-x="680" 
d="M295 -103q0 10 3 17.5t10 12t18.5 6.5t30.5 2q18 0 30 -2t19 -6.5t9.5 -12t2.5 -17.5q0 -11 -2.5 -18t-9.5 -11.5t-19 -6.5t-30 -2q-13 0 -24.5 1t-20 4.5t-13 11t-4.5 21.5zM121 789l117 -48l102 -19l84 16l125 50l-48 -66l-70 -31l-50 -15h-93l-54 13l-62 26zM344 618
q288 0 288 -198v-420h-120l-68 68q-18 -20 -42.5 -36t-52.5 -27t-57 -17t-56 -6q-51 0 -91.5 10.5t-68.5 33.5t-43 61t-15 93q0 216 326 216h48v43q-19 1 -34.5 2t-28.5 1q-135 0 -233 -33l-29 172q120 37 277 37zM260 206v-49h50q52 0 68 12q14 13 14 31v57h-49
q-43 0 -63 -9t-20 -42z" />
    <glyph glyph-name="uni1EB8" unicode="&#x1eb8;" horiz-adv-x="636" 
d="M295 -103q0 10 3 17.5t10 12t18.5 6.5t30.5 2q18 0 30 -2t19 -6.5t9.5 -12t2.5 -17.5q0 -11 -2.5 -18t-9.5 -11.5t-19 -6.5t-30 -2q-13 0 -24.5 1t-20 4.5t-13 11t-4.5 21.5zM540 457h-240v101h258l30 192h-528v-750h534v192h-294v91h240v174z" />
    <glyph glyph-name="uni1EB9" unicode="&#x1eb9;" horiz-adv-x="678" 
d="M295 -103q0 10 3 17.5t10 12t18.5 6.5t30.5 2q18 0 30 -2t19 -6.5t9.5 -12t2.5 -17.5q0 -11 -2.5 -18t-9.5 -11.5t-19 -6.5t-30 -2q-13 0 -24.5 1t-20 4.5t-13 11t-4.5 21.5zM294 204v-42q18 -2 36 -3t36 -1q112 0 226 36l28 -176q-135 -36 -266 -36q-168 0 -243 78.5
t-75 239.5t75.5 239.5t242.5 78.5q84 0 140 -10.5t90.5 -35t49 -66t14.5 -104.5q0 -52 -17.5 -89.5t-58.5 -61.5t-109 -35.5t-169 -11.5zM294 392v-49h49q44 0 63.5 9t19.5 42v49h-49q-44 0 -63.5 -9t-19.5 -42z" />
    <glyph glyph-name="uni1EBE" unicode="&#x1ebe;" horiz-adv-x="636" 
d="M391 976l176 119l-156 63l-112 -176zM378 948l-85 4l-171 -100l67 -49l144 111l140 -104l64 52zM540 457h-240v101h258l30 192h-528v-750h534v192h-294v91h240v174z" />
    <glyph glyph-name="uni1EBF" unicode="&#x1ebf;" horiz-adv-x="678" 
d="M401 834l176 119l-156 63l-112 -176zM388 806l-85 4l-171 -100l67 -49l144 111l140 -104l64 52zM294 204v-42q18 -2 36 -3t36 -1q112 0 226 36l28 -176q-135 -36 -266 -36q-168 0 -243 78.5t-75 239.5t75.5 239.5t242.5 78.5q84 0 140 -10.5t90.5 -35t49 -66t14.5 -104.5
q0 -52 -17.5 -89.5t-58.5 -61.5t-109 -35.5t-169 -11.5zM294 392v-49h49q44 0 63.5 9t19.5 42v49h-49q-44 0 -63.5 -9t-19.5 -42z" />
    <glyph glyph-name="uni1EC0" unicode="&#x1ec0;" horiz-adv-x="636" 
d="M391 976l176 119l-156 63l-112 -176zM378 948l-85 4l-171 -100l67 -49l144 111l140 -104l64 52zM540 457h-240v101h258l30 192h-528v-750h534v192h-294v91h240v174z" />
    <glyph glyph-name="uni1EC1" unicode="&#x1ec1;" horiz-adv-x="678" 
d="M401 834l176 119l-156 63l-112 -176zM388 806l-85 4l-171 -100l67 -49l144 111l140 -104l64 52zM294 204v-42q18 -2 36 -3t36 -1q112 0 226 36l28 -176q-135 -36 -266 -36q-168 0 -243 78.5t-75 239.5t75.5 239.5t242.5 78.5q84 0 140 -10.5t90.5 -35t49 -66t14.5 -104.5
q0 -52 -17.5 -89.5t-58.5 -61.5t-109 -35.5t-169 -11.5zM294 392v-49h49q44 0 63.5 9t19.5 42v49h-49q-44 0 -63.5 -9t-19.5 -42z" />
    <glyph glyph-name="uni1EC2" unicode="&#x1ec2;" horiz-adv-x="636" 
d="M423 1144q1 -12 -1 -23q-1 -10 -6 -19q-3 -9 -8.5 -17.5t-14.5 -19.5q-10 -12 -15 -21q-4 -9 -5 -21l-27 -31q-47 53 -31 62q1 1 4 7l8 15q6 8 11 15q6 8 10 14q6 9 6 11q3 11 4 12t1 14v1q1 7 -8 7q-7 0 -7 -7v-19l-61 -4l-4 24q1 29 19.5 45.5t52.5 15.5q35 1 54 -15.5
t18 -45.5zM378 948l-85 4l-171 -100l67 -49l144 111l140 -104l64 52zM540 457h-240v101h258l30 192h-528v-750h534v192h-294v91h240v174z" />
    <glyph glyph-name="uni1EC3" unicode="&#x1ec3;" horiz-adv-x="678" 
d="M441 981q0 -13 -1 -23q-2 -11 -6 -19q-4 -10 -9.5 -18.5t-13.5 -18.5q-11 -13 -15 -21q-5 -10 -5 -21l-28 -32q-47 53 -30 63l4 7q7 14 8 15q5 7 11 15l10 14q5 8 6 11q2 10 4 12q1 1 1 14v0q0 7 -8 7t-8 -7v-18l-60 -4l-4 24q0 28 18.5 44.5t53.5 16.5q34 0 53 -16.5
t19 -44.5zM388 806l-85 4l-171 -100l67 -49l144 111l140 -104l64 52zM294 204v-42q18 -2 36 -3t36 -1q112 0 226 36l28 -176q-135 -36 -266 -36q-168 0 -243 78.5t-75 239.5t75.5 239.5t242.5 78.5q84 0 140 -10.5t90.5 -35t49 -66t14.5 -104.5q0 -52 -17.5 -89.5
t-58.5 -61.5t-109 -35.5t-169 -11.5zM294 392v-49h49q44 0 63.5 9t19.5 42v49h-49q-44 0 -63.5 -9t-19.5 -42z" />
    <glyph glyph-name="uni1EC6" unicode="&#x1ec6;" horiz-adv-x="636" 
d="M378 948l-85 4l-171 -100l67 -49l144 111l140 -104l64 52zM295 -103q0 10 3 17.5t10 12t18.5 6.5t30.5 2q18 0 30 -2t19 -6.5t9.5 -12t2.5 -17.5q0 -11 -2.5 -18t-9.5 -11.5t-19 -6.5t-30 -2q-13 0 -24.5 1t-20 4.5t-13 11t-4.5 21.5zM540 457h-240v101h258l30 192h-528
v-750h534v192h-294v91h240v174z" />
    <glyph glyph-name="uni1EC7" unicode="&#x1ec7;" horiz-adv-x="678" 
d="M399 795l-85 4l-171 -100l67 -49l144 111l140 -104l64 52zM295 -103q0 10 3 17.5t10 12t18.5 6.5t30.5 2q18 0 30 -2t19 -6.5t9.5 -12t2.5 -17.5q0 -11 -2.5 -18t-9.5 -11.5t-19 -6.5t-30 -2q-13 0 -24.5 1t-20 4.5t-13 11t-4.5 21.5zM294 204v-42q18 -2 36 -3t36 -1
q112 0 226 36l28 -176q-135 -36 -266 -36q-168 0 -243 78.5t-75 239.5t75.5 239.5t242.5 78.5q84 0 140 -10.5t90.5 -35t49 -66t14.5 -104.5q0 -52 -17.5 -89.5t-58.5 -61.5t-109 -35.5t-169 -11.5zM294 392v-49h49q44 0 63.5 9t19.5 42v49h-49q-44 0 -63.5 -9t-19.5 -42z
" />
    <glyph glyph-name="uni1ECC" unicode="&#x1ecc;" horiz-adv-x="759" 
d="M33 412q0 103 17.5 177.5t59 122.5t109.5 71t168 23q101 0 168.5 -23t109 -71t59 -122.5t17.5 -177.5q0 -98 -16 -171.5t-56.5 -122.5t-109 -73.5t-172.5 -24.5t-172.5 24.5t-109 73.5t-56.5 122.5t-16 171.5zM291 537v-312h100q50 0 71.5 11.5t21.5 52.5v312h-101
q-48 0 -70 -11.5t-22 -52.5zM337 -103q0 10 3 17.5t10 12t18.5 6.5t30.5 2q18 0 30 -2t19 -6.5t9.5 -12t2.5 -17.5q0 -11 -2.5 -18t-9.5 -11.5t-19 -6.5t-30 -2q-13 0 -24.5 1t-20 4.5t-13 11t-4.5 21.5z" />
    <glyph glyph-name="uni1ECD" unicode="&#x1ecd;" horiz-adv-x="731" 
d="M295 -103q0 10 3 17.5t10 12t18.5 6.5t30.5 2q18 0 30 -2t19 -6.5t9.5 -12t2.5 -17.5q0 -11 -2.5 -18t-9.5 -11.5t-19 -6.5t-30 -2q-13 0 -24.5 1t-20 4.5t-13 11t-4.5 21.5zM36 300q0 161 75 239.5t243 78.5t243 -78.5t75 -239.5t-75 -239.5t-243 -78.5q-164 0 -241 77
t-77 241zM294 392v-235h37q44 0 63.5 9t19.5 42v235h-37q-44 0 -63.5 -9t-19.5 -42z" />
    <glyph glyph-name="uni1ECE" unicode="&#x1ece;" horiz-adv-x="768" 
d="M484 962q0 -12 -2 -23q-1 -10 -5 -19t-9.5 -17.5t-13.5 -18.5q-11 -13 -16 -22q-4 -9 -4 -21l-28 -31q-47 53 -31 63q1 0 5 6q7 15 8 16q5 7 11 15q5 7 9 13q6 9 7 12q2 10 3 12q2 1 2 14v0q0 7 -8 7t-8 -7v-19l-61 -3l-3 23q0 29 18.5 45.5t53.5 16.5q34 0 53 -16.5
t19 -45.5zM40 392q0 103 17.5 177.5t59 122.5t109.5 71t168 23q101 0 168.5 -23t109 -71t59 -122.5t17.5 -177.5q0 -98 -16 -171.5t-56.5 -122.5t-109 -73.5t-172.5 -24.5t-172.5 24.5t-109 73.5t-56.5 122.5t-16 171.5zM298 517v-312h100q50 0 71.5 11.5t21.5 52.5v312
h-101q-48 0 -70 -11.5t-22 -52.5z" />
    <glyph glyph-name="uni1ECF" unicode="&#x1ecf;" horiz-adv-x="731" 
d="M425 787q1 -12 -1 -23q-1 -10 -6 -19q-3 -9 -8.5 -17.5t-14.5 -19.5q-10 -12 -15 -21q-4 -9 -5 -21l-27 -31q-47 53 -31 63q1 0 4 6l8 15q6 8 11 16q6 7 10 13q6 9 6 12q3 10 4 12q1 0 1 14v0q1 7 -8 7q-7 0 -7 -7v-19l-61 -3l-4 23q1 29 19.5 45.5t52.5 15.5
q35 1 54 -15.5t18 -45.5zM36 300q0 161 75 239.5t243 78.5t243 -78.5t75 -239.5t-75 -239.5t-243 -78.5q-164 0 -241 77t-77 241zM294 392v-235h37q44 0 63.5 9t19.5 42v235h-37q-44 0 -63.5 -9t-19.5 -42z" />
    <glyph glyph-name="uni1ED0" unicode="&#x1ed0;" horiz-adv-x="768" 
d="M459 986l176 119l-156 63l-112 -176zM446 958l-85 4l-171 -100l67 -49l144 111l140 -104l64 52zM40 392q0 103 17.5 177.5t59 122.5t109.5 71t168 23q101 0 168.5 -23t109 -71t59 -122.5t17.5 -177.5q0 -98 -16 -171.5t-56.5 -122.5t-109 -73.5t-172.5 -24.5t-172.5 24.5
t-109 73.5t-56.5 122.5t-16 171.5zM298 517v-312h100q50 0 71.5 11.5t21.5 52.5v312h-101q-48 0 -70 -11.5t-22 -52.5z" />
    <glyph glyph-name="uni1ED1" unicode="&#x1ed1;" horiz-adv-x="731" 
d="M401 834l176 119l-156 63l-112 -176zM388 806l-85 4l-171 -100l67 -49l144 111l140 -104l64 52zM36 300q0 161 75 239.5t243 78.5t243 -78.5t75 -239.5t-75 -239.5t-243 -78.5q-164 0 -241 77t-77 241zM294 392v-235h37q44 0 63.5 9t19.5 42v235h-37q-44 0 -63.5 -9
t-19.5 -42z" />
    <glyph glyph-name="uni1ED2" unicode="&#x1ed2;" horiz-adv-x="768" 
d="M432 1038l-240 177l156 63l126 -198zM40 392q0 103 17.5 177.5t59 122.5t109.5 71t168 23q101 0 168.5 -23t109 -71t59 -122.5t17.5 -177.5q0 -98 -16 -171.5t-56.5 -122.5t-109 -73.5t-172.5 -24.5t-172.5 24.5t-109 73.5t-56.5 122.5t-16 171.5zM298 517v-312h100
q50 0 71.5 11.5t21.5 52.5v312h-101q-48 0 -70 -11.5t-22 -52.5zM416 1013l198 -144l-72 -42l-180 105l-136 -63l-24 51z" />
    <glyph glyph-name="uni1ED3" unicode="&#x1ed3;" horiz-adv-x="731" 
d="M378 891l-240 177l156 63l126 -198zM372 858l198 -144l-72 -42l-180 105l-136 -63l-24 51zM36 300q0 161 75 239.5t243 78.5t243 -78.5t75 -239.5t-75 -239.5t-243 -78.5q-164 0 -241 77t-77 241zM294 392v-235h37q44 0 63.5 9t19.5 42v235h-37q-44 0 -63.5 -9t-19.5 -42
z" />
    <glyph glyph-name="uni1ED4" unicode="&#x1ed4;" horiz-adv-x="768" 
d="M490 1121q1 -12 -1 -23q-1 -10 -6 -19q-3 -9 -8.5 -17.5t-14.5 -19.5q-10 -12 -15 -21q-4 -9 -5 -21l-27 -31q-47 53 -31 62q1 1 4 7l8 15q6 8 11 15q6 8 10 14q6 9 6 11q3 11 4 12t1 14v1q1 7 -8 7q-7 0 -7 -7v-19l-61 -4l-4 24q1 29 19.5 45.5t52.5 15.5q35 1 54 -15.5
t18 -45.5zM40 392q0 103 17.5 177.5t59 122.5t109.5 71t168 23q101 0 168.5 -23t109 -71t59 -122.5t17.5 -177.5q0 -98 -16 -171.5t-56.5 -122.5t-109 -73.5t-172.5 -24.5t-172.5 24.5t-109 73.5t-56.5 122.5t-16 171.5zM298 517v-312h100q50 0 71.5 11.5t21.5 52.5v312
h-101q-48 0 -70 -11.5t-22 -52.5zM436 970l198 -144l-72 -42l-180 105l-136 -63l-24 51z" />
    <glyph glyph-name="uni1ED5" unicode="&#x1ed5;" horiz-adv-x="731" 
d="M444 976q1 -12 -1 -23q-1 -10 -6 -19q-3 -9 -8.5 -17.5t-14.5 -19.5q-10 -12 -15 -21q-4 -9 -5 -21l-27 -31q-47 53 -31 63q1 0 4 6l8 15q6 8 11 16q6 7 10 13q6 9 6 12q3 10 4 12q1 0 1 14v0q1 7 -8 7q-7 0 -7 -7v-19l-61 -3l-4 23q1 29 19.5 45.5t52.5 15.5
q35 1 54 -15.5t18 -45.5zM390 801l198 -144l-72 -42l-180 105l-136 -63l-24 51zM36 300q0 161 75 239.5t243 78.5t243 -78.5t75 -239.5t-75 -239.5t-243 -78.5q-164 0 -241 77t-77 241zM294 392v-235h37q44 0 63.5 9t19.5 42v235h-37q-44 0 -63.5 -9t-19.5 -42z" />
    <glyph glyph-name="uni1ED6" unicode="&#x1ed6;" horiz-adv-x="731" 
 />
    <glyph glyph-name="uni1ED8" unicode="&#x1ed8;" horiz-adv-x="768" 
d="M40 392q0 103 17.5 177.5t59 122.5t109.5 71t168 23q101 0 168.5 -23t109 -71t59 -122.5t17.5 -177.5q0 -98 -16 -171.5t-56.5 -122.5t-109 -73.5t-172.5 -24.5t-172.5 24.5t-109 73.5t-56.5 122.5t-16 171.5zM298 517v-312h100q50 0 71.5 11.5t21.5 52.5v312h-101
q-48 0 -70 -11.5t-22 -52.5zM416 1013l198 -144l-72 -42l-180 105l-136 -63l-24 51zM335 -103q0 10 3 17.5t10 12t18.5 6.5t30.5 2q18 0 30 -2t19 -6.5t9.5 -12t2.5 -17.5q0 -11 -2.5 -18t-9.5 -11.5t-19 -6.5t-30 -2q-13 0 -24.5 1t-20 4.5t-13 11t-4.5 21.5z" />
    <glyph glyph-name="uni1ED9" unicode="&#x1ed9;" horiz-adv-x="731" 
d="M372 858l198 -144l-72 -42l-180 105l-136 -63l-24 51zM295 -103q0 10 3 17.5t10 12t18.5 6.5t30.5 2q18 0 30 -2t19 -6.5t9.5 -12t2.5 -17.5q0 -11 -2.5 -18t-9.5 -11.5t-19 -6.5t-30 -2q-13 0 -24.5 1t-20 4.5t-13 11t-4.5 21.5zM36 300q0 161 75 239.5t243 78.5
t243 -78.5t75 -239.5t-75 -239.5t-243 -78.5q-164 0 -241 77t-77 241zM294 392v-235h37q44 0 63.5 9t19.5 42v235h-37q-44 0 -63.5 -9t-19.5 -42z" />
    <glyph glyph-name="uni1EDA" unicode="&#x1eda;" horiz-adv-x="768" 
d="M409 822l240 177l-156 63l-126 -198zM655 833q21 -6 26 -17.5t-9 -23.5q-24 -21 -71 -21q-70 0 -46 4l39 10l-17 17q-18 24 34 33q23 4 44 -2zM40 392q0 103 17.5 177.5t59 122.5t109.5 71t168 23q101 0 168.5 -23t109 -71t59 -122.5t17.5 -177.5q0 -98 -16 -171.5
t-56.5 -122.5t-109 -73.5t-172.5 -24.5t-172.5 24.5t-109 73.5t-56.5 122.5t-16 171.5zM298 517v-312h100q50 0 71.5 11.5t21.5 52.5v312h-101q-48 0 -70 -11.5t-22 -52.5z" />
    <glyph glyph-name="uni1EDB" unicode="&#x1edb;" horiz-adv-x="731" 
d="M357 651l240 177l-156 63l-126 -198zM582 677q21 -6 26.5 -17.5t-9.5 -24.5q-23 -20 -71 -20q-70 -1 -46 3l39 11l-17 17q-18 23 34 32q23 5 44 -1zM36 300q0 161 75 239.5t243 78.5t243 -78.5t75 -239.5t-75 -239.5t-243 -78.5q-164 0 -241 77t-77 241zM294 392v-235h37
q44 0 63.5 9t19.5 42v235h-37q-44 0 -63.5 -9t-19.5 -42z" />
    <glyph glyph-name="uni1EDC" unicode="&#x1edc;" horiz-adv-x="768" 
d="M376 821l-240 177l156 63l126 -198zM655 833q21 -6 26 -17.5t-9 -23.5q-24 -21 -71 -21q-70 0 -46 4l39 10l-17 17q-18 24 34 33q23 4 44 -2zM40 392q0 103 17.5 177.5t59 122.5t109.5 71t168 23q101 0 168.5 -23t109 -71t59 -122.5t17.5 -177.5q0 -98 -16 -171.5
t-56.5 -122.5t-109 -73.5t-172.5 -24.5t-172.5 24.5t-109 73.5t-56.5 122.5t-16 171.5zM298 517v-312h100q50 0 71.5 11.5t21.5 52.5v312h-101q-48 0 -70 -11.5t-22 -52.5z" />
    <glyph glyph-name="uni1EDD" unicode="&#x1edd;" horiz-adv-x="731" 
d="M366 668l-240 177l156 63l126 -198zM582 677q21 -6 26.5 -17.5t-9.5 -24.5q-23 -20 -71 -20q-70 -1 -46 3l39 11l-17 17q-18 23 34 32q23 5 44 -1zM36 300q0 161 75 239.5t243 78.5t243 -78.5t75 -239.5t-75 -239.5t-243 -78.5q-164 0 -241 77t-77 241zM294 392v-235h37
q44 0 63.5 9t19.5 42v235h-37q-44 0 -63.5 -9t-19.5 -42z" />
    <glyph glyph-name="uni1EDE" unicode="&#x1ede;" horiz-adv-x="768" 
d="M484 962q0 -12 -2 -23q-1 -10 -5 -19t-9.5 -17.5t-13.5 -18.5q-11 -13 -16 -22q-4 -9 -4 -21l-28 -31q-47 53 -31 63q1 0 5 6q7 15 8 16q5 7 11 15q5 7 9 13q6 9 7 12q2 10 3 12q2 1 2 14v0q0 7 -8 7t-8 -7v-19l-61 -3l-3 23q0 29 18.5 45.5t53.5 16.5q34 0 53 -16.5
t19 -45.5zM655 833q21 -6 26 -17.5t-9 -23.5q-24 -21 -71 -21q-70 0 -46 4l39 10l-17 17q-18 24 34 33q23 4 44 -2zM40 392q0 103 17.5 177.5t59 122.5t109.5 71t168 23q101 0 168.5 -23t109 -71t59 -122.5t17.5 -177.5q0 -98 -16 -171.5t-56.5 -122.5t-109 -73.5
t-172.5 -24.5t-172.5 24.5t-109 73.5t-56.5 122.5t-16 171.5zM298 517v-312h100q50 0 71.5 11.5t21.5 52.5v312h-101q-48 0 -70 -11.5t-22 -52.5z" />
    <glyph glyph-name="uni1EDF" unicode="&#x1edf;" horiz-adv-x="731" 
d="M425 787q1 -12 -1 -23q-1 -10 -6 -19q-3 -9 -8.5 -17.5t-14.5 -19.5q-10 -12 -15 -21q-4 -9 -5 -21l-27 -31q-47 53 -31 63q1 0 4 6l8 15q6 8 11 16q6 7 10 13q6 9 6 12q3 10 4 12q1 0 1 14v0q1 7 -8 7q-7 0 -7 -7v-19l-61 -3l-4 23q1 29 19.5 45.5t52.5 15.5
q35 1 54 -15.5t18 -45.5zM582 677q21 -6 26.5 -17.5t-9.5 -24.5q-23 -20 -71 -20q-70 -1 -46 3l39 11l-17 17q-18 23 34 32q23 5 44 -1zM36 300q0 161 75 239.5t243 78.5t243 -78.5t75 -239.5t-75 -239.5t-243 -78.5q-164 0 -241 77t-77 241zM294 392v-235h37q44 0 63.5 9
t19.5 42v235h-37q-44 0 -63.5 -9t-19.5 -42z" />
    <glyph glyph-name="uni1EE2" unicode="&#x1ee2;" horiz-adv-x="768" 
d="M655 833q21 -6 26 -17.5t-9 -23.5q-24 -21 -71 -21q-70 0 -46 4l39 10l-17 17q-18 24 34 33q23 4 44 -2zM40 392q0 103 17.5 177.5t59 122.5t109.5 71t168 23q101 0 168.5 -23t109 -71t59 -122.5t17.5 -177.5q0 -98 -16 -171.5t-56.5 -122.5t-109 -73.5t-172.5 -24.5
t-172.5 24.5t-109 73.5t-56.5 122.5t-16 171.5zM298 517v-312h100q50 0 71.5 11.5t21.5 52.5v312h-101q-48 0 -70 -11.5t-22 -52.5zM335 -103q0 10 3 17.5t10 12t18.5 6.5t30.5 2q18 0 30 -2t19 -6.5t9.5 -12t2.5 -17.5q0 -11 -2.5 -18t-9.5 -11.5t-19 -6.5t-30 -2
q-13 0 -24.5 1t-20 4.5t-13 11t-4.5 21.5z" />
    <glyph glyph-name="uni1EE3" unicode="&#x1ee3;" horiz-adv-x="731" 
d="M582 677q21 -6 26.5 -17.5t-9.5 -24.5q-23 -20 -71 -20q-70 -1 -46 3l39 11l-17 17q-18 23 34 32q23 5 44 -1zM295 -103q0 10 3 17.5t10 12t18.5 6.5t30.5 2q18 0 30 -2t19 -6.5t9.5 -12t2.5 -17.5q0 -11 -2.5 -18t-9.5 -11.5t-19 -6.5t-30 -2q-13 0 -24.5 1t-20 4.5
t-13 11t-4.5 21.5zM36 300q0 161 75 239.5t243 78.5t243 -78.5t75 -239.5t-75 -239.5t-243 -78.5q-164 0 -241 77t-77 241zM294 392v-235h37q44 0 63.5 9t19.5 42v235h-37q-44 0 -63.5 -9t-19.5 -42z" />
    <glyph glyph-name="uni1EE4" unicode="&#x1ee4;" horiz-adv-x="728" 
d="M335 -103q0 10 3 17.5t10 12t18.5 6.5t30.5 2q18 0 30 -2t19 -6.5t9.5 -12t2.5 -17.5q0 -11 -2.5 -18t-9.5 -11.5t-19 -6.5t-30 -2q-13 0 -24.5 1t-20 4.5t-13 11t-4.5 21.5zM42 750h240v-563h85q46 0 62.5 12t16.5 52v499h240v-421q0 -96 -12.5 -162t-48 -107.5
t-98.5 -59.5t-163 -18t-163 18t-98.5 59t-48 107.5t-12.5 162.5v421z" />
    <glyph glyph-name="uni1EE5" unicode="&#x1ee5;" horiz-adv-x="632" 
d="M335 -103q0 10 3 17.5t10 12t18.5 6.5t30.5 2q18 0 30 -2t19 -6.5t9.5 -12t2.5 -17.5q0 -11 -2.5 -18t-9.5 -11.5t-19 -6.5t-30 -2q-13 0 -24.5 1t-20 4.5t-13 11t-4.5 21.5zM14 600h240v-443h37q44 0 63.5 9t19.5 42v392h240v-600h-120l-70 68q-72 -86 -205 -86
q-107 0 -156 45.5t-49 152.5v420z" />
    <glyph glyph-name="uni1EE8" unicode="&#x1ee8;" horiz-adv-x="728" 
d="M345 807l240 177l-156 63l-126 -198zM782 815q21 -6 26 -17.5t-9 -23.5q-24 -21 -71 -21q-70 0 -46 4l39 10l-17 17q-18 24 34 33q23 4 44 -2zM42 750h240v-563h85q46 0 62.5 12t16.5 52v499h240v-421q0 -96 -12.5 -162t-48 -107.5t-98.5 -59.5t-163 -18t-163 18
t-98.5 59t-48 107.5t-12.5 162.5v421z" />
    <glyph glyph-name="uni1EE9" unicode="&#x1ee9;" horiz-adv-x="708" 
d="M324 621l240 177l-156 63l-126 -198zM738 672q21 -6 26 -17.5t-9 -23.5q-24 -21 -71 -21q-70 0 -46 4l39 10l-17 17q-18 24 34 33q23 4 44 -2zM48 600h240v-443h37q44 0 63.5 9t19.5 42v392h240v-600h-120l-70 68q-72 -86 -205 -86q-107 0 -156 45.5t-49 152.5v420z" />
    <glyph glyph-name="uni1EEA" unicode="&#x1eea;" horiz-adv-x="728" 
d="M408 778l-240 177l156 63l126 -198zM782 815q21 -6 26 -17.5t-9 -23.5q-24 -21 -71 -21q-70 0 -46 4l39 10l-17 17q-18 24 34 33q23 4 44 -2zM42 750h240v-563h85q46 0 62.5 12t16.5 52v499h240v-421q0 -96 -12.5 -162t-48 -107.5t-98.5 -59.5t-163 -18t-163 18t-98.5 59
t-48 107.5t-12.5 162.5v421z" />
    <glyph glyph-name="uni1EEB" unicode="&#x1eeb;" horiz-adv-x="708" 
d="M377 629l-240 177l156 63l126 -198zM738 672q21 -6 26 -17.5t-9 -23.5q-24 -21 -71 -21q-70 0 -46 4l39 10l-17 17q-18 24 34 33q23 4 44 -2zM48 600h240v-443h37q44 0 63.5 9t19.5 42v392h240v-600h-120l-70 68q-72 -86 -205 -86q-107 0 -156 45.5t-49 152.5v420z" />
    <glyph glyph-name="uni1EEC" unicode="&#x1eec;" horiz-adv-x="728" 
d="M442 970q1 -12 -1 -23q-1 -10 -6 -19q-3 -9 -8.5 -17.5t-14.5 -19.5q-10 -12 -15 -21q-4 -9 -5 -21l-27 -31q-47 53 -31 63q1 0 4 6l8 15q6 8 11 16q6 7 10 13q6 9 6 12q3 10 4 12q1 0 1 14v0q1 7 -8 7q-7 0 -7 -7v-19l-61 -3l-4 23q1 29 19.5 45.5t52.5 15.5
q35 1 54 -15.5t18 -45.5zM782 815q21 -6 26 -17.5t-9 -23.5q-24 -21 -71 -21q-70 0 -46 4l39 10l-17 17q-18 24 34 33q23 4 44 -2zM42 750h240v-563h85q46 0 62.5 12t16.5 52v499h240v-421q0 -96 -12.5 -162t-48 -107.5t-98.5 -59.5t-163 -18t-163 18t-98.5 59t-48 107.5
t-12.5 162.5v421z" />
    <glyph glyph-name="uni1EED" unicode="&#x1eed;" horiz-adv-x="708" 
d="M425 787q1 -12 -1 -23q-1 -10 -6 -19q-3 -9 -8.5 -17.5t-14.5 -19.5q-10 -12 -15 -21q-4 -9 -5 -21l-27 -31q-47 53 -31 63q1 0 4 6l8 15q6 8 11 16q6 7 10 13q6 9 6 12q3 10 4 12q1 0 1 14v0q1 7 -8 7q-7 0 -7 -7v-19l-61 -3l-4 23q1 29 19.5 45.5t52.5 15.5
q35 1 54 -15.5t18 -45.5zM738 672q21 -6 26 -17.5t-9 -23.5q-24 -21 -71 -21q-70 0 -46 4l39 10l-17 17q-18 24 34 33q23 4 44 -2zM48 600h240v-443h37q44 0 63.5 9t19.5 42v392h240v-600h-120l-70 68q-72 -86 -205 -86q-107 0 -156 45.5t-49 152.5v420z" />
    <glyph glyph-name="uni1EEE" unicode="&#x1eee;" horiz-adv-x="728" 
d="M599 993l57 -50q-32 -58 -79 -92.5t-98 -34.5q-14 0 -114 33q-65 21 -84 32q-61 33 -102 3q-22 -17 -51 -50l-48 72q21 29 41 52.5t41 41t44.5 27t51.5 9.5q45 0 102 -34q50 -30 125 -51q70 -18 114 42zM782 815q21 -6 26 -17.5t-9 -23.5q-24 -21 -71 -21q-70 0 -46 4
l39 10l-17 17q-18 24 34 33q23 4 44 -2zM42 750h240v-563h85q46 0 62.5 12t16.5 52v499h240v-421q0 -96 -12.5 -162t-48 -107.5t-98.5 -59.5t-163 -18t-163 18t-98.5 59t-48 107.5t-12.5 162.5v421z" />
    <glyph glyph-name="uni1EEF" unicode="&#x1eef;" horiz-adv-x="708" 
d="M566 851l57 -50q-32 -58 -79 -92.5t-98 -34.5q-14 0 -114 33q-65 21 -84 32q-61 33 -102 3q-22 -17 -51 -50l-48 72q21 29 41 52.5t41 41t44.5 27t51.5 9.5q45 0 102 -34q50 -30 125 -51q70 -18 114 42zM738 672q21 -6 26 -17.5t-9 -23.5q-24 -21 -71 -21q-70 0 -46 4
l39 10l-17 17q-18 24 34 33q23 4 44 -2zM48 600h240v-443h37q44 0 63.5 9t19.5 42v392h240v-600h-120l-70 68q-72 -86 -205 -86q-107 0 -156 45.5t-49 152.5v420z" />
    <glyph glyph-name="uni1EF0" unicode="&#x1ef0;" horiz-adv-x="728" 
d="M337 -103q0 10 3 17.5t10 12t18.5 6.5t30.5 2q18 0 30 -2t19 -6.5t9.5 -12t2.5 -17.5q0 -11 -2.5 -18t-9.5 -11.5t-19 -6.5t-30 -2q-13 0 -24.5 1t-20 4.5t-13 11t-4.5 21.5zM782 815q21 -6 26 -17.5t-9 -23.5q-24 -21 -71 -21q-70 0 -46 4l39 10l-17 17q-18 24 34 33
q23 4 44 -2zM42 750h240v-563h85q46 0 62.5 12t16.5 52v499h240v-421q0 -96 -12.5 -162t-48 -107.5t-98.5 -59.5t-163 -18t-163 18t-98.5 59t-48 107.5t-12.5 162.5v421z" />
    <glyph glyph-name="uni1EF1" unicode="&#x1ef1;" horiz-adv-x="708" 
d="M337 -103q0 10 3 17.5t10 12t18.5 6.5t30.5 2q18 0 30 -2t19 -6.5t9.5 -12t2.5 -17.5q0 -11 -2.5 -18t-9.5 -11.5t-19 -6.5t-30 -2q-13 0 -24.5 1t-20 4.5t-13 11t-4.5 21.5zM738 672q21 -6 26 -17.5t-9 -23.5q-24 -21 -71 -21q-70 0 -46 4l39 10l-17 17q-18 24 34 33
q23 4 44 -2zM48 600h240v-443h37q44 0 63.5 9t19.5 42v392h240v-600h-120l-70 68q-72 -86 -205 -86q-107 0 -156 45.5t-49 152.5v420z" />
    <glyph glyph-name="Ygrave" unicode="&#x1ef2;" horiz-adv-x="672" 
d="M203 923l156 -132l34 29l-118 173zM0 750l216 -546v-204h240v204l216 546h-265l-67 -264h-9l-66 264h-265z" />
    <glyph glyph-name="ygrave" unicode="&#x1ef3;" horiz-adv-x="624" 
d="M181 787l156 -132l34 29l-118 173zM260 62h-126l-134 538h240l66 -390h12l66 390h240l-150 -600q-16 -59 -36.5 -97t-47.5 -60.5t-62.5 -31.5t-82.5 -9h-233v156l113 22q87 20 113 43q7 6 13 14t11 18z" />
    <glyph glyph-name="quoteleft" unicode="&#x2018;" horiz-adv-x="273" 
d="M92 750l-50 -187v-161h191v183h-84l37 165h-94z" />
    <glyph glyph-name="quoteright" unicode="&#x2019;" horiz-adv-x="266" 
d="M37 750v-183h84l-37 -165h94l50 187v161h-191z" />
    <glyph glyph-name="quotedblleft" unicode="&#x201c;" horiz-adv-x="514" 
d="M38 750v-161l50 -187h94l-37 165h84v183h-191zM286 750v-161l50 -187h94l-37 165h84v183h-191z" />
    <glyph glyph-name="quotedblright" unicode="&#x201d;" horiz-adv-x="514" 
d="M37 750v-183h84l-37 -165h94l50 187v161h-191zM285 750v-183h84l-37 -165h94l50 187v161h-191z" />
    <glyph glyph-name="uni20A9" unicode="&#x20a9;" horiz-adv-x="1025" 
d="M1045 450h-87l47 300h-251l-57 -419h-7l-86 419h-183l-87 -419h-7l-56 419h-251l47 -300h-87v-46l94 -2l6 -48l-100 -2v-52h111l47 -300h313l54 276h14l55 -276h314l47 300h110v52l-103 2l6 48l97 6v42z" />
    <glyph glyph-name="trademark" unicode="&#x2122;" horiz-adv-x="536" 
d="M316 787h2l25 -134h49l25 134h2l4 -134h67l-12 276h-84l-25 -141h-3l-25 141h-84l-13 -276h68zM247 924h-229v-65h68v-191h93v191h68v65z" />
    <glyph glyph-name="uni2160" unicode="&#x2160;" horiz-adv-x="639" 
d="M394 0v748h154v-748h-154zM91 0v748h154v-748h-154z" />
    <glyph glyph-name="uni2161" unicode="&#x2161;" horiz-adv-x="893" 
d="M651 0v748h151v-748h-151zM372 0v748h149v-748h-149zM91 0v748h151v-748h-151z" />
    <glyph glyph-name="uni2162" unicode="&#x2162;" horiz-adv-x="994" 
d="M445 748l184 -608h2l185 608h149l-259 -748h-154l-259 748h152zM91 0v748h154v-748h-154z" />
    <glyph glyph-name="uni2163" unicode="&#x2163;" horiz-adv-x="731" 
d="M182 748l184 -608h2l185 608h148l-259 -748h-153l-259 748h152z" />
    <glyph glyph-name="uni2164" unicode="&#x2164;" horiz-adv-x="994" 
d="M549 748h152l-259 -748h-153l-259 748h148l186 -608h2zM750 0v748h153v-748h-153z" />
    <glyph glyph-name="uni2165" unicode="&#x2165;" horiz-adv-x="1271" 
d="M549 748h153l-260 -748h-153l-259 748h148l186 -608h2zM1030 0v748h150v-748h-150zM750 0v748h150v-748h-150z" />
    <glyph glyph-name="uni2166" unicode="&#x2166;" horiz-adv-x="1510" 
d="M1269 0v748h150v-748h-150zM1006 0v748h150v-748h-150zM743 0v748h150v-748h-150zM549 748h153l-260 -748h-153l-259 748h148l186 -608h2z" />
    <glyph glyph-name="uni2167" unicode="&#x2167;" horiz-adv-x="1020" 
d="M610 290h-2l-144 -290h-160l213 379l-208 369h161l142 -280h2l143 280h156l-207 -369l213 -379h-164zM101 0v748h154v-748h-154z" />
    <glyph glyph-name="uni2168" unicode="&#x2168;" horiz-adv-x="694" 
d="M346 290h-2l-144 -290h-160l213 379l-208 369h161l142 -280h2l143 280h156l-208 -369l213 -379h-164z" />
    <glyph glyph-name="uni2169" unicode="&#x2169;" horiz-adv-x="512" 
 />
    <glyph glyph-name="uni216A" unicode="&#x216a;" horiz-adv-x="512" 
 />
    <glyph glyph-name="uni216B" unicode="&#x216b;" horiz-adv-x="512" 
 />
    <glyph glyph-name="uni216C" unicode="&#x216c;" horiz-adv-x="512" 
 />
    <glyph glyph-name="uni216D" unicode="&#x216d;" horiz-adv-x="512" 
 />
    <glyph glyph-name="uni216E" unicode="&#x216e;" horiz-adv-x="512" 
 />
    <glyph glyph-name="uni216F" unicode="&#x216f;" horiz-adv-x="1024" 
d="M101 645v123h142v-123h-142zM101 0v532h142v-532h-142z" />
    <glyph glyph-name="uni2170" unicode="&#x2170;" horiz-adv-x="1024" 
d="M379 645v123h138v-123h-138zM379 0v532h138v-532h-138zM91 645v123h138v-123h-138zM91 0v532h138v-532h-138z" />
    <glyph glyph-name="uni2171" unicode="&#x2171;" horiz-adv-x="1024" 
d="M624 645v123h137v-123h-137zM624 0v532h137v-532h-137zM357 645v123h138v-123h-138zM357 0v532h138v-532h-138zM91 645v123h137v-123h-137zM91 0v532h137v-532h-137z" />
    <glyph glyph-name="uni2172" unicode="&#x2172;" horiz-adv-x="1024" 
d="M422 532l124 -453h2l124 453h141l-176 -532h-184l-177 532h146zM91 645v123h138v-123h-138zM91 0v532h138v-532h-138z" />
    <glyph glyph-name="uni2173" unicode="&#x2173;" horiz-adv-x="1024" 
d="M175 532l124 -453h2l124 453h141l-176 -532h-184l-176 532h145z" />
    <glyph glyph-name="uni2174" unicode="&#x2174;" horiz-adv-x="1024" 
d="M421 532h145l-176 -532h-184l-176 532h141l124 -453h2zM613 645v123h139v-123h-139zM613 0v532h139v-532h-139z" />
    <glyph glyph-name="uni2175" unicode="&#x2175;" horiz-adv-x="1024" 
d="M865 645v123h137v-123h-137zM865 0v532h137v-532h-137zM613 645v123h137v-123h-137zM613 0v532h137v-532h-137zM420 532h145l-176 -532h-184l-175 532h141l123 -453h2z" />
    <glyph glyph-name="uni2176" unicode="&#x2176;" horiz-adv-x="1024" 
d="M1112 645v123h136v-123h-136zM1112 0v532h136v-532h-136zM862 645v123h137v-123h-137zM862 0v532h137v-532h-137zM613 645v123h137v-123h-137zM613 0v532h137v-532h-137zM420 532h145l-175 -532h-184l-176 532h141l124 -453h2z" />
    <glyph glyph-name="uni2177" unicode="&#x2177;" horiz-adv-x="1024" 
d="M531 196h-2l-106 -196h-144l171 271l-166 261h148l102 -186h2l101 186h145l-166 -261l171 -271h-149zM91 645v123h138v-123h-138zM91 0v532h138v-532h-138z" />
    <glyph glyph-name="uni2178" unicode="&#x2178;" horiz-adv-x="1024" 
d="M298 196h-2l-107 -196h-144l170 271l-165 261h149l101 -186h2l101 186h145l-165 -261l170 -271h-149z" />
    <glyph glyph-name="uni2179" unicode="&#x2179;" horiz-adv-x="512" 
 />
    <glyph glyph-name="uni217A" unicode="&#x217a;" horiz-adv-x="512" 
 />
    <glyph glyph-name="uni217B" unicode="&#x217b;" horiz-adv-x="512" 
 />
    <glyph glyph-name="uni217C" unicode="&#x217c;" horiz-adv-x="512" 
 />
    <glyph glyph-name="uni217D" unicode="&#x217d;" horiz-adv-x="512" 
 />
    <glyph glyph-name="uni217E" unicode="&#x217e;" horiz-adv-x="512" 
 />
    <glyph glyph-name="uni217F" unicode="&#x217f;" horiz-adv-x="512" 
 />
    <glyph glyph-name="uni2180" unicode="&#x2180;" horiz-adv-x="512" 
 />
    <glyph glyph-name="uni2181" unicode="&#x2181;" horiz-adv-x="512" 
 />
    <glyph glyph-name="uni218F" unicode="&#x218f;" horiz-adv-x="1024" 
d="M326 314l152 -132l-65 -74l-308 266l308 266l65 -75l-152 -132h552v-119h-552z" />
    <glyph glyph-name="arrowleft" unicode="&#x2190;" horiz-adv-x="748" 
d="M314 560l-132 -152l-74 65l266 307l266 -307l-75 -65l-132 152v-552h-119v552z" />
    <glyph glyph-name="arrowup" unicode="&#x2191;" horiz-adv-x="1024" 
d="M146 314v119h552l-152 132l65 75l308 -266l-308 -266l-65 74l152 132h-552z" />
    <glyph glyph-name="arrowright" unicode="&#x2192;" horiz-adv-x="748" 
d="M433 187l132 153l75 -66l-266 -307l-266 307l74 66l132 -153v552h119v-552z" />
    <glyph glyph-name="arrowdown" unicode="&#x2193;" horiz-adv-x="512" 
 />
    <glyph glyph-name="arrowboth" unicode="&#x2194;" horiz-adv-x="512" 
 />
    <glyph glyph-name="arrowupdn" unicode="&#x2195;" horiz-adv-x="512" 
 />
    <glyph glyph-name="uni2196" unicode="&#x2196;" horiz-adv-x="512" 
 />
    <glyph glyph-name="uni2197" unicode="&#x2197;" horiz-adv-x="512" 
 />
    <glyph glyph-name="uni2198" unicode="&#x2198;" horiz-adv-x="512" 
 />
    <glyph glyph-name="uni2199" unicode="&#x2199;" horiz-adv-x="512" 
 />
    <glyph glyph-name="uni219A" unicode="&#x219a;" horiz-adv-x="512" 
 />
    <glyph glyph-name="uni219B" unicode="&#x219b;" horiz-adv-x="512" 
 />
    <glyph glyph-name="uni219C" unicode="&#x219c;" horiz-adv-x="512" 
 />
    <glyph glyph-name="uni219D" unicode="&#x219d;" horiz-adv-x="512" 
 />
    <glyph glyph-name="uni219E" unicode="&#x219e;" horiz-adv-x="512" 
 />
    <glyph glyph-name="uni219F" unicode="&#x219f;" horiz-adv-x="512" 
 />
    <glyph glyph-name="uni21A0" unicode="&#x21a0;" horiz-adv-x="512" 
 />
    <glyph glyph-name="uni21A1" unicode="&#x21a1;" horiz-adv-x="512" 
 />
    <glyph glyph-name="uni21A2" unicode="&#x21a2;" horiz-adv-x="512" 
 />
    <glyph glyph-name="uni21A3" unicode="&#x21a3;" horiz-adv-x="512" 
 />
    <glyph glyph-name="uni21A4" unicode="&#x21a4;" horiz-adv-x="512" 
 />
    <glyph glyph-name="uni21A5" unicode="&#x21a5;" horiz-adv-x="512" 
 />
    <glyph glyph-name="uni21A6" unicode="&#x21a6;" horiz-adv-x="512" 
 />
    <glyph glyph-name="uni21A7" unicode="&#x21a7;" horiz-adv-x="512" 
 />
    <glyph glyph-name="arrowupdnbse" unicode="&#x21a8;" horiz-adv-x="512" 
 />
    <glyph glyph-name="uni21A9" unicode="&#x21a9;" horiz-adv-x="512" 
 />
    <glyph glyph-name="uni21AA" unicode="&#x21aa;" horiz-adv-x="512" 
 />
    <glyph glyph-name="uni21AB" unicode="&#x21ab;" horiz-adv-x="512" 
 />
    <glyph glyph-name="uni21AC" unicode="&#x21ac;" horiz-adv-x="512" 
 />
    <glyph glyph-name="uni21AD" unicode="&#x21ad;" horiz-adv-x="512" 
 />
    <glyph glyph-name="uni21AE" unicode="&#x21ae;" horiz-adv-x="512" 
 />
    <glyph glyph-name="uni21AF" unicode="&#x21af;" horiz-adv-x="512" 
 />
    <glyph glyph-name="uni21B0" unicode="&#x21b0;" horiz-adv-x="512" 
 />
    <glyph glyph-name="uni21B1" unicode="&#x21b1;" horiz-adv-x="512" 
 />
    <glyph glyph-name="uni21B2" unicode="&#x21b2;" horiz-adv-x="512" 
 />
    <glyph glyph-name="uni21B3" unicode="&#x21b3;" horiz-adv-x="512" 
 />
    <glyph glyph-name="uni21B4" unicode="&#x21b4;" horiz-adv-x="512" 
 />
    <glyph glyph-name="carriagereturn" unicode="&#x21b5;" horiz-adv-x="512" 
 />
    <glyph glyph-name="uni21B6" unicode="&#x21b6;" horiz-adv-x="512" 
 />
    <glyph glyph-name="uni21B7" unicode="&#x21b7;" horiz-adv-x="512" 
 />
    <glyph glyph-name="uni21B8" unicode="&#x21b8;" horiz-adv-x="512" 
 />
    <glyph glyph-name="uni21B9" unicode="&#x21b9;" horiz-adv-x="512" 
 />
    <glyph glyph-name="uni21BA" unicode="&#x21ba;" horiz-adv-x="512" 
 />
    <glyph glyph-name="uni21BB" unicode="&#x21bb;" horiz-adv-x="512" 
 />
    <glyph glyph-name="uni21BC" unicode="&#x21bc;" horiz-adv-x="512" 
 />
    <glyph glyph-name="uni21BD" unicode="&#x21bd;" horiz-adv-x="512" 
 />
    <glyph glyph-name="uni21BE" unicode="&#x21be;" horiz-adv-x="512" 
 />
    <glyph glyph-name="uni21BF" unicode="&#x21bf;" horiz-adv-x="512" 
 />
    <glyph glyph-name="uni21C0" unicode="&#x21c0;" horiz-adv-x="512" 
 />
    <glyph glyph-name="uni21C1" unicode="&#x21c1;" horiz-adv-x="512" 
 />
    <glyph glyph-name="uni21C2" unicode="&#x21c2;" horiz-adv-x="512" 
 />
    <glyph glyph-name="uni21C3" unicode="&#x21c3;" horiz-adv-x="512" 
 />
    <glyph glyph-name="uni21C4" unicode="&#x21c4;" horiz-adv-x="512" 
 />
    <glyph glyph-name="uni21C5" unicode="&#x21c5;" horiz-adv-x="512" 
 />
    <glyph glyph-name="uni21C6" unicode="&#x21c6;" horiz-adv-x="512" 
 />
    <glyph glyph-name="uni21C7" unicode="&#x21c7;" horiz-adv-x="512" 
 />
    <glyph glyph-name="uni21C8" unicode="&#x21c8;" horiz-adv-x="512" 
 />
    <glyph glyph-name="uni21C9" unicode="&#x21c9;" horiz-adv-x="512" 
 />
    <glyph glyph-name="uni21CA" unicode="&#x21ca;" horiz-adv-x="512" 
 />
    <glyph glyph-name="uni21CB" unicode="&#x21cb;" horiz-adv-x="512" 
 />
    <glyph glyph-name="uni21CC" unicode="&#x21cc;" horiz-adv-x="512" 
 />
    <glyph glyph-name="uni21CD" unicode="&#x21cd;" horiz-adv-x="512" 
 />
    <glyph glyph-name="uni21CE" unicode="&#x21ce;" horiz-adv-x="512" 
 />
    <glyph glyph-name="uni21CF" unicode="&#x21cf;" horiz-adv-x="512" 
 />
    <glyph glyph-name="arrowdblleft" unicode="&#x21d0;" horiz-adv-x="512" 
 />
    <glyph glyph-name="arrowdblup" unicode="&#x21d1;" horiz-adv-x="1024" 
d="M146 271v69h629l39 34l-39 34h-629v68h550l-140 123l45 51l318 -276l-318 -277l-45 51l140 123h-550z" />
    <glyph glyph-name="arrowdblright" unicode="&#x21d2;" horiz-adv-x="512" 
 />
    <glyph glyph-name="arrowdbldown" unicode="&#x21d3;" horiz-adv-x="1024" 
d="M607 599l45 51l318 -276l-318 -277l-45 51l141 123h-472l141 -123l-45 -51l-318 277l318 276l45 -51l-141 -123h472zM826 408h-628l-39 -34l39 -34h628l39 34z" />
    <glyph glyph-name="arrowdblboth" unicode="&#x21d4;" horiz-adv-x="512" 
 />
    <glyph glyph-name="uni21D5" unicode="&#x21d5;" horiz-adv-x="512" 
 />
    <glyph glyph-name="uni21D6" unicode="&#x21d6;" horiz-adv-x="512" 
 />
    <glyph glyph-name="uni21D7" unicode="&#x21d7;" horiz-adv-x="512" 
 />
    <glyph glyph-name="uni21D8" unicode="&#x21d8;" horiz-adv-x="512" 
 />
    <glyph glyph-name="uni21D9" unicode="&#x21d9;" horiz-adv-x="512" 
 />
    <glyph glyph-name="uni21DA" unicode="&#x21da;" horiz-adv-x="512" 
 />
    <glyph glyph-name="uni21DB" unicode="&#x21db;" horiz-adv-x="512" 
 />
    <glyph glyph-name="uni21DC" unicode="&#x21dc;" horiz-adv-x="512" 
 />
    <glyph glyph-name="uni21DD" unicode="&#x21dd;" horiz-adv-x="512" 
 />
    <glyph glyph-name="uni21DE" unicode="&#x21de;" horiz-adv-x="512" 
 />
    <glyph glyph-name="uni21DF" unicode="&#x21df;" horiz-adv-x="512" 
 />
    <glyph glyph-name="uni21E0" unicode="&#x21e0;" horiz-adv-x="512" 
 />
    <glyph glyph-name="uni21E1" unicode="&#x21e1;" horiz-adv-x="512" 
 />
    <glyph glyph-name="uni21E2" unicode="&#x21e2;" horiz-adv-x="512" 
 />
    <glyph glyph-name="uni21E3" unicode="&#x21e3;" horiz-adv-x="512" 
 />
    <glyph glyph-name="uni21E4" unicode="&#x21e4;" horiz-adv-x="512" 
 />
    <glyph glyph-name="uni21E5" unicode="&#x21e5;" horiz-adv-x="512" 
 />
    <glyph glyph-name="uni21E6" unicode="&#x21e6;" horiz-adv-x="512" 
 />
    <glyph glyph-name="uni21E7" unicode="&#x21e7;" horiz-adv-x="512" 
 />
    <glyph glyph-name="uni21E8" unicode="&#x21e8;" horiz-adv-x="512" 
 />
    <glyph glyph-name="uni21E9" unicode="&#x21e9;" horiz-adv-x="512" 
 />
    <glyph glyph-name="uni21FF" unicode="&#x21ff;" horiz-adv-x="721" 
d="M544 748h152l-259 -748h-153l-259 748h148l53 -181h264zM458 458h-199l98 -332h2z" />
    <glyph glyph-name="universal" unicode="&#x2200;" horiz-adv-x="512" 
 />
    <glyph glyph-name="uni2201" unicode="&#x2201;" horiz-adv-x="635" 
d="M96 580l-37 109q51 29 119 49t115 20q152 0 227 -99.5t75 -317.5q0 -351 -280 -351q-126 0 -203 72.5t-77 193.5q0 120 64 184.5t182 64.5q91 0 158 -48l1 1q-6 95 -44 137t-110 42q-78 0 -190 -57zM315 99q66 0 102.5 40t36.5 117q0 69 -37.5 108.5t-101.5 39.5
q-65 0 -102.5 -39t-37.5 -109q0 -77 37 -117t103 -40z" />
    <glyph glyph-name="partialdiff" unicode="&#x2202;" horiz-adv-x="616" 
d="M392 632h-321v116h465v-748h-465v116h321v223h-301v110h301v183z" />
    <glyph glyph-name="existential" unicode="&#x2203;" horiz-adv-x="512" 
 />
    <glyph glyph-name="uni2204" unicode="&#x2204;" horiz-adv-x="512" 
 />
    <glyph glyph-name="emptyset" unicode="&#x2205;" horiz-adv-x="512" 
 />
    <glyph glyph-name="Delta" unicode="&#x2206;" horiz-adv-x="721" 
d="M510 634h-303l150 -508h2zM173 748h371h49h103l-259 -748h-153l-259 748h103h45z" />
    <glyph glyph-name="gradient" unicode="&#x2207;" horiz-adv-x="629" 
d="M563 7h-249q-126 0 -202.5 72.5t-76.5 187t76.5 186.5t202.5 72h249v-102h-234q-74 0 -122 -29.5t-60 -81.5h416v-92h-416q12 -51 60 -80.5t122 -29.5h234v-103z" />
    <glyph glyph-name="element" unicode="&#x2208;" horiz-adv-x="512" 
 />
    <glyph glyph-name="notelement" unicode="&#x2209;" horiz-adv-x="512" 
 />
    <glyph glyph-name="uni220A" unicode="&#x220a;" horiz-adv-x="629" 
d="M66 220v92h415q-11 52 -59 81.5t-122 29.5h-234v102h248q126 0 203 -72t77 -186.5t-77 -187t-203 -72.5h-248v103h234q74 0 122 29.5t59 80.5h-415z" />
    <glyph glyph-name="suchthat" unicode="&#x220b;" horiz-adv-x="512" 
 />
    <glyph glyph-name="uni220C" unicode="&#x220c;" horiz-adv-x="512" 
 />
    <glyph glyph-name="uni220D" unicode="&#x220d;" horiz-adv-x="512" 
 />
    <glyph glyph-name="uni220E" unicode="&#x220e;" horiz-adv-x="512" 
 />
    <glyph glyph-name="product" unicode="&#x220f;" horiz-adv-x="512" 
 />
    <glyph glyph-name="uni2210" unicode="&#x2210;" horiz-adv-x="731" 
d="M666 748v-120h-439l251 -347l-251 -386h439v-120h-600v120l250 385l-250 348v120h600z" />
    <glyph glyph-name="summation" unicode="&#x2211;" horiz-adv-x="512" 
 />
    <glyph glyph-name="minus" unicode="&#x2212;" horiz-adv-x="512" 
 />
    <glyph glyph-name="uni2213" unicode="&#x2213;" horiz-adv-x="512" 
 />
    <glyph glyph-name="uni2214" unicode="&#x2214;" horiz-adv-x="512" 
 />
    <glyph glyph-name="uni2215" unicode="&#x2215;" horiz-adv-x="512" 
 />
    <glyph glyph-name="uni2216" unicode="&#x2216;" horiz-adv-x="512" 
 />
    <glyph glyph-name="asteriskmath" unicode="&#x2217;" horiz-adv-x="512" 
 />
    <glyph glyph-name="uni2218" unicode="&#x2218;" horiz-adv-x="512" 
 />
    <glyph glyph-name="uni2219" unicode="&#x2219;" horiz-adv-x="778" 
d="M40 451h227l124 -454h2l243 832h128l-282 -911h-184l-144 437h-114v96z" />
    <glyph glyph-name="radical" unicode="&#x221a;" horiz-adv-x="512" 
 />
    <glyph glyph-name="uni221B" unicode="&#x221b;" horiz-adv-x="512" 
 />
    <glyph glyph-name="uni221C" unicode="&#x221c;" horiz-adv-x="723" 
d="M425 166h-2q-65 -125 -180 -125q-91 0 -149.5 62.5t-58.5 163t59 163t149 62.5q119 0 193 -125h2q66 125 178 125q19 0 57 -7v-115q-30 6 -51 6q-99 0 -139 -103q41 -116 142 -116q19 0 48 7v-117q-38 -6 -55 -6q-119 0 -193 125zM378 259q-20 55 -53.5 86t-74.5 31
q-48 0 -76.5 -30t-28.5 -80t28.5 -79.5t76.5 -29.5q89 0 128 102z" />
    <glyph glyph-name="proportional" unicode="&#x221d;" horiz-adv-x="862" 
d="M244 492q120 0 193 -125h2q65 125 179 125q92 0 150.5 -62.5t58.5 -163.5q0 -96 -59.5 -160.5t-149.5 -64.5q-119 0 -193 125h-2q-65 -125 -179 -125q-91 0 -150 62.5t-59 163t59.5 163t149.5 62.5zM378 259q-20 55 -53.5 86t-73.5 31q-48 0 -76.5 -30t-28.5 -80
t28.5 -79.5t76.5 -29.5q88 0 127 102zM484 273q20 -55 53.5 -85.5t73.5 -30.5q47 0 76 31.5t29 77.5q0 50 -28.5 80t-76.5 30q-88 0 -127 -103z" />
    <glyph glyph-name="infinity" unicode="&#x221e;" horiz-adv-x="748" 
d="M208 655v-535h484v-120h-611v655h127z" />
    <glyph glyph-name="orthogonal" unicode="&#x221f;" horiz-adv-x="776" 
d="M253 120h463v-120h-686l430 686l107 -66z" />
    <glyph glyph-name="angle" unicode="&#x2220;" horiz-adv-x="512" 
 />
    <glyph glyph-name="uni2221" unicode="&#x2221;" horiz-adv-x="512" 
 />
    <glyph glyph-name="uni2222" unicode="&#x2222;" horiz-adv-x="512" 
 />
    <glyph glyph-name="uni2223" unicode="&#x2223;" horiz-adv-x="512" 
 />
    <glyph glyph-name="uni2224" unicode="&#x2224;" horiz-adv-x="819" 
d="M315 -66l-98 70l475 679l98 -69zM127 54l-97 69l474 680l98 -70z" />
    <glyph glyph-name="uni2225" unicode="&#x2225;" horiz-adv-x="512" 
 />
    <glyph glyph-name="uni2226" unicode="&#x2226;" horiz-adv-x="596" 
d="M421 0l-124 495h-2l-124 -495h-141l176 573h184l176 -573h-145z" />
    <glyph glyph-name="logicaland" unicode="&#x2227;" horiz-adv-x="596" 
d="M175 573l124 -494h2l124 494h141l-176 -573h-184l-176 573h145z" />
    <glyph glyph-name="logicalor" unicode="&#x2228;" horiz-adv-x="659" 
d="M186 323v-323h-115v321q0 125 70 199t189 74t189 -74t70 -199v-321h-116v323q0 79 -38 122t-105.5 43t-105.5 -43t-38 -122z" />
    <glyph glyph-name="intersection" unicode="&#x2229;" horiz-adv-x="659" 
d="M473 251v322h116v-320q0 -126 -70 -199.5t-189 -73.5t-189 73.5t-70 199.5v320h115v-322q0 -80 38 -123t105.5 -43t105.5 43t38 123z" />
    <glyph glyph-name="union" unicode="&#x222a;" horiz-adv-x="629" 
d="M219 -36l41 611q5 87 59.5 135t146.5 48q61 0 123 -16l-17 -118q-45 11 -92 11q-66 0 -70 -77l-41 -611q-5 -86 -59.5 -134.5t-146.5 -48.5q-62 0 -123 16l16 119q45 -12 92 -12q65 0 71 77z" />
    <glyph glyph-name="integral" unicode="&#x222b;" horiz-adv-x="956" 
d="M552 -36l41 611q5 87 59.5 135t146.5 48q61 0 123 -16l-17 -118q-45 11 -92 11q-67 0 -71 -77l-41 -611q-5 -86 -59 -134.5t-146 -48.5q-62 0 -123 16l16 119q45 -12 92 -12q65 0 71 77zM214 -36l41 611q5 87 59.5 135t146.5 48q61 0 123 -16l-17 -118q-45 11 -92 11
q-66 0 -71 -77l-40 -611q-6 -86 -60 -134.5t-146 -48.5q-62 0 -123 16l16 119q45 -12 92 -12q65 0 71 77z" />
    <glyph glyph-name="uni222C" unicode="&#x222c;" horiz-adv-x="512" 
 />
    <glyph glyph-name="uni222D" unicode="&#x222d;" horiz-adv-x="649" 
d="M390 109q47 19 76.5 62t29.5 95q0 46 -23 85.5t-62 62.5zM419 530q83 -29 134 -101.5t51 -162.5q0 -100 -63 -177t-159 -97l-3 -45q-5 -86 -59.5 -134.5t-146.5 -48.5q-61 0 -123 16l17 119q45 -12 92 -12q64 0 70 77l2 38q-83 30 -134.5 102t-51.5 162q0 101 63 177.5
t159 97.5l3 34q5 87 59.5 135t146.5 48q62 0 123 -16l-16 -118q-45 11 -93 11q-64 0 -70 -77zM260 424q-48 -20 -77 -62.5t-29 -95.5q0 -47 23.5 -86t62.5 -61z" />
    <glyph glyph-name="uni222E" unicode="&#x222e;" horiz-adv-x="512" 
 />
    <glyph glyph-name="uni222F" unicode="&#x222f;" horiz-adv-x="512" 
 />
    <glyph glyph-name="uni2230" unicode="&#x2230;" horiz-adv-x="512" 
 />
    <glyph glyph-name="uni2231" unicode="&#x2231;" horiz-adv-x="512" 
 />
    <glyph glyph-name="uni2232" unicode="&#x2232;" horiz-adv-x="512" 
 />
    <glyph glyph-name="uni2233" unicode="&#x2233;" horiz-adv-x="762" 
d="M497 0v174h163v-174h-163zM101 0v174h164v-174h-164zM299 392v174h164v-174h-164z" />
    <glyph glyph-name="therefore" unicode="&#x2234;" horiz-adv-x="762" 
d="M497 392v174h163v-174h-163zM101 392v174h164v-174h-164zM299 0v174h164v-174h-164z" />
    <glyph glyph-name="uni2235" unicode="&#x2235;" horiz-adv-x="512" 
 />
    <glyph glyph-name="uni2236" unicode="&#x2236;" horiz-adv-x="512" 
 />
    <glyph glyph-name="uni2237" unicode="&#x2237;" horiz-adv-x="512" 
 />
    <glyph glyph-name="uni2238" unicode="&#x2238;" horiz-adv-x="512" 
 />
    <glyph glyph-name="uni2239" unicode="&#x2239;" horiz-adv-x="512" 
 />
    <glyph glyph-name="uni223A" unicode="&#x223a;" horiz-adv-x="512" 
 />
    <glyph glyph-name="uni223B" unicode="&#x223b;" horiz-adv-x="512" 
 />
    <glyph glyph-name="similar" unicode="&#x223c;" horiz-adv-x="862" 
d="M618 492q95 0 152 -62t57 -164t-58 -163.5t-157 -61.5q-47 0 -89 12l13 109q35 -11 72 -11q50 0 79 29.5t29 82.5q0 52 -27 82.5t-74 30.5q-48 0 -79.5 -36t-53.5 -101q-14 -43 -31.5 -75t-44.5 -61.5t-68 -45.5t-94 -16q-94 0 -151.5 62t-57.5 163q0 103 58.5 164.5
t156.5 61.5q47 0 89 -13l-12 -108q-36 11 -73 11q-50 0 -79 -29.5t-29 -83.5q0 -52 27.5 -82t73.5 -30q48 0 79.5 35.5t53.5 101.5q14 43 31.5 74.5t44.5 61.5t68 46t94 16z" />
    <glyph glyph-name="uni223D" unicode="&#x223d;" horiz-adv-x="512" 
 />
    <glyph glyph-name="uni223E" unicode="&#x223e;" horiz-adv-x="512" 
 />
    <glyph glyph-name="uni223F" unicode="&#x223f;" horiz-adv-x="512" 
 />
    <glyph glyph-name="uni2240" unicode="&#x2240;" horiz-adv-x="512" 
 />
    <glyph glyph-name="uni2241" unicode="&#x2241;" horiz-adv-x="512" 
 />
    <glyph glyph-name="uni2242" unicode="&#x2242;" horiz-adv-x="512" 
 />
    <glyph glyph-name="uni2243" unicode="&#x2243;" horiz-adv-x="512" 
 />
    <glyph glyph-name="uni2244" unicode="&#x2244;" horiz-adv-x="512" 
 />
    <glyph glyph-name="congruent" unicode="&#x2245;" horiz-adv-x="512" 
 />
    <glyph glyph-name="uni2246" unicode="&#x2246;" horiz-adv-x="512" 
 />
    <glyph glyph-name="uni2247" unicode="&#x2247;" horiz-adv-x="512" 
 />
    <glyph glyph-name="approxequal" unicode="&#x2248;" horiz-adv-x="512" 
 />
    <glyph glyph-name="uni2249" unicode="&#x2249;" horiz-adv-x="512" 
 />
    <glyph glyph-name="uni224A" unicode="&#x224a;" horiz-adv-x="512" 
 />
    <glyph glyph-name="uni224B" unicode="&#x224b;" horiz-adv-x="512" 
 />
    <glyph glyph-name="uni224C" unicode="&#x224c;" horiz-adv-x="512" 
 />
    <glyph glyph-name="uni224D" unicode="&#x224d;" horiz-adv-x="512" 
 />
    <glyph glyph-name="uni224E" unicode="&#x224e;" horiz-adv-x="512" 
 />
    <glyph glyph-name="uni224F" unicode="&#x224f;" horiz-adv-x="512" 
 />
    <glyph glyph-name="uni2250" unicode="&#x2250;" horiz-adv-x="512" 
 />
    <glyph glyph-name="uni2251" unicode="&#x2251;" horiz-adv-x="772" 
d="M488 -87v150h157v-150h-157zM86 125v107h600v-107h-600zM86 361v108h600v-108h-600zM127 530v151h157v-151h-157z" />
    <glyph glyph-name="uni2252" unicode="&#x2252;" horiz-adv-x="512" 
 />
    <glyph glyph-name="uni2253" unicode="&#x2253;" horiz-adv-x="512" 
 />
    <glyph glyph-name="uni2254" unicode="&#x2254;" horiz-adv-x="512" 
 />
    <glyph glyph-name="uni2255" unicode="&#x2255;" horiz-adv-x="512" 
 />
    <glyph glyph-name="uni2256" unicode="&#x2256;" horiz-adv-x="512" 
 />
    <glyph glyph-name="uni2257" unicode="&#x2257;" horiz-adv-x="512" 
 />
    <glyph glyph-name="uni2258" unicode="&#x2258;" horiz-adv-x="512" 
 />
    <glyph glyph-name="uni2259" unicode="&#x2259;" horiz-adv-x="512" 
 />
    <glyph glyph-name="uni225A" unicode="&#x225a;" horiz-adv-x="512" 
 />
    <glyph glyph-name="uni225B" unicode="&#x225b;" horiz-adv-x="512" 
 />
    <glyph glyph-name="uni225C" unicode="&#x225c;" horiz-adv-x="512" 
 />
    <glyph glyph-name="uni225D" unicode="&#x225d;" horiz-adv-x="512" 
 />
    <glyph glyph-name="uni225E" unicode="&#x225e;" horiz-adv-x="512" 
 />
    <glyph glyph-name="uni225F" unicode="&#x225f;" horiz-adv-x="772" 
d="M86 118v109h212l47 140h-259v109h295l49 148l117 -39l-36 -109h175v-109h-212l-47 -140h259v-109h-295l-49 -148l-117 39l36 109h-175z" />
    <glyph glyph-name="notequal" unicode="&#x2260;" horiz-adv-x="772" 
d="M86 54v103h600v-103h-600zM86 246v102h600v-102h-600zM86 437v103h600v-103h-600z" />
    <glyph glyph-name="equivalence" unicode="&#x2261;" horiz-adv-x="512" 
 />
    <glyph glyph-name="uni2262" unicode="&#x2262;" horiz-adv-x="512" 
 />
    <glyph glyph-name="uni2263" unicode="&#x2263;" horiz-adv-x="512" 
 />
    <glyph glyph-name="lessequal" unicode="&#x2264;" horiz-adv-x="512" 
 />
    <glyph glyph-name="greaterequal" unicode="&#x2265;" horiz-adv-x="772" 
d="M86 -85v97h600v-97h-600zM86 87v97h600v-97h-600zM686 602l-510 -135v-2l510 -135v-112l-600 178v140l600 178v-112z" />
    <glyph glyph-name="uni2266" unicode="&#x2266;" horiz-adv-x="772" 
d="M86 -85v97h600v-97h-600zM86 87v97h600v-97h-600zM86 602v112l600 -178v-140l-600 -178v112l510 135v2z" />
    <glyph glyph-name="uni2267" unicode="&#x2267;" horiz-adv-x="512" 
 />
    <glyph glyph-name="uni2268" unicode="&#x2268;" horiz-adv-x="512" 
 />
    <glyph glyph-name="uni2269" unicode="&#x2269;" horiz-adv-x="1001" 
d="M921 525l-403 -227v-2l403 -227v-120l-485 283v129l485 284v-120zM535 525l-403 -227v-2l403 -227v-120l-485 283v129l485 284v-120z" />
    <glyph glyph-name="uni226A" unicode="&#x226a;" horiz-adv-x="1001" 
d="M81 525v120l484 -284v-129l-484 -283v120l402 227v2zM467 525v120l484 -284v-129l-484 -283v120l402 227v2z" />
    <glyph glyph-name="uni226B" unicode="&#x226b;" horiz-adv-x="512" 
 />
    <glyph glyph-name="uni226C" unicode="&#x226c;" horiz-adv-x="512" 
 />
    <glyph glyph-name="uni226D" unicode="&#x226d;" horiz-adv-x="512" 
 />
    <glyph glyph-name="uni226E" unicode="&#x226e;" horiz-adv-x="512" 
 />
    <glyph glyph-name="uni226F" unicode="&#x226f;" horiz-adv-x="512" 
 />
    <glyph glyph-name="uni2270" unicode="&#x2270;" horiz-adv-x="512" 
 />
    <glyph glyph-name="uni2271" unicode="&#x2271;" horiz-adv-x="512" 
 />
    <glyph glyph-name="uni2272" unicode="&#x2272;" horiz-adv-x="512" 
 />
    <glyph glyph-name="uni2273" unicode="&#x2273;" horiz-adv-x="512" 
 />
    <glyph glyph-name="uni2274" unicode="&#x2274;" horiz-adv-x="512" 
 />
    <glyph glyph-name="uni2275" unicode="&#x2275;" horiz-adv-x="512" 
 />
    <glyph glyph-name="uni2276" unicode="&#x2276;" horiz-adv-x="512" 
 />
    <glyph glyph-name="uni2277" unicode="&#x2277;" horiz-adv-x="512" 
 />
    <glyph glyph-name="uni2278" unicode="&#x2278;" horiz-adv-x="512" 
 />
    <glyph glyph-name="uni2279" unicode="&#x2279;" horiz-adv-x="512" 
 />
    <glyph glyph-name="uni227A" unicode="&#x227a;" horiz-adv-x="512" 
 />
    <glyph glyph-name="uni227B" unicode="&#x227b;" horiz-adv-x="512" 
 />
    <glyph glyph-name="uni227C" unicode="&#x227c;" horiz-adv-x="512" 
 />
    <glyph glyph-name="uni227D" unicode="&#x227d;" horiz-adv-x="512" 
 />
    <glyph glyph-name="uni227E" unicode="&#x227e;" horiz-adv-x="512" 
 />
    <glyph glyph-name="uni227F" unicode="&#x227f;" horiz-adv-x="512" 
 />
    <glyph glyph-name="uni2280" unicode="&#x2280;" horiz-adv-x="512" 
 />
    <glyph glyph-name="uni2281" unicode="&#x2281;" horiz-adv-x="711" 
d="M332 113h313v-106h-331q-126 0 -202.5 72.5t-76.5 187t76.5 186.5t202.5 72h331v-105h-313q-84 0 -131 -41.5t-47 -112t47 -112t131 -41.5z" />
    <glyph glyph-name="propersubset" unicode="&#x2282;" horiz-adv-x="711" 
d="M379 113q84 0 131 41.5t47 112t-47 112t-131 41.5h-313v105h330q126 0 203 -72t77 -186.5t-77 -187t-203 -72.5h-330v106h313z" />
    <glyph glyph-name="propersuperset" unicode="&#x2283;" horiz-adv-x="512" 
 />
    <glyph glyph-name="notsubset" unicode="&#x2284;" horiz-adv-x="512" 
 />
    <glyph glyph-name="uni2285" unicode="&#x2285;" horiz-adv-x="782" 
d="M96 -54v102h600v-102h-600zM383 249h313v-106h-330q-126 0 -203 72.5t-77 187t77 187.5t203 73h330v-107h-313q-84 0 -131 -41.5t-47 -112t47 -112t131 -41.5z" />
    <glyph glyph-name="reflexsubset" unicode="&#x2286;" horiz-adv-x="782" 
d="M86 -54v102h600v-102h-600zM399 249q84 0 131.5 41.5t47.5 112t-47.5 112t-131.5 41.5h-313v107h331q126 0 202.5 -73t76.5 -187.5t-76.5 -187t-202.5 -72.5h-331v106h313z" />
    <glyph glyph-name="reflexsuperset" unicode="&#x2287;" horiz-adv-x="512" 
 />
    <glyph glyph-name="uni2288" unicode="&#x2288;" horiz-adv-x="512" 
 />
    <glyph glyph-name="uni2289" unicode="&#x2289;" horiz-adv-x="512" 
 />
    <glyph glyph-name="uni228A" unicode="&#x228a;" horiz-adv-x="512" 
 />
    <glyph glyph-name="uni228B" unicode="&#x228b;" horiz-adv-x="512" 
 />
    <glyph glyph-name="uni228C" unicode="&#x228c;" horiz-adv-x="512" 
 />
    <glyph glyph-name="uni228D" unicode="&#x228d;" horiz-adv-x="512" 
 />
    <glyph glyph-name="uni228E" unicode="&#x228e;" horiz-adv-x="512" 
 />
    <glyph glyph-name="uni228F" unicode="&#x228f;" horiz-adv-x="512" 
 />
    <glyph glyph-name="uni2290" unicode="&#x2290;" horiz-adv-x="512" 
 />
    <glyph glyph-name="uni2291" unicode="&#x2291;" horiz-adv-x="512" 
 />
    <glyph glyph-name="uni2292" unicode="&#x2292;" horiz-adv-x="512" 
 />
    <glyph glyph-name="uni2293" unicode="&#x2293;" horiz-adv-x="512" 
 />
    <glyph glyph-name="uni2294" unicode="&#x2294;" horiz-adv-x="512" 
 />
    <glyph glyph-name="circleplus" unicode="&#x2295;" horiz-adv-x="512" 
 />
    <glyph glyph-name="uni2296" unicode="&#x2296;" horiz-adv-x="512" 
 />
    <glyph glyph-name="circlemultiply" unicode="&#x2297;" horiz-adv-x="512" 
 />
    <glyph glyph-name="uni2298" unicode="&#x2298;" horiz-adv-x="512" 
 />
    <glyph glyph-name="uni2299" unicode="&#x2299;" horiz-adv-x="512" 
 />
    <glyph glyph-name="uni229A" unicode="&#x229a;" horiz-adv-x="512" 
 />
    <glyph glyph-name="uni229B" unicode="&#x229b;" horiz-adv-x="512" 
 />
    <glyph glyph-name="uni229C" unicode="&#x229c;" horiz-adv-x="512" 
 />
    <glyph glyph-name="uni229D" unicode="&#x229d;" horiz-adv-x="512" 
 />
    <glyph glyph-name="uni229E" unicode="&#x229e;" horiz-adv-x="512" 
 />
    <glyph glyph-name="uni229F" unicode="&#x229f;" horiz-adv-x="512" 
 />
    <glyph glyph-name="uni22A0" unicode="&#x22a0;" horiz-adv-x="512" 
 />
    <glyph glyph-name="uni22A1" unicode="&#x22a1;" horiz-adv-x="512" 
 />
    <glyph glyph-name="uni22A2" unicode="&#x22a2;" horiz-adv-x="512" 
 />
    <glyph glyph-name="uni22A3" unicode="&#x22a3;" horiz-adv-x="512" 
 />
    <glyph glyph-name="uni22A4" unicode="&#x22a4;" horiz-adv-x="889" 
d="M71 0v123h302v625h143v-625h302v-123h-747z" />
    <glyph glyph-name="perpendicular" unicode="&#x22a5;" horiz-adv-x="512" 
 />
    <glyph glyph-name="uni22A6" unicode="&#x22a6;" horiz-adv-x="512" 
 />
    <glyph glyph-name="uni22A7" unicode="&#x22a7;" horiz-adv-x="512" 
 />
    <glyph glyph-name="uni22A8" unicode="&#x22a8;" horiz-adv-x="512" 
 />
    <glyph glyph-name="uni22A9" unicode="&#x22a9;" horiz-adv-x="512" 
 />
    <glyph glyph-name="uni22AA" unicode="&#x22aa;" horiz-adv-x="512" 
 />
    <glyph glyph-name="uni22AB" unicode="&#x22ab;" horiz-adv-x="512" 
 />
    <glyph glyph-name="uni22AC" unicode="&#x22ac;" horiz-adv-x="512" 
 />
    <glyph glyph-name="uni22AD" unicode="&#x22ad;" horiz-adv-x="512" 
 />
    <glyph glyph-name="uni22AE" unicode="&#x22ae;" horiz-adv-x="512" 
 />
    <glyph glyph-name="uni22AF" unicode="&#x22af;" horiz-adv-x="512" 
 />
    <glyph glyph-name="uni22B0" unicode="&#x22b0;" horiz-adv-x="512" 
 />
    <glyph glyph-name="uni22B1" unicode="&#x22b1;" horiz-adv-x="512" 
 />
    <glyph glyph-name="uni22B2" unicode="&#x22b2;" horiz-adv-x="512" 
 />
    <glyph glyph-name="uni22B3" unicode="&#x22b3;" horiz-adv-x="512" 
 />
    <glyph glyph-name="uni22B4" unicode="&#x22b4;" horiz-adv-x="512" 
 />
    <glyph glyph-name="uni22B5" unicode="&#x22b5;" horiz-adv-x="512" 
 />
    <glyph glyph-name="uni22B6" unicode="&#x22b6;" horiz-adv-x="512" 
 />
    <glyph glyph-name="uni22B7" unicode="&#x22b7;" horiz-adv-x="512" 
 />
    <glyph glyph-name="uni22B8" unicode="&#x22b8;" horiz-adv-x="512" 
 />
    <glyph glyph-name="uni22B9" unicode="&#x22b9;" horiz-adv-x="512" 
 />
    <glyph glyph-name="uni22BA" unicode="&#x22ba;" horiz-adv-x="512" 
 />
    <glyph glyph-name="uni22BB" unicode="&#x22bb;" horiz-adv-x="512" 
 />
    <glyph glyph-name="uni22BC" unicode="&#x22bc;" horiz-adv-x="512" 
 />
    <glyph glyph-name="uni22BD" unicode="&#x22bd;" horiz-adv-x="512" 
 />
    <glyph glyph-name="uni22BE" unicode="&#x22be;" horiz-adv-x="807" 
d="M656 70v457l-457 -457h457zM726 0h-696l696 696v-696z" />
    <glyph glyph-name="uni3131" unicode="&#x3131;" horiz-adv-x="800" 
d="M553 600v-570h177l10 720h-680v-150h493z" />
    <glyph glyph-name="uni3132" unicode="&#x3132;" horiz-adv-x="800" 
d="M192 600v-570h177l10 720h-319v-150h132zM553 600v-570h177l10 720h-319v-150h132z" />
    <glyph glyph-name="uni3133" unicode="&#x3133;" 
d="M60 600v150h319l-10 -720h-177v570h-132zM665 571q0 -125 10.5 -204.5t35.5 -125.5t69 -61l-50 -150q-42 7 -80 38.5t-68 86.5q-31 -55 -69.5 -86.5t-79.5 -38.5l-50 150q44 15 69 61t35.5 125.5t10.5 204.5v179h167v-179z" />
    <glyph glyph-name="uni3134" unicode="&#x3134;" horiz-adv-x="800" 
d="M247 180v570h-187v-720h680v150h-493z" />
    <glyph glyph-name="uni3135" unicode="&#x3135;" horiz-adv-x="827" 
d="M247 750v-570h113v-150h-300v720h187zM647 571q0 -137 9.5 -215t35 -122t75.5 -64l-50 -140q-42 7 -80 37.5t-68 84.5q-30 -54 -68.5 -84.5t-80.5 -37.5l-50 140q50 20 75.5 64t35 122t9.5 215v28h-94v151h344v-151h-93v-28z" />
    <glyph glyph-name="uni3136" unicode="&#x3136;" horiz-adv-x="810" 
d="M661 690v80h-167v-80h-89v-142h345v142h-89zM247 180v570h-187v-720h333v150h-146zM578 20q73 0 117.5 47t44.5 123v173q0 76 -44.5 123t-117.5 47t-118 -46.5t-45 -123.5v-173q0 -77 45 -123.5t118 -46.5zM578 170q-8 0 -13.5 5.5t-5.5 13.5v176q0 8 5.5 13.5t13.5 5.5
t13 -5.5t5 -13.5v-176q0 -8 -5 -13.5t-13 -5.5z" />
    <glyph glyph-name="uni3137" unicode="&#x3137;" horiz-adv-x="800" 
d="M248 180v420h492v150h-680v-720h680v150h-492z" />
    <glyph glyph-name="uni3138" unicode="&#x3138;" horiz-adv-x="800" 
d="M248 180v420h135v150h-323v-720h323v150h-135zM611 180v420h129v150h-317v-720h317v150h-129z" />
    <glyph glyph-name="uni3139" unicode="&#x3139;" horiz-adv-x="810" 
d="M750 30v150h-513v137h503v433h-680v-150h502v-133h-502v-437h690z" />
    <glyph glyph-name="uni313A" unicode="&#x313a;" horiz-adv-x="800" 
d="M390 30v150h-153v137h143v433h-320v-150h142v-133h-142v-437h330zM553 600v-570h177l10 720h-319v-150h132z" />
    <glyph glyph-name="uni313B" unicode="&#x313b;" horiz-adv-x="820" 
d="M364 30v150h-127v137h127v433h-304v-150h126v-133h-126v-437h304zM760 750h-356v-720h356v720zM602 599v-419h-40v419h40z" />
    <glyph glyph-name="uni313C" unicode="&#x313c;" horiz-adv-x="826" 
d="M390 30v150h-153v137h143v433h-320v-150h142v-133h-142v-437h330zM766 30v720h-153v-210h-40v210h-153v-720h346zM613 180h-40v210h40v-210z" />
    <glyph glyph-name="uni313D" unicode="&#x313d;" 
d="M60 600v150h320v-433h-143v-137h143v-150h-320v437h142v133h-142zM665 571q0 -125 10.5 -204.5t35.5 -125.5t69 -61l-50 -150q-42 7 -80 38.5t-68 86.5q-31 -55 -69.5 -86.5t-79.5 -38.5l-50 150q44 15 69 61t35.5 125.5t10.5 204.5v179h167v-179z" />
    <glyph glyph-name="uni313E" unicode="&#x313e;" horiz-adv-x="800" 
d="M390 30v150h-153v137h143v433h-320v-150h142v-133h-142v-437h330zM608 608h132v142h-320v-720h320v142h-132v148h122v142h-122v146z" />
    <glyph glyph-name="uni313F" unicode="&#x313f;" horiz-adv-x="885" 
d="M60 747v-124h169v-19l23 -2h-192v-117h1q5 -68 59 -110.5t132 -42.5h169v124h-169v22h169v269h-361zM825 747h-381v-120h24l22 -175h-46v-120h381v120h-46l23 175h23v120zM635 493l-18 134h35z" />
    <glyph glyph-name="uni3140" unicode="&#x3140;" horiz-adv-x="810" 
d="M661 690v80h-167v-80h-89v-142h345v142h-89zM390 30v150h-153v137h133v433h-310v-150h132v-133h-132v-437h330zM578 20q73 0 117.5 47t44.5 123v173q0 76 -44.5 123t-117.5 47t-118 -46.5t-45 -123.5v-173q0 -77 45 -123.5t118 -46.5zM578 170q-8 0 -13.5 5.5t-5.5 13.5
v176q0 8 5.5 13.5t13.5 5.5t13 -5.5t5 -13.5v-176q0 -8 -5 -13.5t-13 -5.5z" />
    <glyph glyph-name="uni3141" unicode="&#x3141;" horiz-adv-x="800" 
d="M740 750h-680v-720h680v720zM552 599v-419h-304v419h304z" />
    <glyph glyph-name="uni3142" unicode="&#x3142;" horiz-adv-x="802" 
d="M742 30v720h-188v-210h-306v210h-188v-720h682zM554 180h-306v210h306v-210z" />
    <glyph glyph-name="uni3143" unicode="&#x3143;" horiz-adv-x="805" 
d="M745 30v720h-188v-210h-61v210h-188v-210h-60v210h-188v-720h685zM308 180h-60v210h60v-210zM557 390v-210h-61v210h61z" />
    <glyph glyph-name="uni3144" unicode="&#x3144;" horiz-adv-x="900" 
d="M725 571q0 -125 10.5 -204.5t35.5 -125.5t69 -61l-50 -150q-42 7 -80 38.5t-68 86.5q-31 -55 -69.5 -86.5t-79.5 -38.5l-47 141v-141h-386v720h168v-210h50v210h168v-569q43 16 67.5 62t34.5 125.5t10 202.5v179h167v-179zM278 180v210h-50v-210h50z" />
    <glyph glyph-name="uni3145" unicode="&#x3145;" horiz-adv-x="820" 
d="M504 703q0 -185 23 -294t78 -166t155 -73l-40 -140q-115 17 -189.5 61t-120.5 128q-46 -84 -120.5 -128t-189.5 -61l-40 140q100 16 155 73t78 166t23 294v47h188v-47z" />
    <glyph glyph-name="uni3146" unicode="&#x3146;" 
d="M150 30q67 52 119 125q20 -29 57.5 -70.5t50.5 -54.5l43 30l43 -30q13 13 50.5 54.5t58.5 70.5q50 -72 118 -125l90 130q-48 40 -72 96.5t-33.5 168t-9.5 325.5h-187q0 -194 -5 -295t-17 -150t-36 -84q-24 35 -36 84t-17 150t-5 295h-187q0 -214 -9.5 -325.5t-33.5 -168
t-72 -96.5z" />
    <glyph glyph-name="uni3147" unicode="&#x3147;" horiz-adv-x="800" 
d="M400 760q-160 0 -250 -89t-90 -248v-65q0 -105 40.5 -181t117 -116.5t182.5 -40.5t182.5 40.5t117 116.5t40.5 181v64q0 105 -40.5 181t-117 116.5t-182.5 40.5zM400 610q71 0 110.5 -39t39.5 -109v-144q0 -70 -39.5 -109t-110.5 -39t-110.5 39t-39.5 109v144
q0 70 39.5 109t110.5 39z" />
    <glyph glyph-name="uni3148" unicode="&#x3148;" horiz-adv-x="820" 
d="M506 600q6 -144 32 -232.5t79 -136t143 -61.5l-40 -140q-115 17 -189.5 61t-120.5 128q-46 -84 -120.5 -128t-189.5 -61l-40 140q90 14 143 61.5t79 136t32 232.5h-234v150h660v-150h-234z" />
    <glyph glyph-name="uni3149" unicode="&#x3149;" 
d="M666 601q3 -148 14.5 -231t34.5 -129t65 -81l-90 -130q-68 53 -118 125q-21 -29 -58.5 -70.5t-50.5 -54.5l-43 30l-43 -30q-13 13 -50.5 54.5t-57.5 70.5q-52 -73 -119 -125l-90 130q42 35 65 81t34.5 129t14.5 231h-94v151h680v-151h-94zM420 221q20 30 31.5 69t18 111
t7.5 200h-114q1 -128 7.5 -200t18 -111t31.5 -69z" />
    <glyph glyph-name="uni314A" unicode="&#x314a;" horiz-adv-x="820" 
d="M512 540q17 -174 74.5 -263t173.5 -107l-40 -140q-113 17 -188 67t-122 142q-47 -92 -122 -142t-188 -67l-40 140q116 18 173.5 107t74.5 263h-228v150h236v100h188v-100h236v-150h-228z" />
    <glyph glyph-name="uni314B" unicode="&#x314b;" horiz-adv-x="800" 
d="M730 30l10 720h-680v-150h492v-185h-482v-150h482v-235h178z" />
    <glyph glyph-name="uni314C" unicode="&#x314c;" horiz-adv-x="800" 
d="M248 608h492v142h-680v-720h680v142h-492v148h482v142h-482v146z" />
    <glyph glyph-name="uni314D" unicode="&#x314d;" horiz-adv-x="800" 
d="M740 752h-680v-151h680v151zM653 501h-188l-8 -321h-114l-8 321h-188l8 -321h-95v-150h680v150h-95z" />
    <glyph glyph-name="uni314E" unicode="&#x314e;" horiz-adv-x="800" 
d="M504 690h236v-150h-680v150h236v100h208v-100zM503 445q64 0 113.5 -26t76.5 -74t27 -110t-27 -110t-76.5 -74t-113.5 -26h-206q-64 0 -113.5 26t-76.5 74t-27 110t27 110t76.5 74t113.5 26h206zM463 175q31 0 50 16.5t19 43.5t-19 43.5t-50 16.5h-126q-31 0 -50 -16.5
t-19 -43.5t19 -43.5t50 -16.5h126z" />
    <glyph glyph-name="uni314F" unicode="&#x314f;" horiz-adv-x="456" 
d="M246 760h-186v-760h186v311h150v149h-150v300z" />
    <glyph glyph-name="uni3150" unicode="&#x3150;" horiz-adv-x="580" 
d="M520 760h-186v-300h-87v300h-187v-760h187v310h87v-310h186v760z" />
    <glyph glyph-name="uni3151" unicode="&#x3151;" horiz-adv-x="457" 
d="M247 760h-187v-760h187v161h150v149h-150v150h150v149h-150v151z" />
    <glyph glyph-name="uni3152" unicode="&#x3152;" horiz-adv-x="581" 
d="M521 760h-187v-151h-87v151h-187v-760h187v161h87v-161h187v760zM247 310v150h87v-150h-87z" />
    <glyph glyph-name="uni3153" unicode="&#x3153;" horiz-adv-x="456" 
d="M396 760h-187v-300h-149v-149h149v-311h187v760z" />
    <glyph glyph-name="uni3154" unicode="&#x3154;" horiz-adv-x="665" 
d="M331 760h-186v-300h-85v-150h85v-310h186v760zM605 760h-187v-760h187v760z" />
    <glyph glyph-name="uni3155" unicode="&#x3155;" horiz-adv-x="456" 
d="M396 760h-187v-152h-149v-150h149v-149h-149v-150h149v-159h187v760z" />
    <glyph glyph-name="uni3156" unicode="&#x3156;" horiz-adv-x="676" 
d="M332 760h-187v-157h-85v-149h85v-150h-85v-149h85v-155h187v760zM616 760h-187v-760h187v760z" />
    <glyph glyph-name="uni3157" unicode="&#x3157;" horiz-adv-x="820" 
d="M511 440h-188v-262h-263v-148h700v148h-249v262z" />
    <glyph glyph-name="uni3158" unicode="&#x3158;" horiz-adv-x="894" 
d="M760 760h-184v-760h184v304h74v147h-74v309zM403 440h-184v-263h-159v-147h486v147h-143v263z" />
    <glyph glyph-name="uni3159" unicode="&#x3159;" horiz-adv-x="790" 
d="M730 760h-154v-306h-30v306h-154v-760h154v306h30v-306h154v760zM283 440h-144v-263h-79v-147h302v147h-79v263z" />
    <glyph glyph-name="uni315A" unicode="&#x315a;" horiz-adv-x="820" 
d="M760 760h-184v-760h184v760zM403 440h-184v-263h-159v-147h486v147h-143v263z" />
    <glyph glyph-name="uni315B" unicode="&#x315b;" horiz-adv-x="820" 
d="M654 178h106v-148h-700v148h106v262h188v-262h112v262h188v-262z" />
    <glyph glyph-name="uni315C" unicode="&#x315c;" horiz-adv-x="820" 
d="M511 0v262h249v148h-700v-148h263v-262h188z" />
    <glyph glyph-name="uni315D" unicode="&#x315d;" horiz-adv-x="820" 
d="M576 760v-527h-143v-147h143v-86h184v760h-184zM403 0v263h143v147h-486v-147h159v-263h184z" />
    <glyph glyph-name="uni315E" unicode="&#x315e;" horiz-adv-x="790" 
d="M392 233v527h154v-760h-154v83h-79v150h79zM576 760h154v-760h-154v760zM362 410v-147h-79v-263h-144v263h-79v147h302z" />
    <glyph glyph-name="uni315F" unicode="&#x315f;" horiz-adv-x="820" 
d="M576 760v-760h184v760h-184zM403 0v263h143v147h-486v-147h159v-263h184z" />
    <glyph glyph-name="uni3160" unicode="&#x3160;" horiz-adv-x="820" 
d="M760 410v-148h-106v-262h-188v262h-112v-262h-188v262h-106v148h700z" />
    <glyph glyph-name="uni3161" unicode="&#x3161;" horiz-adv-x="820" 
d="M60 178v-148h700v148h-700z" />
    <glyph glyph-name="uni3162" unicode="&#x3162;" horiz-adv-x="820" 
d="M760 760h-184v-760h184v760zM60 177v-147h486v147h-486z" />
    <glyph glyph-name="uni3163" unicode="&#x3163;" horiz-adv-x="304" 
d="M244 760h-184v-760h184v760z" />
    <glyph glyph-name="uniAC00" unicode="&#xac00;" horiz-adv-x="835" 
d="M760 760h-188v-760h188v321h75v150h-75v289zM70 30q123 0 217.5 70t147 199.5t52.5 302.5v150h-427v-150h239q0 -155 -40 -249.5t-97 -133.5t-112 -39z" />
    <glyph glyph-name="uniAC01" unicode="&#xac01;" horiz-adv-x="845" 
d="M582 330h188v136h75v151h-75v143h-188v-430zM70 330q141 0 233 33.5t143 125.5t51 261h-427v-148h222q0 -57 -70 -89.5t-172 -32.5zM90 135h492v-135h188v285h-680v-150z" />
    <glyph glyph-name="uniAC04" unicode="&#xac04;" horiz-adv-x="845" 
d="M770 760h-188v-475h188v171h75v151h-75v153zM70 330q141 0 233 33.5t143 125.5t51 261h-427v-148h222q0 -57 -70 -89.5t-172 -32.5zM278 150v135h-188v-285h680v150h-492z" />
    <glyph glyph-name="uniAC07" unicode="&#xac07;" horiz-adv-x="845" 
d="M770 760h-188v-410h188v136h75v151h-75v123zM70 350q145 0 235 28.5t141 115.5t51 256h-427v-148h222q0 -102 -242 -102zM772 313h-682v-313h682v135h-494v43h494v135z" />
    <glyph glyph-name="uniAC08" unicode="&#xac08;" horiz-adv-x="845" 
d="M770 760h-187v-340h187v108h75v137h-75v95zM70 420q157 0 241.5 17.5t135 88.5t50.5 224h-427v-128h222q0 -42 -68 -62t-174 -20zM770 140v250h-680v-110h493v-30h-493v-250h690v110h-502v30h492z" />
    <glyph glyph-name="uniAC09" unicode="&#xac09;" horiz-adv-x="845" 
d="M770 760h-187v-340h187v108h75v137h-75v95zM70 420q157 0 241.5 17.5t135 88.5t50.5 224h-427v-128h222q0 -42 -68 -62t-174 -20zM425 140v250h-335v-110h173v-30h-173v-250h345v110h-182v30h172zM459 390v-125h126v-265h185v390h-311z" />
    <glyph glyph-name="uniAC0A" unicode="&#xac0a;" horiz-adv-x="845" 
d="M770 760h-187v-340h187v108h75v137h-75v95zM70 420q157 0 241.5 17.5t135 88.5t50.5 224h-427v-128h222q0 -42 -68 -62t-174 -20zM405 140v250h-315v-110h173v-30h-173v-250h325v110h-182v30h172zM439 0h334v390h-334v-390zM587 110v170h38v-170h-38z" />
    <glyph glyph-name="uniAC0B" unicode="&#xac0b;" horiz-adv-x="845" 
d="M770 760h-187v-340h187v108h75v137h-75v95zM70 420q157 0 241.5 17.5t135 88.5t50.5 224h-427v-128h222q0 -42 -68 -62t-174 -20zM405 140v250h-315v-110h173v-30h-173v-250h325v110h-182v30h172zM770 0v390h-147v-72h-35v72h-148v-390h330zM623 198v-78h-35v78h35z" />
    <glyph glyph-name="uniAC10" unicode="&#xac10;" horiz-adv-x="845" 
d="M770 760h-188v-410h188v136h75v151h-75v123zM70 350q145 0 235 28.5t141 115.5t51 256h-427v-148h222q0 -102 -242 -102zM772 313h-682v-313h682v313zM584 178v-43h-306v43h306z" />
    <glyph glyph-name="uniAC11" unicode="&#xac11;" horiz-adv-x="845" 
d="M770 760h-188v-410h188v136h75v151h-75v123zM70 350q145 0 235 28.5t141 115.5t51 256h-427v-148h222q0 -102 -242 -102zM770 0v315h-187v-37h-305v37h-188v-315h680zM583 158v-38h-305v38h305z" />
    <glyph glyph-name="uniAC12" unicode="&#xac12;" horiz-adv-x="845" 
d="M770 637h75v-151h-75v-136h-188v410h188v-123zM497 750q0 -169 -51 -256t-141 -115.5t-235 -28.5l-20 150q242 0 242 102h-222v148h427zM273 278v37h147v-315h-330v315h148v-37h35zM710 315q0 -86 27 -125.5t73 -39.5l-20 -150q-49 0 -92.5 19t-76.5 54
q-33 -35 -76.5 -54t-92.5 -19l-20 150q46 0 73 39.5t27 125.5h178zM273 120v38h-35v-38h35z" />
    <glyph glyph-name="uniAC13" unicode="&#xac13;" horiz-adv-x="845" 
d="M770 637h75v-151h-75v-165h-188v439h188v-123zM497 750q0 -170 -51.5 -266.5t-144.5 -135t-231 -38.5l-20 150q64 0 119.5 19t89 51.5t33.5 71.5h-222v148h427zM524 301q6 -76 76 -113.5t180 -37.5l-20 -150q-104 0 -188.5 26.5t-141.5 76.5q-57 -50 -141.5 -76.5
t-188.5 -26.5l-20 150q110 0 180 37.5t76 113.5h188z" />
    <glyph glyph-name="uniAC14" unicode="&#xac14;" horiz-adv-x="845" 
d="M770 617h75v-151h-75v-156h-188v450h188v-143zM50 460q64 0 119.5 19t89 51.5t33.5 71.5h-222v148h427q0 -170 -51.5 -266.5t-144.5 -135t-231 -38.5zM690 275q0 -57 28 -96t72 -39l-20 -140q-46 0 -89 16.5t-78 46.5q-32 -30 -72.5 -46.5t-83.5 -16.5l-17 68l-17 -68
q-43 0 -83.5 16.5t-72.5 46.5q-35 -30 -78 -46.5t-89 -16.5l-20 140q44 0 72 39t28 96h178q0 -51 22.5 -88t59.5 -45q37 8 59.5 45t22.5 88h178z" />
    <glyph glyph-name="uniAC15" unicode="&#xac15;" horiz-adv-x="845" 
d="M770 760h-188v-410h188v136h75v151h-75v123zM70 340q143 0 234 31t142 120.5t51 258.5h-427v-148h222q0 -57 -68.5 -84.5t-173.5 -27.5zM770 154q0 67 -44.5 110.5t-112.5 43.5h-366q-68 0 -112.5 -43.5t-44.5 -110.5t44.5 -110.5t112.5 -43.5h366q68 0 112.5 43.5
t44.5 110.5zM563 173q8 0 13.5 -5.5t5.5 -13.5t-5.5 -13.5t-13.5 -5.5h-266q-8 0 -13.5 5.5t-5.5 13.5t5.5 13.5t13.5 5.5h266z" />
    <glyph glyph-name="uniAC16" unicode="&#xac16;" horiz-adv-x="845" 
d="M770 637h75v-151h-75v-136h-188v410h188v-123zM497 750q0 -169 -51 -256t-141 -115.5t-235 -28.5l-20 150q242 0 242 102h-222v148h427zM561 183q31 -32 84 -42.5t135 -10.5l-20 -130q-224 0 -330 83q-106 -83 -330 -83l-20 130q82 0 135 10.5t84 42.5h-209v125h680v-125
h-209z" />
    <glyph glyph-name="uniAC17" unicode="&#xac17;" horiz-adv-x="845" 
d="M770 645h75v-137h-75v-128h-187v380h187v-115zM497 750q0 -154 -51 -235t-141.5 -108t-234.5 -27l-20 120q63 0 118.5 18t89.5 46t34 58h-222v128h427zM561 183q31 -32 84 -42.5t135 -10.5l-20 -130q-224 0 -330 83q-106 -83 -330 -83l-20 130q82 0 135 10.5t84 42.5
h-209v125h236v72h208v-72h236v-125h-209z" />
    <glyph glyph-name="uniAC19" unicode="&#xac19;" horiz-adv-x="845" 
d="M770 760h-187v-340h187v108h75v137h-75v95zM70 420q157 0 241.5 17.5t135 88.5t50.5 224h-427v-128h222q0 -42 -68 -62t-174 -20zM90 394v-394h680v108h-492v37h482v103h-482v38h492v108h-680z" />
    <glyph glyph-name="uniAC1A" unicode="&#xac1a;" horiz-adv-x="845" 
d="M770 760h-188v-410h188v136h75v151h-75v123zM70 350q145 0 235 28.5t141 115.5t51 256h-427v-148h222q0 -102 -242 -102zM772 308h-682v-135h98l4 -38h-102v-135h682v135h-102l4 38h98v135zM380 135l-4 38h110l-4 -38h-102z" />
    <glyph glyph-name="uniAC1B" unicode="&#xac1b;" horiz-adv-x="845" 
d="M770 660h75v-137h-75v-103h-187v340h187v-100zM497 750q0 -140 -51 -211.5t-141 -95t-235 -23.5l-20 120q106 0 174 20t68 62h-222v128h427zM534 420v-35h236v-115h-680v115h236v35h208zM603 240q72 0 114.5 -29t42.5 -91t-42.5 -91t-114.5 -29h-346q-72 0 -114.5 29
t-42.5 91t42.5 91t114.5 29h346zM583 105q8 0 13.5 4t5.5 11t-5.5 11t-13.5 4h-306q-8 0 -13.5 -4t-5.5 -11t5.5 -11t13.5 -4h306z" />
    <glyph glyph-name="uniAC1C" unicode="&#xac1c;" horiz-adv-x="850" 
d="M612 760h178v-760h-178v310h-31v-300h-178v750h178v-300h31v300zM70 750h292v-179q0 -481 -272 -541l-40 150q69 31 102 123t33 268v29h-115v150z" />
    <glyph glyph-name="uniAC1D" unicode="&#xac1d;" horiz-adv-x="850" 
d="M612 760h178v-440h-178v150h-31v-150h-178v440h178v-140h31v140zM362 637q0 -100 -39.5 -171.5t-106 -108.5t-146.5 -37l-20 150q55 0 90 35.5t35 94.5h-105v150h292v-113zM110 135v150h680v-285h-188v135h-492z" />
    <glyph glyph-name="uniAC20" unicode="&#xac20;" horiz-adv-x="850" 
d="M612 760h178v-495h-178v185h-31v-165h-178v475h178v-160h31v160zM362 637q0 -100 -39.5 -171.5t-106 -108.5t-146.5 -37l-20 150q55 0 90 35.5t35 94.5h-105v150h292v-113zM298 285v-135h492v-150h-680v285h188z" />
    <glyph glyph-name="uniAC23" unicode="&#xac23;" horiz-adv-x="850" 
d="M612 760h178v-410h-178v140h-31v-140h-178v410h178v-120h31v120zM362 637q0 -95 -39 -159.5t-105.5 -96t-147.5 -31.5l-20 150q57 0 91 25t34 75h-105v150h292v-113zM108 0v313h682v-135h-494v-43h494v-135h-682z" />
    <glyph glyph-name="uniAC24" unicode="&#xac24;" horiz-adv-x="860" 
d="M581 530v-110h-178v340h178v-100h31v100h178v-340h-178v110h-31zM362 737q0 -317 -292 -317l-20 120q44 0 82 24t38 66h-100v120h292v-13zM298 110h502v-110h-690v250h493v30h-493v110h680v-250h-492v-30z" />
    <glyph glyph-name="uniAC2C" unicode="&#xac2c;" horiz-adv-x="852" 
d="M581 490v-140h-178v410h178v-120h31v120h178v-410h-178v140h-31zM362 637q0 -95 -39 -159.5t-105.5 -96t-147.5 -31.5l-20 150q57 0 91 25t34 75h-105v150h292v-113zM110 313h682v-313h-682v313zM604 135v43h-306v-43h306z" />
    <glyph glyph-name="uniAC2D" unicode="&#xac2d;" horiz-adv-x="850" 
d="M612 760h178v-410h-178v140h-31v-140h-178v410h178v-120h31v120zM362 637q0 -95 -39 -159.5t-105.5 -96t-147.5 -31.5l-20 150q57 0 91 25t34 75h-105v150h292v-113zM603 278v37h187v-315h-680v315h188v-37h305zM603 120v38h-305v-38h305z" />
    <glyph glyph-name="uniAC2F" unicode="&#xac2f;" horiz-adv-x="860" 
d="M402 340h178v140h32v-175h178v455h-178v-130h-32v130h-178v-420zM70 300q87 0 153.5 43t102.5 119.5t36 174.5v113h-292v-150h105q0 -38 -18 -73t-47 -56t-60 -21zM120 0q104 0 188.5 26.5t141.5 76.5q57 -50 141.5 -76.5t188.5 -26.5l20 150q-110 0 -180 37.5t-76 113.5
h-188q-6 -76 -76 -113.5t-180 -37.5z" />
    <glyph glyph-name="uniAC30" unicode="&#xac30;" horiz-adv-x="870" 
d="M402 300h178v150h32v-150h178v460h-178v-160h-32v160h-178v-460zM70 290q80 0 146.5 40.5t106 118.5t39.5 188v113h-292v-150h105q0 -73 -34.5 -116.5t-90.5 -43.5zM110 0q100 0 166 54q63 -54 157 -54l17 68l17 -68q94 0 157 54q66 -54 166 -54l20 140q-45 0 -72.5 34.5
t-27.5 90.5h-178q0 -50 -22 -83t-60 -40q-38 7 -60 40t-22 83h-178q0 -56 -27.5 -90.5t-72.5 -34.5z" />
    <glyph glyph-name="uniAC31" unicode="&#xac31;" horiz-adv-x="850" 
d="M612 760h178v-420h-178v130h-32v-130h-178v420h178v-140h32v140zM362 637q0 -105 -39.5 -178.5t-106 -111t-146.5 -37.5l-20 150q56 0 90.5 37.5t34.5 102.5h-105v150h292v-113zM633 308q68 0 112.5 -43.5t44.5 -110.5t-44.5 -110.5t-112.5 -43.5h-366q-68 0 -112.5 43.5
t-44.5 110.5t44.5 110.5t112.5 43.5h366zM583 135q8 0 13.5 5.5t5.5 13.5t-5.5 13.5t-13.5 5.5h-266q-8 0 -13.5 -5.5t-5.5 -13.5t5.5 -13.5t13.5 -5.5h266z" />
    <glyph glyph-name="uniAC38" unicode="&#xac38;" horiz-adv-x="835" 
d="M760 760h-187v-760h187v160h75v150h-75v150h75v150h-75v150zM70 30q123 0 217.5 70t147 199.5t52.5 302.5v150h-427v-150h239q0 -155 -40 -249.5t-97 -133.5t-112 -39z" />
    <glyph glyph-name="uniAC39" unicode="&#xac39;" horiz-adv-x="844" 
d="M582 330h187v53h75v140h-75v43h75v140h-75v54h-187v-430zM70 330q141 0 233 33.5t143 125.5t51 261h-427v-148h222q0 -57 -70 -89.5t-172 -32.5zM90 135h492v-135h188v285h-680v-150z" />
    <glyph glyph-name="uniAC3C" unicode="&#xac3c;" horiz-adv-x="844" 
d="M769 760h-187v-475h187v73h75v140h-75v53h75v140h-75v69zM70 330q141 0 233 33.5t143 125.5t51 261h-427v-148h222q0 -57 -70 -89.5t-172 -32.5zM278 150v135h-188v-285h680v150h-492z" />
    <glyph glyph-name="uniAC40" unicode="&#xac40;" horiz-adv-x="850" 
d="M775 760h-187v-340h182v46h80v107h-75v39h75v107h-75v41zM70 420q157 0 241.5 17.5t135 88.5t50.5 224h-427v-128h222q0 -42 -68 -62t-174 -20zM770 140v250h-680v-110h493v-30h-493v-250h690v110h-502v30h492z" />
    <glyph glyph-name="uniAC4B" unicode="&#xac4b;" horiz-adv-x="844" 
d="M844 561h-75v-53h75v-130h-75v-63h-187v445h187v-69h75v-130zM497 750q0 -170 -51.5 -266.5t-144.5 -135t-231 -38.5l-20 150q64 0 119.5 19t89 51.5t33.5 71.5h-222v148h427zM524 301q6 -76 76 -113.5t180 -37.5l-20 -150q-104 0 -188.5 26.5t-141.5 76.5
q-57 -50 -141.5 -76.5t-188.5 -26.5l-20 150q110 0 180 37.5t76 113.5h188z" />
    <glyph glyph-name="uniAC4D" unicode="&#xac4d;" horiz-adv-x="844" 
d="M769 760h-187v-410h187v53h75v130h-75v43h75v130h-75v54zM70 340q143 0 234 31t142 120.5t51 258.5h-427v-148h222q0 -57 -68.5 -84.5t-173.5 -27.5zM770 154q0 67 -44.5 110.5t-112.5 43.5h-366q-68 0 -112.5 -43.5t-44.5 -110.5t44.5 -110.5t112.5 -43.5h366
q68 0 112.5 43.5t44.5 110.5zM563 173q8 0 13.5 -5.5t5.5 -13.5t-5.5 -13.5t-13.5 -5.5h-266q-8 0 -13.5 5.5t-5.5 13.5t5.5 13.5t13.5 5.5h266z" />
    <glyph glyph-name="uniAC54" unicode="&#xac54;" horiz-adv-x="850" 
d="M612 760h178v-760h-178v160h-32v-150h-178v750h178v-150h32v150zM70 750h292v-179q0 -481 -272 -541l-40 150q69 31 102 123t33 268v29h-115v150zM580 310h32v150h-32v-150z" />
    <glyph glyph-name="uniAC58" unicode="&#xac58;" horiz-adv-x="850" 
d="M612 760h178v-525h-178v113h-32v-83h-177v495h177v-79h32v79zM362 637q0 -114 -39 -187t-104.5 -106.5t-148.5 -33.5l-20 150q60 0 92.5 31.5t32.5 108.5h-105v150h292v-113zM580 478h32v73h-32v-73zM298 265v-115h492v-150h-680v265h188z" />
    <glyph glyph-name="uniAC5C" unicode="&#xac5c;" horiz-adv-x="860" 
d="M579 473v-53h-177v340h177v-54h33v54h178v-340h-178v53h-33zM362 737q0 -317 -292 -317l-20 120q44 0 82 24t38 66h-100v120h292v-13zM579 616v-53h33v53h-33zM298 110h502v-110h-690v250h493v30h-493v110h680v-250h-492v-30z" />
    <glyph glyph-name="uniAC65" unicode="&#xac65;" horiz-adv-x="850" 
d="M612 760h178v-410h-178v50h-31v-50h-178v410h178v-50h31v50zM362 637q0 -95 -39 -159.5t-105.5 -96t-147.5 -31.5l-20 150q57 0 91 25t34 75h-105v150h292v-113zM581 530h31v50h-31v-50zM603 278v37h187v-315h-680v315h188v-37h305zM603 120v38h-305v-38h305z" />
    <glyph glyph-name="uniAC70" unicode="&#xac70;" horiz-adv-x="820" 
d="M760 762v-762h-188v321h-105v85q-26 -117 -82 -201.5t-136.5 -129.5t-178.5 -45l-20 150q55 0 112 39t97 133.5t40 249.5h-239v150h427v-150q0 -69 -9 -131h94v291h188z" />
    <glyph glyph-name="uniAC71" unicode="&#xac71;" horiz-adv-x="830" 
d="M770 760v-430h-188v136h-115v72q-29 -82 -84.5 -127.5t-131.5 -63t-181 -17.5l-20 150q102 0 172 32.5t70 89.5h-222v148h427q0 -77 -10 -133h95v143h188zM90 135v150h680v-285h-188v135h-492z" />
    <glyph glyph-name="uniAC74" unicode="&#xac74;" horiz-adv-x="830" 
d="M770 760v-495h-188v181h-125v66q-46 -103 -141 -142.5t-246 -39.5l-20 150q102 0 172 32.5t70 89.5h-222v148h427q0 -85 -14 -153h99v163h188zM278 285v-135h492v-150h-680v285h188z" />
    <glyph glyph-name="uniAC77" unicode="&#xac77;" horiz-adv-x="832" 
d="M477 572q-25 -91 -80 -139.5t-134 -65.5t-193 -17l-20 150q242 0 242 102h-222v148h427q0 -69 -9 -123h94v133h188v-410h-188v126h-105v96zM772 178h-494v-43h494v-135h-682v313h682v-135z" />
    <glyph glyph-name="uniAC78" unicode="&#xac78;" 
d="M478 594q-24 -80 -78.5 -117.5t-128.5 -47t-201 -9.5l-20 120q106 0 174 20t68 62h-222v128h427q0 -53 -6 -95h92v105h187v-342h-187v100h-105v76zM278 110h502v-110h-690v250h493v30h-493v110h680v-250h-492v-30z" />
    <glyph glyph-name="uniAC7A" unicode="&#xac7a;" horiz-adv-x="833" 
d="M773 760v-342h-187v100h-105v87q-23 -85 -77.5 -125t-129 -50t-204.5 -10l-20 120q106 0 174 20t68 62h-222v128h427q0 -55 -8 -105h97v115h187zM233 140v-30h182v-110h-325v250h173v30h-173v110h315v-250h-172zM439 0v390h334v-390h-334zM587 280v-170h38v170h-38z" />
    <glyph glyph-name="uniAC80" unicode="&#xac80;" horiz-adv-x="832" 
d="M772 760v-410h-188v126h-115v70q-28 -80 -83 -123t-131 -58t-185 -15l-20 150q242 0 242 102h-222v148h427q0 -69 -9 -123h96v133h188zM90 0v313h682v-313h-682zM278 178v-43h306v43h-306z" />
    <glyph glyph-name="uniAC81" unicode="&#xac81;" horiz-adv-x="830" 
d="M770 760v-410h-188v126h-115v65q-29 -79 -84 -120.5t-130 -56t-183 -14.5l-20 150q242 0 242 102h-222v148h427q0 -69 -9 -123h94v133h188zM583 278v37h187v-315h-680v315h188v-37h305zM583 120v38h-305v-38h305z" />
    <glyph glyph-name="uniAC83" unicode="&#xac83;" 
d="M469 540q-41 -127 -140.5 -178.5t-258.5 -51.5l-20 150q64 0 119.5 19t89 51.5t33.5 71.5h-222v148h427q0 -77 -10 -133h97v143h188v-449h-188v155h-115v74zM760 0q-104 0 -188.5 26.5t-141.5 76.5q-57 -50 -141.5 -76.5t-188.5 -26.5l-20 150q110 0 180 37.5t76 113.5
h188q6 -76 76 -113.5t180 -37.5z" />
    <glyph glyph-name="uniAC84" unicode="&#xac84;" horiz-adv-x="850" 
d="M50 460q64 0 119.5 19t89 51.5t33.5 71.5h-222v148h427q0 -80 -12 -143h99v153h188v-450h-188v146h-115v84q-41 -127 -140.5 -178.5t-258.5 -51.5zM770 0q-99 0 -166 56q-64 -56 -157 -56l-17 68l-17 -68q-93 0 -157 56q-67 -56 -166 -56l-20 140q44 0 72 39t28 96h178
q0 -51 22.5 -88t59.5 -45q37 8 59.5 45t22.5 88h178q0 -57 28 -96t72 -39z" />
    <glyph glyph-name="uniAC85" unicode="&#xac85;" horiz-adv-x="832" 
d="M772 760v-420h-188v136h-115v67q-28 -84 -83.5 -130.5t-132.5 -64.5t-183 -18l-20 150q102 0 172 32.5t70 89.5h-222v148h427q0 -64 -8 -123h95v133h188zM613 308q68 0 112.5 -43.5t44.5 -110.5t-44.5 -110.5t-112.5 -43.5h-366q-68 0 -112.5 43.5t-44.5 110.5
t44.5 110.5t112.5 43.5h366zM563 135q8 0 13.5 5.5t5.5 13.5t-5.5 13.5t-13.5 5.5h-266q-8 0 -13.5 -5.5t-5.5 -13.5t5.5 -13.5t13.5 -5.5h266z" />
    <glyph glyph-name="uniAC86" unicode="&#xac86;" 
d="M477 572q-25 -91 -80 -139.5t-134 -65.5t-193 -17l-20 150q242 0 242 102h-222v148h427q0 -69 -9 -123h94v133h188v-410h-188v126h-105v96zM760 0q-222 0 -330 86q-107 -86 -330 -86l-20 130q81 0 135 12t85 46h-210v125h680v-125h-210q31 -34 85 -46t135 -12z" />
    <glyph glyph-name="uniAC89" unicode="&#xac89;" horiz-adv-x="832" 
d="M772 760v-332h-187v100h-105v73q-23 -83 -77.5 -122t-129 -49t-203.5 -10l-20 120q106 0 174 20t68 62h-222v128h427q0 -53 -6 -95h94v105h187zM90 0v394h680v-108h-492v-38h482v-103h-482v-37h492v-108h-680z" />
    <glyph glyph-name="uniAC8A" unicode="&#xac8a;" horiz-adv-x="832" 
d="M772 760v-415h-188v131h-115v70q-28 -80 -83 -123t-131 -58t-185 -15l-20 150q242 0 242 102h-222v148h427q0 -69 -9 -123h96v133h188zM90 173v135h682v-135h-98l-4 -38h102v-135h-682v135h102l-4 38h-98zM486 173h-110l4 -38h102z" />
    <glyph glyph-name="uniAC8B" unicode="&#xac8b;" horiz-adv-x="832" 
d="M772 760v-340h-187v108h-115v56q-28 -68 -83 -104t-131 -48t-186 -12l-20 120q106 0 174 20t68 62h-222v128h427q0 -56 -7 -95h95v105h187zM534 420v-35h236v-115h-680v115h236v35h208zM603 240q72 0 114.5 -29t42.5 -91t-42.5 -91t-114.5 -29h-346q-72 0 -114.5 29
t-42.5 91t42.5 91t114.5 29h346zM583 105q8 0 13.5 4t5.5 11t-5.5 11t-13.5 4h-306q-8 0 -13.5 -4t-5.5 -11t5.5 -11t13.5 -4h306z" />
    <glyph glyph-name="uniAC8C" unicode="&#xac8c;" horiz-adv-x="850" 
d="M402 760h178v-750h-178v310h-52v68q-45 -310 -260 -358l-40 150q69 31 102 123t33 268v29h-115v150h292v-179q0 -54 -3 -101h43v290zM612 760h178v-760h-178v760z" />
    <glyph glyph-name="uniAC90" unicode="&#xac90;" horiz-adv-x="850" 
d="M352 547q-17 -71 -58.5 -125t-99.5 -83t-124 -29l-20 150q35 0 63.5 20t45 52.5t16.5 67.5h-105v150h292v-113q0 -18 -1 -27h41v150h178v-485h-178v185h-50v87zM612 760h178v-515h-178v515zM298 275v-125h492v-150h-680v275h188z" />
    <glyph glyph-name="uniAC94" unicode="&#xac94;" horiz-adv-x="860" 
d="M345 603q-54 -183 -275 -183l-20 120q44 0 82 24t38 66h-100v120h292v-13q0 -49 -8 -97h48v120h178v-340h-178v100h-57v83zM790 760v-340h-178v340h178zM298 110h502v-110h-690v250h493v30h-493v110h680v-250h-492v-30z" />
    <glyph glyph-name="uniAC9C" unicode="&#xac9c;" horiz-adv-x="852" 
d="M357 574q-19 -110 -98 -167t-189 -57l-20 150q57 0 91 25t34 75h-105v150h292v-113v-7h40v130h178v-410h-178v130h-45v94zM790 760v-410h-178v410h178zM110 313h682v-313h-682v313zM604 135v43h-306v-43h306z" />
    <glyph glyph-name="uniAC9D" unicode="&#xac9d;" horiz-adv-x="850" 
d="M357 574q-19 -110 -98 -167t-189 -57l-20 150q57 0 91 25t34 75h-105v150h292v-113v-7h40v130h178v-410h-178v130h-45v94zM612 760h178v-410h-178v410zM603 278v37h187v-315h-680v315h188v-37h305zM603 120v38h-305v-38h305z" />
    <glyph glyph-name="uniAC9F" unicode="&#xac9f;" horiz-adv-x="860" 
d="M352 546q-17 -74 -58.5 -132.5t-100 -91t-123.5 -32.5l-20 150q35 0 63.5 25t45 62.5t16.5 72.5h-105v150h292v-113v-7h40v130h178v-420h-178v140h-50v66zM790 760v-455h-178v455h178zM780 0q-104 0 -188.5 26.5t-141.5 76.5q-57 -50 -141.5 -76.5t-188.5 -26.5l-20 150
q110 0 180 37.5t76 113.5h188q6 -76 76 -113.5t180 -37.5z" />
    <glyph glyph-name="uniACA0" unicode="&#xaca0;" horiz-adv-x="870" 
d="M342 510q-32 -99 -107 -159.5t-165 -60.5l-20 150q35 0 63.5 25t45 62.5t16.5 72.5h-105v150h292v-113q0 -13 -2 -37h42v160h178v-460h-178v150h-60v60zM790 760v-460h-178v460h178zM790 0q-99 0 -168 55q-31 -27 -70.5 -41t-84.5 -14l-17 68l-17 -68q-45 0 -84.5 14
t-70.5 41q-69 -55 -168 -55l-20 140q45 0 72.5 34.5t27.5 90.5h178q0 -50 22 -83t60 -40q38 7 60 40t22 83h178q0 -56 27.5 -90.5t72.5 -34.5z" />
    <glyph glyph-name="uniACA1" unicode="&#xaca1;" horiz-adv-x="850" 
d="M357 568q-13 -83 -54 -141t-101.5 -87.5t-131.5 -29.5l-20 150q56 0 90.5 37.5t34.5 102.5h-105v150h292v-113v-17h40v140h178v-420h-178v130h-45v98zM612 760h178v-420h-178v420zM633 308q68 0 112.5 -43.5t44.5 -110.5t-44.5 -110.5t-112.5 -43.5h-366
q-68 0 -112.5 43.5t-44.5 110.5t44.5 110.5t112.5 43.5h366zM583 135q8 0 13.5 5.5t5.5 13.5t-5.5 13.5t-13.5 5.5h-266q-8 0 -13.5 -5.5t-5.5 -13.5t5.5 -13.5t13.5 -5.5h266z" />
    <glyph glyph-name="uniACA8" unicode="&#xaca8;" horiz-adv-x="820" 
d="M760 762h-188v-151h-75v-150h75v-150h-75v-151h75v-160h188v762zM70 30q123 0 217.5 70t147 199.5t52.5 302.5v150h-427v-150h239q0 -155 -40 -249.5t-97 -133.5t-112 -39z" />
    <glyph glyph-name="uniACA9" unicode="&#xaca9;" horiz-adv-x="830" 
d="M770 760v-430h-187v63h-95v130h95v43h-95v57q-18 -116 -73.5 -180.5t-139.5 -88.5t-205 -24l-20 150q102 0 172 32.5t70 89.5h-222v148h427q0 -37 -1 -54h87v64h187zM90 135v150h680v-285h-188v135h-492z" />
    <glyph glyph-name="uniACAA" unicode="&#xacaa;" horiz-adv-x="830" 
d="M770 760v-430h-187v63h-95v130h95v43h-95v57q-18 -116 -73.5 -180.5t-139.5 -88.5t-205 -24l-20 150q102 0 172 32.5t70 89.5h-222v148h427q0 -37 -1 -54h87v64h187zM90 135v150h320v-285h-188v135h-132zM450 135v150h320v-285h-188v135h-132z" />
    <glyph glyph-name="uniACAC" unicode="&#xacac;" horiz-adv-x="830" 
d="M770 760v-495h-187v93h-95v130h95v63h-95v72q-18 -116 -73.5 -180.5t-139.5 -88.5t-205 -24l-20 150q102 0 172 32.5t70 89.5h-222v148h427q0 -25 -2 -69h88v79h187zM278 285v-135h492v-150h-680v285h188z" />
    <glyph glyph-name="uniACAF" unicode="&#xacaf;" horiz-adv-x="832" 
d="M487 618q-19 -112 -74 -170t-137 -78t-206 -20l-20 150q242 0 242 102h-222v148h427q0 -33 -1 -49h86v59h187v-415h-187v48h-95v130h95v48h-95v47zM772 173h-494v-38h494v-135h-682v308h682v-135z" />
    <glyph glyph-name="uniACB0" unicode="&#xacb0;" 
d="M488 637q-18 -100 -72 -147t-132 -58.5t-214 -11.5l-20 120q106 0 174 20t68 62h-222v128h427q0 -25 -1 -37h87v47h187v-340h-182v40h-100v107h95v39h-95v31zM278 110h502v-110h-690v250h493v30h-493v110h680v-250h-492v-30z" />
    <glyph glyph-name="uniACB7" unicode="&#xacb7;" 
d="M488 637q-18 -100 -72 -147t-132 -58.5t-214 -11.5l-20 120q106 0 174 20t68 62h-222v128h427q0 -25 -1 -37h87v47h187v-340h-182v40h-100v107h95v39h-95v31zM700 350h80v-110h-346v110h78v50h188v-50zM231 140v-30h182v-110h-325v250h173v30h-173v110h315v-250h-172z
M616 220q73 0 113.5 -30.5t40.5 -84.5t-40.5 -84.5t-113.5 -30.5h-20q-72 0 -112 30.5t-40 84.5t40 84.5t112 30.5h20zM606 88q11 0 17 4.5t6 12.5t-6 13t-17 5q-10 0 -16 -5t-6 -13q0 -17 22 -17z" />
    <glyph glyph-name="uniACB8" unicode="&#xacb8;" horiz-adv-x="830" 
d="M770 760v-410h-187v48h-96v130h96v43h-96v47q-19 -112 -74 -170t-137 -78t-206 -20l-20 150q242 0 242 102h-222v148h427q0 -33 -1 -49h87v59h187zM90 0v308h680v-308h-680zM278 173v-38h304v38h-304z" />
    <glyph glyph-name="uniACB9" unicode="&#xacb9;" horiz-adv-x="830" 
d="M770 760v-410h-187v48h-96v130h96v43h-96v47q-19 -112 -74 -170t-137 -78t-206 -20l-20 150q242 0 242 102h-222v148h427q0 -33 -1 -49h87v59h187zM583 278v37h187v-315h-680v315h188v-37h305zM583 120v38h-305v-38h305z" />
    <glyph glyph-name="uniACBB" unicode="&#xacbb;" 
d="M490 636q-16 -125 -71 -196.5t-141.5 -100.5t-207.5 -29l-20 150q64 0 119.5 19t89 51.5t33.5 71.5h-222v148h427q0 -21 -2 -59h90v69h187v-450h-187v68h-95v130h95v53h-95v75zM760 0q-104 0 -188.5 26.5t-141.5 76.5q-57 -50 -141.5 -76.5t-188.5 -26.5l-20 150
q110 0 180 37.5t76 113.5h188q6 -76 76 -113.5t180 -37.5z" />
    <glyph glyph-name="uniACBC" unicode="&#xacbc;" horiz-adv-x="850" 
d="M50 460q64 0 119.5 19t89 51.5t33.5 71.5h-222v148h427q0 -33 -1 -49h89v59h187v-445h-187v53h-95v140h95v53h-95v75q-16 -125 -71 -196.5t-141.5 -100.5t-207.5 -29zM770 0q-99 0 -166 56q-64 -56 -157 -56l-17 68l-17 -68q-93 0 -157 56q-67 -56 -166 -56l-20 140
q44 0 72 39t28 96h178q0 -51 22.5 -88t59.5 -45q37 8 59.5 45t22.5 88h178q0 -57 28 -96t72 -39z" />
    <glyph glyph-name="uniACBD" unicode="&#xacbd;" horiz-adv-x="830" 
d="M770 760v-420h-187v58h-95v130h95v43h-95v52q-18 -116 -73.5 -180.5t-139.5 -88.5t-205 -24l-20 150q102 0 172 32.5t70 89.5h-222v148h427q0 -33 -1 -49h87v59h187zM613 308q68 0 112.5 -43.5t44.5 -110.5t-44.5 -110.5t-112.5 -43.5h-366q-68 0 -112.5 43.5
t-44.5 110.5t44.5 110.5t112.5 43.5h366zM563 135q8 0 13.5 5.5t5.5 13.5t-5.5 13.5t-13.5 5.5h-266q-8 0 -13.5 -5.5t-5.5 -13.5t5.5 -13.5t13.5 -5.5h266z" />
    <glyph glyph-name="uniACC1" unicode="&#xacc1;" horiz-adv-x="830" 
d="M770 760v-340h-182v40h-100v107h95v39h-95v31q-18 -100 -72 -147t-132 -58.5t-214 -11.5l-20 120q106 0 174 20t68 62h-222v128h427q0 -25 -1 -37h87v47h187zM90 0v394h680v-108h-492v-38h482v-103h-482v-37h492v-108h-680z" />
    <glyph glyph-name="uniACC4" unicode="&#xacc4;" horiz-adv-x="850" 
d="M402 760h178v-750h-178v150h-79v107q-64 -200 -233 -237l-40 150q69 31 102 123t33 268v29h-115v150h292v-140h40v150zM612 760h178v-760h-178v760zM402 460h-44q-6 -83 -23 -150h67v150z" />
    <glyph glyph-name="uniACC8" unicode="&#xacc8;" horiz-adv-x="850" 
d="M312 449q-40 -66 -104 -102.5t-138 -36.5l-20 150q35 0 63.5 20t45 52.5t16.5 67.5h-105v150h292v-69h41v79h177v-485h-177v93h-91v81zM612 760h178v-515h-178v515zM403 551h-50q-4 -19 -16 -53h66v53zM298 275v-125h492v-150h-680v275h188z" />
    <glyph glyph-name="uniACCC" unicode="&#xaccc;" horiz-adv-x="850" 
d="M313 542q-64 -122 -243 -122l-20 120q43 0 76.5 23.5t33.5 66.5h-90v120h282v-13q0 -20 -1 -29h42v52h177v-340h-172v55h-85v67zM780 760v-340h-178v340h178zM393 611h-54l-12 -39h66v39zM288 110h502v-110h-690v250h493v30h-493v110h680v-250h-492v-30z" />
    <glyph glyph-name="uniACD5" unicode="&#xacd5;" horiz-adv-x="850" 
d="M322 476q-37 -62 -103.5 -94t-148.5 -32l-20 150q57 0 91 25t34 75h-105v150h292v-49h41v59h177v-410h-177v48h-81v78zM612 760h178v-410h-178v410zM403 571h-47q-2 -15 -10 -43h57v43zM603 278v37h187v-315h-680v315h188v-37h305zM603 120v38h-305v-38h305z" />
    <glyph glyph-name="uniACD7" unicode="&#xacd7;" horiz-adv-x="860" 
d="M322 461q-38 -79 -106 -125t-146 -46l-20 150q35 0 63.5 25t45 62.5t16.5 72.5h-105v150h292v-49h41v59h177v-420h-177v58h-81v63zM790 760v-455h-178v455h178zM403 571h-46q-5 -27 -10 -43h56v43zM780 0q-104 0 -188.5 26.5t-141.5 76.5q-57 -50 -141.5 -76.5
t-188.5 -26.5l-20 150q110 0 180 37.5t76 113.5h188q6 -76 76 -113.5t180 -37.5z" />
    <glyph glyph-name="uniACE0" unicode="&#xace0;" 
d="M572 600v-300h178l10 450h-680v-150h492zM441 180v270h-188v-270h-193v-150h720v150h-339z" />
    <glyph glyph-name="uniACE1" unicode="&#xace1;" 
d="M572 600v-103h188v253h-680v-150h492zM481 447v98h-188v-98h-233v-150h720v150h-299zM760 0v245h-680v-150h492v-95h188z" />
    <glyph glyph-name="uniACE4" unicode="&#xace4;" 
d="M562 600v-103h188l10 253h-680v-150h482zM481 447v98h-188v-98h-233v-150h720v150h-299zM80 245v-245h680v150h-492v95h-188z" />
    <glyph glyph-name="uniACE7" unicode="&#xace7;" horiz-adv-x="839" 
d="M572 609v-67h177l10 207h-679v-140h492zM480 499v63h-187v-63h-233v-139h719v139h-299zM80 315v-315h679v140h-492v37h492v138h-679z" />
    <glyph glyph-name="uniACE8" unicode="&#xace8;" 
d="M562 630v-68h188l10 188h-680v-120h482zM60 420h720v112h-299v58h-188v-58h-233v-112zM760 140v250h-680v-110h493v-30h-493v-250h690v110h-512v30h502z" />
    <glyph glyph-name="uniACEA" unicode="&#xacea;" 
d="M562 630v-68h188l10 188h-680v-120h482zM60 420h720v112h-299v58h-188v-58h-233v-112zM410 140v250h-330v-110h163v-30h-163v-250h340v110h-172v30h162zM760 390h-320v-390h321zM622 280v-170h-42v170h42z" />
    <glyph glyph-name="uniACEC" unicode="&#xacec;" horiz-adv-x="850" 
d="M562 562v68h-482v120h680l-10 -188h-188zM780 532v-112h-720v112h233v58h188v-58h299zM80 280v110h330v-250h-162v-30h162v-110h-330v250h163v30h-163zM690 390q0 -110 10.5 -166t31.5 -75t58 -19l-20 -130q-104 0 -164 69q-60 -69 -164 -69l-20 130q37 0 58 19t31.5 75
t10.5 166h168z" />
    <glyph glyph-name="uniACEF" unicode="&#xacef;" 
d="M572 562v68h-492v120h680l-10 -188h-178zM481 532h299v-112h-720v112h233v58h188v-58zM692 395v-35h78v-115h-344v115h78v35h188zM248 140v-30h162v-110h-330v250h163v30h-163v110h315v-250h-147zM608 230q73 0 115 -28t42 -87t-42 -87t-115 -28h-20q-73 0 -115 28
t-42 87t42 87t115 28h20zM598 98q10 0 16.5 5t6.5 12q0 8 -6.5 13t-16.5 5t-16 -5t-6 -13t6 -12.5t16 -4.5z" />
    <glyph glyph-name="uniACF0" unicode="&#xacf0;" 
d="M573 609v-67h177l10 207h-680v-140h493zM481 499v63h-187v-63h-234v-139h720v139h-299zM760 313h-680v-313h680v313zM572 178v-43h-304v43h304z" />
    <glyph glyph-name="uniACF1" unicode="&#xacf1;" 
d="M573 609v-67h177l10 207h-680v-140h493zM481 499v63h-187v-63h-234v-139h720v139h-299zM760 0v320h-187v-42h-305v42h-188v-320h680zM573 158v-38h-305v38h305z" />
    <glyph glyph-name="uniACF3" unicode="&#xacf3;" 
d="M572 497v103h-492v150h680l-10 -253h-178zM481 447h299v-150h-720v150h233v98h188v-98zM514 261q4 -51 37 -75t83.5 -30t135.5 -6l-20 -150q-222 0 -330 79q-108 -79 -330 -79l-20 150q85 0 135.5 6t83.5 30t37 75h188z" />
    <glyph glyph-name="uniACF5" unicode="&#xacf5;" 
d="M573 609v-67h177l10 207h-680v-140h493zM481 494v68h-187v-68h-234v-139h720v139h-299zM760 154q0 67 -44.5 110.5t-112.5 43.5h-366q-68 0 -112.5 -43.5t-44.5 -110.5t44.5 -110.5t112.5 -43.5h366q68 0 112.5 43.5t44.5 110.5zM553 173q8 0 13.5 -5.5t5.5 -13.5
t-5.5 -13.5t-13.5 -5.5h-266q-8 0 -13.5 5.5t-5.5 13.5t5.5 13.5t13.5 5.5h266z" />
    <glyph glyph-name="uniACF6" unicode="&#xacf6;" 
d="M573 542v67h-493v140h680l-10 -207h-177zM481 494h299v-139h-720v139h234v68h187v-68zM551 183q31 -32 84 -42.5t135 -10.5l-20 -130q-224 0 -330 83q-106 -83 -330 -83l-20 130q82 0 135 10.5t84 42.5h-209v125h680v-125h-209z" />
    <glyph glyph-name="uniACFC" unicode="&#xacfc;" horiz-adv-x="835" 
d="M760 760h-188v-760h188v311h75v150h-75v299zM334 599v-288h168l10 439h-432v-151h254zM289 460h-178v-280h-51v-150h482v150h-253v280z" />
    <glyph glyph-name="uniACFD" unicode="&#xacfd;" horiz-adv-x="835" 
d="M760 760h-187v-465h187v155h75v150h-75v160zM336 600v-107h167l10 257h-433v-150h256zM288 550h-168v-97h-60v-148h483v148h-255v97zM80 115h492v-115h188v265h-680v-150z" />
    <glyph glyph-name="uniAD00" unicode="&#xad00;" horiz-adv-x="835" 
d="M760 760h-187v-515h187v185h75v150h-75v180zM336 600v-107h167l10 257h-433v-150h256zM288 550h-168v-97h-60v-148h483v148h-255v97zM760 150h-492v115h-188v-265h680v150z" />
    <glyph glyph-name="uniAD04" unicode="&#xad04;" horiz-adv-x="835" 
d="M760 760h-187v-340h187v98h75v137h-75v105zM336 640v-78h167l10 188h-433v-110h256zM60 420h483v112h-255v68h-168v-68h-60v-112zM760 140v250h-680v-110h493v-30h-493v-250h690v110h-502v30h492z" />
    <glyph glyph-name="uniAD06" unicode="&#xad06;" horiz-adv-x="835" 
d="M760 760h-187v-340h187v98h75v137h-75v105zM336 640v-78h167l10 188h-433v-110h256zM60 420h483v112h-255v68h-168v-68h-60v-112zM400 140v250h-320v-110h163v-30h-163v-250h330v110h-172v30h162zM760 390h-320v-390h320v390zM620 265v-140h-40v140h40z" />
    <glyph glyph-name="uniAD0C" unicode="&#xad0c;" horiz-adv-x="835" 
d="M760 760h-187v-435h187v140h75v150h-75v145zM336 610v-107h167l10 247h-433v-140h256zM288 560h-168v-97h-60v-138h483v138h-255v97zM760 293h-680v-293h680v293zM572 168v-43h-304v43h304z" />
    <glyph glyph-name="uniAD0D" unicode="&#xad0d;" horiz-adv-x="835" 
d="M760 760h-187v-435h187v140h75v150h-75v145zM336 610v-97h167l10 237h-433v-140h256zM288 570h-168v-97h-60v-138h483v138h-255v97zM760 0v300h-187v-42h-305v42h-188v-300h680zM573 148v-38h-305v38h305z" />
    <glyph glyph-name="uniAD0F" unicode="&#xad0f;" horiz-adv-x="835" 
d="M760 590h75v-150h-75v-179h-187v499h187v-170zM336 488v112h-256v150h433l-10 -262h-167zM543 448v-148h-483v148h60v112h168v-112h255zM514 261q4 -51 37 -75t83.5 -30t135.5 -6l-20 -150q-222 0 -330 79q-108 -79 -330 -79l-20 150q85 0 135.5 6t83.5 30t37 75h188z
" />
    <glyph glyph-name="uniAD10" unicode="&#xad10;" horiz-adv-x="835" 
d="M760 600h75v-150h-75v-155h-187v465h187v-160zM336 488v112h-256v150h433l-10 -262h-167zM543 448v-148h-483v148h60v112h168v-112h255zM690 275q0 -57 28 -96t72 -39l-20 -140q-46 0 -89 16.5t-78 46.5q-32 -30 -72.5 -46.5t-83.5 -16.5l-17 68l-17 -68
q-43 0 -83.5 16.5t-72.5 46.5q-35 -30 -78 -46.5t-89 -16.5l-20 140q44 0 72 39t28 96h178q0 -51 22.5 -88t59.5 -45q37 8 59.5 45t22.5 88h178z" />
    <glyph glyph-name="uniAD11" unicode="&#xad11;" horiz-adv-x="835" 
d="M760 760h-187v-445h187v150h75v150h-75v145zM336 610v-107h167l10 247h-433v-140h256zM288 560h-168v-97h-60v-138h483v138h-255v97zM760 144q0 66 -44 105t-113 39h-366q-69 0 -113 -39t-44 -105t44 -105t113 -39h366q69 0 113 39t44 105zM553 163q8 0 13.5 -5.5
t5.5 -13.5t-5.5 -13.5t-13.5 -5.5h-266q-8 0 -13.5 5.5t-5.5 13.5t5.5 13.5t13.5 5.5h266z" />
    <glyph glyph-name="uniAD18" unicode="&#xad18;" horiz-adv-x="853" 
d="M793 760h-153v-310h-30v310h-153v-750h153v310h30v-320h153v760zM420 750h-340v-130h197v-300h133zM247 450h-133v-280h-54v-140h367v140h-180v280z" />
    <glyph glyph-name="uniAD1C" unicode="&#xad1c;" horiz-adv-x="853" 
d="M793 760h-158v-183h-30v183h-158v-505h158v182h30v-202h158v525zM273 610v-127h127l10 267h-330v-140h193zM238 552h-128v-109h-50v-138h357v138h-179v109zM793 150h-492v115h-188v-265h680v150z" />
    <glyph glyph-name="uniAD20" unicode="&#xad20;" horiz-adv-x="870" 
d="M800 761h-158v-108h-32v108h-158v-339h157v104h33v-104h157zM273 640v-61h127l10 171h-330v-110h193zM60 427h362v112h-189v71h-128v-71h-45v-112zM800 140v250h-680v-110h493v-30h-493v-250h690v110h-502v30h492z" />
    <glyph glyph-name="uniAD22" unicode="&#xad22;" horiz-adv-x="860" 
d="M800 761h-158v-108h-32v108h-158v-344h157v109h33v-109h157zM273 640v-66h127l10 176h-330v-110h193zM60 422h362v112h-189v76h-128v-76h-45v-112zM449 140v250h-330v-110h163v-30h-163v-250h340v110h-172v30h162zM799 390h-320v-390h321zM661 280v-170h-42v170h42z" />
    <glyph glyph-name="uniAD29" unicode="&#xad29;" horiz-adv-x="860" 
d="M800 760h-158v-143h-32v143h-158v-425h158v142h32v-142h158v425zM273 605v-97h127l10 242h-330v-145h193zM243 565h-128v-97h-55v-133h362v133h-179v97zM800 0v300h-187v-42h-305v42h-188v-300h680zM613 148v-38h-305v38h305z" />
    <glyph glyph-name="uniAD2C" unicode="&#xad2c;" horiz-adv-x="870" 
d="M610 457v-162h-158v465h158v-163h32v163h158v-465h-158v162h-32zM273 473v142h-193v135h330l-10 -277h-127zM422 438v-133h-362v133h50v114h128v-114h184zM790 0q-99 0 -168 55q-31 -27 -70.5 -41t-84.5 -14l-17 68l-17 -68q-45 0 -84.5 14t-70.5 41q-69 -55 -168 -55
l-20 140q45 0 72.5 34.5t27.5 90.5h178q0 -50 22 -83t60 -40q38 7 60 40t22 83h178q0 -56 27.5 -90.5t72.5 -34.5z" />
    <glyph glyph-name="uniAD2D" unicode="&#xad2d;" horiz-adv-x="860" 
d="M800 760h-158v-143h-32v143h-158v-425h158v142h32v-142h158v425zM273 605v-97h127l10 242h-330v-145h193zM243 565h-128v-97h-55v-133h362v133h-179v97zM800 154q0 69 -43.5 111.5t-113.5 42.5h-366q-70 0 -113.5 -42.5t-43.5 -111.5t43.5 -111.5t113.5 -42.5h366
q70 0 113.5 42.5t43.5 111.5zM593 173q8 0 13.5 -5.5t5.5 -13.5t-5.5 -13.5t-13.5 -5.5h-266q-8 0 -13.5 5.5t-5.5 13.5t5.5 13.5t13.5 5.5h266z" />
    <glyph glyph-name="uniAD34" unicode="&#xad34;" horiz-adv-x="820" 
d="M760 760h-188v-760h188v760zM334 599v-288h168l10 439h-432v-151h254zM289 461h-168v-281h-61v-150h482v150h-253v281z" />
    <glyph glyph-name="uniAD35" unicode="&#xad35;" horiz-adv-x="820" 
d="M760 760h-187v-465h187v465zM336 600v-107h167l10 257h-433v-150h256zM288 560h-168v-107h-60v-148h483v148h-255v107zM80 115h492v-115h188v265h-680v-150z" />
    <glyph glyph-name="uniAD38" unicode="&#xad38;" horiz-adv-x="820" 
d="M760 760h-187v-525h187v525zM336 600v-107h167l10 257h-433v-150h256zM288 560h-168v-107h-60v-148h483v148h-255v107zM760 150h-492v115h-188v-265h680v150z" />
    <glyph glyph-name="uniAD3C" unicode="&#xad3c;" horiz-adv-x="830" 
d="M760 760h-187v-340h187v340zM336 640v-78h167l10 188h-433v-110h256zM60 420h483v112h-255v78h-168v-78h-60v-112zM760 140v250h-680v-110h493v-30h-493v-250h690v110h-502v30h492z" />
    <glyph glyph-name="uniAD44" unicode="&#xad44;" horiz-adv-x="820" 
d="M760 760h-187v-435h187v435zM336 610v-97h167l10 237h-433v-140h256zM288 570h-168v-97h-60v-138h483v138h-255v97zM760 293h-680v-293h680v293zM572 168v-43h-304v43h304z" />
    <glyph glyph-name="uniAD45" unicode="&#xad45;" horiz-adv-x="820" 
d="M760 760h-187v-435h187v435zM336 610v-97h167l10 237h-433v-140h256zM288 570h-168v-97h-60v-138h483v138h-255v97zM760 0v300h-187v-42h-305v42h-188v-300h680zM573 148v-38h-305v38h305z" />
    <glyph glyph-name="uniAD47" unicode="&#xad47;" horiz-adv-x="830" 
d="M760 760v-499h-187v499h187zM336 493v107h-256v150h433l-10 -257h-167zM543 453v-148h-483v148h60v107h168v-107h255zM750 0q-222 0 -330 79q-108 -79 -330 -79l-20 150q85 0 135.5 6t83.5 30t37 75h188q4 -51 37 -75t83.5 -30t135.5 -6z" />
    <glyph glyph-name="uniAD49" unicode="&#xad49;" horiz-adv-x="820" 
d="M760 760h-187v-440h187v440zM336 610v-107h167l10 247h-433v-140h256zM288 570h-168v-107h-60v-138h483v138h-255v107zM760 144q0 66 -44 105t-113 39h-366q-69 0 -113 -39t-44 -105t44 -105t113 -39h366q69 0 113 39t44 105zM553 163q8 0 13.5 -5.5t5.5 -13.5
t-5.5 -13.5t-13.5 -5.5h-266q-8 0 -13.5 5.5t-5.5 13.5t5.5 13.5t13.5 5.5h266z" />
    <glyph glyph-name="uniAD50" unicode="&#xad50;" horiz-adv-x="820" 
d="M562 600v-300h178l10 450h-680v-150h492zM523 150v300h-177v-300h-53v300h-177v-300h-56v-150h700v150h-237z" />
    <glyph glyph-name="uniAD54" unicode="&#xad54;" 
d="M572 600v-103h178l10 253h-680v-150h492zM531 447v103h-178v-103h-52v103h-178v-103h-63v-150h720v150h-249zM80 245v-245h680v150h-492v95h-188z" />
    <glyph glyph-name="uniAD58" unicode="&#xad58;" 
d="M572 630v-68h178l10 188h-680v-120h492zM60 420h720v112h-249v60h-178v-60h-50v61h-178v-61h-65v-112zM760 140v250h-680v-110h493v-30h-493v-250h690v110h-502v30h492z" />
    <glyph glyph-name="uniAD60" unicode="&#xad60;" 
d="M573 609v-72h177l10 212h-680v-140h493zM533 494v74h-178v-74h-50v74h-178v-74h-67v-139h720v139h-247zM760 313h-680v-313h680v313zM572 178v-43h-304v43h304z" />
    <glyph glyph-name="uniAD61" unicode="&#xad61;" 
d="M573 609v-67h177l10 207h-680v-140h493zM533 499v69h-178v-69h-50v69h-178v-69h-67v-139h720v139h-247zM760 0v320h-187v-42h-305v42h-188v-320h680zM573 158v-38h-305v38h305z" />
    <glyph glyph-name="uniAD63" unicode="&#xad63;" 
d="M572 497v103h-492v150h680l-10 -253h-178zM521 447h259v-150h-720v150h73v103h168v-103h52v103h168v-103zM514 261q4 -51 37 -75t83.5 -30t135.5 -6l-20 -150q-222 0 -330 79q-108 -79 -330 -79l-20 150q85 0 135.5 6t83.5 30t37 75h188z" />
    <glyph glyph-name="uniAD65" unicode="&#xad65;" 
d="M573 609v-77h177l10 217h-680v-140h493zM533 489v79h-178v-79h-50v79h-178v-79h-67v-139h720v139h-247zM760 154q0 67 -44.5 110.5t-112.5 43.5h-366q-68 0 -112.5 -43.5t-44.5 -110.5t44.5 -110.5t112.5 -43.5h366q68 0 112.5 43.5t44.5 110.5zM553 173q8 0 13.5 -5.5
t5.5 -13.5t-5.5 -13.5t-13.5 -5.5h-266q-8 0 -13.5 5.5t-5.5 13.5t5.5 13.5t13.5 5.5h266z" />
    <glyph glyph-name="uniAD6C" unicode="&#xad6c;" horiz-adv-x="839" 
d="M572 600v-188h177l10 338h-679v-150h492zM513 187v-187h-188v187h-265v150h719v-150h-266z" />
    <glyph glyph-name="uniAD6D" unicode="&#xad6d;" horiz-adv-x="839" 
d="M572 599v-92h177l10 242h-679v-150h492zM779 459h-719v-149h265v-65h-245v-150h492v-95h187v245h-246v65h266v149z" />
    <glyph glyph-name="uniAD70" unicode="&#xad70;" horiz-adv-x="839" 
d="M572 600v-103h178l10 253h-680v-150h492zM533 297v-95h-188v95h-285v149h719v-149h-246zM80 245v-245h680v150h-492v95h-188z" />
    <glyph glyph-name="uniAD73" unicode="&#xad73;" 
d="M573 610v-68h177l10 208h-680v-140h493zM780 504h-720v-139h266v-48h-246v-317h680v140h-493v37h493v140h-246v48h266v139z" />
    <glyph glyph-name="uniAD74" unicode="&#xad74;" horiz-adv-x="842" 
d="M574 562v57h-494v131h682l-10 -188h-178zM782 421h-268v-31h246v-250h-492v-30h502v-110h-690v250h493v30h-493v110h247v31h-267v111h722v-111z" />
    <glyph glyph-name="uniAD75" unicode="&#xad75;" horiz-adv-x="842" 
d="M572 562v68h-492v120h680l-10 -188h-178zM782 421h-268v-31h249v-390h-188v265h-150v-125h-172v-30h182v-110h-355v250h173v30h-173v110h247v31h-267v111h722v-111z" />
    <glyph glyph-name="uniAD76" unicode="&#xad76;" horiz-adv-x="842" 
d="M572 562v68h-492v120h680l-10 -188h-178zM782 421h-268v-31h246l1 -390h-321v280h-30v-140h-162v-30h172v-110h-340v250h163v30h-163v110h247v31h-267v111h722v-111zM575 280v-170h42v170h-42z" />
    <glyph glyph-name="uniAD7B" unicode="&#xad7b;" horiz-adv-x="842" 
d="M572 562v68h-492v120h680l-10 -188h-178zM782 421h-268v-61h20v35h158v-35h78v-115h-344v35h-31v-140h-147v-30h162v-110h-330v250h163v30h-163v110h247v31h-267v111h722v-111zM608 230q73 0 115 -28t42 -87t-42 -87t-115 -28h-20q-73 0 -115 28t-42 87t42 87t115 28h20z
M598 98q10 0 16.5 5t6.5 12q0 8 -6.5 13t-16.5 5t-16 -5t-6 -13t6 -12.5t16 -4.5z" />
    <glyph glyph-name="uniAD7C" unicode="&#xad7c;" 
d="M572 542v58h-492v150h680l-10 -208h-178zM780 360h-267v-47h247v-313h-680v313h246v47h-266v139h720v-139zM572 135v42h-304v-42h304z" />
    <glyph glyph-name="uniAD7D" unicode="&#xad7d;" 
d="M572 600v-58h178l10 208h-680v-150h492zM780 499h-720v-139h266v-52h187v52h267v139zM760 0v320h-187v-42h-305v42h-188v-320h680zM573 158v-38h-305v38h305z" />
    <glyph glyph-name="uniAD7F" unicode="&#xad7f;" horiz-adv-x="839" 
d="M572 517v83h-492v150h680l-10 -233h-178zM60 486h719v-149h-266v-45h-188v45h-265v149zM514 261q4 -51 37 -75t83.5 -30t135.5 -6l-20 -150q-222 0 -330 79q-108 -79 -330 -79l-20 150q85 0 135.5 6t83.5 30t37 75h188z" />
    <glyph glyph-name="uniAD81" unicode="&#xad81;" 
d="M572 542v68h-492v140h680l-10 -208h-178zM513 360v-52h90q68 0 112.5 -43.5t44.5 -110.5t-44.5 -110.5t-112.5 -43.5h-366q-68 0 -112.5 43.5t-44.5 110.5t44.5 110.5t112.5 43.5h89v52h-266v139h720v-139h-267zM572 154q0 8 -5.5 13.5t-13.5 5.5h-266q-8 0 -13.5 -5.5
t-5.5 -13.5t5.5 -13.5t13.5 -5.5h266q8 0 13.5 5.5t5.5 13.5z" />
    <glyph glyph-name="uniAD82" unicode="&#xad82;" 
d="M572 552v58h-492v140h680l-10 -198h-178zM60 509h720v-139h-267v-47h-187v47h-266v139zM551 183q31 -32 84 -42.5t135 -10.5l-20 -130q-224 0 -330 83q-106 -83 -330 -83l-20 130q82 0 135 10.5t84 42.5h-209v125h680v-125h-209z" />
    <glyph glyph-name="uniAD88" unicode="&#xad88;" horiz-adv-x="822" 
d="M762 760h-188v-516h-120v-139h120v-105h188v760zM301 599v-134h178l10 285h-409v-151h221zM368 284l-10 -274h-178v274h-120v151h484v-151h-176z" />
    <glyph glyph-name="uniAD89" unicode="&#xad89;" horiz-adv-x="820" 
d="M760 760h-186v-96h-65v-139h65v-230h186v465zM301 599v-76h178l10 227h-409v-151h221zM388 345v-60h-188v60h-140v151h484v-151h-156zM80 115h492v-115h188v265h-680v-150z" />
    <glyph glyph-name="uniAD8C" unicode="&#xad8c;" horiz-adv-x="820" 
d="M760 760h-186v-116h-65v-139h65v-290h186v545zM301 599v-96h178l10 247h-409v-151h221zM388 325v-70h-188v70h-140v151h484v-151h-156zM760 150h-492v85h-188v-235h680v150z" />
    <glyph glyph-name="uniAD90" unicode="&#xad90;" horiz-adv-x="830" 
d="M760 760h-186v-54h-65v-124h65v-161h186v339zM301 631v-49h178l10 168h-409v-119h221zM389 410v41h155v111h-484v-111h142v-41h187zM760 140v250h-680v-110h493v-30h-493v-250h690v110h-502v30h492z" />
    <glyph glyph-name="uniAD9C" unicode="&#xad9c;" 
d="M574 305v230h-65v139h65v86h186v-455h-186zM301 533v66h-221v151h409l-10 -217h-178zM200 295v50h-140v151h484v-151h-156v-50h-188zM760 0q-94 0 -163 61q-64 -61 -150 -61l-27 90l-27 -90q-86 0 -150 61q-69 -61 -163 -61l-20 150q46 0 73 30.5t27 94.5h178
q0 -57 22 -87.5t60 -36.5q38 6 60 36.5t22 87.5h178q0 -64 27 -94.5t73 -30.5z" />
    <glyph glyph-name="uniAD9D" unicode="&#xad9d;" horiz-adv-x="820" 
d="M760 760h-186v-74h-55v-142h55v-206h186v422zM301 609v-65h178l10 206h-409v-141h221zM388 380v-52h-188v52h-140v139h484v-139h-156zM760 154q0 67 -44.5 110.5t-112.5 43.5h-366q-68 0 -112.5 -43.5t-44.5 -110.5t44.5 -110.5t112.5 -43.5h366q68 0 112.5 43.5
t44.5 110.5zM553 173q8 0 13.5 -5.5t5.5 -13.5t-5.5 -13.5t-13.5 -5.5h-266q-8 0 -13.5 5.5t-5.5 13.5t5.5 13.5t13.5 5.5h266z" />
    <glyph glyph-name="uniADA4" unicode="&#xada4;" horiz-adv-x="860" 
d="M605 762h-163v-518h-115v-139h115v-105h163v762zM800 760h-163v-760h163v760zM387 750h-307v-130h139v-175h158zM287 0l10 275h115v140h-352v-140h74v-275h153z" />
    <glyph glyph-name="uniADB7" unicode="&#xadb7;" horiz-adv-x="870" 
d="M442 291v242h-60v139h60v88h163v-469h-163zM800 760v-528h-163v528h163zM194 505v125h-114v120h282l-10 -245h-158zM149 232v113h-89v130h352v-130h-100l-10 -113h-153zM790 0q-222 0 -330 79q-108 -79 -330 -79l-20 150q85 0 135.5 6t83.5 30t37 75h188q4 -51 37 -75
t83.5 -30t135.5 -6z" />
    <glyph glyph-name="uniADB8" unicode="&#xadb8;" horiz-adv-x="860" 
d="M442 281v252h-60v139h60v88h163v-479h-163zM637 760h163v-479h-163v479zM194 505v125h-114v120h282l-10 -245h-158zM149 281v64h-89v130h352v-130h-100v-64h-163zM700 255q0 -56 27.5 -90.5t72.5 -34.5l-20 -130q-47 0 -90 14t-77 41q-32 -27 -72.5 -41t-83.5 -14l-17 63
l-17 -63q-43 0 -83.5 14t-72.5 41q-34 -27 -77 -41t-90 -14l-20 130q45 0 72.5 34.5t27.5 90.5h178q0 -50 22 -83t60 -40q38 7 60 40t22 83h178z" />
    <glyph glyph-name="uniADC0" unicode="&#xadc0;" horiz-adv-x="822" 
d="M762 760h-188v-760h188v760zM301 599v-194h178l10 345h-409v-151h221zM368 224l-10 -214h-178v214h-120v151h484v-151h-176z" />
    <glyph glyph-name="uniADC1" unicode="&#xadc1;" horiz-adv-x="820" 
d="M760 760h-186v-465h186v465zM326 599v-76h178l10 227h-434v-151h246zM388 345v-60h-188v60h-140v151h484v-151h-156zM80 115h492v-115h188v265h-680v-150z" />
    <glyph glyph-name="uniADC4" unicode="&#xadc4;" horiz-adv-x="820" 
d="M760 760h-186v-545h186v545zM326 599v-76h178l10 227h-434v-151h246zM388 345v-80h-188v80h-140v151h484v-151h-156zM760 150h-492v95h-188v-245h680v150z" />
    <glyph glyph-name="uniADC8" unicode="&#xadc8;" horiz-adv-x="830" 
d="M760 760h-186v-339h186v339zM326 631v-49h178l10 168h-434v-119h246zM389 410v41h155v111h-484v-111h142v-41h187zM760 140v250h-680v-110h493v-30h-493v-250h690v110h-502v30h492z" />
    <glyph glyph-name="uniADD0" unicode="&#xadd0;" horiz-adv-x="820" 
d="M760 760h-186v-422h186v422zM326 599v-50h178l10 201h-434v-151h246zM388 380v-47h-188v47h-140v139h484v-139h-156zM760 313h-680v-313h680v313zM572 177v-42h-304v42h304z" />
    <glyph glyph-name="uniADD1" unicode="&#xadd1;" horiz-adv-x="820" 
d="M760 760h-186v-422h186v422zM326 599v-50h178l10 201h-434v-151h246zM388 380v-50h-188v50h-140v139h484v-139h-156zM760 0v310h-187v-32h-305v32h-188v-310h680zM573 158v-38h-305v38h305z" />
    <glyph glyph-name="uniADD3" unicode="&#xadd3;" horiz-adv-x="830" 
d="M760 760v-495h-186v495h186zM326 543v56h-246v151h434l-10 -207h-178zM200 285v70h-140v151h484v-151h-156v-70h-188zM750 0q-222 0 -330 79q-108 -79 -330 -79l-20 150q85 0 135.5 6t83.5 30t37 75h188q4 -51 37 -75t83.5 -30t135.5 -6z" />
    <glyph glyph-name="uniADD5" unicode="&#xadd5;" horiz-adv-x="820" 
d="M760 760h-186v-422h186v422zM326 599v-50h178l10 201h-434v-151h246zM388 380v-47h-188v47h-140v139h484v-139h-156zM760 154q0 67 -44.5 110.5t-112.5 43.5h-366q-68 0 -112.5 -43.5t-44.5 -110.5t44.5 -110.5t112.5 -43.5h366q68 0 112.5 43.5t44.5 110.5zM553 173
q8 0 13.5 -5.5t5.5 -13.5t-5.5 -13.5t-13.5 -5.5h-266q-8 0 -13.5 5.5t-5.5 13.5t5.5 13.5t13.5 5.5h266z" />
    <glyph glyph-name="uniADDC" unicode="&#xaddc;" 
d="M572 600v-188h178l10 338h-680v-150h492zM780 337h-720v-150h118v-187h178l10 187h108v-187h187v187h119v150z" />
    <glyph glyph-name="uniADE0" unicode="&#xade0;" 
d="M572 600v-83h178l10 233h-680v-150h492zM780 466h-720v-150h124v-75h187v75h98v-75h187v75h124v150zM80 215v-215h680v150h-492v65h-188z" />
    <glyph glyph-name="uniADE4" unicode="&#xade4;" 
d="M574 562v59h-494v131h682l-10 -190h-178zM780 421h-124v-31h104v-250h-492v-30h502v-110h-690v250h493v30h-493v110h104v31h-124v111h720v-111zM371 390h98v31h-98v-31z" />
    <glyph glyph-name="uniADEC" unicode="&#xadec;" 
d="M572 542v58h-492v150h680l-10 -208h-178zM780 360h-126v-47h106v-313h-680v313h106v47h-126v139h720v-139zM466 313v47h-92v-47h92zM572 135v42h-304v-42h304z" />
    <glyph glyph-name="uniADF8" unicode="&#xadf8;" 
d="M572 599v-299h177l10 449h-679v-150h492zM780 180h-720v-150h720v150z" />
    <glyph glyph-name="uniADF9" unicode="&#xadf9;" 
d="M572 600v-98h178l10 248h-680v-150h492zM60 452v-150h720v150h-720zM760 0v250h-680v-150h492v-100h188z" />
    <glyph glyph-name="uniADFC" unicode="&#xadfc;" 
d="M572 600v-98h178l10 248h-680v-150h492zM60 452v-150h720v150h-720zM80 250v-250h680v150h-492v100h-188z" />
    <glyph glyph-name="uniADFF" unicode="&#xadff;" horiz-adv-x="839" 
d="M572 609v-67h177l10 207h-679v-140h492zM60 499v-139h719v139h-719zM80 315v-315h679v140h-492v37h492v138h-679z" />
    <glyph glyph-name="uniAE00" unicode="&#xae00;" 
d="M572 630v-68h178l10 188h-680v-120h492zM60 420h720v112h-720v-112zM760 140v250h-680v-110h493v-30h-493v-250h690v110h-502v30h492z" />
    <glyph glyph-name="uniAE01" unicode="&#xae01;" 
d="M572 630v-68h178l10 188h-680v-120h492zM60 420h720v112h-720v-112zM425 140v250h-345v-110h173v-30h-173v-250h345v110h-172v30h172zM459 390v-125h116v-265h188v390h-304z" />
    <glyph glyph-name="uniAE02" unicode="&#xae02;" horiz-adv-x="842" 
d="M572 630v-68h178l10 188h-680v-120h492zM782 421v111h-722v-111h722zM410 140v250h-330v-110h163v-30h-163v-250h340v110h-172v30h162zM760 390h-320v-390h321zM617 280v-170h-42v170h42z" />
    <glyph glyph-name="uniAE07" unicode="&#xae07;" horiz-adv-x="842" 
d="M572 562v68h-492v120h680l-10 -188h-178zM60 532h722v-111h-722v111zM692 395v-35h78v-115h-344v115h108v35h158zM248 140v-30h162v-110h-330v250h163v30h-163v110h315v-250h-147zM608 230q73 0 115 -28t42 -87t-42 -87t-115 -28h-20q-73 0 -115 28t-42 87t42 87t115 28
h20zM598 98q10 0 16.5 5t6.5 12q0 8 -6.5 13t-16.5 5t-16 -5t-6 -13t6 -12.5t16 -4.5z" />
    <glyph glyph-name="uniAE08" unicode="&#xae08;" 
d="M573 609v-67h177l10 207h-680v-140h493zM60 499v-139h720v139h-720zM760 313h-680v-313h680v313zM572 178v-43h-304v43h304z" />
    <glyph glyph-name="uniAE09" unicode="&#xae09;" 
d="M573 609v-67h177l10 207h-680v-140h493zM60 499v-139h720v139h-720zM760 0v320h-187v-42h-305v42h-188v-320h680zM573 158v-38h-305v38h305z" />
    <glyph glyph-name="uniAE0B" unicode="&#xae0b;" 
d="M572 502v98h-492v150h680l-10 -248h-178zM60 452h720v-150h-720v150zM514 261q4 -51 37 -75t83.5 -30t135.5 -6l-20 -150q-222 0 -330 79q-108 -79 -330 -79l-20 150q85 0 135.5 6t83.5 30t37 75h188z" />
    <glyph glyph-name="uniAE0D" unicode="&#xae0d;" 
d="M573 609v-67h177l10 207h-680v-140h493zM60 494v-139h720v139h-720zM760 154q0 67 -44.5 110.5t-112.5 43.5h-366q-68 0 -112.5 -43.5t-44.5 -110.5t44.5 -110.5t112.5 -43.5h366q68 0 112.5 43.5t44.5 110.5zM553 173q8 0 13.5 -5.5t5.5 -13.5t-5.5 -13.5t-13.5 -5.5
h-266q-8 0 -13.5 5.5t-5.5 13.5t5.5 13.5t13.5 5.5h266z" />
    <glyph glyph-name="uniAE13" unicode="&#xae13;" horiz-adv-x="842" 
d="M572 562v68h-492v120h680l-10 -188h-178zM60 532h722v-111h-722v111zM514 395v-35h246v-105h-680v105h246v35h188zM623 230q59 0 93 -32t34 -83t-34 -83t-93 -32h-406q-59 0 -93 32t-34 83t34 83t93 32h406zM573 100q9 0 14 4t5 11t-5 11t-14 4h-306q-9 0 -14 -4t-5 -11
t5 -11t14 -4h306z" />
    <glyph glyph-name="uniAE14" unicode="&#xae14;" horiz-adv-x="820" 
d="M760 760h-188v-760h188v760zM300 600v-300h177l10 450h-407v-150h220zM542 30h-482v150h482v-150z" />
    <glyph glyph-name="uniAE30" unicode="&#xae30;" horiz-adv-x="820" 
d="M572 760v-760h188v760h-188zM70 30q123 0 217.5 70t147 199.5t52.5 302.5v150h-427v-150h239q0 -155 -40 -249.5t-97 -133.5t-112 -39z" />
    <glyph glyph-name="uniAE31" unicode="&#xae31;" horiz-adv-x="810" 
d="M750 762h-188v-432h188v432zM70 330q141 0 233 33.5t143 125.5t51 261h-427v-148h222q0 -57 -70 -89.5t-172 -32.5zM562 135v-135h188v285h-680v-150h492z" />
    <glyph glyph-name="uniAE34" unicode="&#xae34;" horiz-adv-x="810" 
d="M750 762h-188v-497h188v497zM70 330q141 0 233 33.5t143 125.5t51 261h-427v-148h222q0 -57 -70 -89.5t-172 -32.5zM258 150v135h-188v-285h680v150h-492z" />
    <glyph glyph-name="uniAE37" unicode="&#xae37;" horiz-adv-x="812" 
d="M750 760h-188v-410h188v410zM70 350q145 0 235 28.5t141 115.5t51 256h-427v-148h222q0 -102 -242 -102zM752 313h-682v-313h682v135h-494v43h494v135z" />
    <glyph glyph-name="uniAE38" unicode="&#xae38;" 
d="M770 760h-187v-340h187v340zM70 420q157 0 241.5 17.5t135 88.5t50.5 224h-427v-128h222q0 -42 -68 -62t-174 -20zM770 140v250h-680v-110h493v-30h-493v-250h690v110h-502v30h492z" />
    <glyph glyph-name="uniAE3A" unicode="&#xae3a;" horiz-adv-x="833" 
d="M770 760h-187v-340h187v340zM70 420q157 0 241.5 17.5t135 88.5t50.5 224h-427v-128h222q0 -42 -68 -62t-174 -20zM405 140v250h-315v-110h173v-30h-173v-250h325v110h-182v30h172zM439 0h334v390h-334v-390zM587 110v170h38v-170h-38z" />
    <glyph glyph-name="uniAE40" unicode="&#xae40;" horiz-adv-x="832" 
d="M770 760h-188v-410h188v410zM70 350q145 0 235 28.5t141 115.5t51 256h-427v-148h222q0 -102 -242 -102zM772 313h-682v-313h682v313zM584 178v-43h-306v43h306z" />
    <glyph glyph-name="uniAE41" unicode="&#xae41;" horiz-adv-x="830" 
d="M770 760h-188v-410h188v410zM70 350q145 0 235 28.5t141 115.5t51 256h-427v-148h222q0 -102 -242 -102zM770 0v315h-187v-37h-305v37h-188v-315h680zM583 158v-38h-305v38h305z" />
    <glyph glyph-name="uniAE43" unicode="&#xae43;" 
d="M770 760v-439h-188v439h188zM497 750q0 -170 -51.5 -266.5t-144.5 -135t-231 -38.5l-20 150q64 0 119.5 19t89 51.5t33.5 71.5h-222v148h427zM760 0q-104 0 -188.5 26.5t-141.5 76.5q-57 -50 -141.5 -76.5t-188.5 -26.5l-20 150q110 0 180 37.5t76 113.5h188
q6 -76 76 -113.5t180 -37.5z" />
    <glyph glyph-name="uniAE44" unicode="&#xae44;" horiz-adv-x="850" 
d="M770 760v-450h-188v450h188zM50 460q64 0 119.5 19t89 51.5t33.5 71.5h-222v148h427q0 -170 -51.5 -266.5t-144.5 -135t-231 -38.5zM770 0q-46 0 -89 16.5t-78 46.5q-32 -30 -72.5 -46.5t-83.5 -16.5l-17 68l-17 -68q-43 0 -83.5 16.5t-72.5 46.5q-35 -30 -78 -46.5
t-89 -16.5l-20 140q44 0 72 39t28 96h178q0 -51 22.5 -88t59.5 -45q37 8 59.5 45t22.5 88h178q0 -57 28 -96t72 -39z" />
    <glyph glyph-name="uniAE45" unicode="&#xae45;" horiz-adv-x="830" 
d="M770 760h-188v-420h188v420zM70 340q143 0 234 31t142 120.5t51 258.5h-427v-148h222q0 -57 -68.5 -84.5t-173.5 -27.5zM770 154q0 67 -44.5 110.5t-112.5 43.5h-366q-68 0 -112.5 -43.5t-44.5 -110.5t44.5 -110.5t112.5 -43.5h366q68 0 112.5 43.5t44.5 110.5zM563 173
q8 0 13.5 -5.5t5.5 -13.5t-5.5 -13.5t-13.5 -5.5h-266q-8 0 -13.5 5.5t-5.5 13.5t5.5 13.5t13.5 5.5h266z" />
    <glyph glyph-name="uniAE46" unicode="&#xae46;" 
d="M770 760v-410h-188v410h188zM497 750q0 -169 -51 -256t-141 -115.5t-235 -28.5l-20 150q242 0 242 102h-222v148h427zM760 0q-224 0 -330 83q-106 -83 -330 -83l-20 130q82 0 135 10.5t84 42.5h-209v125h680v-125h-209q31 -32 84 -42.5t135 -10.5z" />
    <glyph glyph-name="uniAE4A" unicode="&#xae4a;" horiz-adv-x="832" 
d="M770 760h-188v-420h188v420zM70 350q145 0 235 28.5t141 115.5t51 256h-427v-148h222q0 -102 -242 -102zM772 308h-682v-135h98l4 -38h-102v-135h682v135h-102l4 38h98v135zM380 135l-4 38h110l-4 -38h-102z" />
    <glyph glyph-name="uniAE4C" unicode="&#xae4c;" horiz-adv-x="825" 
d="M750 471h75v-150h-75v-321h-188v760h188v-289zM522 571q0 -185 -32.5 -295.5t-87 -163.5t-132.5 -82l-40 130q45 30 69.5 80t35 128.5t10.5 202.5v29h-43v-29q0 -163 -28 -260t-78 -145t-126 -76l-40 140q44 30 66.5 72.5t30.5 104.5t8 164v29h-75v150h462v-179z" />
    <glyph glyph-name="uniAE4D" unicode="&#xae4d;" horiz-adv-x="835" 
d="M760 617h75v-151h-75v-136h-188v430h188v-143zM247 419q-60 -79 -187 -79l-20 150q54 0 74.5 25t20.5 85h-75v150h472v-113q0 -317 -272 -317zM301 600q-5 -76 -25 -127q40 8 59.5 38t19.5 89h-54zM80 135v150h680v-285h-188v135h-492z" />
    <glyph glyph-name="uniAE4E" unicode="&#xae4e;" horiz-adv-x="835" 
d="M760 617h75v-151h-75v-136h-188v430h188v-143zM247 419q-60 -79 -187 -79l-20 150q54 0 74.5 25t20.5 85h-75v150h472v-113q0 -317 -272 -317zM301 600q-5 -76 -25 -127q40 8 59.5 38t19.5 89h-54zM80 135v150h320v-285h-188v135h-132zM440 135v150h320v-285h-188v135
h-132z" />
    </font>
</defs>
</svg>
