<?xml version="1.0" standalone="no"?>
<!DOCTYPE svg PUBLIC "-//W3C//DTD SVG 1.1//EN" "http://www.w3.org/Graphics/SVG/1.1/DTD/svg11.dtd" >
<svg>
<metadata>
Created by FontForge 20090622 at Mon Jun 15 09:25:35 2015
 By deploy user
Part of the digitally encoded machine readable outline data for producing the Typefaces provided is copyrighted &#194;&#169; 1981 - 2006 Linotype GmbH, www.linotype.com. All rights reserved. This software is the property of Linotype GmbH, and may not be reproduced, used, displayed, modified, disclosed or transferred without the express written approval of Linotype GmbH.  Copyright (c) 1985, 1987, 1989, 1990 Adobe Systems Incorporated. All rights reserved. Helvetica is a trademark of Linotype GmbH and may be registered in certain jurisdictions. This typeface is original artwork of Linotype Design Studio. The design may be protected in certain jurisdictions.
</metadata>
<defs>
<font id="HelveticaLT-Narrow-Bold" horiz-adv-x="456" >
  <font-face 
    font-family="Helvetica LT Narrow"
    font-weight="700"
    font-stretch="condensed"
    units-per-em="1000"
    panose-1="2 11 8 3 4 3 2 2 2 4"
    ascent="718"
    descent="-282"
    x-height="532"
    cap-height="718"
    bbox="-139 -228 822 962"
    underline-thickness="50"
    underline-position="-50"
    unicode-range="U+000D-U+FB02"
  />
<missing-glyph horiz-adv-x="420" 
d="M182 117v67h46v-67h-46zM184 234l-1 17q0 55 10.5 81t37.5 59q26 31 33.5 47.5t7.5 35.5q0 36 -18.5 60.5t-43.5 24.5q-26 0 -44 -22t-23 -73l-41 8q5 71 35.5 104t74.5 33t73 -36t29 -95q0 -32 -10 -58.5t-42 -61.5q-30 -33 -35 -52t-5 -72h-38zM379 50v617h-338v-617
h338zM420 718v-718h-420v718h420z" />
    <glyph glyph-name=".notdef" horiz-adv-x="420" 
d="M182 117v67h46v-67h-46zM184 234l-1 17q0 55 10.5 81t37.5 59q26 31 33.5 47.5t7.5 35.5q0 36 -18.5 60.5t-43.5 24.5q-26 0 -44 -22t-23 -73l-41 8q5 71 35.5 104t74.5 33t73 -36t29 -95q0 -32 -10 -58.5t-42 -61.5q-30 -33 -35 -52t-5 -72h-38zM379 50v617h-338v-617
h338zM420 718v-718h-420v718h420z" />
    <glyph glyph-name="nonmarkingreturn" unicode="&#xd;" horiz-adv-x="0" 
 />
    <glyph glyph-name="space" unicode=" " horiz-adv-x="228" 
 />
    <glyph glyph-name="exclam" unicode="!" horiz-adv-x="273" 
d="M197 0h-120v141h120v-141zM167 199h-60l-33 336v183h126v-183z" />
    <glyph glyph-name="quotedbl" unicode="&#x22;" horiz-adv-x="389" 
d="M228 718h80v-271h-80v271zM80 718h81v-271h-81v271z" />
    <glyph glyph-name="numbersign" unicode="#" 
d="M408 199h-80l-23 -199h-77l23 199h-80l-23 -199h-77l23 199h-79l10 90h79l14 120h-79l9 90h80l23 199h77l-23 -199h80l22 199h78l-23 -199h79l-10 -90h-79l-14 -120h79zM195 409l-14 -120h80l14 120h-80z" />
    <glyph glyph-name="dollar" unicode="$" 
d="M314 501q-2 34 -8 54.5t-15 31.5t-20.5 14t-23.5 3v-187q58 -23 89.5 -42t47.5 -37q16 -19 25.5 -40t13.5 -40t5 -35t1 -25q0 -35 -9.5 -71.5t-31 -67t-56 -52t-85.5 -24.5v-98h-38v98q-100 10 -142 65t-42 167h107q2 -26 5.5 -47t11.5 -37t22 -26.5t38 -15.5v210
q-30 10 -60.5 23.5t-55.5 36t-40.5 57t-15.5 86.5q0 41 10.5 78.5t32 66t53.5 45.5t76 18v65h38v-65q23 -3 51.5 -11t54 -30t44.5 -61.5t23 -106.5h-106zM209 604q-18 -1 -31 -9t-21.5 -19t-12.5 -24.5t-4 -25.5q0 -24 6.5 -41t16 -27.5t22 -17t24.5 -9.5v173zM247 89
q10 1 22.5 5.5t23.5 15.5t18.5 29.5t7.5 47.5q0 22 -6.5 38t-17 27t-23.5 18.5t-25 11.5v-193z" />
    <glyph glyph-name="percent" unicode="%" horiz-adv-x="729" 
d="M107 528q0 -33 19.5 -56t45.5 -23t45.5 23t19.5 56t-19.5 56t-45.5 23t-45.5 -23t-19.5 -56zM23 528q0 38 11.5 71t32 58t47.5 39t58 14q30 0 57.5 -14.5t47.5 -39t32 -58t12 -70.5q0 -38 -12 -71t-32 -58t-47.5 -39t-57.5 -14q-31 0 -58 14t-47.5 38.5t-32 58
t-11.5 71.5zM230 -19h-61l326 729h61zM408 170q0 38 11.5 71t32 58t47.5 39t58 14q30 0 57.5 -14.5t47.5 -39t32 -58t12 -70.5q0 -38 -12 -71t-32 -58t-47.5 -39t-57.5 -14q-31 0 -58 14t-47.5 38.5t-32 58t-11.5 71.5zM492 170q0 -33 19.5 -56t45.5 -23t45.5 23t19.5 56
t-19.5 56t-45.5 23t-45.5 -23t-19.5 -56z" />
    <glyph glyph-name="ampersand" unicode="&#x26;" horiz-adv-x="592" 
d="M318 553q0 30 -14 44.5t-35 14.5q-19 0 -33.5 -14.5t-14.5 -43.5q0 -18 11 -40t32 -50q23 18 38.5 39.5t15.5 49.5zM575 0h-139l-40 61q-13 -16 -28 -30.5t-35 -25.5t-46 -17.5t-59 -6.5q-42 0 -76 17t-58 45t-37 65t-13 77q0 26 4 51.5t16 51.5t34.5 52.5t58.5 53.5
l13 9q-19 26 -36.5 64.5t-17.5 85.5q0 37 11.5 67t32.5 52t49.5 34t63.5 12q24 0 49.5 -10t46.5 -30t34.5 -51.5t13.5 -74.5q0 -38 -12 -67t-27.5 -50t-32 -34.5t-25.5 -19.5l83 -126q11 21 19.5 48.5t11.5 69.5h101q-3 -36 -8 -65.5t-13 -55t-19.5 -48.5t-26.5 -47z
M229 314l-31.5 -29t-22 -26t-12.5 -28.5t-4 -36.5q0 -11 4 -27t13.5 -31t26.5 -26t43 -11q29 0 52.5 16.5t38.5 33.5z" />
    <glyph glyph-name="quotesingle" unicode="'" horiz-adv-x="195" 
d="M57 718h81v-271h-81v271z" />
    <glyph glyph-name="parenleft" unicode="(" horiz-adv-x="273" 
d="M173 -208q-27 45 -53 96.5t-46.5 110t-32.5 124t-12 138.5t12 138.5t31.5 124.5t45.5 111t55 99h84q-24 -49 -44 -100t-34.5 -108t-23 -122t-8.5 -143t9 -143t24 -121.5t35 -106.5t42 -98h-84z" />
    <glyph glyph-name="parenright" unicode=")" horiz-adv-x="273" 
d="M100 734q27 -45 53 -96.5t46.5 -110t32.5 -124t12 -138.5t-12 -138.5t-31.5 -124.5t-46 -111.5t-54.5 -98.5h-84q24 49 44 100t34.5 108t23 122t8.5 143t-9 143t-24 121.5t-35 106.5t-42 98h84z" />
    <glyph glyph-name="asterisk" unicode="*" horiz-adv-x="319" 
d="M297 560l-86 -32l56 -97l-51 -44l-56 91l-57 -91l-51 44l55 97l-85 32l19 73l84 -34v119h69v-119l83 34z" />
    <glyph glyph-name="plus" unicode="+" horiz-adv-x="479" 
d="M194 506h91v-197h161v-112h-161v-197h-91v197h-161v112h161v197z" />
    <glyph glyph-name="comma" unicode="," horiz-adv-x="228" 
d="M175 20q0 -46 -9 -78.5t-25.5 -54t-39 -35t-48.5 -20.5h-1v53q12 5 23.5 11.5t21.5 19t16 32.5t8 52h-69v146h123v-126z" />
    <glyph glyph-name="hyphen" unicode="-" horiz-adv-x="273" 
d="M251 215h-229v130h229v-130z" />
    <glyph glyph-name="period" unicode="." horiz-adv-x="228" 
d="M175 0h-123v146h123v-146z" />
    <glyph glyph-name="slash" unicode="/" horiz-adv-x="228" 
d="M69 -19h-96l186 756h96z" />
    <glyph glyph-name="zero" unicode="0" 
d="M26 346q0 187 49.5 275.5t152.5 88.5t152.5 -88.5t49.5 -275.5t-49.5 -276t-152.5 -89t-152.5 89t-49.5 276zM144 346q0 -69 4 -117t13.5 -78t25.5 -44t41 -14t41 14t25.5 44t13.5 78t4 117t-4 117t-13.5 78t-25.5 43.5t-41 13.5t-41 -13.5t-25.5 -43.5t-13.5 -78
t-4 -117z" />
    <glyph glyph-name="one" unicode="1" 
d="M57 587h16q42 0 69 12t43 30t23 39.5t8 41.5h94v-710h-115v489h-138v98z" />
    <glyph glyph-name="two" unicode="2" 
d="M28 459q0 58 10.5 99t27 69t38 44.5t42.5 25t40 11t32 2.5q42 0 78.5 -15t63.5 -43.5t42.5 -70t15.5 -95.5q0 -46 -11 -81t-28.5 -62.5t-39 -48.5t-42.5 -39l-51 -44l-38 -34t-26.5 -28t-15.5 -25h253v-124h-398q1 31 5 63.5t17 67t39.5 72t74.5 79.5l67 60.5t45.5 48.5
t25.5 46.5t8 53.5q0 18 -4.5 36t-14.5 32.5t-25 23.5t-36 9q-30 0 -46.5 -13.5t-25 -33.5t-10.5 -43.5t-2 -42.5h-111z" />
    <glyph glyph-name="three" unicode="3" 
d="M175 411h18q13 0 29.5 2t31.5 11.5t25.5 28.5t10.5 54q0 10 -2.5 25.5t-10.5 30t-22 25t-38 10.5q-29 0 -45 -14.5t-23.5 -34t-8.5 -39t-1 -28.5h-107q0 50 11.5 92t35.5 72t60 47t86 17q29 0 61 -10t58.5 -33t43.5 -61t17 -94q0 -54 -22.5 -87.5t-47.5 -47.5v-2
q8 -3 22.5 -12t29 -28t25.5 -49.5t11 -75.5q0 -50 -14.5 -92t-40.5 -72.5t-62.5 -47.5t-80.5 -17q-21 0 -55 6t-67 29.5t-57 71t-24 130.5h112v-1q0 -14 2.5 -35.5t11 -41t25.5 -33.5t46 -14q35 0 60.5 28.5t25.5 88.5q0 36 -13 56.5t-32.5 30.5t-42 12t-42.5 2v100z" />
    <glyph glyph-name="four" unicode="4" 
d="M252 266q0 130 1 209t1 96h-1l-146 -305h145zM431 157h-64v-157h-115v157h-230v121l214 432h131v-444h64v-109z" />
    <glyph glyph-name="five" unicode="5" 
d="M143 426q16 14 38.5 26.5t65.5 12.5q29 0 60.5 -13t57 -40.5t42 -71t16.5 -104.5q0 -36 -9 -80.5t-32.5 -83.5t-64.5 -65t-105 -26q-34 0 -67 12.5t-59.5 38.5t-44 65t-19.5 93h115q4 -44 23.5 -70.5t57.5 -26.5q42 0 64.5 38t22.5 95q0 24 -5 46.5t-15 40.5t-26.5 29
t-38.5 11q-6 0 -15.5 -1t-20.5 -6t-22 -15t-19 -29l-103 6l40 390h320v-118h-237z" />
    <glyph glyph-name="six" unicode="6" 
d="M301 530q-2 30 -18.5 49t-48.5 19q-28 0 -46 -17.5t-28.5 -46t-15.5 -63.5t-6 -69l1 -2q6 10 15 20.5t21.5 19t30.5 14t42 5.5q45 0 78.5 -19.5t55.5 -50.5t33 -70t11 -79q0 -58 -14 -106t-39 -82t-60 -52.5t-77 -18.5q-66 0 -107 31t-64.5 81t-31.5 114.5t-8 130.5
q0 34 2 74.5t9.5 82t21.5 80t38 69t59.5 48.5t86.5 18q9 0 24.5 -2.5t33 -7.5t34 -14t27.5 -22q12 -14 20.5 -26.5t14.5 -27t10.5 -33.5t8.5 -47h-114zM312 228q0 34 -8 56.5t-20.5 36.5t-27.5 20t-28 6q-17 0 -32.5 -6.5t-28 -21t-20 -38t-7.5 -56.5q0 -58 24.5 -95
t66.5 -37q32 0 56.5 31.5t24.5 103.5z" />
    <glyph glyph-name="seven" unicode="7" 
d="M433 590q-21 -28 -55 -80.5t-67 -127.5t-59 -171t-31 -211h-118q3 71 16 136.5t32 124t41.5 109t44.5 90.5t41.5 69t31.5 45h-290l3 124h410v-108z" />
    <glyph glyph-name="eight" unicode="8" 
d="M229 422q34 0 52.5 25t18.5 63q0 41 -19.5 64.5t-47.5 23.5q-39 0 -59 -24.5t-20 -63.5q0 -16 5 -31.5t14.5 -28t23.5 -20.5t32 -8zM430 211q0 -34 -10 -74t-33.5 -74.5t-62 -58t-96.5 -23.5q-56 0 -94.5 20t-62.5 51.5t-34.5 70t-10.5 74.5q0 13 1.5 36t9.5 48.5
t26.5 51t51.5 44.5q-35 21 -53 55t-18 84q0 45 14 81t38.5 61t58 38.5t71.5 13.5q45 0 79.5 -15t57.5 -40.5t35 -59t12 -70.5q0 -46 -16 -83t-51 -60q21 -13 37 -28.5t27.5 -35.5t17 -46.5t5.5 -60.5zM312 205q0 19 -4.5 38.5t-14.5 35.5t-26.5 26.5t-40.5 10.5
q-16 0 -30.5 -6.5t-26 -20t-18.5 -34t-7 -49.5q0 -51 22.5 -82t62.5 -31q22 0 38 10.5t26 27t14.5 36.5t4.5 38z" />
    <glyph glyph-name="nine" unicode="9" 
d="M139 475q0 -40 7.5 -65.5t19.5 -39.5t27.5 -19.5t32.5 -5.5q15 0 30 7t27 21t19.5 36.5t7.5 54.5q0 61 -21.5 96t-66.5 35q-11 0 -25.5 -4.5t-27 -17.5t-21.5 -36.5t-9 -61.5zM150 164v-1q5 -37 23 -53.5t44 -16.5q18 0 35 10t30.5 33t22 61t8.5 94l-1 2q-20 -36 -51 -48
t-60 -12q-42 0 -75 18t-55.5 48.5t-34 70.5t-11.5 85q0 65 15 113t41.5 79.5t62.5 47t79 15.5q50 0 85 -20t58 -52.5t35.5 -72.5t18.5 -80.5t7 -77.5t1 -62q0 -103 -18.5 -173t-48.5 -112.5t-68 -60.5t-77 -18q-75 0 -123.5 49t-56.5 134h114z" />
    <glyph glyph-name="colon" unicode=":" horiz-adv-x="273" 
d="M198 0h-123v146h123v-146zM198 366h-123v146h123v-146z" />
    <glyph glyph-name="semicolon" unicode=";" horiz-adv-x="273" 
d="M198 20q0 -46 -9 -78.5t-25.5 -54t-39 -35t-48.5 -20.5h-1v53q12 5 23.5 11.5t21.5 19t16 32.5t8 52h-69v146h123v-126zM198 366h-123v146h123v-146z" />
    <glyph glyph-name="less" unicode="&#x3c;" horiz-adv-x="479" 
d="M448 -8l-417 216v90l417 216v-108l-298 -153l298 -153v-108z" />
    <glyph glyph-name="equal" unicode="=" horiz-adv-x="479" 
d="M446 307h-413v112h413v-112zM446 87h-413v112h413v-112z" />
    <glyph glyph-name="greater" unicode="&#x3e;" horiz-adv-x="479" 
d="M329 253l-298 153v108l417 -216v-90l-417 -216v108z" />
    <glyph glyph-name="question" unicode="?" horiz-adv-x="501" 
d="M198 208q0 36 2.5 63t11.5 50t25.5 44.5t44.5 45.5q24 20 37.5 44t13.5 55q0 29 -7.5 48t-19.5 30.5t-26 16t-27 4.5q-27 0 -44 -11.5t-26 -28.5t-13 -37t-5 -38v-1h-116q0 65 18.5 110t47 72.5t63.5 39.5t68 12q12 0 32.5 -2t44 -9.5t47 -21.5t43 -37.5t31.5 -58.5
t12 -84q0 -30 -6.5 -55t-19.5 -47t-31 -41.5t-42 -40.5q-14 -12 -23.5 -22t-15.5 -23.5t-8.5 -31.5t-2.5 -45h-109zM315 0h-120v141h120v-141z" />
    <glyph glyph-name="at" unicode="@" horiz-adv-x="800" 
d="M476 376q0 37 -18 61t-47 24q-21 0 -39 -12.5t-30.5 -32t-19.5 -43.5t-7 -47q0 -39 17 -64t47 -25q22 0 39.5 12.5t30.5 32.5t20 44.5t7 49.5zM512 546h72l-48 -255q-2 -9 -3.5 -20.5t-1.5 -21.5q0 -9 2.5 -15t9.5 -6q16 0 32.5 12t29.5 35t21.5 55.5t8.5 73.5
q0 61 -17 108t-47 79.5t-71 49t-88 16.5q-53 0 -96 -23t-74 -63.5t-47.5 -95t-16.5 -118.5q0 -67 18.5 -121.5t51 -93.5t77.5 -60t98 -21q51 0 95.5 22t76.5 59h73q-43 -78 -107.5 -119.5t-142.5 -41.5q-66 0 -124.5 28.5t-102 79t-69 119.5t-25.5 151q0 80 25 149t68 120
t100.5 80t122.5 29q56 0 108 -22t92.5 -62.5t64.5 -97.5t24 -127q0 -54 -11.5 -96.5t-30 -74.5t-42 -55t-46.5 -37.5t-44 -21t-35 -6.5q-18 0 -31.5 13t-15.5 40l-2 1q-16 -22 -39 -38t-47 -16q-27 0 -51 14t-42 38t-28.5 55.5t-10.5 66.5q0 47 12.5 91.5t35.5 79t55.5 55.5
t72.5 21q31 0 56 -15t43 -50z" />
    <glyph glyph-name="A" unicode="A" horiz-adv-x="592" 
d="M146 0h-130l210 718h142l208 -718h-134l-38 148h-217zM220 272h150l-73 284h-2z" />
    <glyph glyph-name="B" unicode="B" horiz-adv-x="592" 
d="M62 718h286q54 0 89.5 -18.5t56 -46t28.5 -59.5t8 -60q0 -39 -8 -64.5t-19 -42t-23.5 -25.5l-21.5 -15q27 -12 44.5 -31t28 -42t14.5 -48.5t4 -52.5q0 -43 -14 -81.5t-37 -66.5q-13 -15 -26.5 -27t-34 -20.5t-50.5 -13t-75 -4.5h-250v718zM180 124h151q45 0 70 25t25 80
q0 24 -7.5 40.5t-20.5 27t-29 15t-32 4.5h-157v-192zM180 437h145q36 0 61.5 18.5t25.5 61.5q0 45 -24.5 61t-66.5 16h-141v-157z" />
    <glyph glyph-name="C" unicode="C" horiz-adv-x="592" 
d="M438 483q-4 16 -10.5 37.5t-20.5 40.5t-38 32.5t-62 13.5q-22 0 -47.5 -10.5t-47 -38.5t-36 -77t-14.5 -125q0 -48 8 -92.5t25.5 -78.5t45 -54t66.5 -20q52 0 86 34.5t45 100.5h123q-9 -59 -29.5 -107.5t-52.5 -83.5t-75.5 -54.5t-98.5 -19.5q-59 0 -108.5 24t-85 71.5
t-55.5 118t-20 163.5q0 94 21 165t57.5 118.5t86 71.5t106.5 24q66 0 113 -25t77.5 -62.5t45.5 -82t18 -84.5h-123z" />
    <glyph glyph-name="D" unicode="D" horiz-adv-x="592" 
d="M62 718h260q50 0 87 -16t63.5 -42.5t44 -61.5t27.5 -73t14 -76.5t4 -72.5q0 -38 -4.5 -81t-15.5 -85t-29.5 -80t-45.5 -67t-64 -46t-86 -17h-255v718zM183 124h120q37 0 62.5 21t41.5 55t22.5 77.5t6.5 87.5q0 79 -14 125t-34 69t-44 29t-43 6h-118v-470z" />
    <glyph glyph-name="E" unicode="E" horiz-adv-x="547" 
d="M495 591h-312v-151h287v-127h-287v-186h326v-127h-447v718h433v-127z" />
    <glyph glyph-name="F" unicode="F" horiz-adv-x="501" 
d="M185 0h-123v718h419v-127h-296v-162h259v-127h-259v-302z" />
    <glyph glyph-name="G" unicode="G" horiz-adv-x="638" 
d="M339 387h246v-387h-82l-13 90q-12 -17 -27 -36t-36 -35t-50.5 -27t-69.5 -11q-53 0 -102 23.5t-86.5 70t-60 117t-22.5 165.5q0 73 17 141.5t52 121.5t89 85t128 32h2q67 0 115 -24t79 -60t46.5 -78.5t17.5 -79.5h-123q0 10 -8 30t-24 39.5t-40 34t-57 14.5t-63 -14.5
t-53.5 -45.5t-37.5 -80t-14 -118q0 -74 15 -121.5t39 -75.5t54.5 -39t62.5 -11q10 0 30 4.5t42 20.5t41.5 47.5t29.5 85.5h-137v121z" />
    <glyph glyph-name="H" unicode="H" horiz-adv-x="592" 
d="M181 322v-322h-123v718h123v-272h230v272h123v-718h-123v322h-230z" />
    <glyph glyph-name="I" unicode="I" horiz-adv-x="228" 
d="M175 0h-123v718h123v-718z" />
    <glyph glyph-name="J" unicode="J" 
d="M397 208q0 -115 -47 -170.5t-136 -55.5q-74 0 -113.5 26t-58 67t-21.5 93t-3 103h115q0 -42 2 -73.5t9.5 -52.5t21.5 -31.5t39 -10.5q24 0 38 8.5t20.5 23t8.5 33.5t2 40v510h123v-510z" />
    <glyph glyph-name="K" unicode="K" horiz-adv-x="592" 
d="M194 0h-123v718h123v-292l225 292h159l-240 -294l254 -424h-158l-182 315l-58 -72v-243z" />
    <glyph glyph-name="L" unicode="L" horiz-adv-x="501" 
d="M185 130h293v-130h-416v718h123v-588z" />
    <glyph glyph-name="M" unicode="M" horiz-adv-x="683" 
d="M627 0h-115v600h-1l-110 -600h-121l-107 600h-2v-600h-114v718h179l107 -566h1l105 566h178v-718z" />
    <glyph glyph-name="N" unicode="N" horiz-adv-x="592" 
d="M421 718h115v-718h-123l-240 512h-2v-512h-114v718h129l234 -500h1v500z" />
    <glyph glyph-name="O" unicode="O" horiz-adv-x="638" 
d="M36 359q0 84 15.5 145t40.5 103t56.5 67.5t62.5 39.5t59.5 18.5t48.5 4.5q19 0 48 -4.5t60 -18.5t62.5 -39.5t56.5 -67.5t40.5 -103t15.5 -145t-15.5 -145t-40.5 -103t-56.5 -67.5t-62.5 -39.5t-60 -18.5t-48 -4.5t-48 4.5t-60 18.5t-62.5 39.5t-56.5 67.5t-40.5 103
t-15.5 145zM159 359q0 -75 15.5 -124t39.5 -77t52 -39t53 -11t53 11t52 39t39.5 77t15.5 124t-15.5 124t-39.5 77t-52 39t-53 11t-53 -11t-52 -39t-39.5 -77t-15.5 -124z" />
    <glyph glyph-name="P" unicode="P" horiz-adv-x="547" 
d="M185 0h-123v718h269q86 0 134.5 -62t48.5 -168q0 -24 -7 -63t-27.5 -76t-57 -63.5t-96.5 -26.5h-141v-259zM299 383q34 0 53 13t27.5 31t10 37t1.5 31q0 53 -25.5 76t-82.5 23h-98v-211h114z" />
    <glyph glyph-name="Q" unicode="Q" horiz-adv-x="638" 
d="M390 276l62 -71q12 28 19.5 65.5t7.5 88.5q0 75 -15.5 124t-39.5 77t-52 39t-53 11t-53 -11t-52 -39t-39.5 -77t-15.5 -124t15.5 -124t39.5 -77t52 -39t53 -11q15 0 32 4t34 15l-59 68zM540 -52l-70 81q-42 -30 -83.5 -39t-67.5 -9q-19 0 -48 4.5t-60 18.5t-62.5 39.5
t-56.5 67.5t-40.5 103t-15.5 145t15.5 145t40.5 103t56.5 67.5t62.5 39.5t59.5 18.5t48.5 4.5q19 0 48 -4.5t60 -18.5t62.5 -39.5t56.5 -67.5t40.5 -103t15.5 -145q0 -89 -17.5 -151.5t-44.5 -104.5l64 -74z" />
    <glyph glyph-name="R" unicode="R" horiz-adv-x="592" 
d="M62 718h298q59 0 95 -23t56 -55.5t27 -67t7 -57.5q0 -60 -23.5 -106.5t-67.5 -64.5q18 -10 32 -20.5t23.5 -30t14.5 -50.5t5 -81q0 -39 0.5 -65t3 -41.5t7.5 -24t15 -12.5v-19h-136q-6 26 -9.5 57.5t-3.5 87.5q0 37 -2 62.5t-11.5 42t-29 24t-53.5 7.5h-127v-281h-121
v718zM327 402q48 0 71.5 22t23.5 76q0 14 -3.5 30.5t-12.5 30.5t-26 23.5t-44 9.5h-153v-192h144z" />
    <glyph glyph-name="S" unicode="S" horiz-adv-x="547" 
d="M150 221q0 -15 4.5 -35t18 -38t37.5 -30.5t65 -12.5q22 0 44 4t39.5 14t28.5 28t11 47q0 21 -8 35t-22.5 23.5t-34 16.5t-42.5 14l-63 18q-36 10 -69.5 22t-59.5 34.5t-42 59t-16 95.5q0 30 8.5 68.5t33 72t68.5 57t116 23.5q68 0 112 -24t70.5 -59t37 -75.5t10.5 -73.5
h-118q-1 12 -5 30.5t-16 35.5t-36 29.5t-64 12.5q-17 0 -35 -4.5t-33 -14.5t-24.5 -26.5t-9.5 -40.5q0 -21 6.5 -34.5t15.5 -21.5t20 -12l20 -7l144 -43q30 -9 58 -22t49 -35t34 -55t13 -81q0 -54 -13.5 -92.5t-35 -64.5t-48 -41.5t-52.5 -23.5t-48 -10.5t-35 -2.5
q-81 0 -130.5 25t-76.5 61.5t-36 78.5t-9 75h118z" />
    <glyph glyph-name="T" unicode="T" horiz-adv-x="501" 
d="M312 0h-123v591h-178v127h479v-127h-178v-591z" />
    <glyph glyph-name="U" unicode="U" horiz-adv-x="592" 
d="M534 251q0 -71 -17 -122t-48.5 -84t-76.5 -48.5t-100 -15.5q-20 0 -44.5 3.5t-49.5 13.5t-49.5 26.5t-43.5 43.5q-24 33 -34 76.5t-12 97.5v476h125v-466q0 -75 31 -109.5t74 -34.5q64 0 91.5 35.5t27.5 101.5v473h126v-467z" />
    <glyph glyph-name="V" unicode="V" horiz-adv-x="547" 
d="M403 718h128l-200 -718h-117l-198 718h132l126 -544h2z" />
    <glyph glyph-name="W" unicode="W" horiz-adv-x="774" 
d="M13 718h131l32.5 -169.5l23 -123l16 -86.5t10.5 -60.5t6.5 -45.5t5.5 -40h1q3 19 5.5 39t6.5 47l9.5 63.5l14 88.5l19.5 122.5t27 164.5h131l29.5 -169.5l21 -121l14 -85l9.5 -60l7 -46t7 -43.5h1q3 17 5.5 35t7 43.5l11 61.5l16 88.5l23.5 125l33 171.5h125l-166 -718
h-118l-26.5 154l-20 117l-14.5 89.5l-11 71.5l-9.5 63l-9.5 65h-2l-9 -64l-8.5 -60.5t-10.5 -68.5t-15 -88l-20.5 -119l-27.5 -160h-114z" />
    <glyph glyph-name="X" unicode="X" horiz-adv-x="547" 
d="M535 0h-150l-111 245l-119 -245h-144l191 367l-180 351h147l105 -232l107 232h142l-179 -345z" />
    <glyph glyph-name="Y" unicode="Y" horiz-adv-x="547" 
d="M339 0h-123v271l-204 447h145l123 -312l116 312h139l-196 -449v-269z" />
    <glyph glyph-name="Z" unicode="Z" horiz-adv-x="501" 
d="M481 0h-461v127l305 464h-296v127h450v-118l-308 -473h310v-127z" />
    <glyph glyph-name="bracketleft" unicode="[" horiz-adv-x="273" 
d="M152 -100h101v-96h-201v918h201v-96h-101v-726z" />
    <glyph glyph-name="backslash" unicode="\" horiz-adv-x="228" 
d="M-27 737h96l186 -756h-96z" />
    <glyph glyph-name="bracketright" unicode="]" horiz-adv-x="273" 
d="M121 626h-101v96h201v-918h-201v96h101v726z" />
    <glyph glyph-name="asciicircum" unicode="^" horiz-adv-x="479" 
d="M51 323l147 375h82l148 -375h-90l-99 263l-99 -263h-89z" />
    <glyph glyph-name="underscore" unicode="_" 
d="M456 -75v-50h-456v50h456z" />
    <glyph glyph-name="grave" unicode="`" horiz-adv-x="273" 
d="M-19 750h126l77 -146h-82z" />
    <glyph glyph-name="a" unicode="a" 
d="M407 104q0 -47 7 -63t18 -20v-21h-124l-3.5 16l-3 13.5t-2 14.5t-1.5 19l-22.5 -26t-29 -25t-38.5 -18.5t-51 -7.5q-25 0 -49 8.5t-42.5 27.5t-30 48.5t-11.5 70.5q0 78 36 119t91 51l103 19q14 2 27 10.5t13 31.5q0 22 -7.5 34.5t-19 18.5t-24.5 7.5t-24 1.5
q-21 0 -34.5 -7t-21 -18t-11 -24t-4.5 -25h-110q5 61 23.5 98t45.5 56.5t59.5 25.5t66.5 6q23 0 53 -5.5t57 -22t45.5 -47t18.5 -79.5v-288zM294 259q-8 -8 -25 -15t-53 -14q-16 -3 -30 -8t-24.5 -13.5t-16.5 -22.5t-6 -36q0 -18 5 -30.5t13 -20t17.5 -10.5t17.5 -3
q19 0 37.5 7.5t32.5 21t23 33t9 43.5v68z" />
    <glyph glyph-name="b" unicode="b" horiz-adv-x="501" 
d="M356 262q0 31 -5 60.5t-16.5 52.5t-30.5 36.5t-46 13.5q-29 0 -48 -15t-30 -39t-15.5 -54.5t-4.5 -62.5q0 -30 5.5 -57.5t18 -48.5t32 -34t46.5 -13t45.5 16.5t29 40.5t15 52t4.5 52zM165 463h1q7 13 17 27.5t25.5 27t36 20.5t48.5 8q36 0 69 -17t57.5 -51t39.5 -85.5
t15 -120.5q0 -55 -10.5 -106.5t-33 -91.5t-57 -64t-83.5 -24q-35 0 -70 18t-56 63h-2v-67h-112v718h115v-255z" />
    <glyph glyph-name="c" unicode="c" 
d="M429 194q-2 -21 -10.5 -56t-30.5 -68.5t-60 -58.5t-98 -25q-62 0 -101 25.5t-61.5 65t-31 86t-8.5 88.5q0 64 12 118.5t37 93.5t64.5 61t95.5 22q26 0 58 -8.5t60.5 -31t49.5 -62.5t25 -102h-117q-2 13 -6 28t-12.5 28t-21 21.5t-30.5 8.5h-6q-27 0 -44.5 -15t-28 -37.5
t-14.5 -49.5t-4 -52q0 -22 1.5 -51.5t10 -56.5t26.5 -46t51 -19q22 0 36.5 11t23.5 26t13 31t4 25h117z" />
    <glyph glyph-name="d" unicode="d" horiz-adv-x="501" 
d="M452 0h-113v67h-1q-21 -45 -56 -63t-70 -18q-49 0 -83.5 24t-57 64t-33 91.5t-10.5 106.5q0 69 15 120.5t39.5 85.5t57.5 51t69 17q28 0 48.5 -8t35.5 -20.5t25 -27t17 -27.5h2v255h115v-718zM146 262q0 -24 4.5 -52t15 -52t28.5 -40.5t46 -16.5q27 0 46.5 13t32 34
t18 48.5t5.5 57.5q0 32 -4.5 62.5t-15.5 54.5t-30 39t-48 15q-27 0 -46 -13.5t-30.5 -36.5t-16.5 -52.5t-5 -60.5z" />
    <glyph glyph-name="e" unicode="e" 
d="M428 156q-11 -48 -32 -80.5t-47 -52.5t-55.5 -28.5t-57.5 -8.5q-46 0 -85.5 14.5t-69 48.5t-46 90t-16.5 138q0 16 2 42t9.5 56t21.5 60.5t37 55t57 40t82 15.5q32 0 68 -11.5t66.5 -44t50.5 -89.5t20 -148v-25h-299q1 -15 4 -37t13 -43t30 -35.5t55 -14.5
q24 0 45.5 14.5t28.5 43.5h118zM315 319q-3 32 -12 53.5t-21.5 34.5t-27 18.5t-28.5 5.5q-41 0 -62.5 -29.5t-26.5 -82.5h178z" />
    <glyph glyph-name="f" unicode="f" horiz-adv-x="273" 
d="M186 0h-115v432h-63v100h63v43q0 82 34.5 117t93.5 35q26 0 38.5 -0.5t20.5 -1.5v-113h-32q-29 0 -34.5 -13t-5.5 -46v-21h75v-100h-75v-432z" />
    <glyph glyph-name="g" unicode="g" horiz-adv-x="501" 
d="M453 532v-504q0 -23 -1.5 -50t-8 -54.5t-20 -52.5t-38 -44.5t-61.5 -31.5t-91 -12q-34 0 -67 9t-60 28.5t-44 50t-19 72.5h124q2 -10 5.5 -20t12 -17.5t23.5 -12t40 -4.5q46 0 68.5 28.5t22.5 93.5v64l-2 2q-7 -15 -16.5 -29.5t-23 -26t-32.5 -18t-44 -6.5
q-39 0 -73.5 17t-60 51t-40 85.5t-14.5 121.5q0 69 15 120.5t39.5 85.5t57.5 51t69 17q30 0 52 -9.5t37 -24t24.5 -30.5t14.5 -29h2v79h109zM151 263q0 -26 4.5 -52t15.5 -47.5t28 -35t43 -13.5q29 0 48 14t30 36t15 49.5t4 54.5q0 32 -6.5 60.5t-18.5 49.5t-30.5 33.5
t-42.5 12.5q-16 0 -32 -8t-29 -26.5t-21 -50t-8 -77.5z" />
    <glyph glyph-name="h" unicode="h" horiz-adv-x="501" 
d="M448 0h-115v323q0 15 -1.5 33t-8.5 34t-22.5 27t-42.5 11q-38 0 -64 -31t-26 -92v-305h-115v718h115v-255h2q11 33 45 58t81 25q32 0 59.5 -11.5t48 -34t32.5 -55.5t12 -77v-368z" />
    <glyph glyph-name="i" unicode="i" horiz-adv-x="228" 
d="M171 532v-532h-114v532h114zM171 595h-114v130h114v-130z" />
    <glyph glyph-name="j" unicode="j" horiz-adv-x="228" 
d="M171 -56q0 -52 -9.5 -83.5t-27.5 -48t-44 -21.5t-59 -5h-29v112h21q4 0 10 1t11 5.5t9 14.5t4 28v585h114v-588zM171 595h-114v130h114v-130z" />
    <glyph glyph-name="k" unicode="k" 
d="M171 0h-114v718h114v-388l145 202h141l-154 -206l158 -326h-138l-104 228l-48 -60v-168z" />
    <glyph glyph-name="l" unicode="l" horiz-adv-x="228" 
d="M171 0h-114v718h114v-718z" />
    <glyph glyph-name="m" unicode="m" horiz-adv-x="729" 
d="M677 0h-114v323q0 30 -5 50t-13.5 32t-20 17.5t-24.5 5.5q-43 0 -60.5 -30.5t-17.5 -78.5v-319h-115v320q0 17 -1 36t-7.5 35t-20.5 26.5t-39 10.5q-21 0 -34.5 -8t-22 -22t-12 -33t-3.5 -41v-324h-115v532h110v-78h2q6 13 15 29t23.5 30t35.5 23.5t50 9.5q47 0 73 -21
t48 -64l15 24.5t23 28t33.5 23t45.5 9.5q32 0 59.5 -11.5t48 -34t32 -55.5t11.5 -77v-368z" />
    <glyph glyph-name="n" unicode="n" horiz-adv-x="501" 
d="M448 0h-115v323q0 15 -1.5 33t-8.5 34t-22.5 27t-42.5 11q-38 0 -64 -31t-26 -92v-305h-115v532h110v-78h2q6 12 15.5 28t24.5 30t37.5 24t53.5 10q32 0 59.5 -11.5t48 -34t32.5 -55.5t12 -77v-368z" />
    <glyph glyph-name="o" unicode="o" horiz-adv-x="501" 
d="M474 266q0 -72 -18.5 -125t-49 -87.5t-71 -51t-84.5 -16.5t-84.5 16.5t-71 51t-49 87.5t-18.5 125t18.5 124.5t49 87t71 51.5t84.5 17t84.5 -17t71 -51.5t49 -87t18.5 -124.5zM356 266q0 25 -4 53.5t-15.5 52.5t-32 40t-53.5 16t-54 -16t-32 -40t-15 -52.5t-4 -53.5
q0 -26 4 -54.5t15 -52.5t32 -39.5t54 -15.5t53.5 15.5t32 39.5t15.5 52.5t4 54.5z" />
    <glyph glyph-name="p" unicode="p" horiz-adv-x="501" 
d="M161 254q0 -30 5.5 -57.5t17.5 -48.5t31.5 -34t46.5 -13t45.5 16.5t29 40.5t15 52t4.5 52q0 31 -5 60.5t-16.5 52.5t-30.5 36.5t-46 13.5q-29 0 -48 -15t-30 -39t-15 -54.5t-4 -62.5zM161 455h1q8 16 19 32t26 29t36 21.5t50 8.5q36 0 69 -17t57.5 -51t39.5 -85.5
t15 -120.5q0 -55 -10.5 -106.5t-33 -91.5t-57 -64t-83.5 -24q-30 0 -51 8.5t-35.5 21.5t-23 27t-13.5 25h-1v-275h-115v739h110v-77z" />
    <glyph glyph-name="q" unicode="q" horiz-adv-x="501" 
d="M453 532v-739h-115v273h-2q-36 -80 -124 -80q-51 0 -86.5 26t-57 66t-31 87.5t-9.5 89.5q0 55 11 107.5t34 93.5t59 65.5t87 24.5q28 0 48.5 -9.5t34.5 -24t23.5 -30.5t15.5 -29h2v79h110zM146 256q0 -72 23.5 -112t74.5 -40q41 0 68.5 38.5t27.5 120.5q0 55 -12 87.5
t-28 49t-32.5 21t-25.5 4.5q-17 0 -34 -7.5t-30.5 -26.5t-22.5 -51.5t-9 -83.5z" />
    <glyph glyph-name="r" unicode="r" horiz-adv-x="319" 
d="M52 532h110v-92h2q9 20 19 39t23.5 34t32.5 24t45 9q5 0 10.5 -0.5t11.5 -1.5v-142q-8 2 -16.5 2h-16.5q-33 0 -54 -11.5t-32.5 -30t-15.5 -41t-4 -44.5v-277h-115v532z" />
    <glyph glyph-name="s" unicode="s" 
d="M300 370q-2 13 -5.5 25.5t-11.5 22.5t-22.5 16t-37.5 6t-37 -5t-21.5 -12.5t-9.5 -16.5t-2 -18q0 -21 20 -32t50.5 -19l66 -16.5t66 -26t50.5 -47t20 -78.5q0 -58 -20.5 -94t-49.5 -55.5t-62.5 -26.5t-58.5 -7q-38 0 -75 9t-66.5 30t-48.5 56.5t-20 88.5h118
q0 -34 20.5 -56t74.5 -22q22 0 36 6t22.5 14t11.5 17.5t3 17.5q0 22 -20 33.5t-50 19.5t-65.5 16.5t-65.5 25.5t-50 46.5t-20 79.5q0 29 8.5 60.5t28.5 57.5t54 43t85 17q32 0 65.5 -6.5t61.5 -25.5t47 -53.5t22 -90.5h-112z" />
    <glyph glyph-name="t" unicode="t" horiz-adv-x="273" 
d="M182 532h71v-100h-71v-289q0 -12 1 -20t5.5 -13t14 -7.5t27.5 -2.5q5 0 11 0.5t12 1.5v-106q-14 -1 -27 -1.5t-27 -0.5h-15q-37 0 -60 8.5t-35.5 23.5t-17 36t-4.5 47v323h-59v100h59v144h115v-144z" />
    <glyph glyph-name="u" unicode="u" horiz-adv-x="501" 
d="M447 0h-110v75h-2q-20 -43 -53.5 -66t-78.5 -23q-33 0 -60 11.5t-47 35.5t-31 61t-11 88v350h115v-330q0 -31 6.5 -50t17.5 -29.5t24 -14.5t27 -4t29.5 5.5t28.5 19.5t21.5 37t8.5 59v307h115v-532z" />
    <glyph glyph-name="v" unicode="v" 
d="M288 0h-121l-156 532h128l90 -392h1l93 392h122z" />
    <glyph glyph-name="w" unicode="w" horiz-adv-x="638" 
d="M505 0h-118l-68 388h-2l-68 -388h-118l-123 532h122l68 -382h2l62 382h115l66 -382h1l68 382h119z" />
    <glyph glyph-name="x" unicode="x" 
d="M444 0h-142l-76 160l-75 -160h-139l149 271l-143 261h139l74 -155l72 155h136l-144 -261z" />
    <glyph glyph-name="y" unicode="y" 
d="M292 9q-20 -74 -35 -118t-32.5 -67.5t-41 -30.5t-60.5 -7q-12 0 -25.5 0.5t-26.5 1.5v112q10 -2 22 -2q16 0 28 2t21.5 10.5t16 24.5t10.5 43l-161 554h128l94 -392h1l90 392h121z" />
    <glyph glyph-name="z" unicode="z" horiz-adv-x="410" 
d="M165 115h229v-115h-378v109l224 311h-208v112h353v-115z" />
    <glyph glyph-name="braceleft" unicode="{" horiz-adv-x="319" 
d="M299 -196h-68q-19 0 -39.5 8t-37 25t-27.5 43t-11 61v200q0 23 -9 38t-21 23.5t-25 11.5t-22 3v92q9 0 22 3t25 11.5t21 23.5t9 38v200q0 35 11 61t27.5 43t37 25t39.5 8h68v-88h-37q-15 0 -24.5 -6t-14 -15.5t-6 -21.5t-1.5 -23v-196q-3 -32 -14.5 -52.5t-25.5 -32.5
t-28.5 -17t-24.5 -6v-2q10 -1 24.5 -6t28.5 -17t25.5 -32.5t14.5 -52.5v-196q0 -11 1.5 -23t6 -21.5t14 -15.5t24.5 -6h37v-88z" />
    <glyph glyph-name="bar" unicode="|" horiz-adv-x="230" 
d="M161 775v-1000h-92v1000h92z" />
    <glyph glyph-name="braceright" unicode="}" horiz-adv-x="319" 
d="M280 217q-9 0 -22 -3t-25 -11.5t-21 -23.5t-9 -38v-200q0 -35 -11 -61t-27.5 -43t-37 -25t-39.5 -8h-68v88h37q15 0 24.5 6t14 15.5t6 21.5t1.5 23v196q3 32 14 52.5t25.5 32.5t29 17t24.5 6v2q-10 1 -24.5 6t-29 17t-25.5 32.5t-14 52.5v196q0 11 -1.5 23t-6 21.5
t-14 15.5t-24.5 6h-37v88h68q19 0 39.5 -8t37 -25t27.5 -43t11 -61v-200q0 -23 9 -38t21 -23.5t25 -11.5t22 -3v-92z" />
    <glyph glyph-name="asciitilde" unicode="~" horiz-adv-x="479" 
d="M429 253q-9 -16 -19.5 -31.5t-22.5 -27.5t-27 -19.5t-34 -7.5q-23 0 -43 9.5t-40 23.5t-43 25t-52 11q-14 0 -24 -6.5t-18.5 -17t-14.5 -23.5t-11 -26l-30 90q7 16 16 31.5t21.5 27.5t28.5 19.5t37 7.5q20 0 43.5 -9.5t47.5 -22.5q23 -12 44.5 -24.5t38.5 -12.5
q12 0 22.5 6.5t19 17t16 23.5l14.5 26z" />
    <glyph glyph-name="Euro" unicode="&#x20ac;" 
d="M424 509q-2 6 -7 14t-18 24q-14 17 -38.5 34t-62.5 17q-80 0 -98 -136h208l-33 -95h-181v-48h165l-33 -95h-124q2 -22 8 -45t17.5 -42t28.5 -31.5t42 -12.5q38 0 70.5 15t55.5 38v-128q-29 -23 -61 -30t-65 -7q-84 0 -140.5 59t-73.5 184h-74l33 95h33q0 7 -0.5 13.5
t-0.5 13.5v21h-65l32 95h41q15 119 69.5 183.5t145.5 64.5q31 0 57 -8.5t47 -21.5t36.5 -29t23.5 -30z" />
    <glyph glyph-name="quotesinglbase" unicode="&#x201a;" horiz-adv-x="228" 
d="M57 127h114v-102q0 -47 -11 -78t-27.5 -50t-36 -29t-37.5 -14v51q20 8 32 18.5t18 22.5t8 26t3 28h-63v127z" />
    <glyph glyph-name="florin" unicode="&#x192;" 
d="M390 380h-110l-49 -359q-4 -30 -12 -70t-25 -76t-45.5 -60.5t-73.5 -24.5q-20 0 -37 5t-46 16l19 111q17 -11 25 -14t20 -3q14 0 23.5 7t16 23.5t11.5 43.5t11 67l47 334h-100v97h112l16 87q3 17 9.5 46t22 57.5t43 49t71.5 20.5q16 0 37.5 -4t46.5 -15l-20 -108
q-10 7 -22.5 11t-22.5 4q-25 0 -38 -18t-17 -42l-12 -88h99v-97z" />
    <glyph glyph-name="quotedblbase" unicode="&#x201e;" horiz-adv-x="410" 
d="M52 127h115v-102q0 -47 -11 -78t-27.5 -50t-36 -29t-37.5 -14v51q20 8 32 18.5t18 22.5t8 26t3 28h-64v127zM243 127h115v-102q0 -47 -11 -78t-28 -50t-36.5 -29t-37.5 -14v51q20 8 32 18.5t18 22.5t8 26t3 28h-63v127z" />
    <glyph glyph-name="ellipsis" unicode="&#x2026;" horiz-adv-x="820" 
d="M198 0h-123v146h123v-146zM472 0h-124v146h124v-146zM745 0h-123v146h123v-146z" />
    <glyph glyph-name="dagger" unicode="&#x2020;" 
d="M426 387h-143v-558h-110v558h-143v112h143v219h110v-219h143v-112z" />
    <glyph glyph-name="daggerdbl" unicode="&#x2021;" 
d="M426 397h-144v-239h144v-112h-144v-217h-110v217h-142v112h142v239h-142v112h142v209h110v-209h144v-112z" />
    <glyph glyph-name="circumflex" unicode="&#x2c6;" horiz-adv-x="273" 
d="M281 604h-92l-53 82l-52 -82h-92l93 146h103z" />
    <glyph glyph-name="perthousand" unicode="&#x2030;" horiz-adv-x="820" 
d="M80 549q0 -26 15 -43.5t35 -17.5t35 17.5t15 43.5t-15 43.5t-35 17.5t-35 -17.5t-15 -43.5zM-2 549q0 33 10.5 62.5t28.5 51t42 34.5t51 13t51 -13t42 -34.5t28.5 -51t10.5 -62.5t-10.5 -62.5t-28.5 -51t-42 -34.5t-51 -13t-51 12.5t-42 34.5t-28.5 51.5t-10.5 62.5z
M392 710h61l-327 -729h-60zM259 149q0 33 10.5 62.5t28.5 51t42 34.5t51 13t51 -13t42 -34.5t28.5 -51t10.5 -62.5t-10.5 -62.5t-28.5 -51t-42 -34.5t-51 -13t-51 12.5t-42 34.5t-28.5 51.5t-10.5 62.5zM341 149q0 -26 15 -43.5t35 -17.5t35 17.5t15 43.5t-15 43.5t-35 17.5
t-35 -17.5t-15 -43.5zM558 149q0 33 10.5 62.5t28.5 51t42 34.5t51 13t51 -13t42 -34.5t28.5 -51t10.5 -62.5t-10.5 -62.5t-28.5 -51t-42 -34.5t-51 -13t-51 12.5t-42 34.5t-28.5 51.5t-10.5 62.5zM640 149q0 -26 15 -43.5t35 -17.5t35 17.5t15 43.5t-15 43.5t-35 17.5
t-35 -17.5t-15 -43.5z" />
    <glyph glyph-name="Scaron" unicode="&#x160;" horiz-adv-x="547" 
d="M150 221q0 -15 4.5 -35t18 -38t37.5 -30.5t65 -12.5q22 0 44 4t39.5 14t28.5 28t11 47q0 21 -8 35t-22.5 23.5t-34 16.5t-42.5 14l-63 18q-36 10 -69.5 22t-59.5 34.5t-42 59t-16 95.5q0 30 8.5 68.5t33 72t68.5 57t116 23.5q68 0 112 -24t70.5 -59t37 -75.5t10.5 -73.5
h-118q-1 12 -5 30.5t-16 35.5t-36 29.5t-64 12.5q-17 0 -35 -4.5t-33 -14.5t-24.5 -26.5t-9.5 -40.5q0 -21 6.5 -34.5t15.5 -21.5t20 -12l20 -7l144 -43q30 -9 58 -22t49 -35t34 -55t13 -81q0 -54 -13.5 -92.5t-35 -64.5t-48 -41.5t-52.5 -23.5t-48 -10.5t-35 -2.5
q-81 0 -130.5 25t-76.5 61.5t-36 78.5t-9 75h118zM325 790h-103l-93 146h92l52 -82l53 82h92z" />
    <glyph glyph-name="guilsinglleft" unicode="&#x2039;" horiz-adv-x="273" 
d="M205 368l-82 -88l82 -88v-116l-137 144v120l137 144v-116z" />
    <glyph glyph-name="OE" unicode="&#x152;" horiz-adv-x="820" 
d="M515 440h254v-127h-254v-186h273v-127h-385v50q-13 -17 -25 -30t-27 -21.5t-34 -13t-45 -4.5q-36 0 -78.5 17t-79 59.5t-60.5 115.5t-24 186q0 66 12.5 133.5t41.5 122t76 88.5t116 34q28 0 48.5 -6t35.5 -15.5t25 -20l18 -19.5v42h385v-127h-273v-151zM394 521
q0 27 -10.5 44.5t-26 28t-33 15t-31.5 4.5q-38 0 -65 -20.5t-44 -56t-25 -83.5t-8 -102q0 -40 7.5 -83.5t23.5 -79.5t42 -59.5t64 -23.5q26 0 45.5 8.5t33 21.5t20.5 29.5t7 31.5v325z" />
    <glyph glyph-name="Zcaron" unicode="&#x17d;" horiz-adv-x="501" 
d="M481 0h-461v127l305 464h-296v127h450v-118l-308 -473h310v-127zM302 790h-103l-93 146h92l52 -82l53 82h92z" />
    <glyph glyph-name="quoteleft" unicode="&#x2018;" horiz-adv-x="228" 
d="M171 454h-114v102q0 47 11 78t27.5 50t36 28.5t37.5 14.5v-51q-20 -8 -32 -18.5t-18 -22.5t-8 -26t-3 -28h63v-127z" />
    <glyph glyph-name="quoteright" unicode="&#x2019;" horiz-adv-x="228" 
d="M57 718h114v-102q0 -47 -11 -78t-27.5 -50t-36 -29t-37.5 -14v51q20 8 32 18.5t18 22.5t8 26t3 28h-63v127z" />
    <glyph glyph-name="quotedblleft" unicode="&#x201c;" horiz-adv-x="410" 
d="M167 454h-115v102q0 47 11 78t28 50t36.5 28.5t37.5 14.5v-51q-20 -8 -32 -18.5t-18 -22.5t-8 -26t-3 -28h63v-127zM358 454h-115v102q0 47 11 78t27.5 50t36 28.5t37.5 14.5v-51q-20 -8 -32 -18.5t-18 -22.5t-8 -26t-3 -28h64v-127z" />
    <glyph glyph-name="quotedblright" unicode="&#x201d;" horiz-adv-x="410" 
d="M52 718h115v-102q0 -47 -11 -78t-27.5 -50t-36 -29t-37.5 -14v51q20 8 32 18.5t18 22.5t8 26t3 28h-64v127zM243 718h115v-102q0 -47 -11 -78t-28 -50t-36.5 -29t-37.5 -14v51q20 8 32 18.5t18 22.5t8 26t3 28h-63v127z" />
    <glyph glyph-name="bullet" unicode="&#x2022;" horiz-adv-x="287" 
d="M8 360q0 34 10.5 64t29 52.5t43 35t52.5 12.5t53 -12.5t43.5 -35t29 -52.5t10.5 -64q0 -35 -10.5 -65t-29 -52.5t-43.5 -35.5t-53 -13t-52.5 12.5t-43 35t-29 53t-10.5 65.5z" />
    <glyph glyph-name="endash" unicode="&#x2013;" 
d="M456 227h-456v106h456v-106z" />
    <glyph glyph-name="emdash" unicode="&#x2014;" horiz-adv-x="820" 
d="M820 227h-820v106h820v-106z" />
    <glyph glyph-name="tilde" unicode="&#x2dc;" horiz-adv-x="273" 
d="M287 737q-2 -11 -6.5 -31.5t-14 -40t-26.5 -34t-42 -14.5q-14 0 -33 5.5t-30 10.5q-20 8 -33.5 14t-24.5 6t-18 -5t-11.5 -12t-6.5 -14.5t-2 -11.5h-53q2 15 7.5 35.5t16.5 40.5t29 33.5t46 13.5q14 0 26 -4.5t33 -14.5t32 -13.5t19 -3.5q20 0 28 13.5t11 26.5h53z" />
    <glyph glyph-name="trademark" unicode="&#x2122;" horiz-adv-x="820" 
d="M582 468l76 250h126v-412h-87v281h-2l-80 -281h-66l-81 281h-1v-281h-87v412h125zM316 633h-95v-327h-91v327h-94v85h280v-85z" />
    <glyph glyph-name="scaron" unicode="&#x161;" 
d="M300 370q-2 13 -5.5 25.5t-11.5 22.5t-22.5 16t-37.5 6t-37 -5t-21.5 -12.5t-9.5 -16.5t-2 -18q0 -21 20 -32t50.5 -19l66 -16.5t66 -26t50.5 -47t20 -78.5q0 -58 -20.5 -94t-49.5 -55.5t-62.5 -26.5t-58.5 -7q-38 0 -75 9t-66.5 30t-48.5 56.5t-20 88.5h118
q0 -34 20.5 -56t74.5 -22q22 0 36 6t22.5 14t11.5 17.5t3 17.5q0 22 -20 33.5t-50 19.5t-65.5 16.5t-65.5 25.5t-50 46.5t-20 79.5q0 29 8.5 60.5t28.5 57.5t54 43t85 17q32 0 65.5 -6.5t61.5 -25.5t47 -53.5t22 -90.5h-112zM280 604h-103l-93 146h92l52 -82l53 82h92z" />
    <glyph glyph-name="guilsinglright" unicode="&#x203a;" horiz-adv-x="273" 
d="M68 368v116l137 -144v-120l-137 -144v116l82 88z" />
    <glyph glyph-name="oe" unicode="&#x153;" horiz-adv-x="774" 
d="M743 156q-11 -48 -32 -80.5t-47 -52.5t-55.5 -28.5t-57.5 -8.5q-37 0 -62.5 7t-43.5 18t-30 24t-21 25q-8 -12 -19.5 -25t-29 -24t-40.5 -18t-54 -7q-44 0 -84.5 16.5t-71 51t-49 87.5t-18.5 125t18.5 124.5t49 87t71 51.5t84.5 17q45 0 86 -22.5t64 -57.5q11 14 24 28.5
t29.5 26t38 18.5t50.5 7q32 0 68 -11.5t66.5 -44t50.5 -89.5t20 -148v-25h-299q1 -15 4 -37t13 -43t30 -35.5t55 -14.5q24 0 45.5 14.5t28.5 43.5h118zM356 266q0 25 -4 53.5t-15.5 52.5t-32 40t-53.5 16t-54 -16t-32 -40t-15 -52.5t-4 -53.5q0 -26 4 -54.5t15 -52.5
t32 -39.5t54 -15.5t53.5 15.5t32 39.5t15.5 52.5t4 54.5zM630 319q-3 32 -12 53.5t-21.5 34.5t-27 18.5t-28.5 5.5q-41 0 -62.5 -29.5t-26.5 -82.5h178z" />
    <glyph glyph-name="zcaron" unicode="&#x17e;" horiz-adv-x="410" 
d="M165 115h229v-115h-378v109l224 311h-208v112h353v-115zM257 604h-103l-93 146h92l52 -82l53 82h92z" />
    <glyph glyph-name="Ydieresis" unicode="&#x178;" horiz-adv-x="547" 
d="M339 0h-123v271l-204 447h145l123 -312l116 312h139l-196 -449v-269zM245 800h-103v115h103v-115zM405 800h-103v115h103v-115z" />
    <glyph glyph-name="uni00A0" unicode="&#xa0;" horiz-adv-x="228" 
 />
    <glyph glyph-name="exclamdown" unicode="&#xa1;" horiz-adv-x="273" 
d="M77 532h120v-141h-120v141zM107 333h60l33 -336v-183h-126v183z" />
    <glyph glyph-name="cent" unicode="&#xa2;" 
d="M247 428h-10q-27 0 -44.5 -15t-28 -37.5t-14.5 -49.5t-4 -52q0 -15 0.5 -34.5t3.5 -39.5t9.5 -38.5t17.5 -32.5zM313 342q-2 16 -8 35t-20 33l-71 -305q8 -4 21 -4q22 0 36.5 11t23.5 26t13 31t4 25h117q-2 -21 -10.5 -56t-30.5 -68.5t-60 -58.5t-98 -25q-25 0 -42 4
l-26 -108h-42l28 120q-36 16 -59.5 44.5t-37 62.5t-18.5 71t-5 71q0 64 12 118.5t37 93.5t64.5 61t95.5 22q17 0 37 -3l20 85h42l-23 -98q21 -9 41 -23.5t35.5 -37.5t26.5 -54t14 -73h-117z" />
    <glyph glyph-name="sterling" unicode="&#xa3;" 
d="M308 321h-97q2 -14 3 -26.5t1 -26.5q0 -11 -4.5 -42t-30.5 -69q-5 -8 -18.5 -23t-30.5 -31l2 -2q26 13 48 19.5t45 6.5q17 0 30.5 -3t27.5 -8q11 -5 23 -9.5t20 -4.5q21 0 44.5 12t38.5 24l34 -109q-23 -17 -54 -31t-71 -14q-17 0 -40.5 5.5t-39.5 12.5
q-26 11 -43.5 16.5t-35.5 5.5q-8 0 -15.5 -1.5t-17 -5t-23 -10.5l-33.5 -18l-45 97q5 2 20 15t30.5 33t28 45.5t12.5 52.5q0 22 -6 48.5t-13 40.5h-75v60h48q-10 26 -16.5 44.5t-10.5 34t-5.5 30t-1.5 33.5q0 27 10 61t33 63.5t60.5 50t92.5 20.5q32 0 66.5 -10t63 -36
t47.5 -71t21 -114h-108q-3 25 -7.5 47t-14.5 38t-26 25t-43 9q-24 0 -39.5 -10t-24.5 -24.5t-12.5 -30t-3.5 -27.5q0 -7 0.5 -14.5t4.5 -21t12 -36.5l22 -61h117v-60z" />
    <glyph glyph-name="currency" unicode="&#xa4;" 
d="M228 244q19 0 34.5 9t27 24t17.5 35.5t6 44.5q0 47 -23.5 79t-61.5 32t-61 -31.5t-23 -79.5q0 -47 23 -80t61 -33zM78 240q-12 23 -19 52.5t-7 64.5q0 33 7.5 64t18.5 51l-80 98l54 66l80 -98q19 14 44 23.5t52 9.5q29 0 53.5 -9.5t42.5 -23.5l80 98l54 -66l-80 -98
q12 -22 19.5 -52t7.5 -63q0 -35 -7.5 -65t-19.5 -52l80 -98l-54 -66l-80 98q-18 -14 -42.5 -23.5t-53.5 -9.5q-27 0 -52 9.5t-44 23.5l-80 -98l-54 66z" />
    <glyph glyph-name="yen" unicode="&#xa5;" 
d="M450 345h-135l-31 -75h166v-60h-167v-210h-104v210h-167v60h167l-33 75h-134v60h108l-127 293h123l118 -294l113 294h116l-123 -293h110v-60z" />
    <glyph glyph-name="brokenbar" unicode="&#xa6;" horiz-adv-x="230" 
d="M69 700h92v-350h-92v350zM69 200h92v-350h-92v350z" />
    <glyph glyph-name="section" unicode="&#xa7;" 
d="M330 431q20 -12 38 -26.5t31.5 -33.5t21 -44t7.5 -59q0 -9 -4 -26.5t-13 -37.5t-24 -39t-37 -31q7 -7 16 -18.5t16.5 -27.5t13 -36.5t5.5 -45.5q0 -48 -15 -83.5t-40 -59t-56.5 -35.5t-65.5 -12q-55 0 -88.5 22.5t-52 53t-25 62t-6.5 49.5h108q1 -14 4.5 -28.5t12 -26
t21.5 -19t34 -7.5q19 0 30.5 8.5t18 19.5t8.5 23t2 20q0 26 -12.5 40t-35.5 28l-126 78q-22 13 -38.5 28t-28 33.5t-17 42.5t-5.5 57q0 47 22 78.5t54 53.5q-14 16 -28 44.5t-14 71.5q0 34 11 66.5t32 57.5t51.5 40t70.5 15q29 0 58 -8.5t52 -29.5t38.5 -56t17.5 -89h-104
q-2 35 -17.5 56t-46.5 21q-29 0 -44 -18t-15 -38q0 -17 7 -29.5t24 -23.5zM160 383q-10 -4 -16.5 -12t-10.5 -16.5t-6 -16.5t-2 -13q0 -23 10 -37t27 -25l129 -84q17 11 26 27t9 39t-14.5 38t-31.5 26z" />
    <glyph glyph-name="dieresis" unicode="&#xa8;" horiz-adv-x="273" 
d="M108 614h-103v115h103v-115zM268 614h-103v115h103v-115z" />
    <glyph glyph-name="copyright" unicode="&#xa9;" horiz-adv-x="604" 
d="M614 360q0 -90 -25.5 -160t-68.5 -119t-99.5 -74.5t-117.5 -25.5q-62 0 -118 25.5t-99.5 74.5t-69 119t-25.5 160t25.5 160t69 118t99.5 73.5t118 25.5q61 0 117.5 -25.5t99.5 -73.5t68.5 -118t25.5 -160zM525 360q0 65 -18 118.5t-48 91.5t-70.5 59t-85.5 21
q-46 0 -86.5 -21t-71 -59t-48 -91.5t-17.5 -118.5t17.5 -119t47.5 -92t70 -59t86 -21h2v-1q45 0 85.5 21t70.5 59.5t48 92t18 119.5zM462 303q-10 -76 -51.5 -116.5t-95.5 -40.5q-39 0 -70.5 16.5t-54 46t-34.5 69t-12 85.5t11.5 86t33.5 68.5t53.5 45t70.5 16.5
q56 0 95.5 -38.5t49.5 -114.5h-70q-6 35 -27.5 50.5t-47.5 15.5q-40 0 -62 -34.5t-22 -92.5q0 -28 6.5 -52t17.5 -42t27 -28t35 -10q30 0 50.5 17.5t22.5 52.5h74z" />
    <glyph glyph-name="ordfeminine" unicode="&#xaa;" horiz-adv-x="303" 
d="M267 471q0 -28 5.5 -37.5t12.5 -11.5v-13h-81q-3 11 -4 17.5t-2 20.5q-7 -8 -15 -16t-18.5 -14.5t-25 -11t-33.5 -4.5q-16 0 -32 5t-28.5 16.5t-20 29t-7.5 42.5q0 47 24 72.5t60 31.5l67 11q8 2 17 5.5t9 17.5q0 12 -5 19t-12 10.5t-16 4t-16 0.5q-28 0 -36 -14t-10 -27
h-71q3 37 15 59t29.5 34t38.5 15.5t43 3.5q15 0 34.5 -3.5t36.5 -13.5t29 -28t12 -48v-173zM195 565q-5 -5 -16.5 -9t-34.5 -8q-21 -4 -35 -13.5t-14 -35.5q0 -21 11.5 -29t22.5 -8q25 0 45.5 17t20.5 46v40z" />
    <glyph glyph-name="guillemotleft" unicode="&#xab;" 
d="M127 280l82 -88v-116l-137 144v120l137 144v-116zM302 280l82 -88v-116l-137 144v120l137 144v-116z" />
    <glyph glyph-name="logicalnot" unicode="&#xac;" horiz-adv-x="479" 
d="M354 307h-321v112h413v-311h-92v199z" />
    <glyph glyph-name="uni00AD" unicode="&#xad;" horiz-adv-x="273" 
d="M251 215h-229v130h229v-130z" />
    <glyph glyph-name="registered" unicode="&#xae;" horiz-adv-x="604" 
d="M251 156h-71v407h124q65 0 101 -26.5t36 -96.5q0 -56 -23.5 -79.5t-56.5 -26.5l85 -178h-84l-77 171h-34v-171zM314 396q24 0 37.5 9.5t13.5 43.5q0 16 -6 25t-15.5 13.5t-21 5.5t-21.5 1h-50v-98h63zM613 359q0 -90 -25.5 -160t-68 -118.5t-99 -74t-117.5 -25.5
q-62 0 -118.5 25.5t-99.5 74t-68.5 118.5t-25.5 160t25.5 160t68.5 118.5t99.5 74t118.5 25.5q61 0 117.5 -25.5t99 -74t68 -118.5t25.5 -160zM524 359q0 65 -18 118.5t-48 91.5t-70 59t-85 21q-46 0 -86.5 -21t-71 -59t-48 -91.5t-17.5 -118.5t17.5 -118.5t47.5 -91.5
t70 -59t86 -21h2v-1q45 0 85 21t70 59t48 92t18 119z" />
    <glyph glyph-name="macron" unicode="&#xaf;" horiz-adv-x="273" 
d="M278 604h-283v74h283v-74z" />
    <glyph glyph-name="degree" unicode="&#xb0;" horiz-adv-x="328" 
d="M47 569q0 30 9 56t25 45.5t37.5 30.5t45.5 11t45.5 -11t37.5 -30.5t25 -45.5t9 -56t-9 -56t-25 -45.5t-37.5 -30.5t-45.5 -11t-45.5 11t-37.5 30.5t-25 45.5t-9 56zM93 569q0 -36 21 -61.5t50 -25.5t50 25.5t21 61.5t-21 61.5t-50 25.5t-50 -25.5t-21 -61.5z" />
    <glyph glyph-name="plusminus" unicode="&#xb1;" horiz-adv-x="479" 
d="M194 506h91v-125h161v-112h-161v-126h-91v126h-161v112h161v125zM33 112h413v-112h-413v112z" />
    <glyph glyph-name="twosuperior" unicode="&#xb2;" horiz-adv-x="273" 
d="M11 558q0 52 14.5 82.5t35 46t41.5 19.5t33 4q27 0 50.5 -9t41.5 -26.5t28 -42.5t10 -57q0 -28 -6.5 -49.5t-17 -38.5t-23.5 -29.5t-25 -21.5q-37 -27 -55.5 -44.5t-24.5 -26.5h153v-82h-259q1 19 4 39t11.5 41t25 43.5t44.5 45.5l43.5 36.5t29.5 29.5t16.5 28t5.5 32
q0 2 0.5 3t0.5 2q0 15 -12.5 31.5t-36.5 16.5q-20 0 -31 -8t-16.5 -19.5t-6.5 -24t-1 -21.5h-73z" />
    <glyph glyph-name="threesuperior" unicode="&#xb3;" horiz-adv-x="273" 
d="M13 573q0 60 30.5 98.5t95.5 38.5q19 0 39.5 -6t37.5 -20t28.5 -36.5t11.5 -56.5t-14.5 -54t-30.5 -28v-2q5 -2 14.5 -7t18.5 -16.5t16 -30t7 -45.5q0 -60 -35.5 -98.5t-92.5 -38.5q-14 0 -36 3.5t-43.5 17.5t-37 42.5t-15.5 78.5h73q0 -9 1.5 -20.5t7 -22t16 -17.5
t29.5 -7q23 0 38 13.5t15 48.5q0 21 -7.5 33t-19.5 18t-26.5 7t-27.5 1v64h12q8 0 18.5 1t19.5 6t15.5 15.5t6.5 30.5q0 6 -1 14.5t-5.5 16.5t-13.5 14t-24 6q-19 0 -29.5 -8t-15 -18.5t-5.5 -21t-1 -14.5h-70z" />
    <glyph glyph-name="acute" unicode="&#xb4;" horiz-adv-x="273" 
d="M171 604h-82l77 146h126z" />
    <glyph glyph-name="mu" unicode="&#xb5;" horiz-adv-x="501" 
d="M338 0v75h-2q-15 -43 -37.5 -66t-54.5 -23q-23 0 -43 12.5t-33 44.5v-250h-115v739h115v-310q0 -37 7 -60t17.5 -36t24 -17.5t27.5 -4.5t29.5 6.5t29 22t22 43t8.5 69.5v287h115v-532h-110z" />
    <glyph glyph-name="paragraph" unicode="&#xb6;" 
d="M175 347q-88 0 -135 46t-47 127q0 53 15.5 88t42.5 55.5t63.5 28.5t79.5 8h248v-891h-92v806h-83v-806h-92v538z" />
    <glyph glyph-name="periodcentered" unicode="&#xb7;" horiz-adv-x="228" 
d="M48 253q0 34 19 57.5t47 23.5t47 -23.5t19 -57.5q0 -33 -18.5 -57t-47.5 -24t-47.5 24t-18.5 57z" />
    <glyph glyph-name="cedilla" unicode="&#xb8;" horiz-adv-x="273" 
d="M89 0h47l-31 -55q8 2 12.5 3t12.5 1q9 0 21 -3.5t23 -12t19 -23.5t8 -39q0 -44 -28.5 -71.5t-73.5 -27.5q-12 0 -21.5 1t-20 4t-23 7.5t-29.5 12.5l18 48q16 -6 33 -11t30 -5t26 10t13 29q0 17 -10 26.5t-22 9.5q-7 0 -16 -2.5t-17 -5.5l-17 20z" />
    <glyph glyph-name="onesuperior" unicode="&#xb9;" horiz-adv-x="273" 
d="M21 636h11q27 0 44.5 7t28 18t15 24t5.5 25h69v-427h-82v291h-91v62z" />
    <glyph glyph-name="ordmasculine" unicode="&#xba;" horiz-adv-x="299" 
d="M295 569q0 -29 -8 -59t-25.5 -54t-45 -39.5t-66.5 -15.5t-66.5 15.5t-45 39.5t-25.5 54t-8 59t8 59t25.5 54t45 39.5t66.5 15.5t66.5 -15.5t45 -39.5t25.5 -54t8 -59zM215 569q0 39 -16.5 67.5t-48.5 28.5t-48.5 -28.5t-16.5 -67.5t16.5 -67.5t48.5 -28.5t48.5 28.5
t16.5 67.5z" />
    <glyph glyph-name="guillemotright" unicode="&#xbb;" 
d="M247 368v116l137 -144v-120l-137 -144v116l82 88zM72 368v116l137 -144v-120l-137 -144v116l82 88z" />
    <glyph glyph-name="onequarter" unicode="&#xbc;" horiz-adv-x="684" 
d="M512 157q0 78 1 125.5t1 57.5h-2l-94 -183h94zM587 159h41v-69h-41v-90h-78v90h-150v74l140 260h88v-265zM462 710h64l-350 -729h-64zM21 636h11q27 0 44.5 7t28 18t15 24t5.5 25h69v-427h-82v291h-91v62z" />
    <glyph glyph-name="onehalf" unicode="&#xbd;" horiz-adv-x="684" 
d="M462 710h64l-350 -729h-64zM21 636h11q27 0 44.5 7t28 18t15 24t5.5 25h69v-427h-82v291h-91v62zM397 275q0 52 14.5 82.5t34.5 46t41 19.5t34 4q54 0 91.5 -35t37.5 -100q0 -28 -6.5 -49.5t-17 -38.5t-23.5 -29.5t-25 -21.5q-36 -27 -54.5 -44.5t-24.5 -26.5h152v-82
h-258q1 19 3.5 39t11.5 41t25 43.5t44 45.5l43.5 36.5t29.5 29.5t16.5 28t5.5 32q0 2 0.5 3t0.5 2q0 15 -12 31.5t-37 16.5q-20 0 -30.5 -8t-16 -19.5t-7 -24t-1.5 -21.5h-72z" />
    <glyph glyph-name="threequarters" unicode="&#xbe;" horiz-adv-x="684" 
d="M563 710l-351 -729h-64l351 729h64zM20 573q0 60 30.5 98.5t94.5 38.5q19 0 39.5 -6t38 -20t28.5 -36.5t11 -56.5t-14 -54t-31 -28v-2q5 -2 14.5 -7t19 -16.5t16.5 -30t7 -45.5q0 -30 -9.5 -55t-26.5 -43.5t-41 -28.5t-52 -10q-14 0 -36 3.5t-43.5 17.5t-37 42.5
t-15.5 78.5h73q0 -9 1.5 -20.5t7 -22t16.5 -17.5t30 -7q23 0 38 13.5t15 48.5q0 21 -8 33t-20 18t-26.5 7t-27.5 1v64h13q8 0 18.5 1t19.5 6t15 15.5t6 30.5q0 6 -1 14.5t-5.5 16.5t-13.5 14t-24 6q-19 0 -29.5 -8t-15 -18.5t-5.5 -21t-1 -14.5h-69zM614 424v-265h41v-69
h-41v-90h-78v90h-150v74l140 260h88zM536 159q0 76 1 123t1 54h-2l-92 -177h92z" />
    <glyph glyph-name="questiondown" unicode="&#xbf;" horiz-adv-x="501" 
d="M303 324q0 -36 -2.5 -63t-11.5 -50t-25.5 -44.5t-44.5 -45.5q-24 -20 -37.5 -44t-13.5 -55q0 -29 7.5 -48.5t19.5 -30.5t26 -15.5t27 -4.5q27 0 44 11.5t26 28.5t12.5 37t5.5 38v1h116q0 -65 -18.5 -110t-47 -72.5t-63.5 -39.5t-68 -12q-12 0 -32.5 2t-44 9.5t-47 21.5
t-43 37.5t-31.5 58.5t-12 84q0 30 6.5 55t19.5 46.5t31 41.5t42 41q13 12 22.5 22t15.5 23.5t9 31.5t3 45h109zM186 532h120v-141h-120v141z" />
    <glyph glyph-name="Agrave" unicode="&#xc0;" horiz-adv-x="592" 
d="M146 0h-130l210 718h142l208 -718h-134l-38 148h-217zM220 272h150l-73 284h-2zM141 936h126l77 -146h-82z" />
    <glyph glyph-name="Aacute" unicode="&#xc1;" horiz-adv-x="592" 
d="M146 0h-130l210 718h142l208 -718h-134l-38 148h-217zM220 272h150l-73 284h-2zM331 790h-82l77 146h126z" />
    <glyph glyph-name="Acircumflex" unicode="&#xc2;" horiz-adv-x="592" 
d="M146 0h-130l210 718h142l208 -718h-134l-38 148h-217zM220 272h150l-73 284h-2zM441 790h-92l-53 82l-52 -82h-92l93 146h103z" />
    <glyph glyph-name="Atilde" unicode="&#xc3;" horiz-adv-x="592" 
d="M146 0h-130l210 718h142l208 -718h-134l-38 148h-217zM220 272h150l-73 284h-2zM447 923q-2 -11 -6.5 -31.5t-14 -40t-26.5 -34t-42 -14.5q-14 0 -33 5.5t-30 10.5q-20 8 -33.5 14t-24.5 6t-18 -5t-11.5 -12t-6.5 -14.5t-2 -11.5h-53q2 15 7.5 35.5t16.5 40.5t29 33.5
t46 13.5q14 0 26 -4.5t33 -14.5t32 -13.5t19 -3.5q20 0 28 13.5t11 26.5h53z" />
    <glyph glyph-name="Adieresis" unicode="&#xc4;" horiz-adv-x="592" 
d="M146 0h-130l210 718h142l208 -718h-134l-38 148h-217zM220 272h150l-73 284h-2zM268 800h-103v115h103v-115zM428 800h-103v115h103v-115z" />
    <glyph glyph-name="Aring" unicode="&#xc5;" horiz-adv-x="592" 
d="M146 0h-130l210 718h142l208 -718h-134l-38 148h-217zM220 272h150l-73 284h-2zM386 858q0 -24 -8 -43t-21 -32.5t-29 -21t-31 -7.5t-31 7.5t-29 21t-21 32.5t-8 43t8 43t21 32.5t29 21t31 7.5t31 -7.5t29 -21t21 -32.5t8 -43zM340 858q0 22 -12.5 37t-30.5 15t-30.5 -15
t-12.5 -37t12.5 -37t30.5 -15t30.5 15t12.5 37z" />
    <glyph glyph-name="AE" unicode="&#xc6;" horiz-adv-x="820" 
d="M472 127h310v-127h-430v153h-177l-42 -153h-129l215 718h558v-127h-305v-151h274v-127h-274v-186zM352 271v320h-54l-91 -320h145z" />
    <glyph glyph-name="Ccedilla" unicode="&#xc7;" horiz-adv-x="592" 
d="M561 246q-9 -57 -28.5 -104t-49.5 -82t-70.5 -55t-92.5 -23l-22 -37q8 2 12.5 3t12.5 1q9 0 21 -3.5t23 -12t19 -23.5t8 -39q0 -44 -28 -71.5t-73 -27.5q-23 0 -42 5t-53 20l18 48q17 -6 33.5 -11t30.5 -5q13 0 25.5 10t12.5 29q0 17 -9.5 26.5t-22.5 9.5q-7 0 -16 -2.5
t-17 -5.5l-17 20l36 67q-52 6 -95 33t-74.5 74t-49 114t-17.5 154q0 94 21 165t57.5 118.5t86 71.5t106.5 24q66 0 113 -25t77.5 -62.5t45.5 -82t18 -84.5h-123q-4 16 -10.5 37.5t-20.5 40.5t-38 32.5t-62 13.5q-22 0 -47.5 -10.5t-47 -38.5t-36 -77t-14.5 -125
q0 -48 8 -92.5t25.5 -78.5t45 -54t66.5 -20q52 0 86 34.5t45 100.5h123z" />
    <glyph glyph-name="Egrave" unicode="&#xc8;" horiz-adv-x="547" 
d="M495 591h-312v-151h287v-127h-287v-186h326v-127h-447v718h433v-127zM118 936h126l77 -146h-82z" />
    <glyph glyph-name="Eacute" unicode="&#xc9;" horiz-adv-x="547" 
d="M495 591h-312v-151h287v-127h-287v-186h326v-127h-447v718h433v-127zM308 790h-82l77 146h126z" />
    <glyph glyph-name="Ecircumflex" unicode="&#xca;" horiz-adv-x="547" 
d="M495 591h-312v-151h287v-127h-287v-186h326v-127h-447v718h433v-127zM418 790h-92l-53 82l-52 -82h-92l93 146h103z" />
    <glyph glyph-name="Edieresis" unicode="&#xcb;" horiz-adv-x="547" 
d="M495 591h-312v-151h287v-127h-287v-186h326v-127h-447v718h433v-127zM245 800h-103v115h103v-115zM405 800h-103v115h103v-115z" />
    <glyph glyph-name="Igrave" unicode="&#xcc;" horiz-adv-x="228" 
d="M175 0h-123v718h123v-718zM-40 936h126l77 -146h-82z" />
    <glyph glyph-name="Iacute" unicode="&#xcd;" horiz-adv-x="228" 
d="M175 0h-123v718h123v-718zM150 790h-82l77 146h126z" />
    <glyph glyph-name="Icircumflex" unicode="&#xce;" horiz-adv-x="228" 
d="M175 0h-123v718h123v-718zM260 790h-92l-53 82l-52 -82h-92l93 146h103z" />
    <glyph glyph-name="Idieresis" unicode="&#xcf;" horiz-adv-x="228" 
d="M175 0h-123v718h123v-718zM87 800h-103v115h103v-115zM247 800h-103v115h103v-115z" />
    <glyph glyph-name="Eth" unicode="&#xd0;" horiz-adv-x="592" 
d="M-4 316v124h66v278h260q50 0 87 -16t63.5 -42.5t44 -61.5t27.5 -73t14 -76.5t4 -72.5q0 -38 -4.5 -81t-15.5 -85t-29.5 -80t-45.5 -67t-64 -46t-86 -17h-255v316h-66zM183 440h136v-124h-136v-192h120q37 0 62.5 21t41.5 55t22.5 77.5t6.5 87.5q0 79 -14 125t-34 69
t-44 29t-43 6h-118v-154z" />
    <glyph glyph-name="Ntilde" unicode="&#xd1;" horiz-adv-x="592" 
d="M421 718h115v-718h-123l-240 512h-2v-512h-114v718h129l234 -500h1v500zM447 923q-2 -11 -6.5 -31.5t-14 -40t-26.5 -34t-42 -14.5q-14 0 -33 5.5t-30 10.5q-20 8 -33.5 14t-24.5 6t-18 -5t-11.5 -12t-6.5 -14.5t-2 -11.5h-53q2 15 7.5 35.5t16.5 40.5t29 33.5t46 13.5
q14 0 26 -4.5t33 -14.5t32 -13.5t19 -3.5q20 0 28 13.5t11 26.5h53z" />
    <glyph glyph-name="Ograve" unicode="&#xd2;" horiz-adv-x="638" 
d="M36 359q0 84 15.5 145t40.5 103t56.5 67.5t62.5 39.5t59.5 18.5t48.5 4.5q19 0 48 -4.5t60 -18.5t62.5 -39.5t56.5 -67.5t40.5 -103t15.5 -145t-15.5 -145t-40.5 -103t-56.5 -67.5t-62.5 -39.5t-60 -18.5t-48 -4.5t-48 4.5t-60 18.5t-62.5 39.5t-56.5 67.5t-40.5 103
t-15.5 145zM159 359q0 -75 15.5 -124t39.5 -77t52 -39t53 -11t53 11t52 39t39.5 77t15.5 124t-15.5 124t-39.5 77t-52 39t-53 11t-53 -11t-52 -39t-39.5 -77t-15.5 -124zM164 936h126l77 -146h-82z" />
    <glyph glyph-name="Oacute" unicode="&#xd3;" horiz-adv-x="638" 
d="M36 359q0 84 15.5 145t40.5 103t56.5 67.5t62.5 39.5t59.5 18.5t48.5 4.5q19 0 48 -4.5t60 -18.5t62.5 -39.5t56.5 -67.5t40.5 -103t15.5 -145t-15.5 -145t-40.5 -103t-56.5 -67.5t-62.5 -39.5t-60 -18.5t-48 -4.5t-48 4.5t-60 18.5t-62.5 39.5t-56.5 67.5t-40.5 103
t-15.5 145zM159 359q0 -75 15.5 -124t39.5 -77t52 -39t53 -11t53 11t52 39t39.5 77t15.5 124t-15.5 124t-39.5 77t-52 39t-53 11t-53 -11t-52 -39t-39.5 -77t-15.5 -124zM354 790h-82l77 146h126z" />
    <glyph glyph-name="Ocircumflex" unicode="&#xd4;" horiz-adv-x="638" 
d="M36 359q0 84 15.5 145t40.5 103t56.5 67.5t62.5 39.5t59.5 18.5t48.5 4.5q19 0 48 -4.5t60 -18.5t62.5 -39.5t56.5 -67.5t40.5 -103t15.5 -145t-15.5 -145t-40.5 -103t-56.5 -67.5t-62.5 -39.5t-60 -18.5t-48 -4.5t-48 4.5t-60 18.5t-62.5 39.5t-56.5 67.5t-40.5 103
t-15.5 145zM159 359q0 -75 15.5 -124t39.5 -77t52 -39t53 -11t53 11t52 39t39.5 77t15.5 124t-15.5 124t-39.5 77t-52 39t-53 11t-53 -11t-52 -39t-39.5 -77t-15.5 -124zM464 790h-92l-53 82l-52 -82h-92l93 146h103z" />
    <glyph glyph-name="Otilde" unicode="&#xd5;" horiz-adv-x="638" 
d="M36 359q0 84 15.5 145t40.5 103t56.5 67.5t62.5 39.5t59.5 18.5t48.5 4.5q19 0 48 -4.5t60 -18.5t62.5 -39.5t56.5 -67.5t40.5 -103t15.5 -145t-15.5 -145t-40.5 -103t-56.5 -67.5t-62.5 -39.5t-60 -18.5t-48 -4.5t-48 4.5t-60 18.5t-62.5 39.5t-56.5 67.5t-40.5 103
t-15.5 145zM159 359q0 -75 15.5 -124t39.5 -77t52 -39t53 -11t53 11t52 39t39.5 77t15.5 124t-15.5 124t-39.5 77t-52 39t-53 11t-53 -11t-52 -39t-39.5 -77t-15.5 -124zM470 923q-2 -11 -6.5 -31.5t-14 -40t-26.5 -34t-42 -14.5q-14 0 -33 5.5t-30 10.5q-20 8 -33.5 14
t-24.5 6t-18 -5t-11.5 -12t-6.5 -14.5t-2 -11.5h-53q2 15 7.5 35.5t16.5 40.5t29 33.5t46 13.5q14 0 26 -4.5t33 -14.5t32 -13.5t19 -3.5q20 0 28 13.5t11 26.5h53z" />
    <glyph glyph-name="Odieresis" unicode="&#xd6;" horiz-adv-x="638" 
d="M36 359q0 84 15.5 145t40.5 103t56.5 67.5t62.5 39.5t59.5 18.5t48.5 4.5q19 0 48 -4.5t60 -18.5t62.5 -39.5t56.5 -67.5t40.5 -103t15.5 -145t-15.5 -145t-40.5 -103t-56.5 -67.5t-62.5 -39.5t-60 -18.5t-48 -4.5t-48 4.5t-60 18.5t-62.5 39.5t-56.5 67.5t-40.5 103
t-15.5 145zM159 359q0 -75 15.5 -124t39.5 -77t52 -39t53 -11t53 11t52 39t39.5 77t15.5 124t-15.5 124t-39.5 77t-52 39t-53 11t-53 -11t-52 -39t-39.5 -77t-15.5 -124zM291 800h-103v115h103v-115zM451 800h-103v115h103v-115z" />
    <glyph glyph-name="multiply" unicode="&#xd7;" horiz-adv-x="479" 
d="M32 426l65 79l142 -173l141 173l65 -79l-142 -173l143 -173l-66 -79l-141 173l-141 -173l-66 79l142 173z" />
    <glyph glyph-name="Oslash" unicode="&#xd8;" horiz-adv-x="638" 
d="M541 615q27 -43 44 -105t17 -151q0 -84 -15.5 -145t-40.5 -103t-56.5 -67.5t-62.5 -39.5t-60 -18.5t-48 -4.5q-16 0 -38.5 3t-48 12t-52.5 25t-51 42l-67 -90l-35 38l70 93q-26 42 -43.5 104t-17.5 151q0 84 15.5 145t40.5 103t56.5 67.5t62.5 39.5t59.5 18.5t48.5 4.5
q16 0 38.5 -3t48 -12t52.5 -25t51 -41l67 89l34 -38zM431 551q-26 34 -56 46.5t-56 12.5q-25 0 -53 -11t-52 -39t-39.5 -77t-15.5 -124q0 -45 5.5 -80t16.5 -61zM207 168q24 -34 54.5 -47t57.5 -13q25 0 53 11t52 39t39.5 77t15.5 124q0 90 -23 142z" />
    <glyph glyph-name="Ugrave" unicode="&#xd9;" horiz-adv-x="592" 
d="M534 251q0 -71 -17 -122t-48.5 -84t-76.5 -48.5t-100 -15.5q-20 0 -44.5 3.5t-49.5 13.5t-49.5 26.5t-43.5 43.5q-24 33 -34 76.5t-12 97.5v476h125v-466q0 -75 31 -109.5t74 -34.5q64 0 91.5 35.5t27.5 101.5v473h126v-467zM138 936h126l77 -146h-82z" />
    <glyph glyph-name="Uacute" unicode="&#xda;" horiz-adv-x="592" 
d="M534 251q0 -71 -17 -122t-48.5 -84t-76.5 -48.5t-100 -15.5q-20 0 -44.5 3.5t-49.5 13.5t-49.5 26.5t-43.5 43.5q-24 33 -34 76.5t-12 97.5v476h125v-466q0 -75 31 -109.5t74 -34.5q64 0 91.5 35.5t27.5 101.5v473h126v-467zM331 790h-82l77 146h126z" />
    <glyph glyph-name="Ucircumflex" unicode="&#xdb;" horiz-adv-x="592" 
d="M534 251q0 -71 -17 -122t-48.5 -84t-76.5 -48.5t-100 -15.5q-20 0 -44.5 3.5t-49.5 13.5t-49.5 26.5t-43.5 43.5q-24 33 -34 76.5t-12 97.5v476h125v-466q0 -75 31 -109.5t74 -34.5q64 0 91.5 35.5t27.5 101.5v473h126v-467zM441 790h-92l-53 82l-52 -82h-92l93 146h103z
" />
    <glyph glyph-name="Udieresis" unicode="&#xdc;" horiz-adv-x="592" 
d="M534 251q0 -71 -17 -122t-48.5 -84t-76.5 -48.5t-100 -15.5q-20 0 -44.5 3.5t-49.5 13.5t-49.5 26.5t-43.5 43.5q-24 33 -34 76.5t-12 97.5v476h125v-466q0 -75 31 -109.5t74 -34.5q64 0 91.5 35.5t27.5 101.5v473h126v-467zM268 800h-103v115h103v-115zM428 800h-103
v115h103v-115z" />
    <glyph glyph-name="Yacute" unicode="&#xdd;" horiz-adv-x="547" 
d="M339 0h-123v271l-204 447h145l123 -312l116 312h139l-196 -449v-269zM309 790h-82l77 146h126z" />
    <glyph glyph-name="Thorn" unicode="&#xde;" horiz-adv-x="547" 
d="M62 718h123v-98h146q86 0 134.5 -63t48.5 -169q0 -24 -7 -63t-27.5 -76t-57 -63.5t-96.5 -26.5h-141v-159h-123v718zM299 283q34 0 53 13t27.5 31t10 37t1.5 31q0 53 -25.5 77t-82.5 24h-98v-213h114z" />
    <glyph glyph-name="germandbls" unicode="&#xdf;" horiz-adv-x="501" 
d="M229 102q6 -1 11.5 -1h12.5q52 0 79.5 30.5t27.5 93.5q0 42 -12.5 65.5t-31 35.5t-40.5 15.5t-41 5.5v97q16 1 32.5 3t29.5 10t21 25.5t8 48.5q0 33 -10.5 51t-24.5 26t-27.5 9.5t-19.5 1.5q-12 0 -24.5 -4t-23.5 -14.5t-18 -27.5t-7 -43v-530h-114v539q0 37 11.5 72
t34.5 61.5t59 42.5t86 16q21 0 53.5 -5t63.5 -24.5t53.5 -59t22.5 -107.5q0 -45 -18 -77.5t-42 -46.5q33 -18 51.5 -41t28 -48t12 -49t2.5 -44q0 -43 -10 -86t-33.5 -78t-62 -57t-95.5 -22q-11 0 -21 1.5t-24 4.5v110z" />
    <glyph glyph-name="agrave" unicode="&#xe0;" 
d="M407 104q0 -47 7 -63t18 -20v-21h-124l-3.5 16l-3 13.5t-2 14.5t-1.5 19l-22.5 -26t-29 -25t-38.5 -18.5t-51 -7.5q-25 0 -49 8.5t-42.5 27.5t-30 48.5t-11.5 70.5q0 78 36 119t91 51l103 19q14 2 27 10.5t13 31.5q0 22 -7.5 34.5t-19 18.5t-24.5 7.5t-24 1.5
q-21 0 -34.5 -7t-21 -18t-11 -24t-4.5 -25h-110q5 61 23.5 98t45.5 56.5t59.5 25.5t66.5 6q23 0 53 -5.5t57 -22t45.5 -47t18.5 -79.5v-288zM294 259q-8 -8 -25 -15t-53 -14q-16 -3 -30 -8t-24.5 -13.5t-16.5 -22.5t-6 -36q0 -18 5 -30.5t13 -20t17.5 -10.5t17.5 -3
q19 0 37.5 7.5t32.5 21t23 33t9 43.5v68zM73 750h126l77 -146h-82z" />
    <glyph glyph-name="aacute" unicode="&#xe1;" 
d="M407 104q0 -47 7 -63t18 -20v-21h-124l-3.5 16l-3 13.5t-2 14.5t-1.5 19l-22.5 -26t-29 -25t-38.5 -18.5t-51 -7.5q-25 0 -49 8.5t-42.5 27.5t-30 48.5t-11.5 70.5q0 78 36 119t91 51l103 19q14 2 27 10.5t13 31.5q0 22 -7.5 34.5t-19 18.5t-24.5 7.5t-24 1.5
q-21 0 -34.5 -7t-21 -18t-11 -24t-4.5 -25h-110q5 61 23.5 98t45.5 56.5t59.5 25.5t66.5 6q23 0 53 -5.5t57 -22t45.5 -47t18.5 -79.5v-288zM294 259q-8 -8 -25 -15t-53 -14q-16 -3 -30 -8t-24.5 -13.5t-16.5 -22.5t-6 -36q0 -18 5 -30.5t13 -20t17.5 -10.5t17.5 -3
q19 0 37.5 7.5t32.5 21t23 33t9 43.5v68zM263 604h-82l77 146h126z" />
    <glyph glyph-name="acircumflex" unicode="&#xe2;" 
d="M407 104q0 -47 7 -63t18 -20v-21h-124l-3.5 16l-3 13.5t-2 14.5t-1.5 19l-22.5 -26t-29 -25t-38.5 -18.5t-51 -7.5q-25 0 -49 8.5t-42.5 27.5t-30 48.5t-11.5 70.5q0 78 36 119t91 51l103 19q14 2 27 10.5t13 31.5q0 22 -7.5 34.5t-19 18.5t-24.5 7.5t-24 1.5
q-21 0 -34.5 -7t-21 -18t-11 -24t-4.5 -25h-110q5 61 23.5 98t45.5 56.5t59.5 25.5t66.5 6q23 0 53 -5.5t57 -22t45.5 -47t18.5 -79.5v-288zM294 259q-8 -8 -25 -15t-53 -14q-16 -3 -30 -8t-24.5 -13.5t-16.5 -22.5t-6 -36q0 -18 5 -30.5t13 -20t17.5 -10.5t17.5 -3
q19 0 37.5 7.5t32.5 21t23 33t9 43.5v68zM373 604h-92l-53 82l-52 -82h-92l93 146h103z" />
    <glyph glyph-name="atilde" unicode="&#xe3;" 
d="M407 104q0 -47 7 -63t18 -20v-21h-124l-3.5 16l-3 13.5t-2 14.5t-1.5 19l-22.5 -26t-29 -25t-38.5 -18.5t-51 -7.5q-25 0 -49 8.5t-42.5 27.5t-30 48.5t-11.5 70.5q0 78 36 119t91 51l103 19q14 2 27 10.5t13 31.5q0 22 -7.5 34.5t-19 18.5t-24.5 7.5t-24 1.5
q-21 0 -34.5 -7t-21 -18t-11 -24t-4.5 -25h-110q5 61 23.5 98t45.5 56.5t59.5 25.5t66.5 6q23 0 53 -5.5t57 -22t45.5 -47t18.5 -79.5v-288zM294 259q-8 -8 -25 -15t-53 -14q-16 -3 -30 -8t-24.5 -13.5t-16.5 -22.5t-6 -36q0 -18 5 -30.5t13 -20t17.5 -10.5t17.5 -3
q19 0 37.5 7.5t32.5 21t23 33t9 43.5v68zM379 737q-2 -11 -6.5 -31.5t-14 -40t-26.5 -34t-42 -14.5q-14 0 -33 5.5t-30 10.5q-20 8 -33.5 14t-24.5 6t-18 -5t-11.5 -12t-6.5 -14.5t-2 -11.5h-53q2 15 7.5 35.5t16.5 40.5t29 33.5t46 13.5q14 0 26 -4.5t33 -14.5t32 -13.5
t19 -3.5q20 0 28 13.5t11 26.5h53z" />
    <glyph glyph-name="adieresis" unicode="&#xe4;" 
d="M407 104q0 -47 7 -63t18 -20v-21h-124l-3.5 16l-3 13.5t-2 14.5t-1.5 19l-22.5 -26t-29 -25t-38.5 -18.5t-51 -7.5q-25 0 -49 8.5t-42.5 27.5t-30 48.5t-11.5 70.5q0 78 36 119t91 51l103 19q14 2 27 10.5t13 31.5q0 22 -7.5 34.5t-19 18.5t-24.5 7.5t-24 1.5
q-21 0 -34.5 -7t-21 -18t-11 -24t-4.5 -25h-110q5 61 23.5 98t45.5 56.5t59.5 25.5t66.5 6q23 0 53 -5.5t57 -22t45.5 -47t18.5 -79.5v-288zM294 259q-8 -8 -25 -15t-53 -14q-16 -3 -30 -8t-24.5 -13.5t-16.5 -22.5t-6 -36q0 -18 5 -30.5t13 -20t17.5 -10.5t17.5 -3
q19 0 37.5 7.5t32.5 21t23 33t9 43.5v68zM200 614h-103v115h103v-115zM360 614h-103v115h103v-115z" />
    <glyph glyph-name="aring" unicode="&#xe5;" 
d="M407 104q0 -47 7 -63t18 -20v-21h-124l-3.5 16l-3 13.5t-2 14.5t-1.5 19l-22.5 -26t-29 -25t-38.5 -18.5t-51 -7.5q-25 0 -49 8.5t-42.5 27.5t-30 48.5t-11.5 70.5q0 78 36 119t91 51l103 19q14 2 27 10.5t13 31.5q0 22 -7.5 34.5t-19 18.5t-24.5 7.5t-24 1.5
q-21 0 -34.5 -7t-21 -18t-11 -24t-4.5 -25h-110q5 61 23.5 98t45.5 56.5t59.5 25.5t66.5 6q23 0 53 -5.5t57 -22t45.5 -47t18.5 -79.5v-288zM294 259q-8 -8 -25 -15t-53 -14q-16 -3 -30 -8t-24.5 -13.5t-16.5 -22.5t-6 -36q0 -18 5 -30.5t13 -20t17.5 -10.5t17.5 -3
q19 0 37.5 7.5t32.5 21t23 33t9 43.5v68zM318 672q0 -24 -8 -43t-21 -32.5t-29 -21t-31 -7.5t-31 7.5t-29 21t-21 32.5t-8 43t8 43t21 32.5t29 21t31 7.5t31 -7.5t29 -21t21 -32.5t8 -43zM272 672q0 22 -12.5 37t-30.5 15t-30.5 -15t-12.5 -37t12.5 -37t30.5 -15t30.5 15
t12.5 37z" />
    <glyph glyph-name="ae" unicode="&#xe6;" horiz-adv-x="729" 
d="M699 156q-12 -48 -33 -80.5t-47 -52.5t-55 -28.5t-57 -8.5h-6q-38 0 -64 8t-44 21t-29 28t-20 29q-21 -41 -65.5 -63.5t-99.5 -22.5q-24 0 -51 6t-50 23t-38.5 49t-15.5 85q0 24 5.5 48t18 45t33.5 36.5t53 22.5l108 22q20 4 31.5 8t17.5 9.5t8 13.5t2 21q0 7 -1.5 17.5
t-9 19.5t-23.5 15.5t-46 6.5q-24 0 -37.5 -8.5t-20.5 -20t-9 -24.5t-2 -22h-113q4 59 22.5 95.5t46.5 57t61.5 27.5t66.5 7q27 0 48 -6t37.5 -15t29 -19t20.5 -19q9 9 21 19t27 18.5t34.5 14.5t45.5 7q32 0 68 -11.5t66.5 -44t50.5 -89.5t20 -148v-25h-300q1 -15 4.5 -37
t13.5 -43t30 -35.5t55 -14.5q24 0 45.5 14.5t28.5 43.5h118zM298 255q-4 -4 -9 -7.5t-14 -7.5t-23.5 -7.5t-38.5 -7.5q-17 -3 -30.5 -7t-23.5 -12.5t-15 -22t-5 -35.5q0 -31 17.5 -46.5t46.5 -15.5q17 0 34 8t30.5 21.5t22 32.5t8.5 40v67zM585 319q-2 32 -11 53.5
t-21.5 34.5t-27 18.5t-28.5 5.5q-41 0 -62.5 -29.5t-26.5 -82.5h177z" />
    <glyph glyph-name="ccedilla" unicode="&#xe7;" 
d="M150 -155q16 -6 33 -11t30 -5t26 10t13 29q0 17 -10 26.5t-22 9.5q-7 0 -16 -2.5t-17 -5.5l-17 20l38 71q-55 5 -90 31.5t-55 65t-27.5 83t-7.5 84.5q0 64 12 118.5t37 93.5t64.5 61t95.5 22q26 0 58 -8.5t60.5 -31t49.5 -62.5t25 -102h-117q-2 13 -6 28t-12.5 28
t-21 21.5t-30.5 8.5h-6q-27 0 -44.5 -15t-28 -37.5t-14.5 -49.5t-4 -52q0 -22 1.5 -51.5t10 -56.5t26.5 -46t51 -19q22 0 36.5 11t23.5 26t13 31t4 25h117q-2 -20 -9.5 -52t-26.5 -64.5t-52 -58t-84 -31.5l-25 -43q8 2 12.5 3t12.5 1q9 0 21 -3.5t23 -12t19 -23.5t8 -39
q0 -44 -28.5 -71.5t-73.5 -27.5q-12 0 -21.5 1t-20 4t-23 7.5t-29.5 12.5z" />
    <glyph glyph-name="egrave" unicode="&#xe8;" 
d="M428 156q-11 -48 -32 -80.5t-47 -52.5t-55.5 -28.5t-57.5 -8.5q-46 0 -85.5 14.5t-69 48.5t-46 90t-16.5 138q0 16 2 42t9.5 56t21.5 60.5t37 55t57 40t82 15.5q32 0 68 -11.5t66.5 -44t50.5 -89.5t20 -148v-25h-299q1 -15 4 -37t13 -43t30 -35.5t55 -14.5
q24 0 45.5 14.5t28.5 43.5h118zM315 319q-3 32 -12 53.5t-21.5 34.5t-27 18.5t-28.5 5.5q-41 0 -62.5 -29.5t-26.5 -82.5h178zM73 750h126l77 -146h-82z" />
    <glyph glyph-name="eacute" unicode="&#xe9;" 
d="M428 156q-11 -48 -32 -80.5t-47 -52.5t-55.5 -28.5t-57.5 -8.5q-46 0 -85.5 14.5t-69 48.5t-46 90t-16.5 138q0 16 2 42t9.5 56t21.5 60.5t37 55t57 40t82 15.5q32 0 68 -11.5t66.5 -44t50.5 -89.5t20 -148v-25h-299q1 -15 4 -37t13 -43t30 -35.5t55 -14.5
q24 0 45.5 14.5t28.5 43.5h118zM315 319q-3 32 -12 53.5t-21.5 34.5t-27 18.5t-28.5 5.5q-41 0 -62.5 -29.5t-26.5 -82.5h178zM263 604h-82l77 146h126z" />
    <glyph glyph-name="ecircumflex" unicode="&#xea;" 
d="M428 156q-11 -48 -32 -80.5t-47 -52.5t-55.5 -28.5t-57.5 -8.5q-46 0 -85.5 14.5t-69 48.5t-46 90t-16.5 138q0 16 2 42t9.5 56t21.5 60.5t37 55t57 40t82 15.5q32 0 68 -11.5t66.5 -44t50.5 -89.5t20 -148v-25h-299q1 -15 4 -37t13 -43t30 -35.5t55 -14.5
q24 0 45.5 14.5t28.5 43.5h118zM315 319q-3 32 -12 53.5t-21.5 34.5t-27 18.5t-28.5 5.5q-41 0 -62.5 -29.5t-26.5 -82.5h178zM373 604h-92l-53 82l-52 -82h-92l93 146h103z" />
    <glyph glyph-name="edieresis" unicode="&#xeb;" 
d="M428 156q-11 -48 -32 -80.5t-47 -52.5t-55.5 -28.5t-57.5 -8.5q-46 0 -85.5 14.5t-69 48.5t-46 90t-16.5 138q0 16 2 42t9.5 56t21.5 60.5t37 55t57 40t82 15.5q32 0 68 -11.5t66.5 -44t50.5 -89.5t20 -148v-25h-299q1 -15 4 -37t13 -43t30 -35.5t55 -14.5
q24 0 45.5 14.5t28.5 43.5h118zM315 319q-3 32 -12 53.5t-21.5 34.5t-27 18.5t-28.5 5.5q-41 0 -62.5 -29.5t-26.5 -82.5h178zM200 614h-103v115h103v-115zM360 614h-103v115h103v-115z" />
    <glyph glyph-name="igrave" unicode="&#xec;" horiz-adv-x="228" 
d="M171 532v-532h-114v532h114zM-40 750h126l77 -146h-82z" />
    <glyph glyph-name="iacute" unicode="&#xed;" horiz-adv-x="228" 
d="M171 532v-532h-114v532h114zM150 604h-82l77 146h126z" />
    <glyph glyph-name="icircumflex" unicode="&#xee;" horiz-adv-x="228" 
d="M171 532v-532h-114v532h114zM260 604h-92l-53 82l-52 -82h-92l93 146h103z" />
    <glyph glyph-name="idieresis" unicode="&#xef;" horiz-adv-x="228" 
d="M171 532v-532h-114v532h114zM87 614h-103v115h103v-115zM247 614h-103v115h103v-115z" />
    <glyph glyph-name="eth" unicode="&#xf0;" horiz-adv-x="501" 
d="M251 405q-33 0 -53.5 -17t-32 -40.5t-15.5 -48t-4 -38.5q0 -78 29 -117.5t77 -39.5q36 0 57 20t31.5 46.5t13 53.5t2.5 41t-4 38t-15 46.5t-32 39t-54 16.5zM347 641q25 -29 48 -66t40.5 -80.5t28 -94t10.5 -105.5q0 -85 -20 -144t-51.5 -95.5t-71 -53t-78.5 -16.5
q-41 0 -81 14.5t-72 47.5t-52 86.5t-20 130.5q0 55 14.5 102.5t41.5 82t64 54t82 19.5q7 0 19 -1.5t26.5 -7.5t29 -17t26.5 -29l2 2q-12 32 -33.5 63.5t-46.5 57.5l-88 -47l-52 52l89 47q-19 17 -35 28.5t-25 16.5l88 49q15 -8 31.5 -18.5t33.5 -25.5l84 44l51 -52z" />
    <glyph glyph-name="ntilde" unicode="&#xf1;" horiz-adv-x="501" 
d="M448 0h-115v323q0 15 -1.5 33t-8.5 34t-22.5 27t-42.5 11q-38 0 -64 -31t-26 -92v-305h-115v532h110v-78h2q6 12 15.5 28t24.5 30t37.5 24t53.5 10q32 0 59.5 -11.5t48 -34t32.5 -55.5t12 -77v-368zM401 737q-2 -11 -6.5 -31.5t-14 -40t-26.5 -34t-42 -14.5
q-14 0 -33 5.5t-30 10.5q-20 8 -33.5 14t-24.5 6t-18 -5t-11.5 -12t-6.5 -14.5t-2 -11.5h-53q2 15 7.5 35.5t16.5 40.5t29 33.5t46 13.5q14 0 26 -4.5t33 -14.5t32 -13.5t19 -3.5q20 0 28 13.5t11 26.5h53z" />
    <glyph glyph-name="ograve" unicode="&#xf2;" horiz-adv-x="501" 
d="M474 266q0 -72 -18.5 -125t-49 -87.5t-71 -51t-84.5 -16.5t-84.5 16.5t-71 51t-49 87.5t-18.5 125t18.5 124.5t49 87t71 51.5t84.5 17t84.5 -17t71 -51.5t49 -87t18.5 -124.5zM356 266q0 25 -4 53.5t-15.5 52.5t-32 40t-53.5 16t-54 -16t-32 -40t-15 -52.5t-4 -53.5
q0 -26 4 -54.5t15 -52.5t32 -39.5t54 -15.5t53.5 15.5t32 39.5t15.5 52.5t4 54.5zM95 750h126l77 -146h-82z" />
    <glyph glyph-name="oacute" unicode="&#xf3;" horiz-adv-x="501" 
d="M474 266q0 -72 -18.5 -125t-49 -87.5t-71 -51t-84.5 -16.5t-84.5 16.5t-71 51t-49 87.5t-18.5 125t18.5 124.5t49 87t71 51.5t84.5 17t84.5 -17t71 -51.5t49 -87t18.5 -124.5zM356 266q0 25 -4 53.5t-15.5 52.5t-32 40t-53.5 16t-54 -16t-32 -40t-15 -52.5t-4 -53.5
q0 -26 4 -54.5t15 -52.5t32 -39.5t54 -15.5t53.5 15.5t32 39.5t15.5 52.5t4 54.5zM285 604h-82l77 146h126z" />
    <glyph glyph-name="ocircumflex" unicode="&#xf4;" horiz-adv-x="501" 
d="M474 266q0 -72 -18.5 -125t-49 -87.5t-71 -51t-84.5 -16.5t-84.5 16.5t-71 51t-49 87.5t-18.5 125t18.5 124.5t49 87t71 51.5t84.5 17t84.5 -17t71 -51.5t49 -87t18.5 -124.5zM356 266q0 25 -4 53.5t-15.5 52.5t-32 40t-53.5 16t-54 -16t-32 -40t-15 -52.5t-4 -53.5
q0 -26 4 -54.5t15 -52.5t32 -39.5t54 -15.5t53.5 15.5t32 39.5t15.5 52.5t4 54.5zM395 604h-92l-53 82l-52 -82h-92l93 146h103z" />
    <glyph glyph-name="otilde" unicode="&#xf5;" horiz-adv-x="501" 
d="M474 266q0 -72 -18.5 -125t-49 -87.5t-71 -51t-84.5 -16.5t-84.5 16.5t-71 51t-49 87.5t-18.5 125t18.5 124.5t49 87t71 51.5t84.5 17t84.5 -17t71 -51.5t49 -87t18.5 -124.5zM356 266q0 25 -4 53.5t-15.5 52.5t-32 40t-53.5 16t-54 -16t-32 -40t-15 -52.5t-4 -53.5
q0 -26 4 -54.5t15 -52.5t32 -39.5t54 -15.5t53.5 15.5t32 39.5t15.5 52.5t4 54.5zM401 737q-2 -11 -6.5 -31.5t-14 -40t-26.5 -34t-42 -14.5q-14 0 -33 5.5t-30 10.5q-20 8 -33.5 14t-24.5 6t-18 -5t-11.5 -12t-6.5 -14.5t-2 -11.5h-53q2 15 7.5 35.5t16.5 40.5t29 33.5
t46 13.5q14 0 26 -4.5t33 -14.5t32 -13.5t19 -3.5q20 0 28 13.5t11 26.5h53z" />
    <glyph glyph-name="odieresis" unicode="&#xf6;" horiz-adv-x="501" 
d="M474 266q0 -72 -18.5 -125t-49 -87.5t-71 -51t-84.5 -16.5t-84.5 16.5t-71 51t-49 87.5t-18.5 125t18.5 124.5t49 87t71 51.5t84.5 17t84.5 -17t71 -51.5t49 -87t18.5 -124.5zM356 266q0 25 -4 53.5t-15.5 52.5t-32 40t-53.5 16t-54 -16t-32 -40t-15 -52.5t-4 -53.5
q0 -26 4 -54.5t15 -52.5t32 -39.5t54 -15.5t53.5 15.5t32 39.5t15.5 52.5t4 54.5zM222 614h-103v115h103v-115zM382 614h-103v115h103v-115z" />
    <glyph glyph-name="divide" unicode="&#xf7;" horiz-adv-x="479" 
d="M33 197v112h413v-112h-413zM167 459q0 18 6 34.5t16 28.5t23 19t28 7t28 -7t22.5 -19.5t15.5 -28.5t6 -34q0 -17 -6 -32.5t-15.5 -28t-22.5 -20t-27 -7.5q-30 0 -52 26t-22 62zM167 46q0 18 6 34.5t16 28.5t23 19t28 7t28 -7t22.5 -19.5t15.5 -28.5t6 -34q0 -17 -6 -32.5
t-15.5 -28t-22.5 -20t-27 -7.5q-30 0 -52 26t-22 62z" />
    <glyph glyph-name="oslash" unicode="&#xf8;" horiz-adv-x="501" 
d="M179 138q11 -16 28.5 -25t43.5 -9q33 0 53.5 15.5t32 39.5t15.5 52.5t4 54.5q0 21 -2.5 43t-9.5 42zM325 393q-14 17 -31 26t-43 9q-33 0 -54 -16t-32 -40t-15 -52.5t-4 -53.5q0 -20 2 -42.5t10 -44.5zM425 454q23 -34 36 -80.5t13 -107.5q0 -72 -18.5 -125t-49 -87.5
t-71 -51t-84.5 -16.5q-41 0 -78.5 14.5t-66.5 43.5l-57 -73l-31 29l60 77q-23 35 -36.5 81.5t-13.5 107.5q0 72 18.5 124.5t49 87t71 51.5t84.5 17q41 0 78.5 -14.5t68.5 -44.5l56 73l29 -32z" />
    <glyph glyph-name="ugrave" unicode="&#xf9;" horiz-adv-x="501" 
d="M447 0h-110v75h-2q-20 -43 -53.5 -66t-78.5 -23q-33 0 -60 11.5t-47 35.5t-31 61t-11 88v350h115v-330q0 -31 6.5 -50t17.5 -29.5t24 -14.5t27 -4t29.5 5.5t28.5 19.5t21.5 37t8.5 59v307h115v-532zM95 750h126l77 -146h-82z" />
    <glyph glyph-name="uacute" unicode="&#xfa;" horiz-adv-x="501" 
d="M447 0h-110v75h-2q-20 -43 -53.5 -66t-78.5 -23q-33 0 -60 11.5t-47 35.5t-31 61t-11 88v350h115v-330q0 -31 6.5 -50t17.5 -29.5t24 -14.5t27 -4t29.5 5.5t28.5 19.5t21.5 37t8.5 59v307h115v-532zM285 604h-82l77 146h126z" />
    <glyph glyph-name="ucircumflex" unicode="&#xfb;" horiz-adv-x="501" 
d="M447 0h-110v75h-2q-20 -43 -53.5 -66t-78.5 -23q-33 0 -60 11.5t-47 35.5t-31 61t-11 88v350h115v-330q0 -31 6.5 -50t17.5 -29.5t24 -14.5t27 -4t29.5 5.5t28.5 19.5t21.5 37t8.5 59v307h115v-532zM395 604h-92l-53 82l-52 -82h-92l93 146h103z" />
    <glyph glyph-name="udieresis" unicode="&#xfc;" horiz-adv-x="501" 
d="M447 0h-110v75h-2q-20 -43 -53.5 -66t-78.5 -23q-33 0 -60 11.5t-47 35.5t-31 61t-11 88v350h115v-330q0 -31 6.5 -50t17.5 -29.5t24 -14.5t27 -4t29.5 5.5t28.5 19.5t21.5 37t8.5 59v307h115v-532zM222 614h-103v115h103v-115zM382 614h-103v115h103v-115z" />
    <glyph glyph-name="yacute" unicode="&#xfd;" 
d="M292 9q-20 -74 -35 -118t-32.5 -67.5t-41 -30.5t-60.5 -7q-12 0 -25.5 0.5t-26.5 1.5v112q10 -2 22 -2q16 0 28 2t21.5 10.5t16 24.5t10.5 43l-161 554h128l94 -392h1l90 392h121zM263 604h-82l77 146h126z" />
    <glyph glyph-name="thorn" unicode="&#xfe;" horiz-adv-x="501" 
d="M161 254q0 -30 5.5 -57.5t17.5 -48.5t31.5 -34t46.5 -13t45.5 16.5t29 40.5t15 52t4.5 52q0 31 -5 60.5t-16.5 52.5t-30.5 36.5t-46 13.5q-29 0 -48 -15t-30 -39t-15 -54.5t-4 -62.5zM166 -208h-115v926h115v-254h1q6 12 16 26t25 26.5t35.5 21t49.5 8.5q36 0 69 -17
t57.5 -51t39.5 -85.5t15 -120.5q0 -55 -10.5 -106.5t-33 -91.5t-57 -64t-83.5 -24q-30 0 -51 8.5t-35.5 21.5t-23 27t-13.5 25h-1v-276z" />
    <glyph glyph-name="ydieresis" unicode="&#xff;" 
d="M292 9q-20 -74 -35 -118t-32.5 -67.5t-41 -30.5t-60.5 -7q-12 0 -25.5 0.5t-26.5 1.5v112q10 -2 22 -2q16 0 28 2t21.5 10.5t16 24.5t10.5 43l-161 554h128l94 -392h1l90 392h121zM200 614h-103v115h103v-115zM360 614h-103v115h103v-115z" />
    <glyph glyph-name=".null" horiz-adv-x="410" 
 />
    <glyph glyph-name="apple" horiz-adv-x="500" 
 />
    <glyph glyph-name="dotlessi" unicode="&#x131;" horiz-adv-x="228" 
d="M171 532v-532h-114v532h114z" />
    <glyph glyph-name="Lslash" unicode="&#x141;" horiz-adv-x="501" 
d="M185 386v-256h293v-130h-416v311l-78 -55v78l78 55v329h123v-254l105 73v-78z" />
    <glyph glyph-name="lslash" unicode="&#x142;" horiz-adv-x="228" 
d="M243 445l-72 -50v-395h-114v324l-72 -50v78l72 50v316h114v-245l72 50v-78z" />
    <glyph glyph-name="caron" unicode="&#x2c7;" horiz-adv-x="273" 
d="M188 604h-103l-93 146h92l52 -82l53 82h92z" />
    <glyph glyph-name="breve" unicode="&#x2d8;" horiz-adv-x="273" 
d="M275 750q-2 -17 -7.5 -42t-21 -48t-43.5 -39.5t-74 -16.5q-41 0 -66.5 17t-39.5 41t-19 48.5t-6 39.5h54q2 -10 5.5 -22t11.5 -22.5t23.5 -18t41.5 -7.5q14 0 28 2t26 9t21 21t12 38h54z" />
    <glyph glyph-name="dotaccent" unicode="&#x2d9;" horiz-adv-x="273" 
d="M189 614h-104v115h104v-115z" />
    <glyph glyph-name="ring" unicode="&#x2da;" horiz-adv-x="273" 
d="M226 672q0 -24 -8 -43t-21 -32.5t-29 -21t-31 -7.5t-31 7.5t-29 21t-21 32.5t-8 43t8 43t21 32.5t29 21t31 7.5t31 -7.5t29 -21t21 -32.5t8 -43zM180 672q0 22 -12.5 37t-30.5 15t-30.5 -15t-12.5 -37t12.5 -37t30.5 -15t30.5 15t12.5 37z" />
    <glyph glyph-name="ogonek" unicode="&#x2db;" horiz-adv-x="273" 
d="M249 -204q-30 -14 -49 -19t-40 -5q-45 0 -73.5 27t-28.5 66q0 48 24.5 82.5t65.5 52.5h68v-4q-20 -13 -35.5 -29t-25.5 -32.5t-15 -32t-5 -26.5q0 -25 12.5 -36.5t25.5 -11.5q12 0 29.5 5t32.5 12z" />
    <glyph glyph-name="hungarumlaut" unicode="&#x2dd;" horiz-adv-x="273" 
d="M90 604h-83l77 146h127zM278 604h-83l77 146h127z" />
    <glyph glyph-name="pi" unicode="&#x3c0;" horiz-adv-x="486" 
d="M467 13q-17 -10 -33.5 -15t-35.5 -5q-27 0 -44 10t-26.5 27.5t-12.5 41.5t-3 52v258h-166v-382h-88v382h-57v102h464v-102h-65v-241q0 -11 0.5 -21t3.5 -18.5t9.5 -13.5t17.5 -5q18 0 36 10v-80z" />
    <glyph glyph-name="fraction" unicode="&#x2044;" horiz-adv-x="137" 
d="M-75 -19h-64l351 729h64z" />
    <glyph glyph-name="Omega" unicode="&#x2126;" horiz-adv-x="622" 
d="M348 0v189q31 7 55.5 26.5t40.5 47.5t24.5 62t8.5 72q0 45 -12.5 84.5t-35 69.5t-53.5 47.5t-69 17.5t-69.5 -17.5t-54 -47.5t-35 -70t-12.5 -85q0 -78 31.5 -132.5t94.5 -74.5v-189h-224v96h149v42q-37 14 -65 40t-46.5 61t-28 77t-9.5 88q0 69 21 127.5t57 100.5
t85 65.5t105 23.5t105 -23t85.5 -64t57.5 -99t21 -128q0 -47 -9 -89.5t-28 -78t-47 -61.5t-66 -40v-42h150v-96h-227z" />
    <glyph glyph-name="partialdiff" unicode="&#x2202;" 
d="M421 358q0 -64 -8.5 -130t-31.5 -119.5t-63.5 -87.5t-105.5 -34q-41 0 -74 17.5t-56 48t-36 72t-13 90.5q0 48 12.5 88.5t36 70t56 46t72.5 16.5q34 0 62.5 -14.5t54.5 -40.5v28q1 36 -5 75.5t-20 72.5t-38.5 55t-60.5 22q-29 0 -53 -13.5t-47 -35.5l-48 70
q34 32 66.5 49t76.5 17q64 0 106.5 -32t68.5 -84t37 -116.5t11 -130.5zM326 289q-22 29 -46.5 46.5t-57.5 17.5q-26 0 -44.5 -12t-31 -31.5t-18.5 -46t-6 -54.5q0 -27 5.5 -52t17 -44t29 -30.5t42.5 -11.5q29 0 50 19t34.5 47.5t20 62.5t5.5 64v25z" />
    <glyph glyph-name="Delta" unicode="&#x2206;" horiz-adv-x="562" 
d="M7 0l221 712h94l233 -712h-548zM274 581l-142 -477h294z" />
    <glyph glyph-name="product" unicode="&#x220f;" horiz-adv-x="608" 
d="M463 -214v897h-319v-897h-93v1000h506v-1000h-94z" />
    <glyph glyph-name="summation" unicode="&#x2211;" horiz-adv-x="531" 
d="M20 -214v89l249 417l-238 405v89h470v-103h-346l225 -390l-240 -404h372v-103h-492z" />
    <glyph glyph-name="minus" unicode="&#x2212;" horiz-adv-x="479" 
d="M33 197v112h413v-112h-413z" />
    <glyph glyph-name="radical" unicode="&#x221a;" horiz-adv-x="440" 
d="M277 -214h-87l-124 317l-42 -25l-34 90l122 68l105 -273l138 823h95z" />
    <glyph glyph-name="infinity" unicode="&#x221e;" horiz-adv-x="668" 
d="M631 263q0 -38 -9.5 -71t-27 -58t-43 -39t-58.5 -14q-26 0 -47.5 9.5t-41 25t-36.5 35.5t-33 42l-34 -42t-35.5 -35.5t-40 -24.5t-48.5 -9q-32 0 -58 14t-44 38t-28 57t-10 71q0 37 9.5 70t27 57t43 38t57.5 14q27 0 49 -10t41.5 -26.5t37 -38t33.5 -44.5q15 23 32 44.5
t36.5 38.5t41.5 27t49 10q32 0 57.5 -14t43 -38t27 -57t9.5 -70zM558 260q0 36 -17 61t-49 25q-16 0 -31.5 -8.5t-30 -21.5t-27 -28.5l-22.5 -28.5q11 -15 23.5 -29.5t27 -26t30 -19t32.5 -7.5q31 0 47.5 24t16.5 59zM287 259q-10 13 -23 28t-28 28t-30.5 21.5t-31.5 8.5
q-29 0 -46 -25.5t-17 -59.5q0 -37 17.5 -59.5t47.5 -22.5q16 0 31.5 7.5t30 19.5t27 26t22.5 28z" />
    <glyph glyph-name="integral" unicode="&#x222b;" horiz-adv-x="501" 
d="M399 709q0 -23 -12.5 -37.5t-30.5 -14.5q-20 0 -28.5 11.5t-13 25t-8 25t-12.5 11.5t-11.5 -9t-2.5 -17q0 -31 2 -61t2 -61v-589q0 -38 -4 -75t-16.5 -66.5t-36 -48t-61.5 -18.5q-15 0 -31 4t-29.5 13t-22 23.5t-8.5 35.5q0 23 12 38t31 15t28 -11.5t13.5 -25t8 -25
t11.5 -11.5q6 0 9 5.5t4 13t1 15v12.5q0 26 -2 51t-2 51v506q0 42 -0.5 93t9.5 95t34.5 73.5t75.5 29.5q14 0 30 -4.5t29.5 -13.5t22.5 -23.5t9 -35.5z" />
    <glyph glyph-name="approxequal" unicode="&#x2248;" horiz-adv-x="479" 
d="M460 451q-3 -33 -10.5 -64t-22 -55t-36.5 -38.5t-53 -14.5q-25 0 -54 11t-57.5 23.5l-54 23.5t-42.5 11q-23 0 -35.5 -22.5t-16.5 -46.5h-58q2 31 10 62t22 56t35.5 40t51.5 15q26 0 53 -10.5t54 -22.5t53.5 -22.5t51.5 -10.5q23 0 35 20t16 45h58zM458 243
q-3 -33 -10.5 -64t-21.5 -55t-36 -38.5t-53 -14.5q-24 0 -53.5 11t-58 23.5l-54 23.5t-42.5 11q-23 0 -36 -22t-17 -46h-58q3 31 10.5 62t22 55.5t36 39.5t51.5 15q25 0 52 -10.5t54 -22.5t53.5 -22.5t51.5 -10.5q23 0 35 20t16 45h58z" />
    <glyph glyph-name="notequal" unicode="&#x2260;" horiz-adv-x="479" 
d="M220 96l-64 -153l-77 48l44 105h-98v108h142l49 115h-191v108h235l63 152l78 -47l-44 -105h96v-108h-141l-48 -115h189v-108h-233z" />
    <glyph glyph-name="lessequal" unicode="&#x2264;" horiz-adv-x="479" 
d="M25 274v108l428 177v-113l-307 -118l307 -112v-112zM25 -36v107h428v-107h-428z" />
    <glyph glyph-name="greaterequal" unicode="&#x2265;" horiz-adv-x="479" 
d="M25 104v112l308 112l-308 118v113l428 -177v-108zM25 -36v107h428v-107h-428z" />
    <glyph glyph-name="lozenge" unicode="&#x25ca;" horiz-adv-x="486" 
d="M284 -35h-82l-145 391l145 391h82l146 -391zM243 641l-97 -285l97 -286l97 286z" />
    <glyph glyph-name="grave.cap" unicode="&#xe300;" horiz-adv-x="273" 
d="M-19 936h126l77 -146h-82z" />
    <glyph glyph-name="acute.cap" unicode="&#xe301;" horiz-adv-x="273" 
d="M171 790h-82l77 146h126z" />
    <glyph glyph-name="circumflex.cap" unicode="&#xe302;" horiz-adv-x="273" 
d="M281 790h-92l-53 82l-52 -82h-92l93 146h103z" />
    <glyph glyph-name="caron.cap" unicode="&#xe303;" horiz-adv-x="273" 
d="M188 790h-103l-93 146h92l52 -82l53 82h92z" />
    <glyph glyph-name="tilde.cap" unicode="&#xe304;" horiz-adv-x="273" 
d="M287 923q-2 -11 -6.5 -31.5t-14 -40t-26.5 -34t-42 -14.5q-14 0 -33 5.5t-30 10.5q-20 8 -33.5 14t-24.5 6t-18 -5t-11.5 -12t-6.5 -14.5t-2 -11.5h-53q2 15 7.5 35.5t16.5 40.5t29 33.5t46 13.5q14 0 26 -4.5t33 -14.5t32 -13.5t19 -3.5q20 0 28 13.5t11 26.5h53z" />
    <glyph glyph-name="dieresis.cap" unicode="&#xe305;" horiz-adv-x="273" 
d="M108 800h-103v115h103v-115zM268 800h-103v115h103v-115z" />
    <glyph glyph-name="macron.cap" unicode="&#xe306;" horiz-adv-x="273" 
d="M278 790h-283v74h283v-74z" />
    <glyph glyph-name="breve.cap" unicode="&#xe307;" horiz-adv-x="273" 
d="M275 936q-2 -17 -7.5 -42t-21 -48t-43.5 -39.5t-74 -16.5q-41 0 -66.5 17t-39.5 41t-19 48.5t-6 39.5h54q2 -10 5.5 -22t11.5 -22.5t23.5 -18t41.5 -7.5q14 0 28 2t26 9t21 21t12 38h54z" />
    <glyph glyph-name="ring.cap" unicode="&#xe308;" horiz-adv-x="273" 
d="M226 858q0 -24 -8 -43t-21 -32.5t-29 -21t-31 -7.5t-31 7.5t-29 21t-21 32.5t-8 43t8 43t21 32.5t29 21t31 7.5t31 -7.5t29 -21t21 -32.5t8 -43zM180 858q0 22 -12.5 37t-30.5 15t-30.5 -15t-12.5 -37t12.5 -37t30.5 -15t30.5 15t12.5 37z" />
    <glyph glyph-name="hungarumlaut.cap" unicode="&#xe309;" horiz-adv-x="273" 
d="M90 790h-83l77 146h127zM278 790h-83l77 146h127z" />
    <glyph glyph-name="fi" unicode="&#xfb01;" horiz-adv-x="501" 
d="M186 0h-115v432h-63v100h63v43q0 82 34.5 117t93.5 35q26 0 38.5 -0.5t20.5 -1.5v-113h-32q-29 0 -34.5 -13t-5.5 -46v-21h75v-100h-75v-432zM444 532v-532h-114v532h114zM444 595h-114v130h114v-130z" />
    <glyph glyph-name="fl" unicode="&#xfb02;" horiz-adv-x="501" 
d="M186 0h-115v432h-63v100h63v43q0 82 34.5 117t93.5 35q26 0 38.5 -0.5t20.5 -1.5v-113h-32q-29 0 -34.5 -13t-5.5 -46v-21h75v-100h-75v-432zM444 0h-114v718h114v-718z" />
    </font>
</defs>
</svg>
