<?xml version="1.0" standalone="no"?>
<!DOCTYPE svg PUBLIC "-//W3C//DTD SVG 1.1//EN" "http://www.w3.org/Graphics/SVG/1.1/DTD/svg11.dtd" >
<svg>
<metadata>
Created by FontForge 20090622 at Mon Jun 15 09:26:06 2015
 By deploy user
Part of the digitally encoded machine readable outline data for producing the Typefaces provided is copyrighted &#194;&#169; 1981 - 2006 Linotype GmbH, www.linotype.com. All rights reserved. This software is the property of Linotype GmbH, and may not be reproduced, used, displayed, modified, disclosed or transferred without the express written approval of Linotype GmbH.  Copyright (c) 1985, 1987, 1989, 1990 Adobe Systems Incorporated. All rights reserved. Helvetica is a trademark of Linotype GmbH and may be registered in certain jurisdictions. This typeface is original artwork of Linotype Design Studio. The design may be protected in certain jurisdictions.
</metadata>
<defs>
<font id="HelveticaLT-Narrow" horiz-adv-x="456" >
  <font-face 
    font-family="Helvetica LT Narrow"
    font-weight="400"
    font-stretch="condensed"
    units-per-em="1000"
    panose-1="2 11 6 3 4 3 2 2 2 4"
    ascent="718"
    descent="-282"
    x-height="523"
    cap-height="718"
    bbox="-136 -225 820 951"
    underline-thickness="50"
    underline-position="-50"
    unicode-range="U+000D-U+FB02"
  />
<missing-glyph horiz-adv-x="420" 
d="M182 117v67h46v-67h-46zM184 234l-1 17q0 55 10.5 81t37.5 59q26 31 33.5 47.5t7.5 35.5q0 36 -18.5 60.5t-43.5 24.5q-26 0 -44 -22t-23 -73l-41 8q5 71 35.5 104t74.5 33t73 -36t29 -95q0 -32 -10 -58.5t-42 -61.5q-30 -33 -35 -52t-5 -72h-38zM379 50v617h-338v-617
h338zM420 718v-718h-420v718h420z" />
    <glyph glyph-name=".notdef" horiz-adv-x="420" 
d="M182 117v67h46v-67h-46zM184 234l-1 17q0 55 10.5 81t37.5 59q26 31 33.5 47.5t7.5 35.5q0 36 -18.5 60.5t-43.5 24.5q-26 0 -44 -22t-23 -73l-41 8q5 71 35.5 104t74.5 33t73 -36t29 -95q0 -32 -10 -58.5t-42 -61.5q-30 -33 -35 -52t-5 -72h-38zM379 50v617h-338v-617
h338zM420 718v-718h-420v718h420z" />
    <glyph glyph-name="nonmarkingreturn" unicode="&#xd;" horiz-adv-x="0" 
 />
    <glyph glyph-name="space" unicode=" " horiz-adv-x="228" 
 />
    <glyph glyph-name="exclam" unicode="!" horiz-adv-x="228" 
d="M153 0h-79v102h79v-102zM93 171l-19 310v237h79v-237l-19 -310h-41z" />
    <glyph glyph-name="quotedbl" unicode="&#x22;" horiz-adv-x="291" 
d="M57 718h60v-255h-60v255zM174 718h60v-255h-60v255z" />
    <glyph glyph-name="numbersign" unicode="#" 
d="M294 0h-54l24 210h-102l-24 -210h-54l23 210h-84l7 63h85l15 142h-84l7 63h85l24 210h54l-23 -210h101l24 210h55l-24 -210h85l-8 -63h-84l-16 -142h84l-7 -63h-85zM185 415l-16 -142h102l16 142h-102z" />
    <glyph glyph-name="dollar" unicode="$" 
d="M207 638q-24 0 -42 -9.5t-30 -25.5t-18.5 -37t-6.5 -44q0 -27 8.5 -46.5t22 -33t31 -21.5t35.5 -12v229zM246 54q27 0 47.5 10.5t34 28t20 40.5t6.5 47q0 42 -19 71.5t-45 39.5l-44 17v-254zM343 521q-2 20 -7 38.5t-15.5 34t-28.5 27t-46 17.5v-239q42 -15 75.5 -29
t56.5 -35.5t35.5 -54t12.5 -84.5q0 -64 -18.5 -105.5t-46 -66t-59 -34t-56.5 -9.5v-96h-39v96q-38 3 -71 15t-57.5 38.5t-38.5 70t-14 108.5h72q2 -40 7.5 -67.5t18 -46t32.5 -29t51 -16.5v265q-31 9 -61.5 21.5t-54.5 34t-38.5 55.5t-14.5 86q0 40 13 76t35.5 62t53.5 41.5
t67 15.5v64h39v-64q19 -2 47 -9t54 -27.5t44.5 -57t20.5 -96.5h-69z" />
    <glyph glyph-name="percent" unicode="%" horiz-adv-x="729" 
d="M32 526q0 36 11 66.5t30 53.5t44.5 36t54.5 13q28 0 53.5 -13t45 -36t30.5 -54t11 -66t-11 -66.5t-30 -54.5t-44.5 -36.5t-54.5 -13.5t-54.5 13t-44.5 36.5t-30 54.5t-11 67zM89 526q0 -23 7 -42t18 -32t26 -20t31 -7q18 0 33 8t26.5 22t17.5 32t6 39q0 42 -24 70.5
t-58 28.5q-18 0 -33 -8t-26 -21.5t-17.5 -31.5t-6.5 -38zM417 164q0 36 11 66.5t30.5 53.5t45 36t54.5 13q28 0 53.5 -13t44.5 -36t30 -54t11 -66t-11 -66.5t-29.5 -54.5t-44 -36.5t-54.5 -13.5t-54.5 13t-45 36.5t-30.5 54.5t-11 67zM475 164q0 -47 24.5 -74t57.5 -27
q18 0 33 8t26 22t17.5 32t6.5 39q0 42 -24 70.5t-58 28.5q-18 0 -33 -8t-26 -21.5t-17.5 -31.5t-6.5 -38zM224 -19h-44l323 722h46z" />
    <glyph glyph-name="ampersand" unicode="&#x26;" horiz-adv-x="547" 
d="M209 339q-24 -18 -42.5 -34.5t-31.5 -34.5t-20 -39.5t-7 -50.5q0 -34 12 -56.5t28.5 -36.5t35 -20t30.5 -6q80 0 128 80zM235 439q12 10 24.5 22t23.5 27t18 33.5t7 41.5q0 24 -6.5 39.5t-16 24t-20.5 12t-20 3.5q-23 0 -36.5 -9t-21 -21t-9.5 -25.5t-2 -22.5
q0 -18 6 -36t15 -34.5t19 -30.5t19 -24zM529 0h-94l-55 82q-15 -21 -31.5 -39t-37 -30.5t-45.5 -20t-57 -7.5q-55 0 -89 21.5t-52.5 51.5t-25 62t-6.5 53q0 37 5.5 66t20 55.5t40.5 51.5t67 53l-28 43t-19.5 37t-11 37t-3.5 42q0 31 9 60t26.5 51t43.5 35.5t60 13.5
q35 0 60 -13t41 -34t23.5 -47.5t7.5 -53.5q0 -38 -10.5 -67t-26 -51.5t-34.5 -39.5t-35 -30l108 -156q5 16 8 28.5t5.5 24.5t4.5 25.5l5 33.5h69q-3 -37 -14 -84.5t-34 -98.5z" />
    <glyph glyph-name="quotesingle" unicode="'" horiz-adv-x="157" 
d="M48 718h60v-255h-60v255z" />
    <glyph glyph-name="parenleft" unicode="(" horiz-adv-x="273" 
d="M244 733l-46.5 -111.5t-35 -107t-22 -121.5t-7.5 -156q0 -62 8.5 -117t23.5 -108t35.5 -106.5l44.5 -112.5h-48q-32 58 -58 112.5t-44.5 110t-28.5 115.5t-10 130q0 66 9 126.5t27 118t43.5 113.5t58.5 114h50z" />
    <glyph glyph-name="parenright" unicode=")" horiz-adv-x="273" 
d="M29 -207l46.5 111t35 106.5t22 122t7.5 156.5q0 62 -8.5 117t-23.5 108t-35.5 106.5l-44.5 112.5h48q32 -59 58 -113t44.5 -109.5t28.5 -115.5t10 -130q0 -66 -9 -126.5t-27 -118t-43.5 -113.5t-58.5 -114h-50z" />
    <glyph glyph-name="asterisk" unicode="*" horiz-adv-x="319" 
d="M48 646l86 -38v110h50v-110l86 38l16 -55l-88 -34l55 -92l-41 -34l-53 94l-53 -94l-40 34l55 92l-89 34z" />
    <glyph glyph-name="plus" unicode="+" horiz-adv-x="479" 
d="M210 505h60v-216h177v-73h-177v-216h-60v216h-178v73h178v216z" />
    <glyph glyph-name="comma" unicode="," horiz-adv-x="228" 
d="M71 106h86v-98q0 -51 -11 -81t-25.5 -46t-29 -21.5t-20.5 -6.5v46q13 1 21.5 10.5t13.5 24t7 31.5t2 35h-44v106z" />
    <glyph glyph-name="hyphen" unicode="-" horiz-adv-x="273" 
d="M237 232h-201v90h201v-90z" />
    <glyph glyph-name="period" unicode="." horiz-adv-x="228" 
d="M157 0h-86v106h86v-106z" />
    <glyph glyph-name="slash" unicode="/" horiz-adv-x="228" 
d="M41 -19h-55l202 756h54z" />
    <glyph glyph-name="zero" unicode="0" 
d="M348 342q0 132 -29 207t-91 75t-91.5 -75t-29.5 -207t29.5 -207t91.5 -75t91 75t29 207zM426 342q0 -55 -7.5 -118t-29 -117t-60.5 -90t-101 -36t-101 36t-60.5 90t-29 117t-7.5 118t7.5 118t29 117t60.5 90t101 36t101 -36t60.5 -90t29 -117t7.5 -118z" />
    <glyph glyph-name="one" unicode="1" 
d="M294 0h-77v499h-134v70q35 3 60.5 8t43.5 18.5t30 39t21 68.5h56v-703z" />
    <glyph glyph-name="two" unicode="2" 
d="M36 451q0 86 22.5 136t54 76t65.5 33t57 7q37 0 70 -14.5t58 -41.5t39 -66t14 -88q0 -47 -12 -82t-33 -62t-49 -48.5t-60 -42.5l-60 -40q-30 -20 -48.5 -39.5t-29.5 -37.5t-15.5 -33t-5.5 -25h313v-83h-395q1 55 12 97.5t29 76t42 59t53 46.5l76 54q23 16 42.5 31
t33.5 33t22 41.5t8 58.5q0 21 -6 43.5t-19.5 41t-35.5 30.5t-53 12q-41 0 -64 -20t-34.5 -48t-14.5 -57.5t-4 -47.5h-72z" />
    <glyph glyph-name="three" unicode="3" 
d="M184 400q9 -1 18.5 -1.5t18.5 -0.5q21 0 41 5.5t35 19t24.5 35.5t9.5 55q0 16 -4.5 35t-16.5 36t-32.5 28.5t-52.5 11.5q-39 0 -60.5 -16.5t-33 -40.5t-15 -50t-4.5 -44h-70q0 39 7.5 79.5t28.5 74t57 55t93 21.5q42 0 75 -14t56 -38.5t35 -58.5t12 -74q0 -34 -7 -59
t-18 -42.5t-24 -28.5t-25 -15v-2q42 -17 69 -55t27 -109q0 -43 -12 -84t-37 -72.5t-64 -50.5t-94 -19q-32 0 -59 8.5t-48 22.5q-24 15 -39.5 37.5t-25.5 49t-14.5 56.5t-6.5 60h75q1 -25 5 -52t16.5 -50t36.5 -38t65 -15q55 0 90 37.5t35 98.5q0 44 -14 70t-34.5 39
t-44 16.5t-42.5 3.5q-8 0 -16 -0.5t-16 -0.5v76z" />
    <glyph glyph-name="four" unicode="4" 
d="M344 171v-171h-72v171h-252v86l265 446h59v-456h85v-76h-85zM87 247h185v319h-1z" />
    <glyph glyph-name="five" unicode="5" 
d="M121 409q18 17 45 30.5t66 13.5q35 0 69 -15t60.5 -43.5t43 -70.5t16.5 -96q0 -29 -7 -71.5t-29.5 -81.5t-63.5 -66.5t-109 -27.5q-28 0 -58.5 8t-57 30t-46 59.5t-24.5 96.5h75q5 -62 39 -90t83 -28q28 0 50.5 13t38 34.5t24 51t8.5 62.5q0 76 -37 116t-91 40
q-31 0 -58.5 -17.5t-47.5 -49.5l-62 4l43 377h299v-86h-245z" />
    <glyph glyph-name="six" unicode="6" 
d="M342 516q-7 47 -29.5 77.5t-69.5 30.5q-42 0 -69 -30t-42 -72t-20.5 -86t-5.5 -72l1 -2q7 14 18 29.5t28 28t39.5 20.5t51.5 8q27 0 58.5 -11t58.5 -37.5t45.5 -69t18.5 -105.5q0 -54 -13 -95.5t-42 -80.5q-12 -15 -24.5 -27.5t-29.5 -21.5t-39.5 -14t-52.5 -5
q-17 0 -36.5 5t-39.5 17t-39 31.5t-34 48.5q-26 50 -35 112.5t-9 131.5q0 39 4 81.5t13 84.5t25 80t39.5 67t56 46t75.5 17q25 0 53.5 -9t53 -31t41.5 -57.5t20 -89.5h-70zM116 216q0 -28 7 -56t22 -50t37.5 -36t54.5 -14q52 0 82.5 44.5t30.5 116.5q0 23 -5.5 49t-19 48
t-36 36.5t-55.5 14.5q-30 0 -52 -12t-37 -33t-22 -49t-7 -59z" />
    <glyph glyph-name="seven" unicode="7" 
d="M30 688h399v-77q-22 -27 -55.5 -82t-69 -133t-66 -178t-46.5 -218h-80q7 72 29.5 153t54.5 161.5t71 154.5t81 133h-318v86z" />
    <glyph glyph-name="eight" unicode="8" 
d="M403 522q0 -38 -8 -63.5t-19 -42.5t-24 -26.5t-22 -15.5q29 -15 47.5 -36t29 -44.5t14 -47t3.5 -43.5q0 -42 -11.5 -82t-35 -71t-60.5 -50t-88 -19q-12 0 -29 2t-35.5 8t-38 16.5t-36.5 27.5q-22 21 -34 45t-17.5 47t-6.5 42.5t-1 32.5q0 65 26 106.5t72 64.5
q-37 17 -57.5 52t-20.5 85q0 27 8 61t28 63t53.5 49t85.5 20q48 0 81.5 -17t54.5 -43t31 -58t10 -63zM227 330q-30 0 -52.5 -11t-37.5 -29.5t-22 -42t-7 -47.5q0 -21 5 -45.5t19 -45.5t37.5 -35t61.5 -14q20 0 40.5 5.5t37.5 20t27.5 40.5t10.5 67q0 36 -9.5 61.5t-26 42.5
t-38 25t-46.5 8zM226 406q48 0 75.5 32.5t27.5 80.5q0 16 -5 34.5t-17 34t-33 26t-53 10.5q-29 0 -47.5 -11t-29.5 -27.5t-15 -35.5t-4 -36q0 -25 8.5 -45t22.5 -34t32 -21.5t38 -7.5z" />
    <glyph glyph-name="nine" unicode="9" 
d="M216 235q-40 0 -73.5 16t-57.5 45t-37.5 71t-13.5 95q0 48 12 91.5t35.5 77t58 53t80.5 19.5t78.5 -16t55 -43t35.5 -61.5t20.5 -70.5t9.5 -71.5t2 -63.5q0 -19 -1.5 -55.5t-8.5 -80.5t-20 -90t-36.5 -84t-58 -62t-84.5 -24q-51 0 -84 20t-52.5 48.5t-27 61t-7.5 58.5h72
q3 -54 28 -84.5t70 -30.5q59 0 91.5 63t46.5 200l-1 2q-17 -41 -54.5 -62.5t-77.5 -21.5zM226 314q14 0 33 5.5t36.5 22.5t29.5 48.5t12 83.5q0 30 -6.5 57t-20.5 48t-36 33t-53 12q-51 0 -81.5 -43.5t-30.5 -114.5q0 -51 11.5 -81t29 -45.5t38 -20.5t38.5 -5z" />
    <glyph glyph-name="colon" unicode=":" horiz-adv-x="228" 
d="M157 0h-86v106h86v-106zM157 410h-86v106h86v-106z" />
    <glyph glyph-name="semicolon" unicode=";" horiz-adv-x="228" 
d="M71 106h86v-98q0 -51 -11 -81t-25.5 -46t-29 -21.5t-20.5 -6.5v46q13 1 21.5 10.5t13.5 24t7 31.5t2 35h-44v106zM71 410v106h86v-106h-86z" />
    <glyph glyph-name="less" unicode="&#x3c;" horiz-adv-x="479" 
d="M440 11l-401 207v70l401 207v-80l-320 -162l320 -162v-80z" />
    <glyph glyph-name="equal" unicode="=" horiz-adv-x="479" 
d="M447 317h-415v73h415v-73zM447 115h-415v73h415v-73z" />
    <glyph glyph-name="greater" unicode="&#x3e;" horiz-adv-x="479" 
d="M39 495l401 -207v-70l-401 -207v80l320 162l-320 162v80z" />
    <glyph glyph-name="question" unicode="?" 
d="M46 493q1 25 2.5 50t8 48.5t19 46t35.5 43.5q24 23 55 34.5t64 11.5q34 0 65.5 -12.5t55.5 -37.5t38 -61.5t14 -84.5q0 -25 -4 -44.5t-13.5 -38.5t-24 -38.5t-35.5 -43.5l-32.5 -39t-22 -35.5t-12.5 -41.5t-4 -57v-10h-72q0 43 4 71.5t13 51.5t24 44t37 48l33 42t20 31.5
t9.5 29.5t2.5 36q0 16 -4 35.5t-15.5 37t-30.5 29.5t-49 12q-39 0 -61 -18.5t-32.5 -44t-13 -52.5t-2.5 -43h-72zM261 0h-80v102h80v-102z" />
    <glyph glyph-name="at" unicode="@" horiz-adv-x="832" 
d="M501 408q0 18 -5.5 35t-14.5 29.5t-21.5 20t-25.5 7.5q-27 0 -50 -19t-39.5 -47.5t-25.5 -63t-9 -65.5q0 -43 19 -70t50 -27q26 0 48.5 20t39 50t25.5 65t9 65zM543 556h56l-25 -106.5l-24 -99t-18 -78t-7 -42.5q0 -29 17 -29q21 0 41.5 18.5t37 49t27 69.5t10.5 79
q0 60 -18.5 108t-49.5 81t-72.5 51t-87.5 18q-55 0 -101 -25t-79 -68.5t-51.5 -102t-18.5 -124.5t19.5 -123t54 -99t81 -66t100.5 -24q58 0 111.5 30.5t88.5 83.5h55q-41 -82 -109 -129t-147 -47q-66 0 -123 29.5t-99.5 80.5t-66.5 120.5t-24 149.5q0 78 24.5 146.5
t66.5 119.5t98.5 80.5t119.5 29.5q57 0 108 -23t89.5 -64.5t61.5 -99t23 -125.5t-20.5 -121.5t-50.5 -91t-64 -57t-61 -19.5q-21 0 -36 15.5t-17 47.5l-1 -1q-18 -23 -44 -42.5t-55 -19.5q-26 0 -48 13t-38 34.5t-25 50.5t-9 62q0 51 13.5 100.5t38 88.5t59.5 63t78 24
q30 0 54 -18t40 -60z" />
    <glyph glyph-name="A" unicode="A" horiz-adv-x="547" 
d="M155 209l-62 -209h-82l222 718h90l213 -718h-87l-58 209h-236zM362 295l-86 316h-2l-94 -316h182z" />
    <glyph glyph-name="B" unicode="B" horiz-adv-x="547" 
d="M140 414h144q57 0 90 25t33 91q0 51 -28 78t-94 27h-145v-221zM61 718h259q41 0 72 -14.5t52 -39.5t31.5 -57.5t10.5 -69.5q0 -18 -3 -38.5t-12 -40.5t-24 -38.5t-39 -32.5q14 -7 32.5 -18t35 -30.5t27.5 -50t11 -76.5q0 -43 -13 -81.5t-38.5 -67.5t-62.5 -46t-86 -17
h-253v718zM140 83h170q63 0 94 35.5t31 95.5q0 38 -12.5 61.5t-32 37t-44.5 18t-49 4.5h-157v-252z" />
    <glyph glyph-name="C" unicode="C" horiz-adv-x="592" 
d="M476 502q-9 47 -28 76.5t-42.5 45.5t-48.5 21.5t-46 5.5q-40 0 -75 -18t-61.5 -53.5t-41.5 -89t-15 -124.5q0 -63 10 -118t33 -95t60 -63t92 -23q19 0 44 7.5t49 28.5t44.5 59.5t30.5 101.5h77q-8 -68 -27 -115t-44 -78.5t-53 -49.5t-54 -27t-47 -11t-32 -2q-50 0 -98 21
t-85 66.5t-59.5 118t-22.5 176.5q0 83 19 151.5t54 118t86 77t116 27.5q57 0 100 -20t73 -52.5t47 -75t22 -87.5h-77z" />
    <glyph glyph-name="D" unicode="D" horiz-adv-x="592" 
d="M66 718h239q57 0 103 -25.5t78.5 -71.5t49.5 -110t17 -142q0 -60 -12 -125.5t-41 -119.5t-77.5 -89t-120.5 -35h-236v718zM146 83h154q78 0 124.5 71.5t46.5 208.5t-47.5 204.5t-129.5 67.5h-148v-552z" />
    <glyph glyph-name="E" unicode="E" horiz-adv-x="547" 
d="M505 0h-434v718h428v-86h-349v-220h322v-86h-322v-240h355v-86z" />
    <glyph glyph-name="F" unicode="F" horiz-adv-x="501" 
d="M150 0h-79v718h407v-86h-328v-220h289v-86h-289v-326z" />
    <glyph glyph-name="G" unicode="G" horiz-adv-x="638" 
d="M319 384h258v-384h-51l-19 93q-30 -51 -82 -81.5t-113 -30.5q-38 0 -66.5 7.5t-50 19.5t-37 26t-26.5 28q-34 39 -52.5 80.5t-27.5 81.5t-11 76t-2 65q0 66 16.5 132t51 119.5t87 87t124.5 33.5q41 0 83 -14.5t76.5 -43.5t59 -74t30.5 -105h-77q-9 47 -28.5 76.5
t-44.5 46t-52 22.5t-51 6q-40 0 -75 -19t-61.5 -56t-41.5 -91.5t-15 -124.5q0 -55 8.5 -108t31 -95t60 -67.5t96.5 -25.5q11 0 25 1.5t30 6t32.5 13.5t33.5 25q39 38 52 85.5t13 105.5h-184v83z" />
    <glyph glyph-name="H" unicode="H" horiz-adv-x="592" 
d="M450 718h80v-718h-80v335h-307v-335h-80v718h80v-297h307v297z" />
    <glyph glyph-name="I" unicode="I" horiz-adv-x="228" 
d="M154 0h-79v718h79v-718z" />
    <glyph glyph-name="J" unicode="J" horiz-adv-x="410" 
d="M89 231v-50q0 -65 23 -91t65 -26q28 0 46 9.5t28.5 26t15 39.5t4.5 49v530h80v-524q0 -63 -15.5 -104t-39.5 -65.5t-54.5 -34t-60.5 -9.5q-51 0 -83.5 18.5t-51 46t-25.5 58.5t-7 56v71h75z" />
    <glyph glyph-name="K" unicode="K" horiz-adv-x="547" 
d="M142 0h-80v718h80v-348l285 348h110l-245 -290l252 -428h-104l-205 360l-93 -108v-252z" />
    <glyph glyph-name="L" unicode="L" 
d="M142 86h298v-86h-378v718h80v-632z" />
    <glyph glyph-name="M" unicode="M" horiz-adv-x="683" 
d="M547 0v424q0 8 0.5 27.5t0.5 45t0.5 53.5t0.5 53h-2l-166 -603h-78l-166 602h-2q0 -25 0.5 -53t0.5 -53t0.5 -44.5t0.5 -27.5v-424h-77v718h114l168 -607h2l167 607h113v-718h-77z" />
    <glyph glyph-name="N" unicode="N" horiz-adv-x="592" 
d="M453 718h77v-718h-90l-299 580h-2v-580h-77v718h95l294 -580h2v580z" />
    <glyph glyph-name="O" unicode="O" horiz-adv-x="638" 
d="M524 359q0 63 -14 116.5t-40.5 92.5t-64.5 61t-86 22t-86 -22t-64.5 -61t-40.5 -92.5t-14 -116.5t14 -116.5t40.5 -92.5t64.5 -61t86 -22t86 22t64.5 61t40.5 92.5t14 116.5zM606 359q0 -39 -6 -82t-19.5 -85t-35.5 -80t-54 -67.5t-74.5 -46.5t-97.5 -17t-97.5 17
t-74.5 46.5t-54 67.5t-35.5 80t-19.5 85t-6 82t6 82t19.5 85t35.5 80t54 67.5t74.5 46.5t97.5 17t97.5 -17t74.5 -46.5t54 -67.5t35.5 -80t19.5 -85t6 -82z" />
    <glyph glyph-name="P" unicode="P" horiz-adv-x="547" 
d="M150 386h158q27 0 49 6.5t38 21.5t24.5 40t8.5 61q0 34 -9 57t-24.5 37t-37 20t-45.5 6h-162v-249zM150 0h-79v718h264q41 0 73.5 -15.5t55 -42.5t34.5 -64t12 -80q0 -38 -9.5 -75.5t-30 -68.5t-54 -50t-81.5 -19h-185v-303z" />
    <glyph glyph-name="Q" unicode="Q" horiz-adv-x="638" 
d="M385 208l74 -71q32 38 48.5 95.5t16.5 126.5q0 63 -14 116.5t-40.5 92.5t-64.5 61t-86 22t-86 -22t-64.5 -61t-40.5 -92.5t-14 -116.5t14 -116.5t40.5 -92.5t64.5 -61t86 -22q49 0 87 23l-62 58zM561 -56l-90 85q-29 -23 -67 -35.5t-85 -12.5q-55 0 -97.5 17t-74.5 46.5
t-54 67.5t-35.5 80t-19.5 85t-6 82t6 82t19.5 85t35.5 80t54 67.5t74.5 46.5t97.5 17t97.5 -17t74.5 -46.5t54 -67.5t35.5 -80t19.5 -85t6 -82q0 -34 -4.5 -71.5t-14.5 -74.5t-26.5 -71.5t-39.5 -63.5l80 -76z" />
    <glyph glyph-name="R" unicode="R" horiz-adv-x="592" 
d="M152 0h-80v718h272q36 0 71 -9t62.5 -30.5t44 -59t16.5 -94.5q0 -40 -7.5 -68t-19.5 -47.5t-26.5 -33t-28.5 -23.5q13 -6 25 -14t21.5 -22.5t16 -38t7.5 -60.5l5 -130q1 -30 6 -44.5t24 -27.5v-16h-98q-4 16 -7 42.5t-4.5 53.5t-2 50.5t-0.5 33.5q0 22 -3 45t-13.5 41.5
t-31.5 30t-57 11.5h-192v-308zM152 391h184q22 0 43.5 4.5t38.5 18t27.5 37.5t10.5 64q0 42 -11 66t-27 36t-34.5 15t-33.5 3h-198v-244z" />
    <glyph glyph-name="S" unicode="S" horiz-adv-x="547" 
d="M417 508q-2 42 -15.5 70t-34 45t-46 24t-50.5 7q-19 0 -42 -4.5t-43.5 -18t-34.5 -38t-14 -65.5q0 -23 6 -38.5t16 -26t22.5 -16.5t25.5 -10l168 -47q28 -8 52.5 -23t42.5 -38.5t28 -55.5t10 -75q0 -64 -21.5 -106t-55.5 -66.5t-74.5 -34.5t-78.5 -10q-41 0 -70 6.5
t-50 17t-34.5 22.5t-23.5 23q-38 42 -49 86.5t-11 95.5h75q0 -49 15 -81t38 -51.5t52 -27.5t57 -8q22 0 48.5 4.5t50 17.5t39.5 36.5t16 62.5q0 28 -6 47.5t-20 33.5t-38.5 24.5t-60.5 21.5l-121 34q-14 4 -35.5 13.5t-41.5 28.5t-34 49.5t-14 77.5q0 42 11.5 82t36 71
t63 50t91.5 19q52 0 88.5 -11.5t62 -30.5t40.5 -43t23.5 -49.5t11.5 -50t4 -44.5h-75z" />
    <glyph glyph-name="T" unicode="T" horiz-adv-x="501" 
d="M11 718h479v-86h-200v-632h-79v632h-200v86z" />
    <glyph glyph-name="U" unicode="U" horiz-adv-x="592" 
d="M528 718v-466q0 -55 -14.5 -104.5t-43.5 -86.5t-73.5 -58.5t-105.5 -21.5q-59 0 -102 21.5t-70.5 57.5t-40.5 82.5t-13 96.5v479h79v-452q0 -59 13.5 -97t34.5 -61t48 -32t54 -9t55 9t50 31t36 60t14 97v454h79z" />
    <glyph glyph-name="V" unicode="V" horiz-adv-x="547" 
d="M441 718h90l-215 -718h-85l-215 718h89l168 -612h2z" />
    <glyph glyph-name="W" unicode="W" horiz-adv-x="774" 
d="M250 0h-84l-153 718h86l110 -584h2l132 584h87l132 -584h1l110 584h88l-155 -718h-84l-134 595h-2z" />
    <glyph glyph-name="X" unicode="X" horiz-adv-x="547" 
d="M531 0h-98l-158 295l-163 -295h-96l210 368l-197 350h100l149 -275l149 275h95l-197 -350z" />
    <glyph glyph-name="Y" unicode="Y" horiz-adv-x="547" 
d="M313 0h-79v289l-223 429h93l169 -345l169 345h93l-222 -429v-289z" />
    <glyph glyph-name="Z" unicode="Z" horiz-adv-x="501" 
d="M482 0h-463v81l361 551h-334v86h436v-84l-362 -548h362v-86z" />
    <glyph glyph-name="bracketleft" unicode="[" horiz-adv-x="228" 
d="M116 -125h89v-71h-153v918h153v-71h-89v-776z" />
    <glyph glyph-name="backslash" unicode="\" horiz-adv-x="228" 
d="M-14 737h54l202 -756h-55z" />
    <glyph glyph-name="bracketright" unicode="]" horiz-adv-x="228" 
d="M112 651h-89v71h153v-918h-153v71h89v776z" />
    <glyph glyph-name="asciicircum" unicode="^" horiz-adv-x="479" 
d="M380 264l-141 344l-140 -344h-64l175 424h59l174 -424h-63z" />
    <glyph glyph-name="underscore" unicode="_" 
d="M456 -75v-50h-456v50h456z" />
    <glyph glyph-name="grave" unicode="`" horiz-adv-x="273" 
d="M11 734h89l73 -141h-55z" />
    <glyph glyph-name="a" unicode="a" 
d="M51 364q1 47 14 80t36 54t55 30.5t72 9.5q13 0 39.5 -4t53 -19t46.5 -44t20 -79v-301q0 -31 24 -31q5 0 11 1t13 3v-64q-10 -3 -18.5 -6.5t-21.5 -3.5q-24 0 -38.5 7t-22.5 18t-11 25.5t-4 29.5q-11 -14 -24.5 -29t-32 -27.5t-43 -20.5t-55.5 -8q-60 0 -97 41.5
t-37 109.5q0 16 3.5 41.5t16.5 50.5t39 45t71 27l119 18q6 1 13 3.5t12.5 9t9 18t3.5 31.5q0 85 -101 85q-31 0 -49.5 -10t-29 -25.5t-14.5 -33t-6 -32.5h-66zM315 267q-5 -4 -11.5 -8t-19 -7.5t-34 -8t-54.5 -9.5q-13 -2 -29 -6.5t-30 -13.5t-23.5 -24.5t-9.5 -40.5
q0 -43 18.5 -67t59.5 -24q25 0 49 9.5t42.5 26t30 39t11.5 48.5v86z" />
    <glyph glyph-name="b" unicode="b" 
d="M48 0v718h72v-261h1q24 42 55 61t69 20q43 0 76 -20t56 -55.5t35 -83t12 -102.5q0 -47 -9 -98.5t-31 -94.5t-58 -71t-91 -28q-27 0 -47 8.5t-34 20.5t-22.5 26t-14.5 25h-1v-65h-68zM349 263q0 25 -2.5 59t-14 64.5t-35 51.5t-65.5 21q-39 0 -62 -22.5t-35 -56.5
t-15.5 -72.5t-3.5 -70.5q0 -52 12 -86t30 -54t38.5 -28t37.5 -8q29 0 50.5 15.5t36 42.5t21.5 64t7 80z" />
    <glyph glyph-name="c" unicode="c" horiz-adv-x="410" 
d="M321 347q-7 53 -31.5 82.5t-69.5 29.5q-34 0 -56.5 -17.5t-36 -46t-19.5 -63.5t-6 -70q0 -34 4.5 -69.5t17 -65t35.5 -48t60 -18.5q36 0 64.5 32t37.5 92h70q-3 -31 -13 -66t-30 -65t-52.5 -49.5t-79.5 -19.5q-45 0 -80.5 19.5t-60 54.5t-37.5 83t-13 105q0 61 12 114
t37.5 92.5t64 62t91.5 22.5q42 0 72 -17t49 -44.5t28.5 -61.5t11.5 -68h-70z" />
    <glyph glyph-name="d" unicode="d" 
d="M409 0h-68v72h-2q-12 -27 -26.5 -43.5t-30.5 -26.5t-32.5 -13.5t-32.5 -3.5q-55 0 -91 28t-57.5 71t-30.5 94.5t-9 98.5q0 55 12 102.5t34.5 83t55.5 55.5t76 20q29 0 50.5 -9.5t36.5 -23.5t25 -29.5t16 -26.5h2v269h72v-718zM103 263q0 -43 7 -80t21.5 -64t36 -42.5
t51.5 -15.5q17 0 37.5 8t38 28t29.5 54t12 86q0 32 -3.5 70.5t-15 72.5t-34.5 56.5t-62 22.5q-42 0 -65.5 -21t-35.5 -51.5t-14.5 -64.5t-2.5 -59z" />
    <glyph glyph-name="e" unicode="e" 
d="M417 164q-1 -9 -5.5 -26.5t-13.5 -38t-23 -41.5t-34 -37l-17 -12.5t-22.5 -11.5t-32 -8.5t-44.5 -3.5q-45 0 -81 19.5t-60.5 54.5t-37.5 83t-13 105q0 61 12 114t37.5 92.5t64.5 62t92 22.5q46 0 80.5 -21.5t57.5 -61.5t34.5 -96.5t11.5 -125.5h-313q0 -82 31 -127
t94 -45q25 0 45.5 10.5t34.5 26.5t21.5 33.5t8.5 32.5h72zM348 303q-2 30 -8 58.5t-20 50t-36 34.5t-55 13q-25 0 -47 -13t-38 -34.5t-25 -50t-9 -58.5h238z" />
    <glyph glyph-name="f" unicode="f" horiz-adv-x="228" 
d="M143 450v-450h-72v450h-60v73h60v90q0 60 29 87.5t82 27.5q8 0 16 -0.5t17 -1.5v-79q-7 1 -15 1.5t-15 0.5q-23 0 -32.5 -14.5t-9.5 -46.5v-65h72v-73h-72z" />
    <glyph glyph-name="g" unicode="g" 
d="M107 263q0 -43 7 -80t21.5 -64t36 -42.5t51.5 -15.5q17 0 37.5 8t38 28t29.5 54t12 86q0 32 -3.5 70.5t-15 72.5t-34.5 56.5t-62 22.5q-42 0 -65.5 -21t-35.5 -51.5t-14.5 -64.5t-2.5 -59zM409 43q0 -19 -1 -45.5t-6.5 -56t-17.5 -58.5t-34.5 -51.5t-56.5 -37t-83 -14.5
q-19 0 -45 5t-51 21t-44 47t-24 83h72q5 -31 18.5 -48t28.5 -24.5t29.5 -9t20.5 -1.5q45 0 69.5 18.5t36.5 46t14 58t2 54.5v29q-15 -32 -43.5 -53t-72.5 -21q-55 0 -91 28t-57.5 71t-30.5 94.5t-9 98.5q0 55 12 102.5t35 83t56 55.5t76 20q29 0 50 -10t36.5 -24t25.5 -30
l17 -28v77h68v-480z" />
    <glyph glyph-name="h" unicode="h" 
d="M403 0h-73v342q0 27 -3.5 48.5t-13 36.5t-26 23.5t-42.5 8.5q-22 0 -43.5 -8.5t-38.5 -29t-27.5 -54t-10.5 -82.5v-285h-72v718h72v-265h2q8 12 19 27t26 28t35 21.5t46 8.5q25 0 51.5 -7.5t48.5 -27.5t36 -55.5t14 -91.5v-356z" />
    <glyph glyph-name="i" unicode="i" horiz-adv-x="182" 
d="M127 0h-72v523h72v-523zM55 618v100h72v-100h-72z" />
    <glyph glyph-name="j" unicode="j" horiz-adv-x="182" 
d="M127 -77q0 -17 -2 -40t-12.5 -43.5t-33 -35t-62.5 -14.5q-14 0 -30 3v76h15q16 0 26 1.5t16 8t8.5 19.5t2.5 35v590h72v-600zM127 618h-72v100h72v-100z" />
    <glyph glyph-name="k" unicode="k" horiz-adv-x="410" 
d="M411 0h-93l-134 264l-59 -66v-198h-70v718h70v-416l184 221h92l-164 -195z" />
    <glyph glyph-name="l" unicode="l" horiz-adv-x="182" 
d="M127 0h-72v718h72v-718z" />
    <glyph glyph-name="m" unicode="m" horiz-adv-x="683" 
d="M53 523h68v-74h2l16 25.5t25.5 29.5t37.5 24t51 10t48.5 -9.5t32.5 -22.5t20.5 -28l12.5 -25q13 18 26 34t28 27t33.5 17.5t43.5 6.5q17 0 40 -7t43.5 -26t35 -53.5t14.5 -89.5v-362h-73v338q0 54 -16.5 87.5t-62.5 33.5q-23 0 -41.5 -12t-32 -31.5t-20.5 -45t-7 -51.5
v-319h-72v362q0 16 -3 33.5t-10.5 31.5t-20.5 23t-33 9q-15 0 -35 -7t-37.5 -26.5t-29.5 -53.5t-12 -87v-285h-72v523z" />
    <glyph glyph-name="n" unicode="n" 
d="M403 0h-73v322q0 69 -19 103t-72 34q-15 0 -35 -7t-37.5 -26.5t-29.5 -53.5t-12 -87v-285h-72v523h68v-74h2q6 10 16.5 25.5t26.5 29.5t37.5 24t49.5 10q25 0 51.5 -7.5t48.5 -27.5t36 -55.5t14 -91.5v-356z" />
    <glyph glyph-name="o" unicode="o" 
d="M29 262q0 51 12 100.5t36.5 88.5t62 63t88.5 24t88.5 -24t62 -63t36.5 -88.5t12 -100.5t-12 -100.5t-36.5 -88.5t-62 -63t-88.5 -24t-88.5 24t-62 63t-36.5 88.5t-12 100.5zM103 262q0 -26 5 -60.5t19 -65.5t38 -52.5t63 -21.5t63 21.5t38 52.5t19 65.5t5 60.5t-5 60.5
t-19 65.5t-38 52.5t-63 21.5t-63 -21.5t-38 -52.5t-19 -65.5t-5 -60.5z" />
    <glyph glyph-name="p" unicode="p" 
d="M116 237q0 -52 12 -86t30 -54t38.5 -28t37.5 -8q29 0 50.5 15.5t36 42.5t21.5 64t7 80q0 25 -2.5 59t-14 64.5t-35 51.5t-65.5 21q-39 0 -62 -22.5t-35 -56.5t-15.5 -72.5t-3.5 -70.5zM48 523h68v-74h1q6 11 16 26.5t25 29.5t36.5 23.5t50.5 9.5q43 0 76 -20t56 -55.5
t35 -83t12 -102.5q0 -47 -9 -98.5t-31 -94.5t-58 -71t-91 -28q-43 0 -71.5 21t-42.5 49h-1v-262h-72v730z" />
    <glyph glyph-name="q" unicode="q" 
d="M405 -207h-72v262h-2q-14 -28 -42 -49t-72 -21q-55 0 -91 28t-57.5 71t-30.5 94.5t-9 98.5q0 55 12 102.5t34.5 83t55.5 55.5t76 20q29 0 50.5 -9.5t36.5 -23.5t25 -29.5t16 -26.5h2v74h68v-730zM336 237q0 32 -3.5 70.5t-15 72.5t-34.5 56.5t-62 22.5q-42 0 -65.5 -21
t-35.5 -51.5t-14.5 -64.5t-2.5 -59q0 -43 7 -80t21.5 -64t36 -42.5t51.5 -15.5q17 0 37.5 8t38 28t29.5 54t12 86z" />
    <glyph glyph-name="r" unicode="r" horiz-adv-x="273" 
d="M135 0h-72v523h68v-87h2q22 46 50.5 74t69.5 28q7 0 10.5 -0.5t8.5 -2.5v-91h-27q-25 0 -45.5 -11t-34.5 -30.5t-22 -45t-8 -53.5v-304z" />
    <glyph glyph-name="s" unicode="s" horiz-adv-x="410" 
d="M297 374q0 12 -3.5 27.5t-14 29t-30.5 22.5t-54 9q-8 0 -22.5 -2.5t-28.5 -10t-24 -22.5t-10 -39q0 -16 4.5 -26.5t13.5 -18t24 -13.5t36 -12l72 -22q67 -20 93.5 -52.5t26.5 -85.5q0 -41 -13 -73t-35.5 -54t-53.5 -34t-67 -12q-64 0 -100.5 19.5t-55 48t-23.5 60
t-6 55.5h70q1 -15 4.5 -34t15 -35t34 -27t60.5 -11q39 0 68.5 19.5t29.5 63.5q0 31 -19.5 46t-65.5 29l-84 25q-45 14 -72 43.5t-27 83.5q0 43 13.5 74.5t36 52t52 30.5t61.5 10q57 0 90 -22t49.5 -50.5t20.5 -55t4 -36.5h-70z" />
    <glyph glyph-name="t" unicode="t" horiz-adv-x="228" 
d="M142 450v-340q0 -15 4.5 -23.5t11.5 -12.5t14.5 -4.5t12.5 -0.5h26v-69q-20 -2 -34.5 -4.5t-19.5 -2.5q-27 0 -44 8.5t-26.5 23.5t-13 35.5t-3.5 44.5v345h-59v73h59v146h72v-146h69v-73h-69z" />
    <glyph glyph-name="u" unicode="u" 
d="M333 0v76l-2 2q-23 -46 -53.5 -69.5t-82.5 -23.5q-24 0 -48.5 7.5t-44.5 26.5t-33 50t-13 78v376h72v-347q0 -32 6.5 -54t17.5 -35.5t26 -19.5t33 -6q34 0 57 16.5t36.5 42t19 56t5.5 59.5v288h72v-523h-68z" />
    <glyph glyph-name="v" unicode="v" horiz-adv-x="410" 
d="M325 523h78l-163 -523h-77l-156 523h83l112 -426h1z" />
    <glyph glyph-name="w" unicode="w" horiz-adv-x="592" 
d="M210 0h-75l-124 523h79l82 -411h2l83 411h80l84 -411h1l87 411h72l-124 -523h-75l-87 405h-1z" />
    <glyph glyph-name="x" unicode="x" horiz-adv-x="410" 
d="M402 0h-92l-107 197l-103 -197h-91l151 269l-144 254h93l99 -184l99 184h89l-145 -254z" />
    <glyph glyph-name="y" unicode="y" horiz-adv-x="410" 
d="M321 523h80l-75 -256.5t-79 -256.5l-29.5 -90t-23.5 -62t-22 -39.5t-24 -21.5t-29.5 -9t-39.5 -2q-8 0 -15 2.5l-16 5.5v80q7 -3 18 -6t26 -3q14 0 23 3.5t16.5 16.5t15.5 36.5l21 64.5l-159 537h82l114 -426h2z" />
    <glyph glyph-name="z" unicode="z" horiz-adv-x="410" 
d="M121 73h264v-73h-360v69l259 381h-239v73h332v-72z" />
    <glyph glyph-name="braceleft" unicode="{" horiz-adv-x="274" 
d="M34 294q29 0 48 36t19 91v172q0 62 26 95.5t57 33.5h55v-65h-36q-21 0 -29 -24t-8 -58v-170q-2 -37 -11 -62.5t-21 -42t-23.5 -25t-17.5 -10.5v-2q6 -2 17.5 -10t23.5 -24.5t21 -43t11 -65.5v-169q0 -33 8 -57.5t29 -24.5h36v-65h-55q-31 0 -57 33.5t-26 95.5v171
q0 57 -19 93.5t-48 36.5v60z" />
    <glyph glyph-name="bar" unicode="|" horiz-adv-x="213" 
d="M137 775v-1000h-60v1000h60z" />
    <glyph glyph-name="braceright" unicode="}" horiz-adv-x="274" 
d="M239 234q-28 0 -47 -36.5t-19 -93.5v-171q0 -31 -7 -55t-19 -40.5t-27 -25t-31 -8.5h-55v65h37q21 0 29 24.5t8 57.5v169q2 39 11 65.5t20.5 43t23 24.5t17.5 10v2q-6 2 -17.5 10.5t-23 25t-20.5 42t-11 62.5v170q0 34 -8 58t-29 24h-37v65h55q16 0 31 -8.5t27 -25
t19 -40.5t7 -55v-172q0 -55 19 -91t47 -36v-60z" />
    <glyph glyph-name="asciitilde" unicode="~" horiz-adv-x="479" 
d="M429 270q-19 -36 -44 -61t-59 -25q-23 0 -43 9.5t-40 23.5t-43 24.5t-52 10.5q-14 0 -24 -6.5t-18.5 -16.5t-14.5 -23t-11 -26l-30 56q7 16 16 31.5t21.5 27.5t28.5 19.5t37 7.5q20 0 43.5 -9.5t47.5 -22.5q31 -17 51.5 -26.5t31.5 -9.5q25 0 41.5 23t30.5 49z" />
    <glyph glyph-name="Euro" unicode="&#x20ac;" 
d="M417 534q-15 37 -47 63.5t-85 26.5q-32 0 -54.5 -16t-37.5 -41.5t-23.5 -57.5t-10.5 -65h234l-20 -72h-216v-71h196l-20 -72h-171q4 -77 38 -123t81 -46q23 0 45 7.5t40.5 18.5t32 23t18.5 22v-99q-2 -3 -13 -11t-28 -17t-40 -16t-49 -7q-88 0 -138.5 63t-64.5 185h-64
l20 72h40v71h-60l21 72h42q10 123 61.5 191t145.5 68q54 0 94 -22t60 -53z" />
    <glyph glyph-name="quotesinglbase" unicode="&#x201a;" horiz-adv-x="182" 
d="M43 106h86v-98q0 -58 -18 -100.5t-68 -56.5v47q16 3 25 14.5t13 26.5t5 31.5t1 29.5h-44v106z" />
    <glyph glyph-name="florin" unicode="&#x192;" 
d="M399 644q-14 7 -25 12t-22 5q-17 0 -28.5 -10t-19 -24.5t-12 -31.5t-7.5 -31l-16 -103h93v-70h-104l-49 -327q-11 -76 -27.5 -128t-37.5 -83.5t-46.5 -45.5t-55.5 -14q-22 0 -32 3.5t-19 8.5l12 81q9 -5 19 -9.5t23 -4.5q20 0 33.5 12t23 34.5t16 54.5t12.5 73l53 345
h-90v70h101l23 124q5 27 16 54t27.5 48.5t38 35.5t48.5 14q25 0 38 -4.5t26 -10.5z" />
    <glyph glyph-name="quotedblbase" unicode="&#x201e;" horiz-adv-x="273" 
d="M21 106h86v-98q0 -58 -18 -100.5t-68 -56.5v47q16 3 25 14.5t13 26.5t5 31.5t1 29.5h-44v106zM157 106h85v-98q0 -58 -18 -100.5t-67 -56.5v47q16 3 24.5 14.5t12.5 26.5t5 31.5t1 29.5h-43v106z" />
    <glyph glyph-name="ellipsis" unicode="&#x2026;" horiz-adv-x="820" 
d="M180 0h-86v106h86v-106zM453 0h-86v106h86v-106zM726 0h-86v106h86v-106z" />
    <glyph glyph-name="dagger" unicode="&#x2020;" 
d="M267 -159h-77v590h-155v76h155v211h77v-211h154v-76h-154v-590z" />
    <glyph glyph-name="daggerdbl" unicode="&#x2021;" 
d="M267 119h154v-76h-154v-202h-77v202h-155v76h155v320h-155v76h155v203h77v-203h154v-76h-154v-320z" />
    <glyph glyph-name="circumflex" unicode="&#x2c6;" horiz-adv-x="273" 
d="M82 593h-65l81 141h77l81 -141h-66l-54 93z" />
    <glyph glyph-name="perthousand" unicode="&#x2030;" horiz-adv-x="820" 
d="M6 539q0 33 10 61.5t27.5 49.5t40.5 33t50 12q26 0 49.5 -12.5t41 -33.5t27.5 -49.5t10 -60.5t-10 -60.5t-27.5 -49.5t-40.5 -33.5t-50 -12.5t-50 12t-40.5 33t-27.5 49.5t-10 61.5zM57 539q0 -38 22 -65.5t55 -27.5q15 0 29 7.5t24.5 20t16.5 29.5t6 36q0 39 -22.5 66
t-53.5 27q-17 0 -31 -7.5t-24 -20.5t-16 -29.5t-6 -35.5zM262 149q0 33 10 61.5t27.5 49.5t40.5 33t50 12q26 0 49 -12.5t40.5 -33.5t27.5 -49.5t10 -60.5t-10 -60.5t-27 -49.5t-40 -33.5t-50 -12.5t-50 12t-40.5 33t-27.5 49.5t-10 61.5zM313 149q0 -38 22 -65.5t55 -27.5
q15 0 29 7.5t24.5 20t16.5 29.5t6 36q0 39 -22.5 66t-53.5 27q-17 0 -31 -7.5t-24 -20.5t-16 -29.5t-6 -35.5zM559 149q0 33 10 61.5t27.5 49.5t41 33t49.5 12q27 0 50 -12.5t40.5 -33.5t27.5 -49.5t10 -60.5t-10 -60.5t-27 -49.5t-40.5 -33.5t-50.5 -12.5q-26 0 -49.5 12
t-41 33t-27.5 49.5t-10 61.5zM611 149q0 -38 22 -65.5t54 -27.5q16 0 29.5 7.5t24 20t16.5 29.5t6 36q0 39 -22 66t-54 27q-16 0 -30 -7.5t-24 -20.5t-16 -29.5t-6 -35.5zM121 -19h-46l326 722h45z" />
    <glyph glyph-name="Scaron" unicode="&#x160;" horiz-adv-x="547" 
d="M417 508q-2 42 -15.5 70t-34 45t-46 24t-50.5 7q-19 0 -42 -4.5t-43.5 -18t-34.5 -38t-14 -65.5q0 -23 6 -38.5t16 -26t22.5 -16.5t25.5 -10l168 -47q28 -8 52.5 -23t42.5 -38.5t28 -55.5t10 -75q0 -64 -21.5 -106t-55.5 -66.5t-74.5 -34.5t-78.5 -10q-41 0 -70 6.5
t-50 17t-34.5 22.5t-23.5 23q-38 42 -49 86.5t-11 95.5h75q0 -49 15 -81t38 -51.5t52 -27.5t57 -8q22 0 48.5 4.5t50 17.5t39.5 36.5t16 62.5q0 28 -6 47.5t-20 33.5t-38.5 24.5t-60.5 21.5l-121 34q-14 4 -35.5 13.5t-41.5 28.5t-34 49.5t-14 77.5q0 42 11.5 82t36 71
t63 50t91.5 19q52 0 88.5 -11.5t62 -30.5t40.5 -43t23.5 -49.5t11.5 -50t4 -44.5h-75zM273 836l54 93h66l-81 -141h-77l-81 141h65z" />
    <glyph glyph-name="guilsinglleft" unicode="&#x2039;" horiz-adv-x="273" 
d="M201 108l-129 123v92l129 123v-88l-86 -81l86 -81v-88z" />
    <glyph glyph-name="OE" unicode="&#x152;" horiz-adv-x="820" 
d="M424 492q0 37 -10.5 67t-29.5 51t-45 32.5t-57 11.5q-39 0 -67 -16.5t-47 -43.5t-30 -61t-17 -69t-7.5 -68t-1.5 -57q0 -44 4.5 -81t15.5 -69q21 -63 56.5 -94t104.5 -31q20 0 43 9t42.5 28.5t32.5 51.5t13 77v262zM429 718h361v-86h-287v-220h274v-86h-274v-240h288v-86
h-363v75h-2q-10 -16 -22 -33t-29.5 -30.5t-42.5 -22t-62 -8.5q-58 0 -103 28t-75.5 78t-46 118.5t-15.5 149.5q0 35 4.5 77t15 84.5t28.5 82t46 70.5t66.5 49.5t90.5 18.5q37 0 62.5 -11t42.5 -26t26.5 -30.5t14.5 -24.5h2v73z" />
    <glyph glyph-name="Zcaron" unicode="&#x17d;" horiz-adv-x="501" 
d="M482 0h-463v81l361 551h-334v86h436v-84l-362 -548h362v-86zM250 836l54 93h66l-81 -141h-77l-81 141h65z" />
    <glyph glyph-name="quoteleft" unicode="&#x2018;" horiz-adv-x="182" 
d="M139 470h-86v98q0 58 18 100.5t68 56.5v-47q-16 -3 -25 -14.5t-13 -26.5t-5 -31.5t-1 -29.5h44v-106z" />
    <glyph glyph-name="quoteright" unicode="&#x2019;" horiz-adv-x="182" 
d="M43 718h86v-98q0 -58 -18 -100.5t-68 -56.5v47q16 3 25 14.5t13 26.5t5 31.5t1 29.5h-44v106z" />
    <glyph glyph-name="quotedblleft" unicode="&#x201c;" horiz-adv-x="273" 
d="M252 470h-86v98q0 58 18 100.5t68 56.5v-47q-16 -3 -25 -14.5t-13 -26.5t-5 -31.5t-1 -29.5h44v-106zM116 470h-85v98q0 29 4 54.5t13.5 46t26 35t41.5 21.5v-47q-16 -3 -24.5 -14.5t-12.5 -26.5t-5 -31.5t-1 -29.5h43v-106z" />
    <glyph glyph-name="quotedblright" unicode="&#x201d;" horiz-adv-x="273" 
d="M21 718h86v-98q0 -58 -18 -100.5t-68 -56.5v47q16 3 25 14.5t13 26.5t5 31.5t1 29.5h-44v106zM157 718h85v-98q0 -58 -18 -100.5t-67 -56.5v47q16 3 24.5 14.5t12.5 26.5t5 31.5t1 29.5h-43v106z" />
    <glyph glyph-name="bullet" unicode="&#x2022;" horiz-adv-x="287" 
d="M273 359q0 -33 -10 -61.5t-28 -49.5t-41.5 -33.5t-50.5 -12.5t-50 12t-40.5 33.5t-27.5 50t-10 61.5t10 61.5t27 50t40.5 34t50.5 12.5t50.5 -12.5t41.5 -34t28 -50t10 -61.5z" />
    <glyph glyph-name="endash" unicode="&#x2013;" 
d="M456 240h-456v73h456v-73z" />
    <glyph glyph-name="emdash" unicode="&#x2014;" horiz-adv-x="820" 
d="M820 240h-820v73h820v-73z" />
    <glyph glyph-name="tilde" unicode="&#x2dc;" horiz-adv-x="273" 
d="M276 722q-4 -45 -25.5 -77t-56.5 -32q-11 0 -21 3t-27 10l-21 9q-22 9 -32.5 12t-17.5 3q-17 0 -25.5 -12t-13.5 -32h-39q4 44 24 75.5t61 31.5q16 0 29.5 -4.5t26.5 -10.5l18 -9q11 -6 22 -9.5t16 -3.5q12 0 19.5 4.5t12 11.5t6.5 15t3 15h41z" />
    <glyph glyph-name="trademark" unicode="&#x2122;" horiz-adv-x="820" 
d="M553 415l96 303h91v-412h-59v335h-2l-106 -335h-41l-106 335h-1v-335h-60v412h92zM306 658h-104v-352h-60v352h-104v60h268v-60z" />
    <glyph glyph-name="scaron" unicode="&#x161;" horiz-adv-x="410" 
d="M297 374q0 12 -3.5 27.5t-14 29t-30.5 22.5t-54 9q-8 0 -22.5 -2.5t-28.5 -10t-24 -22.5t-10 -39q0 -16 4.5 -26.5t13.5 -18t24 -13.5t36 -12l72 -22q67 -20 93.5 -52.5t26.5 -85.5q0 -41 -13 -73t-35.5 -54t-53.5 -34t-67 -12q-64 0 -100.5 19.5t-55 48t-23.5 60
t-6 55.5h70q1 -15 4.5 -34t15 -35t34 -27t60.5 -11q39 0 68.5 19.5t29.5 63.5q0 31 -19.5 46t-65.5 29l-84 25q-45 14 -72 43.5t-27 83.5q0 43 13.5 74.5t36 52t52 30.5t61.5 10q57 0 90 -22t49.5 -50.5t20.5 -55t4 -36.5h-70zM205 641l54 93h66l-81 -141h-77l-81 141h65z
" />
    <glyph glyph-name="guilsinglright" unicode="&#x203a;" horiz-adv-x="273" 
d="M72 196l86 81l-86 81v88l129 -123v-92l-129 -123v88z" />
    <glyph glyph-name="oe" unicode="&#x153;" horiz-adv-x="774" 
d="M665 303q-2 30 -8.5 58.5t-20 50t-36 34.5t-55.5 13q-25 0 -46.5 -13t-37.5 -34.5t-25.5 -50t-9.5 -58.5h239zM734 164q-1 -9 -5.5 -26.5t-13.5 -38t-23 -41.5t-34 -37l-17.5 -12.5t-23 -11.5t-32 -8.5t-44.5 -3.5q-45 0 -87 23.5t-72 77.5q-14 -33 -34.5 -53
t-41.5 -30.5t-40.5 -13.5t-32.5 -3h-5q-51 0 -88.5 24t-62 63t-36.5 88.5t-12 100.5t12 100.5t36.5 88.5t62 63t88.5 24q51 -1 92.5 -26.5t68.5 -79.5q30 57 70 81.5t96 24.5q46 0 81 -21.5t58 -61.5t34.5 -96.5t11.5 -125.5h-314q0 -82 31 -127t94 -45q25 0 45.5 10.5
t34.5 26.5t22 33.5t9 32.5h72zM103 262q0 -26 5 -60.5t19 -65.5t38 -52.5t63 -21.5t63 21.5t38 52.5t19 65.5t5 60.5t-5 60.5t-19 65.5t-38 52.5t-63 21.5t-63 -21.5t-38 -52.5t-19 -65.5t-5 -60.5z" />
    <glyph glyph-name="zcaron" unicode="&#x17e;" horiz-adv-x="410" 
d="M121 73h264v-73h-360v69l259 381h-239v73h332v-72zM205 641l54 93h66l-81 -141h-77l-81 141h65z" />
    <glyph glyph-name="Ydieresis" unicode="&#x178;" horiz-adv-x="547" 
d="M313 0h-79v289l-223 429h93l169 -345l169 345h93l-222 -429v-289zM244 799h-74v102h74v-102zM377 799h-74v102h74v-102z" />
    <glyph glyph-name="uni00A0" unicode="&#xa0;" horiz-adv-x="228" 
 />
    <glyph glyph-name="exclamdown" unicode="&#xa1;" horiz-adv-x="273" 
d="M97 523h79v-102h-79v102zM157 352l19 -310v-237h-79v237l19 310h41z" />
    <glyph glyph-name="cent" unicode="&#xa2;" 
d="M262 459q-5 2 -10 2.5t-13 0.5q-26 0 -49 -12.5t-40 -39t-26.5 -67.5t-9.5 -98q0 -27 4.5 -52.5t12.5 -47.5t19 -39.5t24 -27.5zM350 345q-2 12 -5.5 27t-10 29.5t-16 26.5t-24.5 19l-90 -386q6 -2 12 -3t17 -1q19 0 37 5t33.5 18.5t27.5 38.5t20 64h70q-3 -27 -13.5 -62
t-32 -66t-55.5 -52.5t-85 -21.5q-10 0 -21.5 2l-27.5 5l-25 -103h-34l28 114q-48 28 -80.5 88.5t-32.5 157.5q0 142 52.5 217.5t149.5 75.5q23 0 35 -6l21 91h32l-20 -100q11 -4 27.5 -15t32.5 -32t29 -53t16 -78h-67z" />
    <glyph glyph-name="sterling" unicode="&#xa3;" 
d="M84 380l-23.5 62t-12.5 72q0 31 9.5 67t32.5 66.5t62.5 50.5t98.5 20q46 0 79.5 -18.5t55 -49t31.5 -68.5t10 -77v-15h-72v9q0 63 -30.5 103t-81.5 40q-34 0 -56.5 -13.5t-36 -33t-19.5 -40.5t-6 -36q0 -29 11 -61.5t31 -77.5h137v-63h-113q3 -14 5 -29.5t2 -36.5
q0 -43 -23 -93t-74 -92v-1q23 16 50 26.5t57 10.5q19 0 38 -5.5t37 -12l34 -12t29 -5.5q17 0 35 10t27 21l34 -66q-26 -24 -50.5 -36t-53.5 -12q-18 0 -39 7t-42.5 15.5t-44.5 15.5t-46 7t-47.5 -11.5t-47.5 -28.5l-41 69q32 26 52 53.5t30.5 53t14 46.5t3.5 34
q0 19 -5 39.5t-10 32.5h-88v63h57z" />
    <glyph glyph-name="currency" unicode="&#xa4;" 
d="M433 555l-45 -54q21 -29 31 -68.5t10 -81.5t-10 -80.5t-31 -70.5l44 -56l-37 -45l-45 58q-25 -28 -57 -41.5t-65 -13.5t-65 13.5t-57 41.5l-45 -58l-37 45l44 56q-21 32 -31 70.5t-10 80.5t10 81.5t31 68.5l-45 54l39 48l47 -56q23 25 54.5 38t64.5 13q32 0 64 -13
t55 -38l47 56zM87 351q0 -36 11 -68.5t30 -57t44.5 -39t55.5 -14.5t55.5 14.5t44.5 39t30 57t11 68.5q0 35 -11 67t-30 56.5t-45 39t-55 14.5t-55 -14.5t-45 -39t-30 -56.5t-11 -67z" />
    <glyph glyph-name="yen" unicode="&#xa5;" 
d="M34 384h127l-159 304h82l144 -295l143 295h82l-158 -304h127v-57h-158v-85h158v-57h-158v-185h-72v185h-158v57h158v85h-158v57z" />
    <glyph glyph-name="brokenbar" unicode="&#xa6;" horiz-adv-x="213" 
d="M77 200h60v-350h-60v350zM77 700h60v-350h-60v350z" />
    <glyph glyph-name="section" unicode="&#xa7;" 
d="M307 554q0 12 -2 30t-10 35.5t-24 29.5t-45 12q-12 0 -25 -4t-24.5 -14t-18.5 -25.5t-7 -37.5q0 -28 16 -49t44 -41l119 -86q19 -14 35.5 -29t28.5 -34t19 -42.5t7 -54.5q0 -32 -7.5 -56t-19.5 -43.5t-27 -34t-31 -26.5q20 -25 31.5 -50.5t11.5 -63.5q0 -39 -13.5 -69
t-34.5 -50.5t-47.5 -31t-52.5 -10.5q-35 0 -64.5 10.5t-51 33.5t-34 58.5t-12.5 85.5h72q0 -12 2 -31t10 -37t24 -31t44 -13q11 0 26 3t28.5 11.5t22.5 25t9 43.5q0 26 -12 44t-33 35l-172 140q-17 13 -27.5 30t-16.5 33.5t-8 32t-2 26.5q0 32 6 56t17 42.5t26 32.5t33 27
q-21 28 -29.5 49.5t-8.5 50.5q0 28 8 58t25.5 55t45.5 41t68 16q25 0 51.5 -8t48.5 -28t36.5 -56t14.5 -91h-70zM158 428q-24 -15 -39.5 -38.5t-15.5 -58.5q0 -20 4.5 -34.5t10.5 -25t12 -16.5t10 -9l155 -122q23 19 40 41t17 60q0 33 -15 56.5t-36 39.5z" />
    <glyph glyph-name="dieresis" unicode="&#xa8;" horiz-adv-x="273" 
d="M107 604h-74v102h74v-102zM240 604h-74v102h74v-102z" />
    <glyph glyph-name="copyright" unicode="&#xa9;" horiz-adv-x="604" 
d="M303 -19q-64 0 -121 28.5t-100 79t-68 120t-25 151.5q0 81 25 150.5t68 119.5t100 78.5t121 28.5q63 0 120 -28.5t100 -78.5t68.5 -119.5t25.5 -150.5q0 -82 -25.5 -151.5t-68.5 -120t-100 -79t-120 -28.5zM51 360q0 -68 19.5 -126t53.5 -100t80 -66t99 -24t99 24
t79.5 66t53 100t19.5 126q0 67 -19.5 124.5t-53 99.5t-79.5 66t-99 24t-99 -24t-80 -66t-53.5 -99.5t-19.5 -124.5zM467 289q-12 -75 -54 -118t-99 -43q-42 0 -75.5 18t-57.5 49.5t-37 74t-13 91.5q0 50 12.5 92.5t35.5 73t56.5 48t75.5 17.5q60 0 103 -40t52 -117h-55
q-8 42 -34.5 66.5t-64.5 24.5q-29 0 -51 -12.5t-37 -34.5t-22.5 -52t-7.5 -65q0 -34 8 -64.5t23.5 -53.5t38 -36.5t50.5 -13.5q39 0 65 26.5t32 68.5h56z" />
    <glyph glyph-name="ordfeminine" unicode="&#xaa;" horiz-adv-x="303" 
d="M284 410q-6 -2 -12.5 -3.5t-14.5 -1.5q-31 0 -39 15t-10 36q-14 -17 -37 -34t-64 -17q-38 0 -62.5 25t-24.5 66q0 11 2.5 27t11.5 31t27.5 27t50.5 17l72 10q8 2 13.5 8.5t5.5 29.5q0 16 -14.5 27.5t-47.5 11.5q-21 0 -33.5 -6t-18.5 -14.5t-8 -17.5t-3 -15h-44
q2 57 32.5 81t82.5 24q8 0 25.5 -2.5t35 -11.5t30.5 -26.5t13 -47.5v-178q0 -19 15 -19q3 0 7 0.5t9 1.5v-44zM119 457q16 0 31 5.5t27 15t19 22.5t7 28v42q-2 -2 -5.5 -4.5t-12 -4.5l-22 -5t-35.5 -6q-9 -1 -19 -3.5t-18.5 -7t-14 -12.5t-5.5 -20q0 -23 11 -36.5t37 -13.5z
" />
    <glyph glyph-name="guillemotleft" unicode="&#xab;" 
d="M208 108l-128 123v92l128 123v-88l-86 -81l86 -81v-88zM376 108l-128 123v92l128 123v-88l-86 -81l86 -81v-88z" />
    <glyph glyph-name="logicalnot" unicode="&#xac;" horiz-adv-x="479" 
d="M387 317h-355v73h415v-282h-60v209z" />
    <glyph glyph-name="uni00AD" unicode="&#xad;" horiz-adv-x="273" 
d="M237 232h-201v90h201v-90z" />
    <glyph glyph-name="registered" unicode="&#xae;" horiz-adv-x="604" 
d="M303 -19q-64 0 -121 28.5t-100 79t-68 120t-25 151.5q0 81 25 150.5t68 119.5t100 78.5t121 28.5q63 0 120 -28.5t100 -78.5t68.5 -119.5t25.5 -150.5q0 -82 -25.5 -151.5t-68.5 -120t-100 -79t-120 -28.5zM51 360q0 -68 19.5 -126t53.5 -100t80 -66t99 -24t99 24
t79.5 66t53 100t19.5 126q0 67 -19.5 124.5t-53 99.5t-79.5 66t-99 24t-99 -24t-80 -66t-53.5 -99.5t-19.5 -124.5zM238 141h-54v436h136q63 0 94.5 -29.5t31.5 -94.5q0 -59 -26.5 -86.5t-66.5 -33.5l102 -192h-61l-94 189h-62v-189zM303 386q17 0 32.5 1.5t27.5 8.5
t19.5 21.5t7.5 39.5q0 20 -7 32.5t-18 19.5t-25 9.5t-28 2.5h-74v-135h65z" />
    <glyph glyph-name="macron" unicode="&#xaf;" horiz-adv-x="273" 
d="M265 627h-257v57h257v-57z" />
    <glyph glyph-name="degree" unicode="&#xb0;" horiz-adv-x="328" 
d="M164 660q-16 0 -30.5 -8.5t-25.5 -23t-17.5 -33t-6.5 -38.5t6.5 -38.5t17.5 -33t25.5 -23t30.5 -8.5t30.5 8.5t25.5 23t17.5 33t6.5 38.5t-6.5 38.5t-17.5 33t-25.5 23t-30.5 8.5zM284 557q0 -31 -9 -58t-25.5 -46.5t-38.5 -30.5t-47 -11q-26 0 -47.5 11t-38 30.5
t-25.5 46.5t-9 58t9 58t25.5 46.5t38 30.5t47.5 11q25 0 47 -11t38.5 -30.5t25.5 -46.5t9 -58z" />
    <glyph glyph-name="plusminus" unicode="&#xb1;" horiz-adv-x="479" 
d="M210 506h60v-161h177v-73h-177v-161h-60v161h-178v73h178v161zM32 73h415v-73h-415v73z" />
    <glyph glyph-name="twosuperior" unicode="&#xb2;" horiz-adv-x="273" 
d="M16 552q0 51 14.5 81t35 45.5t42.5 20t37 4.5q25 0 47 -8.5t38 -25t25.5 -40t9.5 -52.5t-7.5 -50t-21 -37.5t-31.5 -29.5t-38 -25l-37 -23q-29 -19 -43 -36t-22 -34h200v-61h-262q3 66 26.5 104.5t59.5 62.5l49 33q16 10 28.5 19t21.5 19.5t14 24.5t5 35v6q0 21 -15 40.5
t-53 19.5q-26 0 -40.5 -11t-22 -26t-9.5 -31t-2 -25h-49z" />
    <glyph glyph-name="threesuperior" unicode="&#xb3;" horiz-adv-x="273" 
d="M60 410q1 -13 3.5 -27.5t9.5 -26.5t20.5 -20t36.5 -8q36 0 57.5 17t21.5 54q0 27 -8.5 41.5t-21.5 21t-27.5 8t-26.5 1.5h-19v51h22q27 0 47 13.5t20 53.5q0 8 -2.5 17.5t-9 18t-19.5 14.5t-34 6t-33.5 -7.5t-20 -19.5t-10 -26t-3.5 -27h-50q0 23 5.5 47.5t19.5 44.5
t38 33t61 13q54 0 85 -31.5t31 -79.5q0 -41 -16.5 -61.5t-32.5 -25.5v-2q28 -9 45 -32t17 -65q0 -26 -7.5 -50.5t-24 -43.5t-42.5 -30.5t-62 -11.5q-21 0 -38 5.5t-31 13.5q-32 18 -43.5 51.5t-13.5 69.5h56z" />
    <glyph glyph-name="acute" unicode="&#xb4;" horiz-adv-x="273" 
d="M155 593h-55l73 141h89z" />
    <glyph glyph-name="mu" unicode="&#xb5;" horiz-adv-x="474" 
d="M458 -3q-7 -1 -15 -2q-7 -1 -15 -1.5t-16 -0.5q-38 0 -56 18.5t-24 67.5q-13 -39 -38.5 -66t-75.5 -27q-32 0 -55.5 19.5t-34.5 42.5v-255h-72v730h72v-341q0 -32 8 -55t21.5 -37.5t30 -21t34.5 -6.5q59 0 83.5 46t24.5 126v289h72v-382q0 -32 5.5 -49.5t25.5 -17.5h9
t8 1l8 2v-80z" />
    <glyph glyph-name="paragraph" unicode="&#xb6;" horiz-adv-x="440" 
d="M190 344q-39 0 -71.5 14t-55.5 39t-35.5 58.5t-12.5 72.5q0 99 51.5 144.5t137.5 45.5h204v-891h-60v831h-98v-831h-60v517z" />
    <glyph glyph-name="periodcentered" unicode="&#xb7;" horiz-adv-x="228" 
d="M115 315q19 0 35 -18t16 -45q0 -24 -15 -43t-37 -19q-21 0 -36 18.5t-15 43.5q0 28 16 45.5t36 17.5z" />
    <glyph glyph-name="cedilla" unicode="&#xb8;" horiz-adv-x="273" 
d="M117 0h39l-38 -62q7 2 12 3t13 1q20 0 33.5 -7t21.5 -18.5t11 -24.5t3 -25q0 -39 -25.5 -65.5t-70.5 -26.5q-23 0 -43 7t-36 15l14 40q15 -8 26.5 -11.5t26.5 -3.5q6 0 14 1.5t15 6t12 12.5t5 22q0 12 -4.5 19.5t-11 12t-13 6t-10.5 1.5q-6 0 -12.5 -1.5t-19.5 -6.5
l-14 19z" />
    <glyph glyph-name="onesuperior" unicode="&#xb9;" horiz-adv-x="273" 
d="M35 577v46q23 2 39.5 5t28.5 11t19.5 23t13.5 41h46v-422h-58v296h-89z" />
    <glyph glyph-name="ordmasculine" unicode="&#xba;" horiz-adv-x="299" 
d="M280 571q0 -49 -11.5 -81t-30.5 -51t-42 -26.5t-46 -7.5t-46 7.5t-42 26.5t-30.5 51t-11.5 81t11.5 81t30.5 51t42 26.5t46 7.5t46 -7.5t42 -26.5t30.5 -51t11.5 -81zM225 571q0 15 -2.5 35t-10.5 37.5t-23 29.5t-39 12t-39 -12t-23 -29.5t-10.5 -37.5t-2.5 -35t2.5 -35
t10.5 -37.5t23 -29.5t39 -12t39 12t23 29.5t10.5 37.5t2.5 35z" />
    <glyph glyph-name="guillemotright" unicode="&#xbb;" 
d="M80 108v88l86 81l-86 81v88l128 -123v-92zM248 108v88l86 81l-86 81v88l128 -123v-92z" />
    <glyph glyph-name="onequarter" unicode="&#xbc;" horiz-adv-x="684" 
d="M344 154l168 268h53v-270h55v-58h-55v-94h-53v94h-168v60zM512 339h-1l-117 -187h118v187zM173 -19h-47l363 722h46zM60 580v43q23 2 39.5 5t28.5 11t19.5 23t13.5 41h43v-422h-56v299h-88z" />
    <glyph glyph-name="onehalf" unicode="&#xbd;" horiz-adv-x="684" 
d="M143 -19h-46l362 722h47zM35 577v46q23 2 39.5 5t28.5 11t19.5 23t13.5 41h46v-422h-58v296h-89zM385 271q0 51 14.5 81t35 45.5t42.5 20t37 4.5q25 0 47 -8.5t38 -25t25.5 -40t9.5 -52.5t-7.5 -50t-21 -37.5t-31.5 -29.5t-38 -25l-37 -23q-29 -19 -43 -36t-22 -34h200
v-61h-262q3 66 26.5 104.5t59.5 62.5l49 33q16 10 28.5 19t21.5 19.5t14 24.5t5 35v6q0 21 -15 40.5t-53 19.5q-26 0 -40.5 -11t-22 -26t-9.5 -31t-2 -25h-49z" />
    <glyph glyph-name="threequarters" unicode="&#xbe;" horiz-adv-x="684" 
d="M388 154l169 268h52v-270h55v-58h-55v-94h-52v94h-169v60zM439 152h118v187h-2zM221 -19h-46l362 722h47zM93 410q0 -13 2.5 -27.5t10 -26.5t21 -20t36.5 -8q36 0 57.5 17t21.5 54q0 27 -9 41.5t-21.5 21t-27.5 8t-27 1.5h-18v51h22q27 0 47 13.5t20 53.5q0 8 -2.5 17.5
t-9.5 18t-20 14.5t-34 6t-33.5 -7.5t-19.5 -19.5t-9.5 -26t-3.5 -27h-50q0 23 5.5 47.5t19.5 44.5t38 33t61 13q54 0 84.5 -31.5t30.5 -79.5q0 -41 -16.5 -61.5t-31.5 -25.5v-2q28 -9 45 -32t17 -65q0 -26 -7.5 -50.5t-24 -43.5t-42.5 -30.5t-63 -11.5q-21 0 -38 5.5
t-31 13.5q-31 18 -42.5 51.5t-13.5 69.5h56z" />
    <glyph glyph-name="questiondown" unicode="&#xbf;" horiz-adv-x="501" 
d="M432 33q-1 -26 -2.5 -50.5t-8 -48t-19.5 -46t-35 -43.5q-24 -23 -55 -34.5t-64 -11.5q-34 0 -65.5 12.5t-55.5 37.5t-38 61.5t-14 84.5q0 25 4 44.5t13.5 38.5t24 38.5t35.5 43.5l32.5 39t22 35.5t12.5 41.5t4 57v10h72q0 -43 -4 -71.5t-13 -51.5t-24 -44t-37 -48
l-33 -42.5t-20 -31t-9.5 -29.5t-2.5 -36q0 -16 4 -35.5t15.5 -37t30.5 -29.5t49 -12q39 0 61 18.5t32.5 44t13 52.5t2.5 43h72zM217 525h80v-102h-80v102z" />
    <glyph glyph-name="Agrave" unicode="&#xc0;" horiz-adv-x="547" 
d="M155 209l-62 -209h-82l222 718h90l213 -718h-87l-58 209h-236zM362 295l-86 316h-2l-94 -316h182zM148 929h89l73 -141h-55z" />
    <glyph glyph-name="Aacute" unicode="&#xc1;" horiz-adv-x="547" 
d="M155 209l-62 -209h-82l222 718h90l213 -718h-87l-58 209h-236zM362 295l-86 316h-2l-94 -316h182zM292 788h-55l73 141h89z" />
    <glyph glyph-name="Acircumflex" unicode="&#xc2;" horiz-adv-x="547" 
d="M155 209l-62 -209h-82l222 718h90l213 -718h-87l-58 209h-236zM362 295l-86 316h-2l-94 -316h182zM219 788h-65l81 141h77l81 -141h-66l-54 93z" />
    <glyph glyph-name="Atilde" unicode="&#xc3;" horiz-adv-x="547" 
d="M155 209l-62 -209h-82l222 718h90l213 -718h-87l-58 209h-236zM362 295l-86 316h-2l-94 -316h182zM413 917q-4 -45 -25.5 -77t-56.5 -32q-11 0 -21 3t-27 10l-21 9q-22 9 -32.5 12t-17.5 3q-17 0 -25.5 -12t-13.5 -32h-39q4 44 24 75.5t61 31.5q16 0 29.5 -4.5
t26.5 -10.5l18 -9q11 -6 22 -9.5t16 -3.5q12 0 19.5 4.5t12 11.5t6.5 15t3 15h41z" />
    <glyph glyph-name="Adieresis" unicode="&#xc4;" horiz-adv-x="547" 
d="M155 209l-62 -209h-82l222 718h90l213 -718h-87l-58 209h-236zM362 295l-86 316h-2l-94 -316h182zM244 799h-74v102h74v-102zM377 799h-74v102h74v-102z" />
    <glyph glyph-name="Aring" unicode="&#xc5;" horiz-adv-x="547" 
d="M155 209l-62 -209h-82l222 718h90l213 -718h-87l-58 209h-236zM362 295l-86 316h-2l-94 -316h182zM274 932q32 0 53.5 -26t21.5 -66t-21.5 -66t-53.5 -26q-33 0 -54 26t-21 66t21 66t54 26zM231 840q0 -22 12.5 -37t30.5 -15t30.5 15t12.5 37t-12.5 37t-30.5 15
t-30.5 -15t-12.5 -37z" />
    <glyph glyph-name="AE" unicode="&#xc6;" horiz-adv-x="820" 
d="M93 0h-86l239 718h528v-86h-320v-220h292v-86h-292v-240h326v-86h-405v209h-218zM375 632h-80l-109 -337h189v337z" />
    <glyph glyph-name="Ccedilla" unicode="&#xc7;" horiz-adv-x="592" 
d="M231 -163q16 -8 27 -11.5t27 -3.5q6 0 13.5 1.5t14.5 6t12 12.5t5 22q0 12 -4.5 19.5t-10.5 12t-13 6t-11 1.5q-9 0 -32 -8l-14 19l42 69q-48 2 -93 24t-80.5 67.5t-56.5 117t-21 171.5q0 83 19 151.5t54 118t86 77t116 27.5q57 0 100 -20t73 -52.5t47 -75t22 -87.5h-77
q-9 47 -28 76.5t-42.5 45.5t-48.5 21.5t-46 5.5q-40 0 -75 -18t-61.5 -53.5t-41.5 -89t-15 -124.5q0 -63 10 -118t33 -95t60 -63t92 -23q19 0 44 7.5t49 28.5t44.5 59.5t30.5 101.5h77q-7 -59 -22.5 -102t-36 -74t-44 -50.5t-47 -31t-45 -17t-37.5 -6.5l-28 -45q7 2 12.5 3
t13.5 1q20 0 33 -7t21 -18.5t11.5 -24.5t3.5 -25q0 -39 -25.5 -65.5t-71.5 -26.5q-23 0 -42.5 7t-36.5 15z" />
    <glyph glyph-name="Egrave" unicode="&#xc8;" horiz-adv-x="547" 
d="M505 0h-434v718h428v-86h-349v-220h322v-86h-322v-240h355v-86zM148 929h89l73 -141h-55z" />
    <glyph glyph-name="Eacute" unicode="&#xc9;" horiz-adv-x="547" 
d="M505 0h-434v718h428v-86h-349v-220h322v-86h-322v-240h355v-86zM292 788h-55l73 141h89z" />
    <glyph glyph-name="Ecircumflex" unicode="&#xca;" horiz-adv-x="547" 
d="M505 0h-434v718h428v-86h-349v-220h322v-86h-322v-240h355v-86zM219 788h-65l81 141h77l81 -141h-66l-54 93z" />
    <glyph glyph-name="Edieresis" unicode="&#xcb;" horiz-adv-x="547" 
d="M505 0h-434v718h428v-86h-349v-220h322v-86h-322v-240h355v-86zM244 799h-74v102h74v-102zM377 799h-74v102h74v-102z" />
    <glyph glyph-name="Igrave" unicode="&#xcc;" horiz-adv-x="228" 
d="M154 0h-79v718h79v-718zM-10 929h89l73 -141h-55z" />
    <glyph glyph-name="Iacute" unicode="&#xcd;" horiz-adv-x="228" 
d="M154 0h-79v718h79v-718zM134 788h-55l73 141h89z" />
    <glyph glyph-name="Icircumflex" unicode="&#xce;" horiz-adv-x="228" 
d="M154 0h-79v718h79v-718zM61 788h-65l81 141h77l81 -141h-66l-54 93z" />
    <glyph glyph-name="Idieresis" unicode="&#xcf;" horiz-adv-x="228" 
d="M154 0h-79v718h79v-718zM86 799h-74v102h74v-102zM219 799h-74v102h74v-102z" />
    <glyph glyph-name="Eth" unicode="&#xd0;" horiz-adv-x="592" 
d="M303 326h-157v-243h154q78 0 124.5 71.5t46.5 208.5t-47.5 204.5t-129.5 67.5h-148v-223h157v-86zM0 412h66v306h239q57 0 103 -25.5t78.5 -71.5t49.5 -110t17 -142q0 -15 -2 -48.5t-10 -74.5t-24 -84.5t-44 -79.5t-70 -59t-101 -23h-236v326h-66v86z" />
    <glyph glyph-name="Ntilde" unicode="&#xd1;" horiz-adv-x="592" 
d="M453 718h77v-718h-90l-299 580h-2v-580h-77v718h95l294 -580h2v580zM444 917q-4 -45 -25.5 -77t-56.5 -32q-11 0 -21 3t-27 10l-21 9q-22 9 -32.5 12t-17.5 3q-17 0 -25.5 -12t-13.5 -32h-39q4 44 24 75.5t61 31.5q16 0 29.5 -4.5t26.5 -10.5l18 -9q11 -6 22 -9.5
t16 -3.5q12 0 19.5 4.5t12 11.5t6.5 15t3 15h41z" />
    <glyph glyph-name="Ograve" unicode="&#xd2;" horiz-adv-x="638" 
d="M524 359q0 63 -14 116.5t-40.5 92.5t-64.5 61t-86 22t-86 -22t-64.5 -61t-40.5 -92.5t-14 -116.5t14 -116.5t40.5 -92.5t64.5 -61t86 -22t86 22t64.5 61t40.5 92.5t14 116.5zM606 359q0 -39 -6 -82t-19.5 -85t-35.5 -80t-54 -67.5t-74.5 -46.5t-97.5 -17t-97.5 17
t-74.5 46.5t-54 67.5t-35.5 80t-19.5 85t-6 82t6 82t19.5 85t35.5 80t54 67.5t74.5 46.5t97.5 17t97.5 -17t74.5 -46.5t54 -67.5t35.5 -80t19.5 -85t6 -82zM194 929h89l73 -141h-55z" />
    <glyph glyph-name="Oacute" unicode="&#xd3;" horiz-adv-x="638" 
d="M524 359q0 63 -14 116.5t-40.5 92.5t-64.5 61t-86 22t-86 -22t-64.5 -61t-40.5 -92.5t-14 -116.5t14 -116.5t40.5 -92.5t64.5 -61t86 -22t86 22t64.5 61t40.5 92.5t14 116.5zM606 359q0 -39 -6 -82t-19.5 -85t-35.5 -80t-54 -67.5t-74.5 -46.5t-97.5 -17t-97.5 17
t-74.5 46.5t-54 67.5t-35.5 80t-19.5 85t-6 82t6 82t19.5 85t35.5 80t54 67.5t74.5 46.5t97.5 17t97.5 -17t74.5 -46.5t54 -67.5t35.5 -80t19.5 -85t6 -82zM338 788h-55l73 141h89z" />
    <glyph glyph-name="Ocircumflex" unicode="&#xd4;" horiz-adv-x="638" 
d="M524 359q0 63 -14 116.5t-40.5 92.5t-64.5 61t-86 22t-86 -22t-64.5 -61t-40.5 -92.5t-14 -116.5t14 -116.5t40.5 -92.5t64.5 -61t86 -22t86 22t64.5 61t40.5 92.5t14 116.5zM606 359q0 -39 -6 -82t-19.5 -85t-35.5 -80t-54 -67.5t-74.5 -46.5t-97.5 -17t-97.5 17
t-74.5 46.5t-54 67.5t-35.5 80t-19.5 85t-6 82t6 82t19.5 85t35.5 80t54 67.5t74.5 46.5t97.5 17t97.5 -17t74.5 -46.5t54 -67.5t35.5 -80t19.5 -85t6 -82zM265 788h-65l81 141h77l81 -141h-66l-54 93z" />
    <glyph glyph-name="Otilde" unicode="&#xd5;" horiz-adv-x="638" 
d="M524 359q0 63 -14 116.5t-40.5 92.5t-64.5 61t-86 22t-86 -22t-64.5 -61t-40.5 -92.5t-14 -116.5t14 -116.5t40.5 -92.5t64.5 -61t86 -22t86 22t64.5 61t40.5 92.5t14 116.5zM606 359q0 -39 -6 -82t-19.5 -85t-35.5 -80t-54 -67.5t-74.5 -46.5t-97.5 -17t-97.5 17
t-74.5 46.5t-54 67.5t-35.5 80t-19.5 85t-6 82t6 82t19.5 85t35.5 80t54 67.5t74.5 46.5t97.5 17t97.5 -17t74.5 -46.5t54 -67.5t35.5 -80t19.5 -85t6 -82zM459 917q-4 -45 -25.5 -77t-56.5 -32q-11 0 -21 3t-27 10l-21 9q-22 9 -32.5 12t-17.5 3q-17 0 -25.5 -12t-13.5 -32
h-39q4 44 24 75.5t61 31.5q16 0 29.5 -4.5t26.5 -10.5l18 -9q11 -6 22 -9.5t16 -3.5q12 0 19.5 4.5t12 11.5t6.5 15t3 15h41z" />
    <glyph glyph-name="Odieresis" unicode="&#xd6;" horiz-adv-x="638" 
d="M524 359q0 63 -14 116.5t-40.5 92.5t-64.5 61t-86 22t-86 -22t-64.5 -61t-40.5 -92.5t-14 -116.5t14 -116.5t40.5 -92.5t64.5 -61t86 -22t86 22t64.5 61t40.5 92.5t14 116.5zM606 359q0 -39 -6 -82t-19.5 -85t-35.5 -80t-54 -67.5t-74.5 -46.5t-97.5 -17t-97.5 17
t-74.5 46.5t-54 67.5t-35.5 80t-19.5 85t-6 82t6 82t19.5 85t35.5 80t54 67.5t74.5 46.5t97.5 17t97.5 -17t74.5 -46.5t54 -67.5t35.5 -80t19.5 -85t6 -82zM290 799h-74v102h74v-102zM423 799h-74v102h74v-102z" />
    <glyph glyph-name="multiply" unicode="&#xd7;" horiz-adv-x="479" 
d="M32 455l43 51l164 -201l166 201l42 -51l-165 -202l165 -202l-42 -51l-166 201l-165 -201l-42 51l166 202z" />
    <glyph glyph-name="Oslash" unicode="&#xd8;" horiz-adv-x="638" 
d="M178 138q26 -34 61 -52.5t80 -18.5q48 0 86 22t64.5 61t40.5 92.5t14 116.5q0 110 -40 184zM462 578q-26 35 -62 54t-81 19q-48 0 -86 -22t-64.5 -61t-40.5 -92.5t-14 -116.5q0 -55 11 -102.5t31 -85.5zM539 616q37 -58 52 -127t15 -130q0 -39 -6 -82t-19.5 -85
t-35.5 -80t-54 -67.5t-74.5 -46.5t-97.5 -17q-65 0 -112.5 24t-81.5 63l-65 -87l-26 28l68 90q-38 58 -54 128t-16 132q0 39 6 82t19.5 85t35.5 80t54 67.5t74.5 46.5t97.5 17q67 0 115.5 -24.5t80.5 -64.5l66 89l26 -30z" />
    <glyph glyph-name="Ugrave" unicode="&#xd9;" horiz-adv-x="592" 
d="M528 718v-466q0 -55 -14.5 -104.5t-43.5 -86.5t-73.5 -58.5t-105.5 -21.5q-59 0 -102 21.5t-70.5 57.5t-40.5 82.5t-13 96.5v479h79v-452q0 -59 13.5 -97t34.5 -61t48 -32t54 -9t55 9t50 31t36 60t14 97v454h79zM171 929h89l73 -141h-55z" />
    <glyph glyph-name="Uacute" unicode="&#xda;" horiz-adv-x="592" 
d="M528 718v-466q0 -55 -14.5 -104.5t-43.5 -86.5t-73.5 -58.5t-105.5 -21.5q-59 0 -102 21.5t-70.5 57.5t-40.5 82.5t-13 96.5v479h79v-452q0 -59 13.5 -97t34.5 -61t48 -32t54 -9t55 9t50 31t36 60t14 97v454h79zM315 788h-55l73 141h89z" />
    <glyph glyph-name="Ucircumflex" unicode="&#xdb;" horiz-adv-x="592" 
d="M528 718v-466q0 -55 -14.5 -104.5t-43.5 -86.5t-73.5 -58.5t-105.5 -21.5q-59 0 -102 21.5t-70.5 57.5t-40.5 82.5t-13 96.5v479h79v-452q0 -59 13.5 -97t34.5 -61t48 -32t54 -9t55 9t50 31t36 60t14 97v454h79zM242 788h-65l81 141h77l81 -141h-66l-54 93z" />
    <glyph glyph-name="Udieresis" unicode="&#xdc;" horiz-adv-x="592" 
d="M528 718v-466q0 -55 -14.5 -104.5t-43.5 -86.5t-73.5 -58.5t-105.5 -21.5q-59 0 -102 21.5t-70.5 57.5t-40.5 82.5t-13 96.5v479h79v-452q0 -59 13.5 -97t34.5 -61t48 -32t54 -9t55 9t50 31t36 60t14 97v454h79zM267 799h-74v102h74v-102zM400 799h-74v102h74v-102z" />
    <glyph glyph-name="Yacute" unicode="&#xdd;" horiz-adv-x="547" 
d="M313 0h-79v289l-223 429h93l169 -345l169 345h93l-222 -429v-289zM292 788h-55l73 141h89z" />
    <glyph glyph-name="Thorn" unicode="&#xde;" horiz-adv-x="547" 
d="M150 267h158q27 0 49 6.5t38 21.5t24.5 40t8.5 61q0 34 -9 57t-24.5 37t-37 20t-45.5 6h-162v-249zM71 718h79v-119h185q41 0 73.5 -15.5t55 -42.5t34.5 -64t12 -80q0 -38 -9.5 -75.5t-30 -68.5t-54 -50t-81.5 -19h-185v-184h-79v718z" />
    <glyph glyph-name="germandbls" unicode="&#xdf;" horiz-adv-x="501" 
d="M55 532q0 43 12 79t36 62t59.5 40.5t81.5 14.5q92 0 144 -49t52 -131q0 -36 -8 -62t-18.5 -43t-22 -27l-18.5 -16q23 -8 40.5 -25.5t29.5 -40.5t18.5 -48.5t6.5 -47.5q0 -66 -15.5 -114t-43.5 -79t-65.5 -45.5t-81.5 -14.5q-18 0 -26.5 2.5t-17.5 4.5v75q18 -3 36 -3
q68 0 104 37t36 113q0 39 -10 66t-28.5 43.5t-44.5 23.5t-57 7q-19 0 -32 -4v79q6 -1 10 -1.5t9 -0.5q37 0 61.5 9.5t39 25t20.5 36t6 42.5q0 48 -31 80t-93 32q-35 0 -57.5 -10t-36 -29t-18.5 -45t-5 -58v-510h-72v532z" />
    <glyph glyph-name="agrave" unicode="&#xe0;" 
d="M51 364q1 47 14 80t36 54t55 30.5t72 9.5q13 0 39.5 -4t53 -19t46.5 -44t20 -79v-301q0 -31 24 -31q5 0 11 1t13 3v-64q-10 -3 -18.5 -6.5t-21.5 -3.5q-24 0 -38.5 7t-22.5 18t-11 25.5t-4 29.5q-11 -14 -24.5 -29t-32 -27.5t-43 -20.5t-55.5 -8q-60 0 -97 41.5
t-37 109.5q0 16 3.5 41.5t16.5 50.5t39 45t71 27l119 18q6 1 13 3.5t12.5 9t9 18t3.5 31.5q0 85 -101 85q-31 0 -49.5 -10t-29 -25.5t-14.5 -33t-6 -32.5h-66zM315 267q-5 -4 -11.5 -8t-19 -7.5t-34 -8t-54.5 -9.5q-13 -2 -29 -6.5t-30 -13.5t-23.5 -24.5t-9.5 -40.5
q0 -43 18.5 -67t59.5 -24q25 0 49 9.5t42.5 26t30 39t11.5 48.5v86zM103 734h89l73 -141h-55z" />
    <glyph glyph-name="aacute" unicode="&#xe1;" 
d="M51 364q1 47 14 80t36 54t55 30.5t72 9.5q13 0 39.5 -4t53 -19t46.5 -44t20 -79v-301q0 -31 24 -31q5 0 11 1t13 3v-64q-10 -3 -18.5 -6.5t-21.5 -3.5q-24 0 -38.5 7t-22.5 18t-11 25.5t-4 29.5q-11 -14 -24.5 -29t-32 -27.5t-43 -20.5t-55.5 -8q-60 0 -97 41.5
t-37 109.5q0 16 3.5 41.5t16.5 50.5t39 45t71 27l119 18q6 1 13 3.5t12.5 9t9 18t3.5 31.5q0 85 -101 85q-31 0 -49.5 -10t-29 -25.5t-14.5 -33t-6 -32.5h-66zM315 267q-5 -4 -11.5 -8t-19 -7.5t-34 -8t-54.5 -9.5q-13 -2 -29 -6.5t-30 -13.5t-23.5 -24.5t-9.5 -40.5
q0 -43 18.5 -67t59.5 -24q25 0 49 9.5t42.5 26t30 39t11.5 48.5v86zM247 593h-55l73 141h89z" />
    <glyph glyph-name="acircumflex" unicode="&#xe2;" 
d="M51 364q1 47 14 80t36 54t55 30.5t72 9.5q13 0 39.5 -4t53 -19t46.5 -44t20 -79v-301q0 -31 24 -31q5 0 11 1t13 3v-64q-10 -3 -18.5 -6.5t-21.5 -3.5q-24 0 -38.5 7t-22.5 18t-11 25.5t-4 29.5q-11 -14 -24.5 -29t-32 -27.5t-43 -20.5t-55.5 -8q-60 0 -97 41.5
t-37 109.5q0 16 3.5 41.5t16.5 50.5t39 45t71 27l119 18q6 1 13 3.5t12.5 9t9 18t3.5 31.5q0 85 -101 85q-31 0 -49.5 -10t-29 -25.5t-14.5 -33t-6 -32.5h-66zM315 267q-5 -4 -11.5 -8t-19 -7.5t-34 -8t-54.5 -9.5q-13 -2 -29 -6.5t-30 -13.5t-23.5 -24.5t-9.5 -40.5
q0 -43 18.5 -67t59.5 -24q25 0 49 9.5t42.5 26t30 39t11.5 48.5v86zM174 593h-65l81 141h77l81 -141h-66l-54 93z" />
    <glyph glyph-name="atilde" unicode="&#xe3;" 
d="M51 364q1 47 14 80t36 54t55 30.5t72 9.5q13 0 39.5 -4t53 -19t46.5 -44t20 -79v-301q0 -31 24 -31q5 0 11 1t13 3v-64q-10 -3 -18.5 -6.5t-21.5 -3.5q-24 0 -38.5 7t-22.5 18t-11 25.5t-4 29.5q-11 -14 -24.5 -29t-32 -27.5t-43 -20.5t-55.5 -8q-60 0 -97 41.5
t-37 109.5q0 16 3.5 41.5t16.5 50.5t39 45t71 27l119 18q6 1 13 3.5t12.5 9t9 18t3.5 31.5q0 85 -101 85q-31 0 -49.5 -10t-29 -25.5t-14.5 -33t-6 -32.5h-66zM315 267q-5 -4 -11.5 -8t-19 -7.5t-34 -8t-54.5 -9.5q-13 -2 -29 -6.5t-30 -13.5t-23.5 -24.5t-9.5 -40.5
q0 -43 18.5 -67t59.5 -24q25 0 49 9.5t42.5 26t30 39t11.5 48.5v86zM360 722q-4 -45 -25.5 -77t-56.5 -32q-11 0 -21 3t-27 10l-21 9q-22 9 -32.5 12t-17.5 3q-17 0 -25.5 -12t-13.5 -32h-39q4 44 24 75.5t61 31.5q16 0 29.5 -4.5t26.5 -10.5l18 -9q11 -6 22 -9.5t16 -3.5
q12 0 19.5 4.5t12 11.5t6.5 15t3 15h41z" />
    <glyph glyph-name="adieresis" unicode="&#xe4;" 
d="M51 364q1 47 14 80t36 54t55 30.5t72 9.5q13 0 39.5 -4t53 -19t46.5 -44t20 -79v-301q0 -31 24 -31q5 0 11 1t13 3v-64q-10 -3 -18.5 -6.5t-21.5 -3.5q-24 0 -38.5 7t-22.5 18t-11 25.5t-4 29.5q-11 -14 -24.5 -29t-32 -27.5t-43 -20.5t-55.5 -8q-60 0 -97 41.5
t-37 109.5q0 16 3.5 41.5t16.5 50.5t39 45t71 27l119 18q6 1 13 3.5t12.5 9t9 18t3.5 31.5q0 85 -101 85q-31 0 -49.5 -10t-29 -25.5t-14.5 -33t-6 -32.5h-66zM315 267q-5 -4 -11.5 -8t-19 -7.5t-34 -8t-54.5 -9.5q-13 -2 -29 -6.5t-30 -13.5t-23.5 -24.5t-9.5 -40.5
q0 -43 18.5 -67t59.5 -24q25 0 49 9.5t42.5 26t30 39t11.5 48.5v86zM199 604h-74v102h74v-102zM332 604h-74v102h74v-102z" />
    <glyph glyph-name="aring" unicode="&#xe5;" 
d="M51 364q1 47 14 80t36 54t55 30.5t72 9.5q13 0 39.5 -4t53 -19t46.5 -44t20 -79v-301q0 -31 24 -31q5 0 11 1t13 3v-64q-10 -3 -18.5 -6.5t-21.5 -3.5q-24 0 -38.5 7t-22.5 18t-11 25.5t-4 29.5q-11 -14 -24.5 -29t-32 -27.5t-43 -20.5t-55.5 -8q-60 0 -97 41.5
t-37 109.5q0 16 3.5 41.5t16.5 50.5t39 45t71 27l119 18q6 1 13 3.5t12.5 9t9 18t3.5 31.5q0 85 -101 85q-31 0 -49.5 -10t-29 -25.5t-14.5 -33t-6 -32.5h-66zM315 267q-5 -4 -11.5 -8t-19 -7.5t-34 -8t-54.5 -9.5q-13 -2 -29 -6.5t-30 -13.5t-23.5 -24.5t-9.5 -40.5
q0 -43 18.5 -67t59.5 -24q25 0 49 9.5t42.5 26t30 39t11.5 48.5v86zM229 756q32 0 53.5 -26t21.5 -66t-21.5 -66t-53.5 -26q-33 0 -54 26t-21 66t21 66t54 26zM186 664q0 -22 12.5 -37t30.5 -15t30.5 15t12.5 37t-12.5 37t-30.5 15t-30.5 -15t-12.5 -37z" />
    <glyph glyph-name="ae" unicode="&#xe6;" horiz-adv-x="729" 
d="M620 303q-2 30 -8.5 58.5t-20 50t-36 34.5t-55.5 13q-25 0 -46.5 -13t-37.5 -34.5t-25.5 -50t-9.5 -58.5h239zM689 164q-1 -9 -5.5 -26.5t-13.5 -38t-23 -41.5t-34 -37l-17.5 -12.5t-23 -11.5t-32 -8.5t-44.5 -3.5q-38 0 -65 12t-45.5 29t-29.5 35.5t-17 32.5
q-32 -58 -74.5 -83.5t-100.5 -25.5q-60 0 -97 41.5t-37 109.5q0 16 3.5 41.5t16.5 50.5t39 45t71 27l119 18q6 1 13 3.5t12.5 9t9 18t3.5 31.5q0 85 -101 85q-31 0 -49.5 -10t-29 -25.5t-14.5 -33t-6 -32.5h-66q1 47 14 80t36 54t55 30.5t72 9.5q31 0 52 -6t37 -16.5
t27.5 -23.5t22.5 -28l20.5 23t28 24.5t39.5 19t55 7.5q46 0 81 -21.5t58 -61.5t34.5 -96.5t11.5 -125.5h-314q0 -82 31 -127t94 -45q25 0 45.5 10.5t34.5 26.5t22 33.5t9 32.5h72zM315 267q-5 -4 -11.5 -8t-19 -7.5t-34 -8t-54.5 -9.5q-13 -2 -29 -6.5t-30 -13.5
t-23.5 -24.5t-9.5 -40.5q0 -43 18.5 -67t59.5 -24q25 0 49 9.5t42.5 26t30 39t11.5 48.5v86z" />
    <glyph glyph-name="ccedilla" unicode="&#xe7;" horiz-adv-x="410" 
d="M141 -163q16 -8 27 -11.5t26 -3.5q6 0 14 1.5t15 6t12 12.5t5 22q0 12 -4.5 19.5t-11 12t-13 6t-10.5 1.5q-9 0 -32 -8l-14 19l44 73q-41 4 -73.5 25t-55 55.5t-34 80t-11.5 99.5q0 61 12 114t37.5 92.5t64 62t91.5 22.5q42 0 72 -17t49 -44.5t28.5 -61.5t11.5 -68h-70
q-7 53 -31.5 82.5t-69.5 29.5q-34 0 -56.5 -17.5t-36 -46t-19.5 -63.5t-6 -70q0 -34 4.5 -69.5t17 -65t35.5 -48t60 -18.5q36 0 64.5 32t37.5 92h70q-2 -29 -11 -62t-27 -61.5t-46 -49t-68 -24.5l-31 -50q7 2 12.5 3t13.5 1q20 0 33 -7t21 -18.5t11.5 -24.5t3.5 -25
q0 -39 -26 -65.5t-71 -26.5q-23 0 -43 7t-36 15z" />
    <glyph glyph-name="egrave" unicode="&#xe8;" 
d="M417 164q-1 -9 -5.5 -26.5t-13.5 -38t-23 -41.5t-34 -37l-17 -12.5t-22.5 -11.5t-32 -8.5t-44.5 -3.5q-45 0 -81 19.5t-60.5 54.5t-37.5 83t-13 105q0 61 12 114t37.5 92.5t64.5 62t92 22.5q46 0 80.5 -21.5t57.5 -61.5t34.5 -96.5t11.5 -125.5h-313q0 -82 31 -127
t94 -45q25 0 45.5 10.5t34.5 26.5t21.5 33.5t8.5 32.5h72zM348 303q-2 30 -8 58.5t-20 50t-36 34.5t-55 13q-25 0 -47 -13t-38 -34.5t-25 -50t-9 -58.5h238zM103 734h89l73 -141h-55z" />
    <glyph glyph-name="eacute" unicode="&#xe9;" 
d="M417 164q-1 -9 -5.5 -26.5t-13.5 -38t-23 -41.5t-34 -37l-17 -12.5t-22.5 -11.5t-32 -8.5t-44.5 -3.5q-45 0 -81 19.5t-60.5 54.5t-37.5 83t-13 105q0 61 12 114t37.5 92.5t64.5 62t92 22.5q46 0 80.5 -21.5t57.5 -61.5t34.5 -96.5t11.5 -125.5h-313q0 -82 31 -127
t94 -45q25 0 45.5 10.5t34.5 26.5t21.5 33.5t8.5 32.5h72zM348 303q-2 30 -8 58.5t-20 50t-36 34.5t-55 13q-25 0 -47 -13t-38 -34.5t-25 -50t-9 -58.5h238zM247 593h-55l73 141h89z" />
    <glyph glyph-name="ecircumflex" unicode="&#xea;" 
d="M417 164q-1 -9 -5.5 -26.5t-13.5 -38t-23 -41.5t-34 -37l-17 -12.5t-22.5 -11.5t-32 -8.5t-44.5 -3.5q-45 0 -81 19.5t-60.5 54.5t-37.5 83t-13 105q0 61 12 114t37.5 92.5t64.5 62t92 22.5q46 0 80.5 -21.5t57.5 -61.5t34.5 -96.5t11.5 -125.5h-313q0 -82 31 -127
t94 -45q25 0 45.5 10.5t34.5 26.5t21.5 33.5t8.5 32.5h72zM348 303q-2 30 -8 58.5t-20 50t-36 34.5t-55 13q-25 0 -47 -13t-38 -34.5t-25 -50t-9 -58.5h238zM174 593h-65l81 141h77l81 -141h-66l-54 93z" />
    <glyph glyph-name="edieresis" unicode="&#xeb;" 
d="M417 164q-1 -9 -5.5 -26.5t-13.5 -38t-23 -41.5t-34 -37l-17 -12.5t-22.5 -11.5t-32 -8.5t-44.5 -3.5q-45 0 -81 19.5t-60.5 54.5t-37.5 83t-13 105q0 61 12 114t37.5 92.5t64.5 62t92 22.5q46 0 80.5 -21.5t57.5 -61.5t34.5 -96.5t11.5 -125.5h-313q0 -82 31 -127
t94 -45q25 0 45.5 10.5t34.5 26.5t21.5 33.5t8.5 32.5h72zM348 303q-2 30 -8 58.5t-20 50t-36 34.5t-55 13q-25 0 -47 -13t-38 -34.5t-25 -50t-9 -58.5h238zM199 604h-74v102h74v-102zM332 604h-74v102h74v-102z" />
    <glyph glyph-name="igrave" unicode="&#xec;" horiz-adv-x="228" 
d="M150 0h-72v523h72v-523zM-10 734h89l73 -141h-55z" />
    <glyph glyph-name="iacute" unicode="&#xed;" horiz-adv-x="228" 
d="M150 0h-72v523h72v-523zM134 593h-55l73 141h89z" />
    <glyph glyph-name="icircumflex" unicode="&#xee;" horiz-adv-x="228" 
d="M150 0h-72v523h72v-523zM61 593h-65l81 141h77l81 -141h-66l-54 93z" />
    <glyph glyph-name="idieresis" unicode="&#xef;" horiz-adv-x="228" 
d="M150 0h-72v523h72v-523zM86 604h-74v102h74v-102zM219 604h-74v102h74v-102z" />
    <glyph glyph-name="eth" unicode="&#xf0;" 
d="M103 254q0 -21 5 -53.5t18.5 -63.5t38 -53.5t63.5 -22.5t63.5 22.5t38 53.5t18.5 63.5t5 53.5t-5 53.5t-18.5 63.5t-38 53.5t-63.5 22.5t-63.5 -22.5t-38 -53.5t-18.5 -63.5t-5 -53.5zM297 646q63 -71 97 -161t34 -187q0 -90 -18.5 -150t-46.5 -96.5t-62.5 -51.5
t-65.5 -15q-54 0 -93 23.5t-64 61.5t-37 86t-12 98q0 49 12 97.5t35.5 86.5t58.5 61.5t81 23.5q10 0 23.5 -1.5t27.5 -7t29 -16.5t30 -30l1 2q-14 43 -39.5 79.5t-51.5 62.5l-102 -62l-34 42l97 57q-17 16 -35.5 29t-37.5 23l60 36q42 -20 75 -51l87 51l39 -40z" />
    <glyph glyph-name="ntilde" unicode="&#xf1;" 
d="M403 0h-73v322q0 69 -19 103t-72 34q-15 0 -35 -7t-37.5 -26.5t-29.5 -53.5t-12 -87v-285h-72v523h68v-74h2q6 10 16.5 25.5t26.5 29.5t37.5 24t49.5 10q25 0 51.5 -7.5t48.5 -27.5t36 -55.5t14 -91.5v-356zM360 722q-4 -45 -25.5 -77t-56.5 -32q-11 0 -21 3t-27 10
l-21 9q-22 9 -32.5 12t-17.5 3q-17 0 -25.5 -12t-13.5 -32h-39q4 44 24 75.5t61 31.5q16 0 29.5 -4.5t26.5 -10.5l18 -9q11 -6 22 -9.5t16 -3.5q12 0 19.5 4.5t12 11.5t6.5 15t3 15h41z" />
    <glyph glyph-name="ograve" unicode="&#xf2;" 
d="M29 262q0 51 12 100.5t36.5 88.5t62 63t88.5 24t88.5 -24t62 -63t36.5 -88.5t12 -100.5t-12 -100.5t-36.5 -88.5t-62 -63t-88.5 -24t-88.5 24t-62 63t-36.5 88.5t-12 100.5zM103 262q0 -26 5 -60.5t19 -65.5t38 -52.5t63 -21.5t63 21.5t38 52.5t19 65.5t5 60.5t-5 60.5
t-19 65.5t-38 52.5t-63 21.5t-63 -21.5t-38 -52.5t-19 -65.5t-5 -60.5zM103 734h89l73 -141h-55z" />
    <glyph glyph-name="oacute" unicode="&#xf3;" 
d="M29 262q0 51 12 100.5t36.5 88.5t62 63t88.5 24t88.5 -24t62 -63t36.5 -88.5t12 -100.5t-12 -100.5t-36.5 -88.5t-62 -63t-88.5 -24t-88.5 24t-62 63t-36.5 88.5t-12 100.5zM103 262q0 -26 5 -60.5t19 -65.5t38 -52.5t63 -21.5t63 21.5t38 52.5t19 65.5t5 60.5t-5 60.5
t-19 65.5t-38 52.5t-63 21.5t-63 -21.5t-38 -52.5t-19 -65.5t-5 -60.5zM247 593h-55l73 141h89z" />
    <glyph glyph-name="ocircumflex" unicode="&#xf4;" 
d="M29 262q0 51 12 100.5t36.5 88.5t62 63t88.5 24t88.5 -24t62 -63t36.5 -88.5t12 -100.5t-12 -100.5t-36.5 -88.5t-62 -63t-88.5 -24t-88.5 24t-62 63t-36.5 88.5t-12 100.5zM103 262q0 -26 5 -60.5t19 -65.5t38 -52.5t63 -21.5t63 21.5t38 52.5t19 65.5t5 60.5t-5 60.5
t-19 65.5t-38 52.5t-63 21.5t-63 -21.5t-38 -52.5t-19 -65.5t-5 -60.5zM174 593h-65l81 141h77l81 -141h-66l-54 93z" />
    <glyph glyph-name="otilde" unicode="&#xf5;" 
d="M29 262q0 51 12 100.5t36.5 88.5t62 63t88.5 24t88.5 -24t62 -63t36.5 -88.5t12 -100.5t-12 -100.5t-36.5 -88.5t-62 -63t-88.5 -24t-88.5 24t-62 63t-36.5 88.5t-12 100.5zM103 262q0 -26 5 -60.5t19 -65.5t38 -52.5t63 -21.5t63 21.5t38 52.5t19 65.5t5 60.5t-5 60.5
t-19 65.5t-38 52.5t-63 21.5t-63 -21.5t-38 -52.5t-19 -65.5t-5 -60.5zM368 722q-4 -45 -25.5 -77t-56.5 -32q-11 0 -21 3t-27 10l-21 9q-22 9 -32.5 12t-17.5 3q-17 0 -25.5 -12t-13.5 -32h-39q4 44 24 75.5t61 31.5q16 0 29.5 -4.5t26.5 -10.5l18 -9q11 -6 22 -9.5
t16 -3.5q12 0 19.5 4.5t12 11.5t6.5 15t3 15h41z" />
    <glyph glyph-name="odieresis" unicode="&#xf6;" 
d="M29 262q0 51 12 100.5t36.5 88.5t62 63t88.5 24t88.5 -24t62 -63t36.5 -88.5t12 -100.5t-12 -100.5t-36.5 -88.5t-62 -63t-88.5 -24t-88.5 24t-62 63t-36.5 88.5t-12 100.5zM103 262q0 -26 5 -60.5t19 -65.5t38 -52.5t63 -21.5t63 21.5t38 52.5t19 65.5t5 60.5t-5 60.5
t-19 65.5t-38 52.5t-63 21.5t-63 -21.5t-38 -52.5t-19 -65.5t-5 -60.5zM199 604h-74v102h74v-102zM332 604h-74v102h74v-102z" />
    <glyph glyph-name="divide" unicode="&#xf7;" horiz-adv-x="479" 
d="M32 216v73h415v-73h-415zM184 456q0 29 16.5 48.5t38.5 19.5q23 0 39.5 -20t16.5 -48q0 -13 -4.5 -25t-12 -21.5t-17.5 -15.5t-22 -6q-22 0 -38.5 20t-16.5 48zM184 49q0 29 16.5 48.5t38.5 19.5q23 0 39.5 -20t16.5 -48q0 -13 -4.5 -25t-12 -21.5t-17.5 -15.5t-22 -6
q-22 0 -38.5 20t-16.5 48z" />
    <glyph glyph-name="oslash" unicode="&#xf8;" horiz-adv-x="501" 
d="M384 441q22 -38 32.5 -84.5t10.5 -94.5q0 -51 -12 -100.5t-36.5 -88.5t-62 -63t-88.5 -24q-42 0 -74.5 16t-55.5 44l-50 -68l-25 26l52 72q-23 38 -34.5 86.5t-11.5 99.5t12 100.5t36.5 88.5t62 63t88.5 24q44 0 77 -17.5t57 -47.5l53 72l25 -26zM317 410
q-14 23 -35.5 37.5t-53.5 14.5q-39 0 -63 -21.5t-38 -52.5t-19 -65.5t-5 -60.5q0 -25 4.5 -57t16.5 -62zM143 108q14 -20 35 -33t50 -13q39 0 63 21.5t38 52.5t19 65.5t5 60.5q0 23 -4 53t-14 58z" />
    <glyph glyph-name="ugrave" unicode="&#xf9;" 
d="M333 0v76l-2 2q-23 -46 -53.5 -69.5t-82.5 -23.5q-24 0 -48.5 7.5t-44.5 26.5t-33 50t-13 78v376h72v-347q0 -32 6.5 -54t17.5 -35.5t26 -19.5t33 -6q34 0 57 16.5t36.5 42t19 56t5.5 59.5v288h72v-523h-68zM103 734h89l73 -141h-55z" />
    <glyph glyph-name="uacute" unicode="&#xfa;" 
d="M333 0v76l-2 2q-23 -46 -53.5 -69.5t-82.5 -23.5q-24 0 -48.5 7.5t-44.5 26.5t-33 50t-13 78v376h72v-347q0 -32 6.5 -54t17.5 -35.5t26 -19.5t33 -6q34 0 57 16.5t36.5 42t19 56t5.5 59.5v288h72v-523h-68zM247 593h-55l73 141h89z" />
    <glyph glyph-name="ucircumflex" unicode="&#xfb;" 
d="M333 0v76l-2 2q-23 -46 -53.5 -69.5t-82.5 -23.5q-24 0 -48.5 7.5t-44.5 26.5t-33 50t-13 78v376h72v-347q0 -32 6.5 -54t17.5 -35.5t26 -19.5t33 -6q34 0 57 16.5t36.5 42t19 56t5.5 59.5v288h72v-523h-68zM174 593h-65l81 141h77l81 -141h-66l-54 93z" />
    <glyph glyph-name="udieresis" unicode="&#xfc;" 
d="M333 0v76l-2 2q-23 -46 -53.5 -69.5t-82.5 -23.5q-24 0 -48.5 7.5t-44.5 26.5t-33 50t-13 78v376h72v-347q0 -32 6.5 -54t17.5 -35.5t26 -19.5t33 -6q34 0 57 16.5t36.5 42t19 56t5.5 59.5v288h72v-523h-68zM199 604h-74v102h74v-102zM332 604h-74v102h74v-102z" />
    <glyph glyph-name="yacute" unicode="&#xfd;" horiz-adv-x="410" 
d="M321 523h80l-75 -256.5t-79 -256.5l-29.5 -90t-23.5 -62t-22 -39.5t-24 -21.5t-29.5 -9t-39.5 -2q-8 0 -15 2.5l-16 5.5v80q7 -3 18 -6t26 -3q14 0 23 3.5t16.5 16.5t15.5 36.5l21 64.5l-159 537h82l114 -426h2zM224 593h-55l73 141h89z" />
    <glyph glyph-name="thorn" unicode="&#xfe;" 
d="M116 237q0 -52 12 -86t30 -54t38.5 -28t37.5 -8q29 0 50.5 15.5t36 42.5t21.5 64t7 80q0 25 -2.5 59t-14 64.5t-35 51.5t-65.5 21q-39 0 -62 -22.5t-35 -56.5t-15.5 -72.5t-3.5 -70.5zM48 718h72v-267h1l15 25t23.5 29t35.5 23.5t50 9.5q43 0 76 -20t56 -55.5t35 -83
t12 -102.5q0 -47 -9 -98.5t-31 -94.5t-58 -71t-91 -28q-43 0 -71.5 21t-42.5 49h-1v-262h-72v925z" />
    <glyph glyph-name="ydieresis" unicode="&#xff;" horiz-adv-x="410" 
d="M321 523h80l-75 -256.5t-79 -256.5l-29.5 -90t-23.5 -62t-22 -39.5t-24 -21.5t-29.5 -9t-39.5 -2q-8 0 -15 2.5l-16 5.5v80q7 -3 18 -6t26 -3q14 0 23 3.5t16.5 16.5t15.5 36.5l21 64.5l-159 537h82l114 -426h2zM176 604h-74v102h74v-102zM309 604h-74v102h74v-102z" />
    <glyph glyph-name=".null" horiz-adv-x="410" 
 />
    <glyph glyph-name="apple" horiz-adv-x="500" 
 />
    <glyph glyph-name="dotlessi" unicode="&#x131;" horiz-adv-x="228" 
d="M150 0h-72v523h72v-523z" />
    <glyph glyph-name="Lslash" unicode="&#x141;" 
d="M239 462l-97 -67v-309h298v-86h-378v344l-78 -55v58l78 55v316h80v-265l97 67v-58z" />
    <glyph glyph-name="lslash" unicode="&#x142;" horiz-adv-x="182" 
d="M127 385v-385h-72v339l-71 -50v58l71 50v321h72v-275l71 50v-58z" />
    <glyph glyph-name="caron" unicode="&#x2c7;" horiz-adv-x="273" 
d="M136 641l54 93h66l-81 -141h-77l-81 141h65z" />
    <glyph glyph-name="breve" unicode="&#x2d8;" horiz-adv-x="273" 
d="M263 731q-7 -74 -42 -105t-88 -31q-41 0 -64.5 16.5t-36 38.5t-16.5 45t-5 36h40q2 -9 6 -22.5t14 -25.5q9 -13 25.5 -22t42.5 -9q25 0 40 8t24 20t13.5 25.5t7.5 25.5h39z" />
    <glyph glyph-name="dotaccent" unicode="&#x2d9;" horiz-adv-x="273" 
d="M174 604h-75v102h75v-102z" />
    <glyph glyph-name="ring" unicode="&#x2da;" horiz-adv-x="273" 
d="M137 756q32 0 53.5 -26t21.5 -66t-21.5 -66t-53.5 -26q-33 0 -54 26t-21 66t21 66t54 26zM94 664q0 -22 12.5 -37t30.5 -15t30.5 15t12.5 37t-12.5 37t-30.5 15t-30.5 -15t-12.5 -37z" />
    <glyph glyph-name="ogonek" unicode="&#x2db;" horiz-adv-x="273" 
d="M235 -203q-8 -5 -30 -13.5t-48 -8.5q-46 0 -71.5 26.5t-25.5 65.5q0 12 3 30.5t12.5 38t27 37t46.5 27.5h55v-4q-25 -17 -41 -31.5t-25 -28.5t-12.5 -29.5t-3.5 -34.5q0 -17 5 -27t12.5 -15t15 -6.5t13.5 -1.5q16 0 27 3.5t26 11.5z" />
    <glyph glyph-name="hungarumlaut" unicode="&#x2dd;" horiz-adv-x="273" 
d="M80 593h-55l73 141h90zM228 593h-55l73 141h89z" />
    <glyph glyph-name="pi" unicode="&#x3c0;" horiz-adv-x="467" 
d="M449 11q-14 -8 -27.5 -12.5t-29.5 -4.5q-25 0 -39 9.5t-21 26t-9 38.5t-2 46v296h-201v-410h-62v410h-56v69h443v-69h-62v-299q0 -22 4.5 -37.5t26.5 -15.5q17 0 35 10v-57z" />
    <glyph glyph-name="fraction" unicode="&#x2044;" horiz-adv-x="137" 
d="M-89 -19h-47l362 722h47z" />
    <glyph glyph-name="Omega" unicode="&#x2126;" horiz-adv-x="613" 
d="M354 0v183q71 17 108 78.5t37 148.5q0 52 -15 95.5t-41 75.5t-62.5 50t-78.5 18t-78.5 -18t-63 -50t-41.5 -76t-15 -95q0 -42 9.5 -80.5t27.5 -68.5t45 -50.5t63 -27.5v-183h-210v67h158v72q-38 13 -67.5 40t-49.5 63t-30.5 80t-10.5 91q0 67 21 124t56.5 97.5t83.5 63.5
t102 23t101.5 -22.5t83 -63t56.5 -97t21 -123.5q0 -48 -10 -92t-30 -80.5t-49 -63.5t-68 -40v-72h157v-67h-210z" />
    <glyph glyph-name="partialdiff" unicode="&#x2202;" horiz-adv-x="419" 
d="M385 362q0 -57 -7 -123t-27.5 -121.5t-58 -92.5t-98.5 -37q-39 0 -69.5 18.5t-52.5 49t-33.5 71.5t-11.5 86q0 44 11.5 83t32.5 68t51 46t68 17t72.5 -20.5t59.5 -55.5q0 11 0.5 22.5t0.5 22.5q0 40 -7 86t-23.5 85t-43.5 65t-68 26q-28 0 -50 -13.5t-43 -33.5l-35 50
q27 29 58 44.5t68 15.5q60 0 99.5 -33.5t63.5 -85.5t33.5 -116t9.5 -124zM319 280q-22 35 -53 60t-68 25q-27 0 -48 -13t-34.5 -34.5t-20.5 -49.5t-7 -58q0 -29 6.5 -58t20 -52t34 -37.5t47.5 -14.5q34 0 57.5 23.5t38 59t21 76t6.5 73.5z" />
    <glyph glyph-name="Delta" unicode="&#x2206;" horiz-adv-x="553" 
d="M11 0l228 712h68l236 -712h-532zM273 628l-175 -556h353z" />
    <glyph glyph-name="product" unicode="&#x220f;" horiz-adv-x="590" 
d="M469 -214v928h-349v-928h-64v1000h477v-1000h-64z" />
    <glyph glyph-name="summation" unicode="&#x2211;" horiz-adv-x="504" 
d="M20 -214v64l265 440l-253 432v64h441v-72h-358l247 -424l-262 -432h383v-72h-463z" />
    <glyph glyph-name="minus" unicode="&#x2212;" horiz-adv-x="479" 
d="M32 216v73h415v-73h-415z" />
    <glyph glyph-name="radical" unicode="&#x221a;" horiz-adv-x="413" 
d="M248 -214h-61l-133 334l-38 -22l-23 60l91 52l124 -317l151 893h62z" />
    <glyph glyph-name="infinity" unicode="&#x221e;" horiz-adv-x="622" 
d="M588 255q0 -33 -8.5 -61.5t-24 -50t-38 -33.5t-50.5 -12q-24 0 -45.5 9.5t-40.5 25.5t-36 35t-33 39l-34.5 -38.5t-36.5 -35t-40 -25t-46 -9.5q-27 0 -49.5 11.5t-38.5 32t-24.5 48.5t-8.5 61q0 32 8.5 60.5t24 49.5t37.5 33.5t49 12.5q25 0 47 -10t41.5 -26.5t36.5 -37
l34 -40.5l33 40.5t35.5 37.5t40 27.5t46.5 10.5q27 0 49.5 -12t38.5 -33t24.5 -49t8.5 -61zM535 252q0 38 -17.5 64t-50.5 26q-17 0 -33.5 -9t-32 -23t-29.5 -30l-25 -29l26.5 -30t29 -27t32 -20t35.5 -8q32 0 48.5 25t16.5 61zM276 251q-11 13 -25.5 28.5t-30.5 29t-33 23
t-34 9.5q-31 0 -48 -27t-17 -62q0 -38 18 -62t50 -24q16 0 32.5 8t32.5 21t30 27.5t25 28.5z" />
    <glyph glyph-name="integral" unicode="&#x222b;" horiz-adv-x="454" 
d="M344 730q0 -18 -10 -28t-24 -10q-10 0 -16.5 6.5t-11.5 15l-9 15t-9 6.5q-13 0 -18.5 -20t-7 -45t-0.5 -47.5t1 -28.5l1 -39v-511q0 -35 -1 -79t-10 -84t-30.5 -67t-61.5 -27q-19 0 -38 12.5t-19 39.5q0 14 9.5 25t21.5 11q9 0 15.5 -6.5t11 -14.5l8 -14.5t7.5 -6.5
q8 0 12.5 10.5t7 26t3.5 34t1 35.5t-0.5 29.5t-0.5 15.5v22v495q0 24 -0.5 54.5t1 62t6.5 62t16.5 54t31 38t49.5 14.5q10 0 21.5 -3t21 -9.5t15.5 -17.5t6 -26z" />
    <glyph glyph-name="approxequal" unicode="&#x2248;" horiz-adv-x="479" 
d="M456 415q-3 -28 -10 -54.5t-20 -46.5t-32 -32.5t-45 -12.5q-27 0 -57 11t-59.5 24.5t-57 24.5t-48.5 11q-26 0 -42 -24t-20 -53h-42q3 27 10 53.5t19.5 47.5t31.5 34t45 13t55.5 -11t59 -24.5t57.5 -24.5t52 -11q28 0 42.5 22.5t19.5 52.5h41zM455 234q-2 -28 -9 -54
t-20 -46.5t-32 -32.5t-45 -12t-56.5 11t-60.5 24.5l-57.5 25t-48.5 11.5q-26 0 -42 -24.5t-19 -53.5h-43q3 27 10 53.5t19.5 47.5t31.5 34t45 13q27 0 56 -11t58.5 -24.5t58 -24.5t52.5 -11q28 0 42 22t19 52h41z" />
    <glyph glyph-name="notequal" unicode="&#x2260;" horiz-adv-x="479" 
d="M212 114l-63 -146l-51 32l49 114h-116v72h146l55 127h-201v71h232l63 148l51 -32l-50 -116h120v-71h-150l-55 -127h205v-72h-235z" />
    <glyph glyph-name="lessequal" unicode="&#x2264;" horiz-adv-x="479" 
d="M31 266v75l416 187v-78l-335 -146l335 -145v-77zM31 -30v72h416v-72h-416z" />
    <glyph glyph-name="greaterequal" unicode="&#x2265;" horiz-adv-x="479" 
d="M31 82v77l335 145l-335 146v78l416 -187v-75zM31 -30v72h416v-72h-416z" />
    <glyph glyph-name="lozenge" unicode="&#x25ca;" horiz-adv-x="486" 
d="M272 -35h-59l-140 391l140 391h59l141 -391zM243 671l-108 -315l108 -315l108 315z" />
    <glyph glyph-name="grave.cap" unicode="&#xe300;" horiz-adv-x="273" 
d="M11 929h89l73 -141h-55z" />
    <glyph glyph-name="acute.cap" unicode="&#xe301;" horiz-adv-x="273" 
d="M155 788h-55l73 141h89z" />
    <glyph glyph-name="circumflex.cap" unicode="&#xe302;" horiz-adv-x="273" 
d="M82 788h-65l81 141h77l81 -141h-66l-54 93z" />
    <glyph glyph-name="caron.cap" unicode="&#xe303;" horiz-adv-x="273" 
d="M136 836l54 93h66l-81 -141h-77l-81 141h65z" />
    <glyph glyph-name="tilde.cap" unicode="&#xe304;" horiz-adv-x="273" 
d="M276 917q-4 -45 -25.5 -77t-56.5 -32q-11 0 -21 3t-27 10l-21 9q-22 9 -32.5 12t-17.5 3q-17 0 -25.5 -12t-13.5 -32h-39q4 44 24 75.5t61 31.5q16 0 29.5 -4.5t26.5 -10.5l18 -9q11 -6 22 -9.5t16 -3.5q12 0 19.5 4.5t12 11.5t6.5 15t3 15h41z" />
    <glyph glyph-name="dieresis.cap" unicode="&#xe305;" horiz-adv-x="273" 
d="M107 799h-74v102h74v-102zM240 799h-74v102h74v-102z" />
    <glyph glyph-name="macron.cap" unicode="&#xe306;" horiz-adv-x="273" 
d="M265 822h-257v57h257v-57z" />
    <glyph glyph-name="breve.cap" unicode="&#xe307;" horiz-adv-x="273" 
d="M263 926q-7 -74 -42 -105t-88 -31q-41 0 -64.5 16.5t-36 38.5t-16.5 45t-5 36h40q2 -9 6 -22.5t14 -25.5q9 -13 25.5 -22t42.5 -9q25 0 40 8t24 20t13.5 25.5t7.5 25.5h39z" />
    <glyph glyph-name="ring.cap" unicode="&#xe308;" horiz-adv-x="273" 
d="M137 951q32 0 53.5 -26t21.5 -66t-21.5 -66t-53.5 -26q-33 0 -54 26t-21 66t21 66t54 26zM94 859q0 -22 12.5 -37t30.5 -15t30.5 15t12.5 37t-12.5 37t-30.5 15t-30.5 -15t-12.5 -37z" />
    <glyph glyph-name="hungarumlaut.cap" unicode="&#xe309;" horiz-adv-x="273" 
d="M80 788h-55l73 141h90zM228 788h-55l73 141h89z" />
    <glyph glyph-name="fi" unicode="&#xfb01;" horiz-adv-x="410" 
d="M143 450v-450h-72v450h-60v73h60v90q0 60 29 87.5t82 27.5q8 0 16 -0.5t17 -1.5v-79q-7 1 -15 1.5t-15 0.5q-23 0 -32.5 -14.5t-9.5 -46.5v-65h72v-73h-72zM356 0h-72v523h72v-523zM284 618v100h72v-100h-72z" />
    <glyph glyph-name="fl" unicode="&#xfb02;" horiz-adv-x="410" 
d="M143 450v-450h-72v450h-60v73h60v90q0 60 29 87.5t82 27.5q8 0 16 -0.5t17 -1.5v-79q-7 1 -15 1.5t-15 0.5q-23 0 -32.5 -14.5t-9.5 -46.5v-65h72v-73h-72zM354 0h-72v718h72v-718z" />
    </font>
</defs>
</svg>
