<?xml version="1.0" standalone="no"?>
<!DOCTYPE svg PUBLIC "-//W3C//DTD SVG 1.1//EN" "http://www.w3.org/Graphics/SVG/1.1/DTD/svg11.dtd" >
<svg xmlns="http://www.w3.org/2000/svg">
<metadata></metadata>
<defs>
<font id="impact" horiz-adv-x="1047" >
<font-face units-per-em="2048" ascent="1638" descent="-410" />
<missing-glyph horiz-adv-x="361" />
<glyph horiz-adv-x="2048" />
<glyph horiz-adv-x="2048" />
<glyph unicode="&#xd;" horiz-adv-x="2048" />
<glyph unicode=" "  horiz-adv-x="361" />
<glyph unicode="&#x09;" horiz-adv-x="361" />
<glyph unicode="&#xa0;" horiz-adv-x="361" />
<glyph unicode="!" horiz-adv-x="553" d="M72 1619h444l-66 -1219h-312zM105 0v324h378v-324h-378z" />
<glyph unicode="&#x22;" horiz-adv-x="757" d="M36 1371v248h306v-248l-46 -273h-207zM415 1371v248h306v-248l-47 -273h-206z" />
<glyph unicode="#" horiz-adv-x="1283" d="M36 380v189h209l63 302h-272v190h308l84 383h189l-84 -383h355l82 383h189l-82 -383h170v-190h-206l-63 -302h269v-189h-305l-82 -380h-190l83 380h-359l-78 -380h-191l81 380h-170zM434 570h356l62 301h-355z" />
<glyph unicode="$" horiz-adv-x="1121" d="M54 1218q0 181 102.5 284t307.5 127v129h186v-129q187 -24 280 -125.5t93 -280.5q0 -25 -4 -76h-404v67q0 107 -14 140t-60 33q-37 0 -55.5 -28.5t-18.5 -85.5q0 -95 38 -133q37 -38 218 -148q154 -93 210 -142.5t94.5 -140t38.5 -225.5q0 -216 -104 -339t-312 -152v-152 h-186v157q-162 16 -283 124.5t-121 378.5v79h404v-99q0 -163 12.5 -202.5t60.5 -39.5q41 0 61 27.5t20 81.5q0 136 -19 194.5t-130 127.5q-185 116 -251.5 170.5t-115 153.5t-48.5 224z" />
<glyph unicode="%" horiz-adv-x="1419" d="M36 1052v291q0 120 24.5 177.5t94.5 93.5t173 36q114 0 185 -39.5t95 -95.5t24 -172v-278q0 -109 -20.5 -163.5t-88 -95t-178.5 -40.5q-128 0 -195 38.5t-90.5 92.5t-23.5 155zM291 1006q0 -70 7 -84t37 -14q26 0 33.5 16t7.5 75v415q0 64 -6.5 79t-35.5 15 q-27 0 -35 -16t-8 -78v-408zM316 -31l635 1681h152l-633 -1681h-154zM787 269v292q0 119 24.5 176.5t94.5 94t173 36.5q115 0 186 -40t94.5 -96t23.5 -171v-279q0 -108 -20.5 -163t-88 -95.5t-178.5 -40.5q-127 0 -194.5 39t-91 93t-23.5 154zM1043 223q0 -69 7 -83t36 -14 q27 0 34 15.5t7 75.5v414q0 64 -6.5 79.5t-35.5 15.5q-27 0 -34.5 -16t-7.5 -79v-408z" />
<glyph unicode="&#x26;" horiz-adv-x="1180" d="M36 365q0 132 56 207t168 122q-160 115 -160 311q0 169 114 272t314 103q180 0 283.5 -101t103.5 -257q0 -164 -126 -291l143 -258l220 142v-273l-114 -72l142 -270h-373l-49 90q-188 -124 -356 -124q-176 0 -271 117t-95 282zM414 344q0 -57 23.5 -85.5t69.5 -28.5 q49 0 113 43l-131 218q-75 -68 -75 -147zM454 1073q0 -94 75 -174q68 89 68 170q0 35 -20 64t-56 29q-33 0 -50 -22t-17 -67z" />
<glyph unicode="'" horiz-adv-x="379" d="M36 1371v248h306v-248l-46 -273h-207z" />
<glyph unicode="(" horiz-adv-x="642" d="M84 396v827q0 204 26 268t111 96t257 32h127v-211q-83 0 -107.5 -7t-36 -32.5t-11.5 -144.5v-829q0 -111 9 -138.5t33.5 -36.5t112.5 -9v-211h-127q-176 0 -258.5 32.5t-109 95.5t-26.5 268z" />
<glyph unicode=")" horiz-adv-x="642" d="M36 0v211q89 0 113 9t33.5 36.5t9.5 138.5v829q0 119 -12 144.5t-36.5 32.5t-107.5 7v211h127q172 0 257 -32t111 -96t26 -268v-827q0 -205 -26 -268t-109 -95.5t-259 -32.5h-127z" />
<glyph unicode="*" horiz-adv-x="575" d="M30 1391l43 118l153 -51v161h126v-161l148 51l45 -118l-148 -62l93 -132l-100 -74l-101 133l-99 -133l-105 74l94 137z" />
<glyph unicode="+" horiz-adv-x="1092" d="M64 686v244h359v360h244v-360h361v-244h-361v-358h-244v358h-359z" />
<glyph unicode="," horiz-adv-x="344" d="M36 0v317h271v-145q0 -114 -27 -187t-93.5 -124t-150.5 -68v116q60 34 68 91h-68z" />
<glyph unicode="-" horiz-adv-x="603" d="M36 524v279h531v-279h-531z" />
<glyph unicode="." horiz-adv-x="378" d="M36 0v330h305v-330h-305z" />
<glyph unicode="/" horiz-adv-x="810" d="M12 -31l483 1681h303l-480 -1681h-306z" />
<glyph unicode="0" horiz-adv-x="1098" d="M72 506v565q0 223 38.5 334t153 178t277.5 67q133 0 238 -46.5t157 -113.5t70.5 -151t18.5 -268v-540q0 -184 -20 -268t-83 -157t-152 -105t-199 -32q-145 0 -241 33.5t-153 104.5t-81 149.5t-24 249.5zM476 417q0 -141 13.5 -170t58.5 -29t59 34t14 153v802 q0 129 -12.5 161.5t-58.5 32.5q-45 0 -59.5 -34.5t-14.5 -159.5v-790z" />
<glyph unicode="1" horiz-adv-x="780" d="M12 1171v189q293 63 445 259h238v-1619h-404v868q0 188 -9 226t-49.5 57.5t-180.5 19.5h-40z" />
<glyph unicode="2" horiz-adv-x="1028" d="M54 0v231q395 646 469.5 799.5t74.5 239.5q0 66 -22.5 98.5t-68.5 32.5t-68.5 -36t-22.5 -143v-154h-362v59q0 136 14 214.5t69 154.5t143 115t211 39q241 0 364.5 -119.5t123.5 -302.5q0 -139 -69.5 -294t-409.5 -658h443v-276h-889z" />
<glyph unicode="3" horiz-adv-x="1086" d="M60 515v128h404v-263q0 -105 12.5 -133.5t55.5 -28.5q47 0 62 36t15 188v112q0 93 -21 136t-62 56.5t-159 15.5v235q144 0 178 11t49 48t15 116v90q0 85 -17.5 112t-54.5 27q-42 0 -57.5 -28.5t-15.5 -121.5v-133h-404v138q0 232 106 313.5t337 81.5q289 0 392 -113 t103 -314q0 -136 -37 -196.5t-130 -110.5q92 -31 137 -101.5t45 -330.5q0 -193 -44 -299.5t-152 -162t-277 -55.5q-192 0 -301.5 64.5t-144 158t-34.5 324.5z" />
<glyph unicode="4" horiz-adv-x="1023" d="M12 285v276l349 1058h535v-1058h115v-276h-115v-285h-404v285h-480zM314 561h178v689z" />
<glyph unicode="5" horiz-adv-x="1099" d="M66 520v88h404v-101q0 -157 11 -223t76 -66q30 0 48.5 19t20 41t3.5 191v321q0 91 -19 124t-63 33q-28 0 -47 -17t-24.5 -36.5t-5.5 -90.5h-400l17 816h867v-259h-501v-275q94 111 242 111q167 0 252.5 -93.5t85.5 -359.5v-231q0 -172 -16.5 -252.5t-70.5 -149 t-150.5 -105t-235.5 -36.5q-156 0 -275 54.5t-169 162.5t-50 334z" />
<glyph unicode="6" horiz-adv-x="1109" d="M72 682v224q0 289 8.5 386.5t69.5 184.5t166.5 130.5t243.5 43.5q170 0 279 -55t156 -155t47 -252h-404q0 113 -2.5 142.5t-24 49.5t-58.5 20q-31 0 -51 -19t-23 -49t-3 -121v-258q31 65 91 97.5t148 32.5q111 0 196 -60t108 -144t23 -227v-129q0 -170 -13 -253 t-69.5 -153.5t-155 -109.5t-229.5 -39q-163 0 -267 45t-160.5 129.5t-66 177.5t-9.5 361zM476 391q0 -107 18.5 -140t61.5 -33q26 0 54 25.5t28 137.5v303q0 86 -19 118t-62 32q-42 0 -61.5 -30.5t-19.5 -119.5v-293z" />
<glyph unicode="7" horiz-adv-x="802" d="M12 1328v291h772v-353l-258 -1266h-402l287 1328h-399z" />
<glyph unicode="8" horiz-adv-x="1095" d="M66 490q0 147 22.5 255t141.5 173q-75 36 -112.5 114.5t-37.5 199.5q0 209 116 313.5t347 104.5q267 0 369 -111t102 -317q0 -131 -33.5 -189t-137.5 -115q89 -36 137 -107.5t48 -340.5q0 -196 -38 -289t-148 -152.5t-295 -59.5q-180 0 -285 57t-150.5 151t-45.5 313z M470 383q0 -105 19.5 -135t61.5 -30q43 0 58 30.5t15 137.5v207q0 93 -19 123.5t-60 30.5q-40 0 -57.5 -29.5t-17.5 -124.5v-210zM478 1143q0 -73 16 -101t54 -28q40 0 54 27.5t14 113.5v111q0 82 -14.5 108.5t-55.5 26.5q-40 0 -54 -28.5t-14 -106.5v-123z" />
<glyph unicode="9" horiz-adv-x="1109" d="M72 430h404q0 -113 3 -142.5t24.5 -49.5t58.5 -20q31 0 51 19t22.5 49t2.5 121v258q-30 -65 -90 -97.5t-149 -32.5q-111 0 -196 60t-108 144t-23 227v129q0 170 13.5 253t69.5 153.5t155 109.5t230 39q162 0 266 -45t161 -129.5t66 -177.5t9 -360v-225q0 -289 -8 -386.5 t-69.5 -184.5t-166.5 -130.5t-243 -43.5q-171 0 -279.5 55t-156 155t-47.5 252zM476 935q0 -102 26.5 -126t54.5 -24q42 0 61.5 30.5t19.5 119.5v293q0 107 -18.5 140t-61.5 33q-26 0 -54 -25.5t-28 -137.5v-303z" />
<glyph unicode=":" horiz-adv-x="414" d="M72 0v330h305v-330h-305zM72 725v329h305v-329h-305z" />
<glyph unicode=";" horiz-adv-x="414" d="M72 725v329h305v-329h-305zM89 0v317h271v-145q0 -114 -27 -187t-93.5 -124t-150.5 -68v116q60 34 68 91h-68z" />
<glyph unicode="&#x3c;" horiz-adv-x="1092" d="M65 725v203l962 402v-264l-594 -239l594 -238v-265z" />
<glyph unicode="=" horiz-adv-x="1092" d="M65 496v244h962v-244h-962zM65 878v244h962v-244h-962z" />
<glyph unicode="&#x3e;" horiz-adv-x="1092" d="M65 324v264l594 239l-594 238v265l962 -400v-204z" />
<glyph unicode="?" horiz-adv-x="1075" d="M84 1097q2 213 36 311t147.5 171.5t289.5 73.5q127 0 222 -40t151 -111.5t82 -154.5t26 -260v-198q0 -135 -25 -217t-109 -144t-197 -62q-147 0 -219 115v-174h-377v445h368q2 -92 66 -92q50 0 63.5 40.5t13.5 198.5v269q0 89 -12.5 119.5t-49.5 30.5q-46 0 -59 -40.5 t-13 -182.5v-98h-404zM111 0v324h377v-324h-377z" />
<glyph unicode="@" horiz-adv-x="1587" d="M36 763q0 374 214 632t595 258q227 0 371 -87.5t240.5 -244t96.5 -387.5q0 -307 -171 -483.5t-343 -176.5q-129 0 -157 116q-68 -66 -117.5 -91.5t-118.5 -25.5q-149 0 -239 116t-90 310q0 250 125.5 444.5t305.5 194.5q72 0 130 -36t101 -108l16 114h198l-127 -792 q-4 -26 -4 -35q0 -39 37 -39q60 0 130.5 57.5t123 170.5t52.5 264q0 255 -153.5 412.5t-402.5 157.5q-289 0 -477 -199.5t-188 -532.5q0 -321 183.5 -509.5t467.5 -188.5q140 0 266 47t239 140h210q-130 -166 -322.5 -251t-391.5 -85q-341 0 -570.5 230.5t-229.5 607.5z M525 642q0 -94 40 -159t107 -65q65 0 114.5 51t91.5 209.5t42 302.5q0 90 -38 145.5t-103 55.5q-122 0 -188 -171.5t-66 -368.5z" />
<glyph unicode="A" horiz-adv-x="1040" d="M-12 0l214 1619h609l241 -1619h-431l-21 291h-151l-25 -291h-436zM444 578h144q-32 275 -64 679q-64 -464 -80 -679z" />
<glyph unicode="B" horiz-adv-x="1131" d="M84 0v1619h420q199 0 301.5 -31t165.5 -125.5t63 -304.5q0 -142 -44.5 -198t-175.5 -86q146 -33 198 -109.5t52 -234.5v-150q0 -164 -37.5 -243t-119.5 -108t-336 -29h-487zM505 277q89 3 113.5 28t24.5 123v151q0 104 -22 126t-116 25v-453zM505 982q27 1 42 1 q62 0 79 30.5t17 174.5q0 76 -14 106.5t-36.5 38.5t-87.5 9v-360z" />
<glyph unicode="C" horiz-adv-x="1134" d="M72 575v473q0 175 12 262.5t71.5 168.5t165 127.5t242.5 46.5q186 0 307 -72t159 -179.5t38 -334.5v-154h-421v282q0 123 -13.5 153.5t-59.5 30.5q-52 0 -66 -37t-14 -160v-752q0 -118 14 -154t63 -36q47 0 61.5 36t14.5 169v203h421v-63q0 -251 -35.5 -356t-157 -184 t-299.5 -79q-185 0 -305 67t-159 185.5t-39 356.5z" />
<glyph unicode="D" horiz-adv-x="1132" d="M84 0v1619h315q305 0 412.5 -28t163.5 -92t70 -142.5t14 -308.5v-567q0 -218 -20.5 -291.5t-71.5 -115t-126 -58t-226 -16.5h-531zM505 277q91 0 112 36.5t21 198.5v629q0 110 -7 141t-32 45.5t-94 14.5v-1065z" />
<glyph unicode="E" horiz-adv-x="851" d="M84 0v1619h702v-324h-281v-307h263v-308h-263v-356h309v-324h-730z" />
<glyph unicode="F" horiz-adv-x="815" d="M84 0v1619h713v-324h-292v-307h260v-308h-260v-680h-421z" />
<glyph unicode="G" horiz-adv-x="1129" d="M72 555v481q0 232 25 337t143.5 192.5t306.5 87.5q185 0 307 -76t159 -180.5t37 -303.5v-70h-421v147q0 139 -12 174t-57 35q-39 0 -53 -30t-14 -154v-777q0 -109 14 -143.5t56 -34.5q46 0 62.5 39t16.5 152v192h-85v246h493v-869h-265l-39 116q-43 -75 -108.5 -112.5 t-154.5 -37.5q-106 0 -198.5 51.5t-140.5 127.5t-60 159.5t-12 250.5z" />
<glyph unicode="H" horiz-adv-x="1137" d="M84 0v1619h421v-579h126v579h421v-1619h-421v680h-126v-680h-421z" />
<glyph unicode="I" horiz-adv-x="590" d="M84 0v1619h421v-1619h-421z" />
<glyph unicode="J" horiz-adv-x="678" d="M18 0v283q38 -3 55 -3q45 0 71 22t30 54t4 124v1139h421v-1082q0 -243 -5 -312.5t-45.5 -125.5t-110 -77.5t-209.5 -21.5h-211z" />
<glyph unicode="K" horiz-adv-x="1099" d="M84 0v1619h421v-629l187 629h395l-241 -731l264 -888h-435l-170 694v-694h-421z" />
<glyph unicode="L" horiz-adv-x="779" d="M84 0v1619h421v-1295h256v-324h-677z" />
<glyph unicode="M" horiz-adv-x="1468" d="M84 0v1619h545q24 -146 51 -344l58 -412l96 756h549v-1619h-368v1093l-147 -1093h-261l-155 1068v-1068h-368z" />
<glyph unicode="N" horiz-adv-x="1109" d="M84 0v1619h352l236 -729v729h352v-1619h-369l-219 736v-736h-352z" />
<glyph unicode="O" horiz-adv-x="1119" d="M72 671v277q0 244 11.5 345.5t72 185.5t163.5 129t240 45q130 0 233.5 -42.5t166.5 -127.5t75 -185t12 -350v-277q0 -244 -11.5 -345.5t-72 -185.5t-163.5 -129t-240 -45q-130 0 -233.5 42.5t-166.5 127.5t-75 185t-12 350zM493 447q0 -141 11.5 -174t53.5 -33 q43 0 55 38t12 181v744q0 113 -12.5 144.5t-51.5 31.5q-33 0 -50.5 -25.5t-17.5 -150.5v-756z" />
<glyph unicode="P" horiz-adv-x="1028" d="M84 0v1619h424q172 0 264.5 -27t139 -78t63 -123.5t16.5 -224.5v-141q0 -155 -32 -226t-117.5 -109t-223.5 -38h-113v-652h-421zM505 930q18 -1 31 -1q58 0 80.5 28.5t22.5 118.5v133q0 83 -26 108t-108 25v-412z" />
<glyph unicode="Q" horiz-adv-x="1119" d="M72 583v501q0 165 19.5 251.5t80.5 163t157 115.5t213 39q141 0 251.5 -48t165 -122t71 -153.5t16.5 -236.5v-526q0 -216 -21 -293t-80.5 -122.5t-158.5 -69.5q3 -54 22.5 -68t92.5 -14h146v-196h-318q-115 0 -162 17.5t-63.5 52.5t-16.5 126q-143 4 -246 75t-136 180.5 t-33 327.5zM493 447q0 -141 11.5 -174t53.5 -33q43 0 55 38t12 181v744q0 113 -12.5 144.5t-51.5 31.5q-33 0 -50.5 -25.5t-17.5 -150.5v-756z" />
<glyph unicode="R" horiz-adv-x="1103" d="M84 0v1619h298q298 0 403.5 -23t172 -117.5t66.5 -301.5q0 -189 -47 -254t-185 -78q125 -31 168 -83t53.5 -95.5t10.5 -239.5v-427h-391v538q0 130 -20.5 161t-107.5 31v-730h-421zM505 982q71 0 99.5 19.5t28.5 126.5v89q0 77 -27.5 101t-100.5 24v-360z" />
<glyph unicode="S" horiz-adv-x="1059" d="M49 1198q0 186 47.5 272t153.5 134.5t256 48.5q164 0 279.5 -53t153 -133.5t37.5 -273.5v-64h-391v120q0 84 -15 107t-50 23q-38 0 -57.5 -31t-19.5 -94q0 -81 22 -122q21 -41 119 -99q281 -167 354 -274t73 -345q0 -173 -40.5 -255t-156.5 -137.5t-270 -55.5 q-169 0 -288.5 64t-156.5 163t-37 281v106h391v-197q0 -91 16.5 -117t58.5 -26t62.5 33t20.5 98q0 143 -39 187q-40 44 -197 147q-157 104 -208 151t-84.5 130t-33.5 212z" />
<glyph unicode="T" horiz-adv-x="944" d="M12 1295v324h920v-324h-250v-1295h-421v1295h-249z" />
<glyph unicode="U" horiz-adv-x="1120" d="M78 661v958h421v-1214q0 -106 11.5 -135.5t46.5 -29.5q40 0 51.5 32.5t11.5 153.5v1193h421v-1082q0 -184 -12 -258.5t-71 -153t-155.5 -119t-227.5 -40.5q-145 0 -256 48t-166 125t-65 162.5t-10 359.5z" />
<glyph unicode="V" horiz-adv-x="1072" d="M-12 1619h444q77 -669 110 -1131q33 467 69 830l29 301h444l-214 -1619h-639z" />
<glyph unicode="W" horiz-adv-x="1668" d="M0 1619h409l43 -565l44 -545q23 423 116 1110h438q9 -71 46 -534l46 -615q35 587 117 1149h409l-187 -1619h-526q-72 373 -127 848q-25 -203 -117 -848h-523z" />
<glyph unicode="X" horiz-adv-x="988" d="M0 0l152 903l-152 716h407q11 -67 44 -223q26 -119 43 -218l90 441h353l-147 -716l222 -903h-390q-70 242 -128 589q-16 -153 -44 -325l-40 -264h-410z" />
<glyph unicode="Y" horiz-adv-x="969" d="M-12 1619h387q91 -473 102 -637q35 259 117 637h387l-307 -1033v-586h-390v586z" />
<glyph unicode="Z" horiz-adv-x="813" d="M12 0v235l324 1060h-286v324h738v-324l-314 -971h314v-324h-776z" />
<glyph unicode="[" horiz-adv-x="578" d="M84 0v1619h457v-249h-91v-1121h91v-249h-457z" />
<glyph unicode="\" horiz-adv-x="810" d="M12 1650h303l483 -1681h-305z" />
<glyph unicode="]" horiz-adv-x="578" d="M36 0v249h91v1121h-91v249h457v-1619h-457z" />
<glyph unicode="^" horiz-adv-x="990" d="M12 820l376 799h223l366 -799h-284l-198 489l-197 -489h-286z" />
<glyph unicode="_" horiz-adv-x="1131" d="M-12 -154h1155v-102h-1155v102z" />
<glyph unicode="`" horiz-adv-x="683" d="M0 1772h356l176 -271h-203z" />
<glyph unicode="a" horiz-adv-x="1032" d="M54 296v109q0 149 47 203t233 126q199 78 213 105t14 110q0 104 -15.5 135.5t-51.5 31.5q-41 0 -51 -26.5t-10 -137.5v-139h-379v89q0 154 35.5 237.5t142.5 147.5t278 64q205 0 309 -72.5t125 -178t21 -434.5v-666h-393v118q-37 -71 -95.5 -106.5t-139.5 -35.5 q-106 0 -194.5 59.5t-88.5 260.5zM433 374q0 -103 13.5 -133t53.5 -30q38 0 49.5 23.5t11.5 123.5v273q-97 -71 -112.5 -119t-15.5 -138z" />
<glyph unicode="b" horiz-adv-x="1064" d="M72 0v1619h404v-383q50 58 111.5 86.5t133.5 28.5q83 0 144 -26t93 -73t38.5 -92t6.5 -192v-598q0 -146 -19.5 -217.5t-91.5 -124t-171 -52.5q-71 0 -132.5 31t-112.5 93l-26 -100h-378zM476 378q0 -107 12.5 -137t49.5 -30q38 0 49.5 31t11.5 149v559q0 103 -13 134.5 t-51 31.5q-37 0 -48 -27.5t-11 -138.5v-572z" />
<glyph unicode="c" horiz-adv-x="1013" d="M60 498v377q0 169 34 255t145 153.5t270 67.5q158 0 270 -67t149 -169t37 -289h-381v153q0 80 -13 108.5t-48 28.5t-47 -25t-12 -112v-626q0 -71 18 -106.5t53 -35.5q41 0 55.5 37t14.5 140v158h360q-1 -159 -11.5 -238.5t-67 -163t-147.5 -126t-225 -42.5 q-171 0 -271 58.5t-141.5 164t-41.5 299.5z" />
<glyph unicode="d" horiz-adv-x="1064" d="M60 352v621q0 153 19.5 217t89.5 112.5t167 48.5q75 0 137.5 -27t113.5 -81v376h404v-1619h-404v96q-58 -60 -122 -90t-134 -30q-94 0 -163 49.5t-88.5 114.5t-19.5 212zM464 343q0 -81 12 -106.5t46 -25.5q39 0 52 28.5t13 139.5v614q0 73 -12.5 98t-49.5 25 q-36 0 -48.5 -22.5t-12.5 -100.5v-650z" />
<glyph unicode="e" d="M60 482v387q0 174 47 274.5t154 154t246 53.5q170 0 280.5 -64.5t155 -171t44.5 -299.5v-176h-523v-287q0 -90 13 -116t50 -26q46 0 61.5 34.5t15.5 133.5v175h383v-98q0 -123 -15.5 -189t-72.5 -141t-144.5 -112.5t-219.5 -37.5q-128 0 -226 37t-152.5 101.5t-75.5 142 t-21 225.5zM464 856h118v97q0 103 -11 133t-45 30q-42 0 -52 -25.5t-10 -137.5v-97z" />
<glyph unicode="f" horiz-adv-x="592" d="M4 1085v210h83q0 131 9 175t44.5 78.5t99.5 52.5t199 18h148v-205q-125 0 -147.5 -11.5t-22.5 -65.5v-42h170v-210h-96v-1085h-404v1085h-83z" />
<glyph unicode="g" horiz-adv-x="1062" d="M60 94h392q0 -88 64 -88q46 0 61 27t15 113v100q-52 -47 -109.5 -71t-120.5 -24q-109 0 -179.5 44t-96.5 115.5t-26 203.5v482q0 189 68 272t207 83q76 0 138.5 -31t111.5 -93l29 100h376v-1022q0 -207 -9.5 -267.5t-67.5 -128t-161.5 -103t-260.5 -35.5 q-193 0 -310 65.5t-121 257.5zM464 529q0 -89 11 -115.5t46 -26.5q40 0 52 32t12 145v411q0 91 -10.5 116t-46.5 25q-35 0 -49.5 -28.5t-14.5 -112.5v-446z" />
<glyph unicode="h" horiz-adv-x="1073" d="M72 0v1619h404v-364q52 48 112.5 72t129.5 24q106 0 180.5 -54t91 -124.5t16.5 -257.5v-915h-404v934q0 116 -11.5 149t-51.5 33q-37 0 -50 -34t-13 -135v-947h-404z" />
<glyph unicode="i" horiz-adv-x="561" d="M72 0v1327h416v-1327h-416zM72 1408v211h416v-211h-416z" />
<glyph unicode="j" horiz-adv-x="573" d="M-6 26q72 0 81 16t9 200v1085h416v-1050q0 -185 -7.5 -250.5t-46 -115t-103 -73.5t-193.5 -24h-156v212zM84 1408v211h416v-211h-416z" />
<glyph unicode="k" horiz-adv-x="979" d="M72 0v1619h404v-680l126 388h340l-164 -529l213 -798h-389l-126 578v-578h-404z" />
<glyph unicode="l" horiz-adv-x="561" d="M72 0v1619h416v-1619h-416z" />
<glyph unicode="m" horiz-adv-x="1579" d="M72 0v1327h399l-7 -126q47 75 112 112.5t148 37.5q162 0 255 -150q51 75 115 112.5t142 37.5q103 0 170.5 -50t86.5 -122.5t19 -235.5v-943h-392v865q0 170 -11.5 210.5t-53.5 40.5q-43 0 -55.5 -40t-12.5 -211v-865h-392v843q0 195 -9.5 234t-52.5 39q-27 0 -46 -20.5 t-21 -50t-2 -125.5v-920h-392z" />
<glyph unicode="n" horiz-adv-x="1071" d="M72 0v1327h411l-7 -122q44 73 107.5 109.5t146.5 36.5q104 0 170 -49t85 -123.5t19 -248.5v-930h-404v919q0 137 -9 167t-50 30q-43 0 -54 -34.5t-11 -184.5v-897h-404z" />
<glyph unicode="o" d="M60 492v340q0 185 40 289t144 167t266 63q136 0 233.5 -40.5t150.5 -105.5t72.5 -134t19.5 -210v-325q0 -179 -18 -262.5t-77 -156t-151.5 -107t-212.5 -34.5q-134 0 -227 29.5t-144.5 89t-73.5 144t-22 253.5zM464 362q0 -94 12 -122.5t47 -28.5q36 0 47.5 26t11.5 112 v612q0 102 -11 128.5t-47 26.5t-48 -26.5t-12 -128.5v-599z" />
<glyph unicode="p" horiz-adv-x="1063" d="M72 -189v1516h411l-7 -117q54 71 119 106t142 35q94 0 162.5 -50.5t85.5 -116.5t17 -224v-559q0 -181 -21.5 -257.5t-88 -122t-160.5 -45.5q-75 0 -139 35t-117 104v-304h-404zM476 391q0 -120 12 -150t52 -30q39 0 48.5 27.5t9.5 133.5v569q0 123 -9 149t-50 26 q-40 0 -51.5 -30t-11.5 -145v-550z" />
<glyph unicode="q" horiz-adv-x="1061" d="M60 399v585q0 135 18 201.5t86.5 116t162.5 49.5q76 0 140 -34t117 -103l7 113h397v-1516h-404v296q-59 -86 -108.5 -108.5t-122.5 -22.5q-106 0 -175.5 50t-93.5 129.5t-24 243.5zM464 375q0 -107 12 -135.5t49 -28.5q35 0 47 29.5t12 128.5v597q0 88 -13.5 119 t-48.5 31q-34 0 -46 -27t-12 -123v-591z" />
<glyph unicode="r" horiz-adv-x="733" d="M72 0v1327h404l-16 -174q88 187 255 198v-467q-111 0 -163 -30t-64 -83.5t-12 -246.5v-524h-404z" />
<glyph unicode="s" horiz-adv-x="964" d="M42 959q0 159 42 234.5t142.5 116.5t233.5 41q132 0 224.5 -33.5t142 -88.5t60 -102t10.5 -147v-77h-358v72q0 92 -10.5 116.5t-52.5 24.5q-34 0 -51 -22.5t-17 -67.5q0 -61 8.5 -89.5t51 -62.5t174.5 -99q176 -86 231 -162t55 -221q0 -162 -42 -244.5t-140.5 -127 t-237.5 -44.5q-154 0 -263.5 48t-150.5 130t-41 248v64h358v-84q0 -107 13.5 -139t53.5 -32q43 0 60 21.5t17 90.5q0 95 -22 119q-23 24 -235 142q-178 100 -217 181.5t-39 193.5z" />
<glyph unicode="t" horiz-adv-x="624" d="M6 1085v210h87v209h405v-209h109v-210h-109v-710q0 -131 13.5 -146t112.5 -15v-214h-163q-138 0 -197 11.5t-104 53t-56 95t-11 251.5v674h-87z" />
<glyph unicode="u" horiz-adv-x="1070" d="M66 432v895h404v-903q0 -155 9.5 -184t51.5 -29q45 0 53.5 30t8.5 193v893h404v-1327h-411l7 110q-42 -67 -103.5 -100.5t-141.5 -33.5q-91 0 -151 32t-88.5 85t-35.5 110.5t-7 228.5z" />
<glyph unicode="v" horiz-adv-x="895" d="M-12 1327h361l113 -968q13 106 44 520q18 231 40 448h361l-189 -1327h-527z" />
<glyph unicode="w" horiz-adv-x="1371" d="M-6 1327h348q4 -52 88 -759q6 72 90 759h335l82 -759q19 332 92 759h348l-161 -1327h-439q-36 243 -83 640q-16 -174 -45 -352l-45 -288h-439z" />
<glyph unicode="x" horiz-adv-x="888" d="M0 0l174 693l-174 634h338q81 -406 87 -461q58 339 88 461h359l-161 -634l195 -693h-393q-58 262 -88 451q-40 -236 -87 -451h-338z" />
<glyph unicode="y" horiz-adv-x="918" d="M-12 1327h367l132 -895l64 895h367l-116 -960q-27 -228 -45.5 -311t-61.5 -137t-119.5 -79.5t-244.5 -25.5h-245v212q94 0 121 9.5t27 42.5q0 16 -25 139z" />
<glyph unicode="z" horiz-adv-x="719" d="M12 0v278l305 783h-274v266h658v-294l-298 -767h298v-266h-689z" />
<glyph unicode="{" horiz-adv-x="757" d="M36 538v240q109 1 164 64.5t55 285.5q0 169 12.5 250.5t60.5 136.5t124 79.5t215 24.5h53v-239q-145 0 -173.5 -30t-30.5 -117q-6 -240 -15.5 -312t-44 -137.5t-128.5 -125.5q89 -54 129.5 -129t47.5 -216l15 -291q9 -42 43 -63.5t156 -21.5v-240h-52q-160 0 -247 36.5 t-126 119.5t-39 268q0 204 -14 261t-54 104.5t-151 51.5z" />
<glyph unicode="|" horiz-adv-x="555" d="M169 -265v1884h217v-1884h-217z" />
<glyph unicode="}" horiz-adv-x="757" d="M36 1380v239h53q160 0 247 -36.5t126 -119.5t39 -268q0 -212 15.5 -267t55 -100.5t148.5 -49.5v-240q-109 -1 -164 -65t-55 -284q0 -170 -12 -251.5t-60 -136.5t-124 -79.5t-215 -24.5h-53v240q139 0 170.5 29t33.5 118q6 256 18.5 328.5t50 135.5t118.5 110 q-86 56 -120 110t-46 117.5t-18 236t-14 197.5t-38.5 43t-155.5 18z" />
<glyph unicode="~" horiz-adv-x="1075" d="M57 623v277q147 128 289 128q85 0 232 -70q119 -57 169 -57q46 0 98 26.5t173 134.5v-275q-158 -131 -284 -131q-86 0 -256 82q-97 47 -142 47q-109 0 -279 -162z" />
<glyph unicode="&#xa1;" horiz-adv-x="553" d="M36 -195l66 1219h312l66 -1219h-444zM69 1100v324h378v-324h-378z" />
<glyph unicode="&#xa2;" horiz-adv-x="1059" d="M60 589v298q0 202 25.5 300t119.5 178.5t238 109.5v137h186v-137q98 -18 178.5 -67.5t126.5 -117.5t58 -136.5t12 -231.5h-404v135q0 116 -12.5 146.5t-55.5 30.5q-41 0 -54.5 -26t-13.5 -137v-621q0 -109 13 -139.5t53 -30.5q50 0 68.5 41t18.5 173v146h387q1 -45 1 -66 q0 -239 -89.5 -366t-286.5 -170v-165h-186v165q-132 18 -233 98.5t-125.5 168t-24.5 284.5z" />
<glyph unicode="&#xa3;" horiz-adv-x="1096" d="M72 -31v236q43 29 70.5 73.5t50.5 146t23 176.5q0 16 -1 44h-143v276h99q-84 160 -84 306q0 209 129 316t328 107q213 0 339 -112.5t126 -307.5q0 -53 -10 -132h-362v147q0 98 -3.5 124.5t-24 47t-51.5 20.5q-40 0 -66 -34t-26 -77q0 -55 44 -207q47 -166 48 -198h255 v-276h-231q-3 -272 -194 -409q18 2 45 6q30 5 54 5q33 0 92 -10q23 -4 41 -4q40 0 65 25q24 25 24 132q0 16 -1 64h340l-1 -129q0 -145 -21 -208.5t-94 -105.5t-184 -42q-70 0 -205 34q-131 34 -226 34q-150 0 -245 -68z" />
<glyph unicode="&#xa4;" horiz-adv-x="1123" d="M36 286l132 130q-74 119 -74 254q0 126 74 249l-132 133l140 142l133 -133q62 37 124.5 55.5t126.5 18.5t127.5 -18.5t126.5 -55.5l132 133l140 -142l-131 -133q73 -121 73 -249q0 -135 -73 -254l131 -130l-140 -141l-132 129q-59 -37 -123 -55.5t-132 -18.5 q-65 0 -127.5 18.5t-122.5 55.5l-130 -129zM293 674q0 -119 80 -196.5t188 -77.5q111 0 189.5 78.5t78.5 188.5q0 111 -78.5 189.5t-189.5 78.5q-115 0 -191.5 -81.5t-76.5 -179.5z" />
<glyph unicode="&#xa5;" horiz-adv-x="969" d="M-12 1619h387q91 -473 102 -637q35 259 117 637h387l-189 -637h174v-172h-225l-67 -224h292v-171h-292v-415h-390v415h-282v171h282l-64 224h-218v172h168z" />
<glyph unicode="&#xa6;" horiz-adv-x="555" d="M169 -265v815h217v-815h-217zM169 804v815h217v-815h-217z" />
<glyph unicode="&#xa7;" horiz-adv-x="991" d="M36 694q0 165 216 289q-84 76 -126.5 156t-42.5 164q0 131 102.5 240.5t306.5 109.5q162 0 273.5 -83.5t111.5 -296.5h-319v25q0 50 -20.5 75t-62.5 25q-30 0 -45 -14.5t-15 -44.5q0 -31 31 -67q30 -36 161 -131q235 -170 291.5 -247t56.5 -165q0 -184 -217 -285 q86 -89 129 -169.5t43 -153.5q0 -134 -110.5 -242t-306.5 -108q-167 0 -272 90.5t-108 284.5h320q0 -129 79 -129q32 0 47.5 16.5t15.5 49.5q0 36 -31 71q-31 34 -108 90q-228 163 -314 253.5t-86 196.5zM347 794q0 -29 25 -55.5t129 -100.5q71 -52 108 -80q35 32 35 75 q0 30 -34.5 64t-140.5 109q-45 32 -87 63q-35 -36 -35 -75z" />
<glyph unicode="&#xa8;" horiz-adv-x="683" d="M-7 1501v260h261v-260h-261zM430 1501v260h261v-260h-261z" />
<glyph unicode="&#xa9;" horiz-adv-x="1605" d="M36 766q0 218 113.5 401t291.5 274t341 91q348 0 567 -230t219 -536q0 -316 -225 -541t-541 -225q-318 0 -542 224.5t-224 541.5zM187 766q0 -253 180.5 -434t434.5 -181t434.5 181t180.5 434q0 264 -186.5 439.5t-412.5 175.5q-276 0 -453.5 -183t-177.5 -432zM426 762 q0 199 106 313.5t274 114.5q256 0 343 -243l-162 -38q-52 139 -178 139q-100 0 -153.5 -75.5t-53.5 -199.5q0 -139 51.5 -215.5t145.5 -76.5q135 0 189 172l161 -55q-81 -260 -339 -260q-175 0 -279.5 115.5t-104.5 308.5z" />
<glyph unicode="&#xaa;" horiz-adv-x="665" d="M36 1013v65q0 96 33.5 129.5t182.5 86.5q105 38 109.5 55.5t4.5 43.5q0 65 -9.5 82t-35.5 17q-27 0 -33 -13.5t-6 -78.5v-38h-246q0 99 22 150.5t91 92.5t181 41q132 0 199 -42t83 -106t16 -270v-394h-255v69q-25 -44 -63 -66t-89 -22q-92 0 -138.5 49.5t-46.5 148.5z M283 1062q0 -53 8 -69t35 -16q26 0 33 13t7 69v150q-56 -41 -69.5 -61.5t-13.5 -85.5z" />
<glyph unicode="&#xab;" horiz-adv-x="760" d="M36 695l84 543h237l-84 -543l84 -571h-237zM402 695l85 543h237l-85 -543l85 -571h-237z" />
<glyph unicode="&#xac;" horiz-adv-x="1092" d="M64 881v245h964v-634h-244v389h-720z" />
<glyph unicode="&#xad;" horiz-adv-x="603" d="M36 524v279h531v-279h-531z" />
<glyph unicode="&#xae;" horiz-adv-x="1605" d="M36 766q0 223 118.5 409.5t296.5 271.5t331 85q343 0 564.5 -228t221.5 -538q0 -316 -225 -541t-541 -225q-318 0 -542 224.5t-224 541.5zM188 766q0 -254 181 -435t435 -181q253 0 434 181t181 435q0 175 -91 322.5t-234 221t-274 73.5q-282 0 -457 -186t-175 -431z M465 357v813h385q143 0 208 -66.5t65 -163.5q0 -94 -54.5 -151t-164.5 -77q50 -19 79.5 -51.5t93.5 -140.5l95 -163h-203l-68 131q-61 117 -107.5 159.5t-121.5 42.5h-43v-333h-164zM629 819h134q101 0 143.5 26.5t42.5 86.5q0 54 -42 81t-127 27h-151v-221z" />
<glyph unicode="&#xaf;" horiz-adv-x="1131" d="M-12 1690v102h1155v-102h-1155z" />
<glyph unicode="&#xb0;" horiz-adv-x="711" d="M36 1314q0 142 95 234.5t224 92.5q133 0 226 -93.5t93 -225.5t-93.5 -225.5t-224.5 -93.5q-141 0 -230.5 97.5t-89.5 213.5zM202 1326q0 -68 45.5 -112.5t107.5 -44.5q63 0 108 45t45 108t-45 108t-108 45q-66 0 -109.5 -47t-43.5 -102z" />
<glyph unicode="&#xb1;" horiz-adv-x="1092" d="M64 179v244h964v-244h-964zM64 898v244h359v360h244v-360h361v-244h-361v-355h-244v355h-359z" />
<glyph unicode="&#xb2;" horiz-adv-x="651" d="M36 783v128q250 344 293.5 419t43.5 118q0 60 -53 60q-29 0 -42 -16.5t-13 -69.5v-86h-229v37q0 88 19 142.5t83 94.5t171 40q150 0 227.5 -63t77.5 -162q0 -75 -42.5 -153.5t-177.5 -245.5l-69 -88h267v-155h-556z" />
<glyph unicode="&#xb3;" horiz-adv-x="668" d="M36 1057v56h255v-127q0 -53 7 -65.5t33 -12.5q29 0 37.5 17t8.5 94v54q0 67 -27 84t-124 18v134q108 0 129.5 13t21.5 72v48q0 44 -11 55t-32 11q-25 0 -34 -12t-9 -60v-59h-255v62q0 125 65.5 168t211.5 43q177 0 243 -59t66 -170q0 -47 -16 -89.5t-74 -68.5 q45 -14 72.5 -53t27.5 -169q0 -170 -82.5 -222.5t-213.5 -52.5q-121 0 -189.5 35t-89.5 86t-21 170z" />
<glyph unicode="&#xb4;" horiz-adv-x="683" d="M151 1501l176 271h356l-329 -271h-203z" />
<glyph unicode="&#xb5;" horiz-adv-x="965" d="M72 -407v1734h324v-957q0 -141 78 -141q97 0 97 232v866h321v-1327h-306v123q-61 -142 -190 -144v-386h-324z" />
<glyph unicode="&#xb6;" horiz-adv-x="1180" d="M36 1200q0 117 45 206.5t121.5 139.5t147 61.5t220.5 11.5h597v-261h-113v-1579h-237v1579h-144v-1579h-243v1018q-394 44 -394 403z" />
<glyph unicode="&#xb7;" horiz-adv-x="683" d="M195 698q0 61 43 103.5t103 42.5q59 0 103 -42t44 -104q0 -61 -43 -104t-104 -43q-60 0 -103 43t-43 104z" />
<glyph unicode="&#xb8;" horiz-adv-x="683" d="M113 -274h148q14 -41 50 -41q30 0 44.5 15t14.5 45q0 33 -20.5 49.5t-62.5 16.5q-9 0 -26 -1v202h117v-124q52 0 98 -35t46 -97q0 -76 -62 -132t-148 -56q-156 0 -199 158z" />
<glyph unicode="&#xb9;" horiz-adv-x="501" d="M12 1391v110q183 33 278 135h150v-853h-255v457q0 98 -5 115t-30 26.5t-110 9.5h-28z" />
<glyph unicode="&#xba;" horiz-adv-x="675" d="M36 1131v197q0 184 80.5 251t211.5 67q114 0 185 -40t98 -99.5t27 -161.5v-188q0 -125 -22 -191t-92 -108.5t-188 -42.5q-125 0 -187.5 35.5t-87.5 98.5t-25 182zM299 1052q0 -55 7 -69.5t28 -14.5q28 0 34.5 13.5t6.5 62.5v361q0 60 -6 73.5t-32 13.5q-25 0 -31.5 -14 t-6.5 -73v-353z" />
<glyph unicode="&#xbb;" horiz-adv-x="760" d="M36 124l84 571l-84 543h237l84 -543l-84 -571h-237zM402 124l85 571l-85 543h237l85 -543l-85 -571h-237z" />
<glyph unicode="&#xbc;" horiz-adv-x="1277" d="M12 1391v110q183 33 278 135h150v-853h-255v457q0 98 -5 115t-30 26.5t-110 9.5h-28zM214 -31l635 1681h152l-633 -1681h-154zM629 148v151l218 555h335v-550h71v-156h-71v-148h-256v148h-297zM800 304h126v335z" />
<glyph unicode="&#xbd;" horiz-adv-x="1321" d="M12 1391v110q183 33 278 135h150v-853h-255v457q0 98 -5 115t-30 26.5t-110 9.5h-28zM214 -31l635 1681h152l-633 -1681h-154zM706 0v128q250 344 293.5 419t43.5 119q0 60 -54 60q-28 0 -41 -16.5t-13 -70.5v-85h-229v36q0 88 19 143t83 95t171 40q150 0 227.5 -63.5 t77.5 -162.5q0 -73 -43.5 -153.5t-176.5 -245.5l-69 -88h267v-155h-556z" />
<glyph unicode="&#xbe;" horiz-adv-x="1416" d="M36 1057v56h255v-127q0 -53 7 -65.5t33 -12.5q29 0 37.5 17t8.5 94v54q0 67 -27 84t-124 18v134q108 0 129.5 13t21.5 72v48q0 44 -11 55t-32 11q-25 0 -34 -12t-9 -60v-59h-255v62q0 125 65.5 168t211.5 43q177 0 243 -59t66 -170q0 -47 -16 -89.5t-74 -68.5 q45 -14 72.5 -53t27.5 -169q0 -170 -82.5 -222.5t-213.5 -52.5q-121 0 -189.5 35t-89.5 86t-21 170zM353 -31l634 1681h152l-632 -1681h-154zM767 148v151l218 555h335v-550h71v-156h-71v-148h-255v148h-298zM938 304h127v335z" />
<glyph unicode="&#xbf;" horiz-adv-x="1075" d="M36 336v198q0 136 25 217.5t109 143.5t197 62q153 0 219 -114v173h377v-445h-368q-1 93 -66 93q-50 0 -63.5 -40.5t-13.5 -198.5v-270q0 -88 12.5 -118.5t49.5 -30.5q46 0 59 40t13 183v98h404q-2 -213 -36 -311.5t-147.5 -171.5t-289.5 -73q-127 0 -222 40t-151 111.5 t-82 154.5t-26 259zM586 1100v324h377v-324h-377z" />
<glyph unicode="&#xc0;" horiz-adv-x="1040" d="M-12 0l214 1619h609l241 -1619h-431l-21 291h-151l-25 -291h-436zM152 1941h356l176 -271h-203zM444 578h144q-32 275 -64 679q-64 -464 -80 -679z" />
<glyph unicode="&#xc1;" horiz-adv-x="1040" d="M-12 0l214 1619h609l241 -1619h-431l-21 291h-151l-25 -291h-436zM330 1670l176 271h356l-329 -271h-203zM444 578h144q-32 275 -64 679q-64 -464 -80 -679z" />
<glyph unicode="&#xc2;" horiz-adv-x="1040" d="M-12 0l214 1619h609l241 -1619h-431l-21 291h-151l-25 -291h-436zM112 1670l257 282h282l241 -282h-271l-111 131l-118 -131h-280zM444 578h144q-32 275 -64 679q-64 -464 -80 -679z" />
<glyph unicode="&#xc3;" horiz-adv-x="1040" d="M-12 0l214 1619h609l241 -1619h-431l-21 291h-151l-25 -291h-436zM85 1775q110 194 248 194q72 0 157 -32l62 -23q78 -29 106 -29q83 0 110 90l161 -115q-46 -101 -113 -141t-118 -40q-71 0 -153 33l-74 29q-71 29 -106 29q-74 0 -122 -100zM444 578h144q-32 275 -64 679 q-64 -464 -80 -679z" />
<glyph unicode="&#xc4;" horiz-adv-x="1040" d="M-12 0l214 1619h609l241 -1619h-431l-21 291h-151l-25 -291h-436zM158 1670v260h261v-260h-261zM444 578h144q-32 275 -64 679q-64 -464 -80 -679zM595 1670v260h261v-260h-261z" />
<glyph unicode="&#xc5;" horiz-adv-x="1040" d="M-12 0l214 1619h609l241 -1619h-431l-21 291h-151l-25 -291h-436zM296 1855q0 87 62 149t149 62q84 0 147 -60.5t63 -150.5q0 -87 -62 -148.5t-148 -61.5q-88 0 -149.5 61.5t-61.5 148.5zM423 1851q0 -34 24.5 -58t57.5 -24q34 0 58.5 24t24.5 58q0 35 -24.5 59t-58.5 24 q-33 0 -57.5 -24t-24.5 -59zM444 578h144q-32 275 -64 679q-64 -464 -80 -679z" />
<glyph unicode="&#xc6;" horiz-adv-x="1461" d="M-12 0l426 1619h990v-324h-283v-307h266v-308h-266v-356h303v-324h-724v291h-242l-68 -291h-402zM521 578h179v738z" />
<glyph unicode="&#xc7;" horiz-adv-x="1134" d="M72 575v473q0 175 12 262.5t71.5 168.5t165 127.5t242.5 46.5q186 0 307 -72t159 -179.5t38 -334.5v-154h-421v282q0 123 -13.5 153.5t-59.5 30.5q-52 0 -66 -37t-14 -160v-752q0 -118 14 -154t63 -36q47 0 61.5 36t14.5 169v203h421v-63q0 -233 -28 -334.5t-138.5 -187 t-294.5 -96.5v-19q54 0 99 -35.5t45 -96.5q0 -76 -62 -131.5t-148 -55.5q-156 0 -199 158h148q14 -42 50 -42q30 0 44.5 15t14.5 45q0 33 -20.5 49.5t-62.5 16.5h-26v100q-171 16 -266.5 93.5t-123 189t-27.5 321.5z" />
<glyph unicode="&#xc8;" horiz-adv-x="851" d="M84 0v1619h702v-324h-281v-307h263v-308h-263v-356h309v-324h-730zM84 1941h356l176 -271h-203z" />
<glyph unicode="&#xc9;" horiz-adv-x="851" d="M84 0v1619h702v-324h-281v-307h263v-308h-263v-356h309v-324h-730zM234 1670l176 271h356l-329 -271h-203z" />
<glyph unicode="&#xca;" horiz-adv-x="851" d="M35 1670l257 282h282l241 -282h-271l-111 131l-118 -131h-280zM84 0v1619h702v-324h-281v-307h263v-308h-263v-356h309v-324h-730z" />
<glyph unicode="&#xcb;" horiz-adv-x="851" d="M76 1670v260h261v-260h-261zM84 0v1619h702v-324h-281v-307h263v-308h-263v-356h309v-324h-730zM513 1670v260h261v-260h-261z" />
<glyph unicode="&#xcc;" horiz-adv-x="590" d="M-47 1941h356l176 -271h-203zM84 0v1619h421v-1619h-421z" />
<glyph unicode="&#xcd;" horiz-adv-x="590" d="M84 0v1619h421v-1619h-421zM104 1670l176 271h356l-329 -271h-203z" />
<glyph unicode="&#xce;" horiz-adv-x="590" d="M-95 1670l257 282h282l241 -282h-271l-111 131l-118 -131h-280zM84 0v1619h421v-1619h-421z" />
<glyph unicode="&#xcf;" horiz-adv-x="590" d="M-54 1670v260h261v-260h-261zM84 0v1619h421v-1619h-421zM383 1670v260h261v-260h-261z" />
<glyph unicode="&#xd0;" horiz-adv-x="1144" d="M14 810v172h82v637h315q305 0 412.5 -28t163.5 -92t70 -142.5t14 -308.5v-567q0 -218 -20.5 -291.5t-71.5 -115t-126 -58t-226 -16.5h-531v810h-82zM517 277q91 0 112 36.5t21 198.5v629q0 110 -7 141t-31.5 45.5t-94.5 14.5v-360h66v-172h-66v-533z" />
<glyph unicode="&#xd1;" horiz-adv-x="1109" d="M84 0v1619h352l236 -729v729h352v-1619h-369l-219 736v-736h-352zM132 1775q110 194 248 194q72 0 157 -32l62 -23q78 -29 106 -29q83 0 110 90l161 -115q-46 -101 -113 -141t-118 -40q-71 0 -153 33l-74 29q-71 29 -106 29q-74 0 -122 -100z" />
<glyph unicode="&#xd2;" horiz-adv-x="1119" d="M72 671v277q0 244 11.5 345.5t72 185.5t163.5 129t240 45q130 0 233.5 -42.5t166.5 -127.5t75 -185t12 -350v-277q0 -244 -11.5 -345.5t-72 -185.5t-163.5 -129t-240 -45q-130 0 -233.5 42.5t-166.5 127.5t-75 185t-12 350zM218 1941h356l176 -271h-203zM493 447 q0 -141 11.5 -174t53.5 -33q43 0 55 38t12 181v744q0 113 -12.5 144.5t-51.5 31.5q-33 0 -50.5 -25.5t-17.5 -150.5v-756z" />
<glyph unicode="&#xd3;" horiz-adv-x="1119" d="M72 671v277q0 244 11.5 345.5t72 185.5t163.5 129t240 45q130 0 233.5 -42.5t166.5 -127.5t75 -185t12 -350v-277q0 -244 -11.5 -345.5t-72 -185.5t-163.5 -129t-240 -45q-130 0 -233.5 42.5t-166.5 127.5t-75 185t-12 350zM368 1670l176 271h356l-329 -271h-203z M493 447q0 -141 11.5 -174t53.5 -33q43 0 55 38t12 181v744q0 113 -12.5 144.5t-51.5 31.5q-33 0 -50.5 -25.5t-17.5 -150.5v-756z" />
<glyph unicode="&#xd4;" horiz-adv-x="1119" d="M72 671v277q0 244 11.5 345.5t72 185.5t163.5 129t240 45q130 0 233.5 -42.5t166.5 -127.5t75 -185t12 -350v-277q0 -244 -11.5 -345.5t-72 -185.5t-163.5 -129t-240 -45q-130 0 -233.5 42.5t-166.5 127.5t-75 185t-12 350zM169 1670l257 282h282l241 -282h-271l-111 131 l-118 -131h-280zM493 447q0 -141 11.5 -174t53.5 -33q43 0 55 38t12 181v744q0 113 -12.5 144.5t-51.5 31.5q-33 0 -50.5 -25.5t-17.5 -150.5v-756z" />
<glyph unicode="&#xd5;" horiz-adv-x="1119" d="M72 671v277q0 244 11.5 345.5t72 185.5t163.5 129t240 45q130 0 233.5 -42.5t166.5 -127.5t75 -185t12 -350v-277q0 -244 -11.5 -345.5t-72 -185.5t-163.5 -129t-240 -45q-130 0 -233.5 42.5t-166.5 127.5t-75 185t-12 350zM137 1775q110 194 248 194q72 0 157 -32 l62 -23q78 -29 106 -29q83 0 110 90l161 -115q-46 -101 -113 -141t-118 -40q-71 0 -153 33l-74 29q-71 29 -106 29q-74 0 -122 -100zM493 447q0 -141 11.5 -174t53.5 -33q43 0 55 38t12 181v744q0 113 -12.5 144.5t-51.5 31.5q-33 0 -50.5 -25.5t-17.5 -150.5v-756z" />
<glyph unicode="&#xd6;" horiz-adv-x="1119" d="M72 671v277q0 244 11.5 345.5t72 185.5t163.5 129t240 45q130 0 233.5 -42.5t166.5 -127.5t75 -185t12 -350v-277q0 -244 -11.5 -345.5t-72 -185.5t-163.5 -129t-240 -45q-130 0 -233.5 42.5t-166.5 127.5t-75 185t-12 350zM210 1670v260h261v-260h-261zM493 447 q0 -141 11.5 -174t53.5 -33q43 0 55 38t12 181v744q0 113 -12.5 144.5t-51.5 31.5q-33 0 -50.5 -25.5t-17.5 -150.5v-756zM647 1670v260h261v-260h-261z" />
<glyph unicode="&#xd7;" horiz-adv-x="1092" d="M74 1122l172 172l300 -299l299 299l173 -172l-299 -300l297 -296l-172 -173l-297 297l-298 -296l-172 172l297 296z" />
<glyph unicode="&#xd8;" horiz-adv-x="1119" d="M-55 87l147 192q-20 72 -20 392v277q0 244 11.5 345.5t72 185.5t163.5 129t240 45q145 0 249 -47.5t166 -143.5l107 140l92 -69l-147 -193q20 -76 20 -392v-277q0 -244 -11.5 -345.5t-72 -185.5t-163.5 -129t-240 -45q-146 0 -249.5 48t-165.5 143l-107 -140zM493 447 q0 -141 11.5 -174t53.5 -33q43 0 55 38t12 181v340l-132 -175v-177zM493 813l132 174v216q0 113 -12.5 144.5t-51.5 31.5q-41 0 -54.5 -33.5t-13.5 -142.5v-390z" />
<glyph unicode="&#xd9;" horiz-adv-x="1120" d="M78 661v958h421v-1214q0 -106 11.5 -135.5t46.5 -29.5q40 0 51.5 32.5t11.5 153.5v1193h421v-1082q0 -184 -12 -258.5t-71 -153t-155.5 -119t-227.5 -40.5q-145 0 -256 48t-166 125t-65 162.5t-10 359.5zM218 1941h356l176 -271h-203z" />
<glyph unicode="&#xda;" horiz-adv-x="1120" d="M78 661v958h421v-1214q0 -106 11.5 -135.5t46.5 -29.5q40 0 51.5 32.5t11.5 153.5v1193h421v-1082q0 -184 -12 -258.5t-71 -153t-155.5 -119t-227.5 -40.5q-145 0 -256 48t-166 125t-65 162.5t-10 359.5zM369 1670l176 271h356l-329 -271h-203z" />
<glyph unicode="&#xdb;" horiz-adv-x="1120" d="M78 661v958h421v-1214q0 -106 11.5 -135.5t46.5 -29.5q40 0 51.5 32.5t11.5 153.5v1193h421v-1082q0 -184 -12 -258.5t-71 -153t-155.5 -119t-227.5 -40.5q-145 0 -256 48t-166 125t-65 162.5t-10 359.5zM170 1670l257 282h282l241 -282h-271l-111 131l-118 -131h-280z " />
<glyph unicode="&#xdc;" horiz-adv-x="1120" d="M78 661v958h421v-1214q0 -106 11.5 -135.5t46.5 -29.5q40 0 51.5 32.5t11.5 153.5v1193h421v-1082q0 -184 -12 -258.5t-71 -153t-155.5 -119t-227.5 -40.5q-145 0 -256 48t-166 125t-65 162.5t-10 359.5zM211 1670v260h261v-260h-261zM648 1670v260h261v-260h-261z" />
<glyph unicode="&#xdd;" horiz-adv-x="969" d="M-12 1619h387q91 -473 102 -637q35 259 117 637h387l-307 -1033v-586h-390v586zM294 1670l176 271h356l-329 -271h-203z" />
<glyph unicode="&#xde;" horiz-adv-x="1028" d="M84 0v1619h421v-302q176 0 263.5 -25t140 -79.5t67.5 -123t15 -225.5v-140q0 -144 -28 -217t-111.5 -115t-233.5 -42h-113v-350h-421zM505 628h31q58 0 80.5 28.5t22.5 118.5v132q0 81 -26 107t-108 26v-412z" />
<glyph unicode="&#xdf;" horiz-adv-x="1127" d="M72 0v1081q0 235 26.5 333.5t135 168.5t301.5 70q239 0 371.5 -97t132.5 -270q0 -157 -137 -263q72 -33 115 -105t43 -286v-149q0 -148 -21 -224t-84 -141.5t-145 -91.5t-202 -26h-77v245h46q55 0 67 18t12 141v396q-1 69 -15 93t-64 31v246q22 0 42 12.5t20 81.5 q0 77 -20.5 115.5t-61.5 38.5q-47 0 -64 -34t-17 -135v-1249h-404z" />
<glyph unicode="&#xe0;" horiz-adv-x="1032" d="M54 296v109q0 149 47 203t233 126q199 78 213 105t14 110q0 104 -15.5 135.5t-51.5 31.5q-41 0 -51 -26.5t-10 -137.5v-139h-379v89q0 154 35.5 237.5t142.5 147.5t278 64q205 0 309 -72.5t125 -178t21 -434.5v-666h-393v118q-37 -71 -95.5 -106.5t-139.5 -35.5 q-106 0 -194.5 59.5t-88.5 260.5zM174 1687h356l176 -271h-203zM433 374q0 -103 13.5 -133t53.5 -30q38 0 49.5 23.5t11.5 123.5v273q-97 -71 -112.5 -119t-15.5 -138z" />
<glyph unicode="&#xe1;" horiz-adv-x="1032" d="M54 296v109q0 149 47 203t233 126q199 78 213 105t14 110q0 104 -15.5 135.5t-51.5 31.5q-41 0 -51 -26.5t-10 -137.5v-139h-379v89q0 154 35.5 237.5t142.5 147.5t278 64q205 0 309 -72.5t125 -178t21 -434.5v-666h-393v118q-37 -71 -95.5 -106.5t-139.5 -35.5 q-106 0 -194.5 59.5t-88.5 260.5zM325 1416l176 271h356l-329 -271h-203zM433 374q0 -103 13.5 -133t53.5 -30q38 0 49.5 23.5t11.5 123.5v273q-97 -71 -112.5 -119t-15.5 -138z" />
<glyph unicode="&#xe2;" horiz-adv-x="1032" d="M54 296v109q0 149 47 203t233 126q199 78 213 105t14 110q0 104 -15.5 135.5t-51.5 31.5q-41 0 -51 -26.5t-10 -137.5v-139h-379v89q0 154 35.5 237.5t142.5 147.5t278 64q205 0 309 -72.5t125 -178t21 -434.5v-666h-393v118q-37 -71 -95.5 -106.5t-139.5 -35.5 q-106 0 -194.5 59.5t-88.5 260.5zM126 1416l257 282h282l241 -282h-271l-111 131l-118 -131h-280zM433 374q0 -103 13.5 -133t53.5 -30q38 0 49.5 23.5t11.5 123.5v273q-97 -71 -112.5 -119t-15.5 -138z" />
<glyph unicode="&#xe3;" horiz-adv-x="1032" d="M54 296v109q0 149 47 203t233 126q199 78 213 105t14 110q0 104 -15.5 135.5t-51.5 31.5q-41 0 -51 -26.5t-10 -137.5v-139h-379v89q0 154 35.5 237.5t142.5 147.5t278 64q205 0 309 -72.5t125 -178t21 -434.5v-666h-393v118q-37 -71 -95.5 -106.5t-139.5 -35.5 q-106 0 -194.5 59.5t-88.5 260.5zM94 1521q110 194 248 194q72 0 157 -32l62 -23q78 -29 106 -29q83 0 110 90l161 -115q-46 -101 -113 -141t-118 -40q-71 0 -153 33l-74 29q-71 29 -106 29q-74 0 -122 -100zM433 374q0 -103 13.5 -133t53.5 -30q38 0 49.5 23.5t11.5 123.5 v273q-97 -71 -112.5 -119t-15.5 -138z" />
<glyph unicode="&#xe4;" horiz-adv-x="1032" d="M54 296v109q0 149 47 203t233 126q199 78 213 105t14 110q0 104 -15.5 135.5t-51.5 31.5q-41 0 -51 -26.5t-10 -137.5v-139h-379v89q0 154 35.5 237.5t142.5 147.5t278 64q205 0 309 -72.5t125 -178t21 -434.5v-666h-393v118q-37 -71 -95.5 -106.5t-139.5 -35.5 q-106 0 -194.5 59.5t-88.5 260.5zM167 1416v260h261v-260h-261zM433 374q0 -103 13.5 -133t53.5 -30q38 0 49.5 23.5t11.5 123.5v273q-97 -71 -112.5 -119t-15.5 -138zM604 1416v260h261v-260h-261z" />
<glyph unicode="&#xe5;" horiz-adv-x="1032" d="M54 296v109q0 149 47 203t233 126q199 78 213 105t14 110q0 104 -15.5 135.5t-51.5 31.5q-41 0 -51 -26.5t-10 -137.5v-139h-379v89q0 154 35.5 237.5t142.5 147.5t278 64q205 0 309 -72.5t125 -178t21 -434.5v-666h-393v118q-37 -71 -95.5 -106.5t-139.5 -35.5 q-106 0 -194.5 59.5t-88.5 260.5zM305 1626q0 87 62 149t149 62q84 0 147 -60.5t63 -150.5q0 -87 -62 -148.5t-148 -61.5q-88 0 -149.5 61.5t-61.5 148.5zM432 1622q0 -34 24.5 -58t57.5 -24q34 0 58.5 24t24.5 58q0 35 -24.5 59t-58.5 24q-33 0 -57.5 -24t-24.5 -59z M433 374q0 -103 13.5 -133t53.5 -30q38 0 49.5 23.5t11.5 123.5v273q-97 -71 -112.5 -119t-15.5 -138z" />
<glyph unicode="&#xe6;" horiz-adv-x="1543" d="M54 361q0 140 20.5 191.5t84.5 92t221 95.5q83 28 112 47t40 47.5t11 122.5q0 89 -12 124t-45 35q-32 0 -41.5 -29t-9.5 -147v-127h-379v99q0 110 15.5 173t71 126.5t141 101.5t218.5 38q74 0 143 -18t132 -54q46 36 107 54t137 18q152 0 261.5 -66t154.5 -169t45 -305 v-171h-527v-268q0 -102 13 -131.5t55 -29.5q45 0 61 30t16 124v189h382v-134q0 -131 -39.5 -221t-143.5 -156.5t-255 -66.5q-140 0 -238 38t-155 114q-55 -76 -130 -114t-169 -38q-110 0 -181.5 45t-94 114t-22.5 226zM421 352q0 -77 15.5 -109t56.5 -32q29 0 43 20t14 59 l1 119v214q-77 -56 -103.5 -101.5t-26.5 -169.5zM955 856h123v120q0 93 -17 116.5t-44 23.5q-33 0 -47.5 -27t-14.5 -113v-120z" />
<glyph unicode="&#xe7;" horiz-adv-x="1013" d="M60 498v377q0 169 34 255t145 153.5t270 67.5q158 0 270 -67t149 -169t37 -289h-381v153q0 80 -13 108.5t-48 28.5t-47 -25t-12 -112v-626q0 -71 18 -106.5t53 -35.5q41 0 55.5 37t14.5 140v158h360q-1 -148 -9.5 -226.5t-59.5 -160.5t-133.5 -128t-216.5 -54v-29 q52 0 98 -35t46 -97q0 -76 -62 -131.5t-148 -55.5q-156 0 -199 158h148q14 -42 50 -42q30 0 44.5 15t14.5 45q0 33 -20.5 49.5t-62.5 16.5h-26v110q-151 18 -225.5 79.5t-109 155.5t-34.5 282z" />
<glyph unicode="&#xe8;" d="M60 482v387q0 174 47 274.5t154 154t246 53.5q170 0 280.5 -64.5t155 -171t44.5 -299.5v-176h-523v-287q0 -90 13 -116t50 -26q46 0 61.5 34.5t15.5 133.5v175h383v-98q0 -123 -15.5 -189t-72.5 -141t-144.5 -112.5t-219.5 -37.5q-128 0 -226 37t-152.5 101.5t-75.5 142 t-21 225.5zM182 1687h356l176 -271h-203zM464 856h118v97q0 103 -11 133t-45 30q-42 0 -52 -25.5t-10 -137.5v-97z" />
<glyph unicode="&#xe9;" d="M60 482v387q0 174 47 274.5t154 154t246 53.5q170 0 280.5 -64.5t155 -171t44.5 -299.5v-176h-523v-287q0 -90 13 -116t50 -26q46 0 61.5 34.5t15.5 133.5v175h383v-98q0 -123 -15.5 -189t-72.5 -141t-144.5 -112.5t-219.5 -37.5q-128 0 -226 37t-152.5 101.5t-75.5 142 t-21 225.5zM333 1416l176 271h356l-329 -271h-203zM464 856h118v97q0 103 -11 133t-45 30q-42 0 -52 -25.5t-10 -137.5v-97z" />
<glyph unicode="&#xea;" d="M60 482v387q0 174 47 274.5t154 154t246 53.5q170 0 280.5 -64.5t155 -171t44.5 -299.5v-176h-523v-287q0 -90 13 -116t50 -26q46 0 61.5 34.5t15.5 133.5v175h383v-98q0 -123 -15.5 -189t-72.5 -141t-144.5 -112.5t-219.5 -37.5q-128 0 -226 37t-152.5 101.5t-75.5 142 t-21 225.5zM133 1416l257 282h282l241 -282h-271l-111 131l-118 -131h-280zM464 856h118v97q0 103 -11 133t-45 30q-42 0 -52 -25.5t-10 -137.5v-97z" />
<glyph unicode="&#xeb;" d="M60 482v387q0 174 47 274.5t154 154t246 53.5q170 0 280.5 -64.5t155 -171t44.5 -299.5v-176h-523v-287q0 -90 13 -116t50 -26q46 0 61.5 34.5t15.5 133.5v175h383v-98q0 -123 -15.5 -189t-72.5 -141t-144.5 -112.5t-219.5 -37.5q-128 0 -226 37t-152.5 101.5t-75.5 142 t-21 225.5zM174 1416v260h261v-260h-261zM464 856h118v97q0 103 -11 133t-45 30q-42 0 -52 -25.5t-10 -137.5v-97zM611 1416v260h261v-260h-261z" />
<glyph unicode="&#xec;" horiz-adv-x="561" d="M-58 1687h356l176 -271h-203zM72 0v1327h416v-1327h-416z" />
<glyph unicode="&#xed;" horiz-adv-x="561" d="M72 0v1327h416v-1327h-416zM93 1416l176 271h356l-329 -271h-203z" />
<glyph unicode="&#xee;" horiz-adv-x="561" d="M-106 1416l257 282h282l241 -282h-271l-111 131l-118 -131h-280zM72 0v1327h416v-1327h-416z" />
<glyph unicode="&#xef;" horiz-adv-x="561" d="M-65 1416v260h261v-260h-261zM72 0v1327h416v-1327h-416zM372 1416v260h261v-260h-261z" />
<glyph unicode="&#xf0;" d="M60 494v292q0 175 34.5 270t122 165t198.5 70q98 0 168 -56q-19 107 -74 202l-192 -52l-30 91l167 46q-50 67 -84 97h245q27 -19 51 -40l161 40l30 -89l-114 -32q68 -79 129 -190t88 -224.5t27 -308.5v-302q0 -167 -43.5 -272t-152.5 -165t-275 -60q-167 0 -273.5 56.5 t-144.5 153t-38 308.5zM464 351q0 -83 14.5 -111.5t46.5 -28.5q31 0 44.5 27.5t13.5 123.5v545q0 99 -11.5 124t-47.5 25q-34 0 -47 -30t-13 -106v-569z" />
<glyph unicode="&#xf1;" horiz-adv-x="1071" d="M72 0v1327h411l-7 -122q44 73 107.5 109.5t146.5 36.5q104 0 170 -49t85 -123.5t19 -248.5v-930h-404v919q0 137 -9 167t-50 30q-43 0 -54 -34.5t-11 -184.5v-897h-404zM113 1521q110 194 248 194q72 0 157 -32l62 -23q78 -29 106 -29q83 0 110 90l161 -115 q-46 -101 -113 -141t-118 -40q-71 0 -153 33l-74 29q-71 29 -106 29q-74 0 -122 -100z" />
<glyph unicode="&#xf2;" d="M60 492v340q0 185 40 289t144 167t266 63q136 0 233.5 -40.5t150.5 -105.5t72.5 -134t19.5 -210v-325q0 -179 -18 -262.5t-77 -156t-151.5 -107t-212.5 -34.5q-134 0 -227 29.5t-144.5 89t-73.5 144t-22 253.5zM182 1687h356l176 -271h-203zM464 362q0 -94 12 -122.5 t47 -28.5q36 0 47.5 26t11.5 112v612q0 102 -11 128.5t-47 26.5t-48 -26.5t-12 -128.5v-599z" />
<glyph unicode="&#xf3;" d="M60 492v340q0 185 40 289t144 167t266 63q136 0 233.5 -40.5t150.5 -105.5t72.5 -134t19.5 -210v-325q0 -179 -18 -262.5t-77 -156t-151.5 -107t-212.5 -34.5q-134 0 -227 29.5t-144.5 89t-73.5 144t-22 253.5zM333 1416l176 271h356l-329 -271h-203zM464 362 q0 -94 12 -122.5t47 -28.5q36 0 47.5 26t11.5 112v612q0 102 -11 128.5t-47 26.5t-48 -26.5t-12 -128.5v-599z" />
<glyph unicode="&#xf4;" d="M60 492v340q0 185 40 289t144 167t266 63q136 0 233.5 -40.5t150.5 -105.5t72.5 -134t19.5 -210v-325q0 -179 -18 -262.5t-77 -156t-151.5 -107t-212.5 -34.5q-134 0 -227 29.5t-144.5 89t-73.5 144t-22 253.5zM133 1416l257 282h282l241 -282h-271l-111 131l-118 -131 h-280zM464 362q0 -94 12 -122.5t47 -28.5q36 0 47.5 26t11.5 112v612q0 102 -11 128.5t-47 26.5t-48 -26.5t-12 -128.5v-599z" />
<glyph unicode="&#xf5;" d="M60 492v340q0 185 40 289t144 167t266 63q136 0 233.5 -40.5t150.5 -105.5t72.5 -134t19.5 -210v-325q0 -179 -18 -262.5t-77 -156t-151.5 -107t-212.5 -34.5q-134 0 -227 29.5t-144.5 89t-73.5 144t-22 253.5zM101 1521q110 194 248 194q72 0 157 -32l62 -23 q78 -29 106 -29q83 0 110 90l161 -115q-46 -101 -113 -141t-118 -40q-71 0 -153 33l-74 29q-71 29 -106 29q-74 0 -122 -100zM464 362q0 -94 12 -122.5t47 -28.5q36 0 47.5 26t11.5 112v612q0 102 -11 128.5t-47 26.5t-48 -26.5t-12 -128.5v-599z" />
<glyph unicode="&#xf6;" d="M60 492v340q0 185 40 289t144 167t266 63q136 0 233.5 -40.5t150.5 -105.5t72.5 -134t19.5 -210v-325q0 -179 -18 -262.5t-77 -156t-151.5 -107t-212.5 -34.5q-134 0 -227 29.5t-144.5 89t-73.5 144t-22 253.5zM174 1416v260h261v-260h-261zM464 362q0 -94 12 -122.5 t47 -28.5q36 0 47.5 26t11.5 112v612q0 102 -11 128.5t-47 26.5t-48 -26.5t-12 -128.5v-599zM611 1416v260h261v-260h-261z" />
<glyph unicode="&#xf7;" horiz-adv-x="1092" d="M64 691v236h964v-236h-964zM404 476q0 63 42 103t98 40q57 0 98.5 -40.5t41.5 -99.5q0 -57 -41 -98t-99 -41q-59 0 -99.5 42t-40.5 94zM404 1144q0 59 41.5 99t97.5 40q57 0 98 -41t41 -97q0 -57 -41 -98t-98 -41q-59 0 -99 42t-40 96z" />
<glyph unicode="&#xf8;" d="M60 492v340q0 185 40 289t144 167t266 63q105 0 189 -25t146 -75l41 62l78 -51l-52 -81q39 -53 56.5 -115.5t17.5 -204.5v-325q0 -179 -18 -262.5t-77 -156t-151 -107t-213 -34.5q-114 0 -198 21.5t-137 63.5l-31 -47l-79 51l45 69q-34 56 -50.5 126t-16.5 232zM464 362 q0 -94 12 -122.5t47 -28.5q36 0 47.5 26t11.5 112v313l-118 -181v-119zM464 655l118 180v126q0 102 -11 128.5t-47 26.5t-48 -26.5t-12 -128.5v-306z" />
<glyph unicode="&#xf9;" horiz-adv-x="1070" d="M66 432v895h404v-903q0 -155 9.5 -184t51.5 -29q45 0 53.5 30t8.5 193v893h404v-1327h-411l7 110q-42 -67 -103.5 -100.5t-141.5 -33.5q-91 0 -151 32t-88.5 85t-35.5 110.5t-7 228.5zM193 1687h356l176 -271h-203z" />
<glyph unicode="&#xfa;" horiz-adv-x="1070" d="M66 432v895h404v-903q0 -155 9.5 -184t51.5 -29q45 0 53.5 30t8.5 193v893h404v-1327h-411l7 110q-42 -67 -103.5 -100.5t-141.5 -33.5q-91 0 -151 32t-88.5 85t-35.5 110.5t-7 228.5zM344 1416l176 271h356l-329 -271h-203z" />
<glyph unicode="&#xfb;" horiz-adv-x="1070" d="M66 432v895h404v-903q0 -155 9.5 -184t51.5 -29q45 0 53.5 30t8.5 193v893h404v-1327h-411l7 110q-42 -67 -103.5 -100.5t-141.5 -33.5q-91 0 -151 32t-88.5 85t-35.5 110.5t-7 228.5zM145 1416l257 282h282l241 -282h-271l-111 131l-118 -131h-280z" />
<glyph unicode="&#xfc;" horiz-adv-x="1070" d="M66 432v895h404v-903q0 -155 9.5 -184t51.5 -29q45 0 53.5 30t8.5 193v893h404v-1327h-411l7 110q-42 -67 -103.5 -100.5t-141.5 -33.5q-91 0 -151 32t-88.5 85t-35.5 110.5t-7 228.5zM186 1416v260h261v-260h-261zM623 1416v260h261v-260h-261z" />
<glyph unicode="&#xfd;" horiz-adv-x="918" d="M-12 1327h367l132 -895l64 895h367l-116 -960q-27 -228 -45.5 -311t-61.5 -137t-119.5 -79.5t-244.5 -25.5h-245v212q94 0 121 9.5t27 42.5q0 16 -25 139zM282 1416l176 271h356l-329 -271h-203z" />
<glyph unicode="&#xfe;" horiz-adv-x="1063" d="M72 -189v1808h404v-409q107 141 261 141q94 0 162.5 -50.5t85.5 -116.5t17 -224v-559q0 -181 -21.5 -257.5t-88 -122t-160.5 -45.5q-150 0 -256 139v-304h-404zM476 391q0 -120 12 -150t52 -30q39 0 48.5 27.5t9.5 133.5v569q0 123 -9 149t-50 26q-40 0 -51.5 -30 t-11.5 -145v-550z" />
<glyph unicode="&#xff;" horiz-adv-x="918" d="M-12 1327h367l132 -895l64 895h367l-116 -960q-27 -228 -45.5 -311t-61.5 -137t-119.5 -79.5t-244.5 -25.5h-245v212q94 0 121 9.5t27 42.5q0 16 -25 139zM124 1416v260h261v-260h-261zM561 1416v260h261v-260h-261z" />
<glyph unicode="&#x152;" horiz-adv-x="1410" d="M72 528v529q0 180 14 264t72 156.5t157 115.5t243 43q83 0 185 -17h596v-324h-284v-307h271v-308h-271v-356h318v-324h-633q-137 -17 -189 -17q-128 0 -235 45.5t-159 114.5t-68.5 144.5t-16.5 240.5zM493 521q0 -188 10.5 -226t56.5 -38t60 43t14 202v608q0 50 -1 74 q-2 44 -2 61q0 117 -70 117q-41 0 -54 -26.5t-13 -92.5l-1 -73v-649z" />
<glyph unicode="&#x153;" horiz-adv-x="1567" d="M60 495v290q0 214 27.5 309.5t139 176t282.5 80.5q76 0 144.5 -20t128.5 -60q52 40 117.5 60t143.5 20q141 0 264 -67.5t161 -175.5t38 -277v-191h-520v-297q0 -82 12.5 -107t48.5 -25q43 0 60 42t17 137v164h382v-131q0 -135 -42 -225t-151 -156t-258 -66 q-79 0 -147 15.5t-126 46.5q-55 -31 -119 -46.5t-138 -15.5q-136 0 -234 43t-150.5 108.5t-66.5 134.5t-14 233zM464 387q0 -125 9 -150.5t48 -25.5q37 0 49 28.5t12 133.5v552q0 129 -11 160t-50 31q-34 0 -45.5 -29t-11.5 -122v-578zM986 855h116v142q0 85 -18.5 102 t-40.5 17q-33 0 -45 -22.5t-12 -96.5v-142z" />
<glyph unicode="&#x178;" horiz-adv-x="969" d="M-12 1619h387q91 -473 102 -637q35 259 117 637h387l-307 -1033v-586h-390v586zM136 1670v260h261v-260h-261zM573 1670v260h261v-260h-261z" />
<glyph unicode="&#x2c6;" horiz-adv-x="683" d="M-48 1501l257 282h282l241 -282h-271l-111 131l-118 -131h-280z" />
<glyph unicode="&#x2dc;" horiz-adv-x="683" d="M-81 1606q110 194 248 194q72 0 157 -32l62 -23q78 -29 106 -29q83 0 110 90l161 -115q-46 -101 -113 -141t-118 -40q-71 0 -153 33l-74 29q-71 29 -106 29q-74 0 -122 -100z" />
<glyph unicode="&#x2000;" horiz-adv-x="1033" />
<glyph unicode="&#x2001;" horiz-adv-x="2066" />
<glyph unicode="&#x2002;" horiz-adv-x="1033" />
<glyph unicode="&#x2003;" horiz-adv-x="2066" />
<glyph unicode="&#x2004;" horiz-adv-x="688" />
<glyph unicode="&#x2005;" horiz-adv-x="516" />
<glyph unicode="&#x2006;" horiz-adv-x="344" />
<glyph unicode="&#x2007;" horiz-adv-x="344" />
<glyph unicode="&#x2008;" horiz-adv-x="258" />
<glyph unicode="&#x2009;" horiz-adv-x="413" />
<glyph unicode="&#x200a;" horiz-adv-x="114" />
<glyph unicode="&#x2010;" horiz-adv-x="603" d="M36 524v279h531v-279h-531z" />
<glyph unicode="&#x2011;" horiz-adv-x="603" d="M36 524v279h531v-279h-531z" />
<glyph unicode="&#x2012;" horiz-adv-x="603" d="M36 524v279h531v-279h-531z" />
<glyph unicode="&#x2013;" horiz-adv-x="1024" d="M-12 539v249h1048v-249h-1048z" />
<glyph unicode="&#x2014;" horiz-adv-x="2048" d="M-12 539v249h2072v-249h-2072z" />
<glyph unicode="&#x2018;" horiz-adv-x="344" d="M36 1095v145q0 114 27.5 187t94 124t149.5 68v-116q-59 -34 -67 -91h67v-317h-271z" />
<glyph unicode="&#x2019;" horiz-adv-x="344" d="M36 1095v117q60 33 68 90h-68v317h271v-145q0 -113 -27 -186.5t-93.5 -124t-150.5 -68.5z" />
<glyph unicode="&#x201a;" horiz-adv-x="344" d="M36 0v317h271v-145q0 -114 -27 -187t-93.5 -124t-150.5 -68v116q60 34 68 91h-68z" />
<glyph unicode="&#x201c;" horiz-adv-x="706" d="M36 1095v145q0 114 27.5 187t94 124t149.5 68v-116q-59 -34 -67 -91h67v-317h-271zM398 1095v145q0 114 27.5 187t93.5 124t150 68v-116q-59 -34 -67 -91h67v-317h-271z" />
<glyph unicode="&#x201d;" horiz-adv-x="706" d="M36 1095v117q60 33 68 90h-68v317h271v-145q0 -113 -27 -186.5t-93.5 -124t-150.5 -68.5zM398 1095v117q59 33 67 90h-67v317h271v-145q0 -113 -27 -186.5t-93.5 -124t-150.5 -68.5z" />
<glyph unicode="&#x201e;" horiz-adv-x="706" d="M36 0v317h271v-145q0 -114 -27 -187t-93.5 -124t-150.5 -68v116q60 34 68 91h-68zM398 0v317h271v-145q0 -114 -27 -187t-93.5 -124t-150.5 -68v116q59 34 67 91h-67z" />
<glyph unicode="&#x2022;" horiz-adv-x="712" d="M60 810q0 121 87 208t208 87q130 0 213 -90t83 -198q0 -132 -88 -217.5t-207 -85.5q-123 0 -209.5 86.5t-86.5 209.5z" />
<glyph unicode="&#x2026;" horiz-adv-x="1133" d="M36 0v330h305v-330h-305zM414 0v330h305v-330h-305zM792 0v330h305v-330h-305z" />
<glyph unicode="&#x202f;" horiz-adv-x="413" />
<glyph unicode="&#x2039;" horiz-adv-x="405" d="M36 696l87 561h245l-87 -561l87 -592h-245z" />
<glyph unicode="&#x203a;" horiz-adv-x="405" d="M36 104l87 592l-87 561h245l87 -561l-87 -592h-245z" />
<glyph unicode="&#x205f;" horiz-adv-x="516" />
<glyph unicode="&#x20ac;" horiz-adv-x="1087" d="M-25 612v172h97v80h-97v172h97v29q0 156 13.5 248t74.5 171t165.5 124t235.5 45q130 0 235.5 -47t164.5 -151.5t59 -338.5v-53h-373v131q-3 103 -7 129.5t-21.5 40.5t-55.5 14q-44 0 -70 -20.5t-31 -54t-5 -121.5v-146h114v-172h-114v-80h114v-172h-114v-182 q0 -85 6 -116t30 -52.5t60 -21.5q30 0 55.5 17.5t32 51t6.5 135.5v154h373v-63q0 -225 -42 -332.5t-155 -172.5t-274 -65q-129 0 -232 45.5t-158 121.5t-71 166t-16 271v43h-97z" />
<glyph unicode="&#x2122;" horiz-adv-x="1603" d="M12 1477v142h665v-142h-246v-677h-166v677h-253zM738 800v819h259l149 -564l149 564h260v-819h-158v653l-177 -653h-150l-176 653v-653h-156z" />
<glyph unicode="&#xe000;" horiz-adv-x="1325" d="M0 0v1325h1325v-1325h-1325z" />
<glyph unicode="&#xfb01;" horiz-adv-x="1148" d="M4 1085v210h83q0 131 9 175t44.5 78.5t99.5 52.5t199 18h148v-205q-125 0 -147.5 -11.5t-22.5 -65.5v-42h170v-210h-96v-1085h-404v1085h-83zM659 0v1327h416v-1327h-416zM659 1408v211h416v-211h-416z" />
<glyph unicode="&#xfb02;" horiz-adv-x="1145" d="M4 1085v210h83q0 131 9 175t44.5 78.5t99.5 52.5t199 18h148v-205q-125 0 -147.5 -11.5t-22.5 -65.5v-42h170v-210h-96v-1085h-404v1085h-83zM656 0v1619h416v-1619h-416z" />
</font>
</defs>
</svg>
