<?xml version="1.0" standalone="no"?>
<!DOCTYPE svg PUBLIC "-//W3C//DTD SVG 1.1//EN" "http://www.w3.org/Graphics/SVG/1.1/DTD/svg11.dtd" >
<svg xmlns="http://www.w3.org/2000/svg">
<metadata></metadata>
<defs>
<font id="bentwood_regbold" horiz-adv-x="983" >
<font-face units-per-em="2048" ascent="1536" descent="-512" />
<missing-glyph horiz-adv-x="512" />
<glyph horiz-adv-x="0" />
<glyph horiz-adv-x="682" />
<glyph unicode=" "  horiz-adv-x="512" />
<glyph unicode="&#x09;" horiz-adv-x="512" />
<glyph unicode="&#xa0;" horiz-adv-x="512" />
<glyph unicode="!" horiz-adv-x="450" d="M123 0v205h205v-205h-205zM123 410v1024h205v-1024h-205z" />
<glyph unicode="&#x22;" horiz-adv-x="696" d="M82 983v451h205v-451h-205zM410 983v451h204v-451h-204z" />
<glyph unicode="#" horiz-adv-x="1392" d="M82 410v172h287v270h-287v172h287v410h215v-410h225v410h215v-410h287v-172h-287v-270h287v-172h-287v-410h-215v410h-225v-410h-215v410h-287zM584 582h225v270h-225v-270z" />
<glyph unicode="$" horiz-adv-x="1105" d="M82 215q130 -60 369 -63v448q-112 6 -183.5 30.5t-113 75.5t-57 120.5t-15.5 177.5q0 98 16.5 165t58 118.5t113.5 80t181 39.5v129h215v-125q79 -3 148 -12.5t98 -18.5l30 -8l21 -194q-120 55 -297 61v-453q109 -7 178.5 -32t109.5 -76t55 -118.5t15 -170.5 q0 -82 -9 -139t-31.5 -106t-63 -79.5t-103 -50.5t-151.5 -28v-150h-215v146q-91 3 -178.5 12.5t-128.5 17.5l-42 8zM297 1004q0 -104 32 -149.5t122 -57.5v432q-89 -18 -121.5 -69.5t-32.5 -155.5zM666 164q83 19 113 71t30 154q0 101 -30 145t-113 56v-426z" />
<glyph unicode="%" horiz-adv-x="1228" d="M61 0l881 1434h225l-880 -1434h-226zM61 1167q0 119 84.5 203t202.5 84t202.5 -84t84.5 -203q0 -118 -84 -202t-203 -84t-203 84t-84 202zM225 1167q0 -51 36 -87t87 -36t87 36t36 87t-36 87t-87 36t-87 -36t-36 -87zM594 266q0 118 84 202.5t203 84.5q118 0 202 -84 t84 -203q0 -118 -83.5 -202t-202.5 -84t-203 84t-84 202zM758 266q0 -51 36 -87t87 -36t87 36t36 87t-36 87t-87 36t-87 -36t-36 -87z" />
<glyph unicode="&#x26;" horiz-adv-x="1351" d="M104 422q0 181 55 283.5t181 144.5q-56 72 -75 125t-19 131q0 65 9 113.5t34 94.5t67.5 75.5t112.5 47t166 17.5t166 -17.5t112.5 -47t67.5 -75.5t34 -94.5t9 -113.5q0 -44 -6 -85.5t-25.5 -93t-52 -91t-91 -72.5t-136.5 -45l198 -223v159h215v-225q0 -88 -18 -158 l244 -272h-246l-92 100q-123 -120 -400 -120q-284 0 -397 96t-113 346zM317 422q0 -153 65.5 -211.5t231.5 -58.5q192 0 256 106l-397 438q-84 -24 -120 -89.5t-36 -184.5zM451 1106q0 -59 19.5 -97.5t96.5 -125.5q252 0 252 223q0 40 -6 67.5t-24 54.5t-56.5 40.5 t-97.5 13.5t-97.5 -13.5t-56.5 -40.5t-24 -54.5t-6 -67.5z" />
<glyph unicode="'" horiz-adv-x="368" d="M82 983v451h205v-451h-205z" />
<glyph unicode="(" horiz-adv-x="573" d="M82 614q0 134 14.5 257t38 213t52 167.5t57 128.5t52 87.5t38.5 52.5l14 16h195q-5 -6 -14 -17t-34.5 -51.5t-48.5 -88t-51.5 -127.5t-49 -168.5t-34.5 -212t-14 -257.5t13.5 -257t35.5 -212.5t48 -167t52 -128.5t48 -87.5t36 -52.5l13 -16h-195q-11 11 -29 33t-63.5 103 t-81 177.5t-64 260.5t-28.5 347z" />
<glyph unicode=")" horiz-adv-x="573" d="M31 -307q5 6 14 17t34.5 51.5t48.5 88t51 127t48.5 168t34.5 212t14 257.5t-13.5 257t-35 213t-47.5 167.5t-52.5 128.5t-48 87.5t-35.5 52.5l-13 16h194q11 -11 29 -33t64 -103.5t81 -178t64 -260.5t29 -347q0 -134 -14.5 -257t-38.5 -212.5t-52.5 -167t-56.5 -128.5 t-52 -87.5t-38 -52.5l-15 -16h-194z" />
<glyph unicode="*" horiz-adv-x="819" d="M82 1065v164h184l-92 162l143 82l91 -160l94 162l143 -82l-94 -164h186v-164h-186l94 -162l-143 -82l-94 160l-91 -158l-143 82l92 160h-184z" />
<glyph unicode="+" horiz-adv-x="1187" d="M82 502v164h410v430h204v-430h410v-164h-410v-430h-204v430h-410z" />
<glyph unicode="," horiz-adv-x="368" d="M82 205h205l-21 -492h-184v492z" />
<glyph unicode="-" horiz-adv-x="614" d="M82 498v172h450v-172h-450z" />
<glyph unicode="." horiz-adv-x="368" d="M82 0v205h205v-205h-205z" />
<glyph unicode="/" horiz-adv-x="860" d="M41 -512l563 2048h215l-563 -2048h-215z" />
<glyph unicode="0" horiz-adv-x="1228" d="M102 717q0 100 3.5 180.5t12 148.5t19.5 120t30.5 94t41 72t53.5 52t65.5 35t80.5 21t94.5 11t111.5 3t111.5 -3t94.5 -11t80.5 -21t65.5 -35t53.5 -52t41 -72t30.5 -94t19.5 -120t12 -148.5t3.5 -180.5t-3.5 -180.5t-12 -148.5t-19.5 -120t-30.5 -94t-41 -72t-53.5 -52 t-65.5 -35t-80.5 -21t-94.5 -11t-111.5 -3t-111.5 3t-94.5 11t-80.5 21t-65.5 35t-53.5 52t-41 72t-30.5 94t-19.5 120t-12 148.5t-3.5 180.5zM317 717q0 -123 5.5 -208.5t19.5 -150.5t34.5 -103.5t56 -62t77.5 -32t104 -8.5t104 8.5t77.5 32t56 62t34.5 103.5t19.5 150.5 t5.5 208.5q0 126 -5 213t-19.5 152t-35 102.5t-56 60t-77 30t-104.5 7.5t-104.5 -7.5t-77 -30t-56 -60t-35 -102.5t-19.5 -152t-5 -213z" />
<glyph unicode="1" horiz-adv-x="573" d="M41 1262l20 172h287q50 0 76.5 -22.5t26.5 -80.5v-1331h-215v1262h-195z" />
<glyph unicode="2" horiz-adv-x="1126" d="M102 0v328q0 87 9 153t36.5 131.5t73.5 107t124.5 67.5t186.5 26q168 0 232.5 50.5t64.5 180.5q0 69 -12 111.5t-45 72.5t-90.5 42t-149.5 12q-69 0 -166.5 -16t-159.5 -32l-63 -15l21 194q16 5 46 11.5t126 18t196 11.5q157 0 254.5 -20t156 -70.5t80 -125t21.5 -194.5 q0 -116 -21.5 -192.5t-75.5 -130t-145 -77t-229 -23.5q-82 0 -136 -20.5t-81.5 -62.5t-38 -91t-10.5 -119v-156h697v-172h-902z" />
<glyph unicode="3" horiz-adv-x="1126" d="M61 205q159 -53 451 -53q94 0 149.5 9t90 34.5t46 65.5t11.5 108q0 67 -11 112.5t-39.5 81t-80 52t-129.5 16.5h-180v172h180q78 0 129.5 16.5t80 52t39.5 81t11 112.5q0 68 -11.5 108t-46 65.5t-90 34.5t-149.5 9q-292 0 -451 -53l21 184q205 41 430 41q127 0 212 -11.5 t145.5 -36.5t93.5 -72t47 -110.5t14 -158.5q0 -130 -28.5 -214.5t-90.5 -133.5q62 -50 90.5 -134.5t28.5 -213.5q0 -95 -14 -158.5t-47 -110.5t-93.5 -72t-145.5 -36.5t-212 -11.5q-100 0 -207.5 10t-164.5 20l-58 10z" />
<glyph unicode="4" horiz-adv-x="1269" d="M102 1024v410h215v-369q0 -61 3.5 -98.5t16.5 -70t32.5 -49t57.5 -29t86 -16t122 -3.5h174v635h215v-635h164v-174h-164v-625h-215v625h-174q-108 0 -183.5 6.5t-138 24t-100.5 45.5t-64 74t-36.5 105.5t-10.5 143.5z" />
<glyph unicode="5" horiz-adv-x="1126" d="M102 215q140 -63 430 -63q91 0 149 13.5t91 45.5t45 75.5t12 112.5q0 90 -22 139t-82 73t-172 24h-451v799h861v-172h-646v-435h277q137 0 225.5 -25t138 -81.5t68 -131.5t18.5 -190q0 -94 -12 -158t-44 -117t-90 -82.5t-147.5 -45.5t-218.5 -16q-105 0 -207 10t-152 20 l-50 10z" />
<glyph unicode="6" horiz-adv-x="1208" d="M102 717q0 121 6.5 215t22.5 169.5t37.5 129.5t56.5 94t74.5 64.5t96.5 39t117 20t142 5.5t179 -10t154 -20l56 -11l21 -194q-157 63 -410 63q-75 0 -122 -8t-90 -34t-66.5 -75.5t-38.5 -131.5t-19 -204h285q155 0 255.5 -23.5t160 -78.5t83 -135t23.5 -203 q0 -84 -9.5 -144.5t-34.5 -107.5t-62.5 -76t-97.5 -47.5t-136 -26t-182 -7.5q-80 0 -136.5 4.5t-110 18.5t-88 37t-65.5 63t-48.5 93t-30.5 130t-18 171t-5 220zM317 645q1 -96 7 -167t15.5 -124.5t27.5 -89t38 -58t52 -34.5t65 -16t82 -4q185 0 246 46t61 191 q0 96 -26 149.5t-92.5 80t-188.5 26.5h-287z" />
<glyph unicode="7" horiz-adv-x="1105" d="M61 0l705 1262h-705v172h912q26 0 48.5 -19.5t22.5 -52.5t-20 -72l-717 -1290h-246z" />
<glyph unicode="8" horiz-adv-x="1249" d="M104 393q0 236 132 324q-132 88 -132 327q0 79 8 135t29.5 104.5t58 78.5t95 52t139 31t191.5 9q133 0 223.5 -14.5t150 -42.5t91.5 -79.5t44.5 -114.5t12.5 -159q0 -239 -133 -327q133 -88 133 -324q0 -79 -8 -135t-29.5 -104.5t-58.5 -79.5t-95.5 -53t-139 -31.5 t-191.5 -9.5q-133 0 -223.5 15t-149.5 43.5t-91.5 80.5t-44.5 115.5t-12 158.5zM317 393q0 -50 4 -83.5t16.5 -62.5t33.5 -45.5t56 -28.5t82.5 -16.5t115.5 -4.5q82 0 135 7.5t88.5 22.5t53.5 45.5t25 68t7 97.5q0 94 -24 143t-90 72t-195 23t-194.5 -23t-89.5 -71.5 t-24 -143.5zM317 1044q0 -142 56.5 -191.5t220.5 -49.5h61q161 0 220 51.5t59 189.5q0 49 -4.5 82t-17 61.5t-33.5 45t-56 28.5t-82.5 16.5t-115.5 4.5t-115.5 -4.5t-82.5 -16.5t-56 -28.5t-33.5 -45t-16.5 -61.5t-4 -82z" />
<glyph unicode="9" horiz-adv-x="1208" d="M82 1044q0 101 15.5 169t49 116.5t96.5 75t148 38t213 11.5q80 0 136.5 -4.5t110 -18.5t88 -37t65.5 -63t48.5 -93t30.5 -130t18 -171t5 -220q0 -121 -6.5 -215t-22.5 -169.5t-37.5 -129.5t-56.5 -94t-74.5 -64.5t-96.5 -39t-117 -20t-142 -5.5t-179 10t-154 20l-56 10 l-21 195q157 -63 410 -63q75 0 121.5 8t90 33.5t67 75t38.5 131.5t19 204h-285q-155 0 -255.5 23.5t-160 78.5t-83 135t-23.5 203zM297 1044q0 -96 26 -149.5t92.5 -80t188.5 -26.5h287q-2 112 -8.5 191t-22.5 134.5t-36 88t-54.5 51t-71.5 24t-94 5.5q-185 0 -246 -46.5 t-61 -191.5z" />
<glyph unicode=":" horiz-adv-x="368" d="M82 0v205h205v-205h-205zM82 573v205h205v-205h-205z" />
<glyph unicode=";" horiz-adv-x="368" d="M82 205h205l-21 -492h-184v492zM82 573v205h205v-205h-205z" />
<glyph unicode="&#x3c;" horiz-adv-x="1126" d="M41 553q0 49 30 88t103 76l870 430v-205q-182 -87 -356 -174t-257 -130l-83 -44l-102 -41l102 -41q289 -155 696 -348v-205l-870 430q-74 35 -103.5 73.5t-29.5 90.5z" />
<glyph unicode="=" horiz-adv-x="1187" d="M82 328v174h1024v-174h-1024zM82 666v174h1024v-174h-1024z" />
<glyph unicode="&#x3e;" horiz-adv-x="1126" d="M82 -41v205q181 86 355 173t257 131l84 44l103 41l-103 41q-287 153 -696 348v205l870 -430q73 -37 103 -76t30 -88q0 -52 -29.5 -90.5t-103.5 -73.5z" />
<glyph unicode="?" horiz-adv-x="1034" d="M61 1229l21 184q11 5 35 11.5t114 18t199 11.5q104 0 174.5 -5t133 -20.5t100 -42t65 -70.5t38.5 -105t11 -146q0 -36 -5 -71.5t-26 -87t-55 -92.5t-99.5 -77.5t-152.5 -50.5q-55 -9 -92 -33t-56.5 -61.5t-27.5 -80.5t-8 -101h-205q0 57 5 104.5t22.5 106t47 101t84 78 t128.5 50.5q61 12 105.5 33t67 41.5t35 49t15 47.5t2.5 44q0 44 -6 76.5t-15 56t-29.5 39t-40.5 24.5t-57 13.5t-70.5 6t-88.5 1.5q-74 0 -139.5 -5.5t-106 -13t-70 -15.5t-41.5 -14zM225 0v205h205v-205h-205z" />
<glyph unicode="@" horiz-adv-x="1638" d="M82 717q0 134 13 233.5t46 185.5t88 143t139.5 97.5t200.5 59t271 18.5q116 0 210 -10.5t165.5 -32t125.5 -50.5t91.5 -71t62 -87t38 -105.5t18.5 -120.5t5 -137q0 -543 -450 -543h-307q-200 0 -279.5 91.5t-79.5 328.5t79.5 328.5t279.5 91.5h358v-670 q95 15 139.5 105.5t44.5 267.5q0 78 -6.5 133.5t-25.5 110t-54 90t-89.5 63t-135.5 40.5t-190 13q-112 0 -195 -14t-144 -45t-100 -75t-62.5 -110.5t-32.5 -144.5t-9 -184q0 -114 9 -194.5t33 -147.5t62.5 -109t100 -70.5t143.5 -40.5t195 -12q164 0 314 22t218 44l68 22 l-27 -188q-32 -7 -88 -17.5t-207 -28t-278 -17.5q-157 0 -271 15.5t-200 53t-140 91.5t-87.5 140t-46.5 189.5t-13 247.5zM655 717q0 -146 32 -201t112 -55h143v512h-143q-80 0 -112 -55t-32 -201z" />
<glyph unicode="A" horiz-adv-x="1228" d="M41 0l369 1290q15 51 37 85.5t50.5 50.5t55 22t61.5 6q74 0 125.5 -33.5t79.5 -130.5l369 -1290h-215l-125 430h-469l-123 -430h-215zM428 594h373l-166 573l-21 113l-20 -113z" />
<glyph unicode="B" horiz-adv-x="1167" d="M123 0v1434h420q127 0 213 -11.5t148 -37t96 -72t49.5 -110.5t15.5 -159q0 -123 -27.5 -203t-91.5 -124q64 -44 91.5 -124.5t27.5 -203.5q0 -79 -10 -135.5t-34.5 -101.5t-62 -73t-97.5 -46t-136 -25.5t-182 -7.5h-420zM338 172h205q184 0 246.5 43.5t62.5 173.5 t-60.5 186t-218.5 56h-235v-459zM338 803h205q122 0 189 24.5t93.5 75t26.5 141.5q0 130 -62.5 174t-246.5 44h-205v-459z" />
<glyph unicode="C" horiz-adv-x="1085" d="M102 717q0 120 7 215t22.5 169.5t37 129.5t55 94.5t71 64t91 39t109 20t130.5 5.5q82 0 176.5 -10t148.5 -20l54 -11l20 -194q-80 36 -177 49.5t-233 13.5q-71 0 -116 -12t-82.5 -45t-57.5 -97t-30.5 -163t-10.5 -248t10.5 -248t30.5 -163t57.5 -97t82.5 -45t116 -12 q136 0 233 13.5t177 49.5l-20 -195q-197 -40 -381 -40q-75 0 -130.5 5.5t-109 20t-90.5 39t-70.5 64t-54.5 94.5t-37 129.5t-22.5 169.5t-6.5 215z" />
<glyph unicode="D" horiz-adv-x="1187" d="M123 0v1434h430q65 0 112 -2.5t96 -9.5t83 -19t68.5 -32.5t56.5 -48.5t43.5 -68.5t33.5 -91.5t21.5 -118t13.5 -147t4 -180t-4 -180t-13.5 -147t-21.5 -118t-33.5 -91.5t-43.5 -68.5t-56.5 -48.5t-68.5 -32.5t-83 -19t-96 -9.5t-112 -2.5h-430zM338 172h215 q77 0 124.5 11t88 42.5t61.5 93t32 157.5t11 241q0 93 -3.5 164.5t-13 128t-21.5 96t-32.5 68t-42.5 45.5t-55.5 27t-67 13t-81.5 3h-215v-1090z" />
<glyph unicode="E" horiz-adv-x="1044" d="M123 0v1434h840v-174h-625v-457h532v-172h-532v-457h625v-174h-840z" />
<glyph unicode="F" horiz-adv-x="1024" d="M123 0v1434h840v-174h-625v-457h532v-172h-532v-631h-215z" />
<glyph unicode="G" horiz-adv-x="1208" d="M102 717q0 122 6 215.5t20 169t34 129.5t52.5 94t69.5 64.5t91.5 39t112.5 20t137 5.5q82 0 179 -10t154 -20l56 -11l20 -194q-140 63 -420 63q-60 0 -100.5 -7.5t-76 -30t-56.5 -60.5t-36.5 -102t-21.5 -152t-6 -213q0 -123 5.5 -208.5t19.5 -150.5t34.5 -103.5t56 -62 t77.5 -32t104 -8.5q58 0 98 7.5t74 27.5t55 53t36.5 87.5t22.5 127.5t9 176h-295v172h512v-86q0 -100 -3.5 -180.5t-12 -148.5t-19.5 -120t-30.5 -94t-41 -72t-53.5 -52t-65.5 -35t-80.5 -21t-94.5 -11t-111.5 -3t-111.5 3t-94.5 11t-80.5 21t-65.5 35t-53.5 52t-41 72 t-30.5 94t-19.5 120t-12 148.5t-3.5 180.5z" />
<glyph unicode="H" horiz-adv-x="1187" d="M123 0v1434h215v-631h512v631h215v-1434h-215v631h-512v-631h-215z" />
<glyph unicode="I" horiz-adv-x="460" d="M123 0v1434h215v-1434h-215z" />
<glyph unicode="J" horiz-adv-x="552" d="M0 -20v172q19 0 29.5 0.5t30.5 3.5t32.5 8.5t30.5 17.5t29.5 28.5t24.5 42.5t20.5 59t12.5 79t5 101v942h215v-942q0 -131 -18 -222.5t-50 -148t-87.5 -88t-118.5 -42.5t-156 -11z" />
<glyph unicode="K" horiz-adv-x="1208" d="M123 0v1434h215v-1434h-215zM369 717q0 34 18.5 68t69.5 96l463 553h247l-594 -717l594 -717h-247l-463 553q-53 64 -70.5 95.5t-17.5 68.5z" />
<glyph unicode="L" horiz-adv-x="1024" d="M123 0v1434h215v-1262h625v-172h-840z" />
<glyph unicode="M" horiz-adv-x="1597" d="M123 0v1311q0 64 39.5 103.5t113.5 39.5q92 0 131.5 -34t73.5 -140l287 -891l31 -164l30 164l287 891q34 106 73.5 140t131.5 34q74 0 114 -39.5t40 -103.5v-1311h-215v1147l-31 -164l-266 -840q-32 -99 -68.5 -131t-95.5 -32t-95.5 32t-68.5 131l-266 840l-31 164v-1147 h-215z" />
<glyph unicode="N" horiz-adv-x="1310" d="M123 0v1321q0 50 39 91.5t104 41.5q59 0 98 -27.5t87 -115.5l471 -860l51 -156v1139h215v-1321q0 -50 -39.5 -91.5t-104.5 -41.5q-59 0 -97.5 27.5t-86.5 115.5l-471 860l-51 164v-1147h-215z" />
<glyph unicode="O" horiz-adv-x="1228" d="M102 717q0 100 3.5 180.5t12 148.5t19.5 120t30.5 94t41 72t53.5 52t65.5 35t80.5 21t94.5 11t111.5 3t111.5 -3t94.5 -11t80.5 -21t65.5 -35t53.5 -52t41 -72t30.5 -94t19.5 -120t12 -148.5t3.5 -180.5t-3.5 -180.5t-12 -148.5t-19.5 -120t-30.5 -94t-41 -72t-53.5 -52 t-65.5 -35t-80.5 -21t-94.5 -11t-111.5 -3t-111.5 3t-94.5 11t-80.5 21t-65.5 35t-53.5 52t-41 72t-30.5 94t-19.5 120t-12 148.5t-3.5 180.5zM317 717q0 -123 5.5 -208.5t19.5 -150.5t34.5 -103.5t56 -62t77.5 -32t104 -8.5t104 8t77.5 32t56 62.5t34.5 103.5t19.5 150.5 t5.5 208.5q0 126 -5 213t-19.5 152t-35 102.5t-56 60t-77 30t-104.5 7.5t-104.5 -7.5t-77 -30t-56 -60t-35 -102.5t-19.5 -152t-5 -213z" />
<glyph unicode="P" horiz-adv-x="1146" d="M123 0v1434h420q127 0 213 -11.5t148 -37t96 -72t49.5 -110.5t15.5 -159q0 -119 -23.5 -194.5t-83.5 -126.5t-159.5 -71.5t-255.5 -20.5h-205v-631h-215zM338 803h205q122 0 189 24.5t93.5 75t26.5 141.5q0 130 -62.5 174t-246.5 44h-205v-459z" />
<glyph unicode="Q" horiz-adv-x="1228" d="M102 717q0 100 3.5 180.5t12 148.5t19.5 120t30.5 94t41 72t53.5 52t65.5 35t80.5 21t94.5 11t111.5 3t111.5 -3t94.5 -11t80.5 -21t65.5 -35t53.5 -52t41 -72t30.5 -94t19.5 -120t12 -148.5t3.5 -180.5q0 -304 -37 -456t-128 -214l104 -190l-162 -88l-119 219 q-68 -8 -170 -8q-64 0 -111.5 3t-94.5 11t-80.5 21t-65.5 35t-53.5 52t-41 72t-30.5 94t-19.5 120t-12 148.5t-3.5 180.5zM317 717q0 -123 5.5 -208.5t19.5 -150.5t34.5 -103.5t56 -62t77.5 -32t104 -8.5q32 0 78 4l-71 135l161 88l68 -125q33 59 47 168.5t14 294.5 q0 126 -5 213t-19.5 152t-35 102.5t-56 60t-77 30t-104.5 7.5t-104.5 -7.5t-77 -30t-56 -60t-35 -102.5t-19.5 -152t-5 -213z" />
<glyph unicode="R" horiz-adv-x="1167" d="M123 0v1434h450q155 0 249.5 -16.5t155.5 -62t84 -118.5t23 -193q0 -115 -21 -188t-73 -120t-134.5 -66t-211.5 -19l440 -651h-256l-426 643q-24 32 -24 74q0 33 29 67.5t84 34.5h71q183 0 246 46.5t63 178.5q0 130 -62.5 174t-246.5 44h-225v-1262h-215z" />
<glyph unicode="S" horiz-adv-x="1105" d="M82 215q140 -63 430 -63q122 0 186 24t87.5 73t23.5 140q0 90 -22.5 138t-82 71t-172.5 23q-92 0 -161.5 10.5t-119.5 33.5t-82.5 55.5t-52 82t-27 106.5t-7.5 135q0 90 14 153.5t47.5 114.5t92.5 81t146.5 45.5t211.5 15.5q100 0 187 -10t124 -20l37 -11l21 -194 q-81 37 -163.5 50t-205.5 13q-92 0 -149.5 -12t-90.5 -42t-45 -72.5t-12 -111.5q0 -90 22 -137.5t81.5 -70.5t172.5 -23q137 0 226 -24.5t138 -80t68 -130t19 -189.5q0 -94 -12 -157t-44 -114.5t-90.5 -80t-147 -43t-218.5 -14.5q-105 0 -207.5 10t-152.5 20l-50 10z" />
<glyph unicode="T" horiz-adv-x="1064" d="M61 1262v172h943v-172h-359v-1262h-215v1262h-369z" />
<glyph unicode="U" horiz-adv-x="1228" d="M102 717v717h215v-717q0 -123 5.5 -208.5t19.5 -150.5t34.5 -103.5t56 -62t77.5 -32t104 -8.5t104 8.5t77.5 32t56 62t34.5 103.5t19.5 150.5t5.5 208.5v717h215v-717q0 -100 -3.5 -180.5t-12 -148.5t-19.5 -120t-30.5 -94t-41 -72t-53.5 -52t-65.5 -35t-80.5 -21 t-94.5 -11t-111.5 -3t-111.5 3t-94.5 11t-80.5 21t-65.5 35t-53.5 52t-41 72t-30.5 94t-19.5 120t-12 148.5t-3.5 180.5z" />
<glyph unicode="V" horiz-adv-x="1187" d="M41 1434h215l307 -1065l31 -154l31 154l307 1065h215l-369 -1291q-47 -163 -184 -163t-184 163z" />
<glyph unicode="W" horiz-adv-x="2150" d="M41 1434h215l307 -1065l31 -154l31 154l266 921q47 164 184 164q138 0 185 -164l266 -921l30 -154l31 154l307 1065h215l-368 -1291q-47 -163 -185 -163q-137 0 -184 163l-266 922l-31 154l-31 -154l-266 -922q-47 -163 -184 -163t-184 163z" />
<glyph unicode="X" horiz-adv-x="1146" d="M41 0l420 717l-420 717h225l307 -525l308 525h225l-420 -717l420 -717h-225l-308 524l-307 -524h-225z" />
<glyph unicode="Y" horiz-adv-x="1116" d="M29 1434h225l270 -471l33 -82l31 82l270 471h225l-419 -717v-717h-215v717z" />
<glyph unicode="Z" horiz-adv-x="1105" d="M61 72q0 36 21 71l682 1119h-662v172h871q26 0 48.5 -19.5t22.5 -52.5q0 -38 -20 -72l-684 -1118h664v-172h-871q-26 0 -49 19.5t-23 52.5z" />
<glyph unicode="[" horiz-adv-x="634" d="M123 -307v1843h450v-164h-245v-1515h245v-164h-450z" />
<glyph unicode="\" horiz-adv-x="860" d="M41 1536h215l563 -2048h-215z" />
<glyph unicode="]" horiz-adv-x="634" d="M61 -143h246v1515h-246v164h451v-1843h-451v164z" />
<glyph unicode="^" horiz-adv-x="1269" d="M41 451l430 870q35 74 73.5 103.5t90.5 29.5q49 0 88 -30t76 -103l430 -870h-205q-87 182 -174 356t-130 257l-44 83l-41 102l-41 -102q-155 -289 -348 -696h-205z" />
<glyph unicode="_" horiz-adv-x="1024" d="M0 -123h1024v-172h-1024v172z" />
<glyph unicode="`" horiz-adv-x="593" d="M88 1448l109 108l307 -307l-109 -108z" />
<glyph unicode="a" d="M82 297q0 91 21 148t72 90.5t125 46t192 12.5h202q-5 121 -28 183.5t-62.5 83t-111.5 20.5q-89 0 -181.5 -15.5t-140.5 -31.5l-47 -15l20 185q144 40 349 40q80 0 135 -7.5t104 -28.5t78.5 -57t51.5 -96t31 -143.5t9 -199.5t-9 -199.5t-31 -143.5t-51.5 -96t-78.5 -57 t-104 -28.5t-135 -7.5q-227 0 -318.5 70.5t-91.5 246.5zM287 297q0 -85 46 -119.5t159 -34.5q72 0 111.5 20.5t62.5 83t28 183.5h-202q-116 0 -160.5 -27t-44.5 -106z" />
<glyph unicode="b" horiz-adv-x="1003" d="M102 512v1024h205v-506q96 14 205 14q80 0 134 -7t103 -28t78.5 -57.5t52 -96t32 -143t10.5 -200.5q0 -116 -9 -199.5t-31 -143t-51.5 -96t-79 -57.5t-104.5 -28.5t-135 -7.5q-62 0 -106.5 1.5t-85.5 9t-68.5 15t-52 26.5t-38.5 37t-26.5 53t-18 67t-9 87.5t-4.5 106 t-1 129.5zM307 512q0 -94 2 -149t11 -100.5t20 -66t37.5 -34.5t54.5 -16.5t80 -2.5q60 0 96 13t62.5 52.5t36.5 112t10 191.5q-1 96 -9 161t-22 106.5t-40 63.5t-56.5 30t-77.5 8q-102 0 -205 -21v-348z" />
<glyph unicode="c" horiz-adv-x="880" d="M82 512q0 116 9 199.5t31 143t51.5 96t79 57.5t104.5 28.5t135 7.5q91 0 168 -10t108 -20l31 -10l20 -185q-14 7 -40.5 17.5t-112 27.5t-174.5 17q-60 0 -96 -13t-62.5 -52.5t-36.5 -112t-10 -191.5t10 -191.5t36.5 -112t62.5 -52.5t96 -13q89 0 171 15.5t119 31.5l37 15 l-20 -185q-11 -4 -34 -11t-102.5 -18t-170.5 -11q-80 0 -135 7.5t-104.5 28.5t-79 57.5t-51.5 96t-31 143t-9 199.5z" />
<glyph unicode="d" horiz-adv-x="1003" d="M82 512q1 117 10.5 200.5t32 143t52 96t78.5 57.5t103 28t134 7q108 0 204 -14v506h205v-1024q0 -80 -1 -130t-4.5 -105.5t-9 -87.5t-17.5 -67.5t-26.5 -53t-39 -36.5t-51.5 -26.5t-68 -15t-85.5 -9t-106.5 -1.5q-80 0 -135 7.5t-104.5 28.5t-79 57.5t-51.5 96t-31 143 t-9 199.5zM287 512q0 -119 10 -191.5t36.5 -112t62.5 -52.5t96 -13q39 0 62 1t47 8t36.5 16t25 29.5t17.5 44.5t9.5 66t5.5 88t1 116v348q-103 21 -204 21q-47 0 -77.5 -8t-56.5 -30t-40 -63.5t-22 -106.5t-9 -161z" />
<glyph unicode="e" d="M82 512q0 116 9 199.5t31 143t51.5 96t79 57.5t104.5 28.5t135 7.5q226 0 317.5 -70.5t91.5 -246.5q0 -91 -20.5 -148t-71.5 -90.5t-125 -46t-192 -12.5h-203q4 -91 16.5 -147.5t39 -87.5t60 -41.5t87.5 -10.5q89 0 181 15.5t139 31.5l48 15l-20 -185q-143 -40 -348 -40 q-80 0 -135 7.5t-104.5 28.5t-79 57.5t-51.5 96t-31 143t-9 199.5zM289 594h203q116 0 160 26.5t44 106.5q0 85 -46 119.5t-158 34.5q-54 0 -87.5 -10.5t-60 -41.5t-39 -87.5t-16.5 -147.5z" />
<glyph unicode="f" horiz-adv-x="573" d="M102 0v1024q0 133 14.5 224.5t42.5 152.5t79 94.5t115 47t159 13.5v-163q-28 0 -47 -2t-42.5 -10.5t-39 -23.5t-31 -42t-25 -65.5t-15 -95.5t-5.5 -130h205v-164h-205v-860h-205z" />
<glyph unicode="g" horiz-adv-x="1003" d="M82 512q0 116 9 199.5t31 143t51.5 96t79 57.5t104.5 28.5t135 7.5t135 -7.5t104 -28.5t78.5 -57t51.5 -96t31 -143.5t9 -199.5v-494q0 -116 -9 -199.5t-31 -143.5t-51.5 -96t-78.5 -57t-104 -28.5t-135 -7.5q-91 0 -175.5 11t-123.5 21l-39 11l-31 182q19 -7 52.5 -17 t130.5 -27t186 -17q55 0 89.5 10.5t61.5 41t39 88t12 147.5v57q-96 -14 -202 -14q-80 0 -134 7t-103 28t-78.5 57.5t-52 96t-32 143t-10.5 200.5zM287 512q0 -95 8 -160.5t22.5 -107t41 -63.5t57 -30t76.5 -8q101 0 204 21v348q0 158 -21 237.5t-62 105.5t-121 26 q-60 0 -96 -13t-62.5 -52.5t-36.5 -112t-10 -191.5z" />
<glyph unicode="h" horiz-adv-x="1024" d="M102 0v1536h205v-506q96 14 205 14q80 0 135 -7.5t104.5 -28.5t79 -57.5t51.5 -96t31 -143t9 -199.5v-512h-205v512q0 119 -10 191.5t-36.5 112t-62.5 52.5t-96 13q-102 0 -205 -21v-860h-205z" />
<glyph unicode="i" horiz-adv-x="409" d="M102 0v1024h205v-1024h-205zM102 1229v205h205v-205h-205z" />
<glyph unicode="j" horiz-adv-x="471" d="M-41 -348q25 0 37 0.5t34 3.5t33 9t27.5 17.5t25.5 29t19.5 43.5t16 60.5t9 81t3.5 103.5v1024h205v-1024q0 -111 -9 -191t-31 -137.5t-51.5 -92.5t-78.5 -55.5t-104.5 -28t-135.5 -7.5v164zM164 1229v205h205v-205h-205z" />
<glyph unicode="k" horiz-adv-x="1085" d="M102 0v1536h205v-1536h-205zM328 512q0 43 41 84l409 428h246l-492 -512l512 -512h-266l-409 428q-41 44 -41 84z" />
<glyph unicode="l" horiz-adv-x="409" d="M102 0v1536h205v-1536h-205z" />
<glyph unicode="m" horiz-adv-x="1638" d="M102 0v512q0 116 9 199.5t31 143t51.5 96t79 57.5t104.5 28.5t135 7.5q208 0 307 -102q99 102 307 102q80 0 135 -7.5t104.5 -28.5t79 -57.5t51.5 -96t31 -143t9 -199.5v-512h-205v512q0 119 -10 191.5t-36.5 112t-62.5 52.5t-96 13q-77 0 -118 -23t-63.5 -97t-22.5 -216 v-33v-512h-205v512q0 119 -10 191.5t-36.5 112t-62.5 52.5t-96 13t-96 -13t-62.5 -52.5t-36.5 -112t-10 -191.5v-512h-205z" />
<glyph unicode="n" horiz-adv-x="1024" d="M102 0v512q0 116 9 199.5t31 143t51.5 96t79 57.5t104.5 28.5t135 7.5t135 -7.5t104.5 -28.5t79 -57.5t51.5 -96t31 -143t9 -199.5v-512h-205v512q0 119 -10 191.5t-36.5 112t-62.5 52.5t-96 13t-96 -13t-62.5 -52.5t-36.5 -112t-10 -191.5v-512h-205z" />
<glyph unicode="o" d="M82 512q0 116 9 199.5t31 143t51.5 96t79 57.5t104.5 28.5t135 7.5t135 -7.5t104 -28.5t78.5 -57t51.5 -96t31 -143.5t9 -199.5t-9 -199.5t-31 -143.5t-51.5 -96t-78.5 -57t-104 -28.5t-135 -7.5t-135 7.5t-104.5 28.5t-79 57.5t-51.5 96t-31 143t-9 199.5zM287 512 q0 -119 10 -191.5t36.5 -112t62.5 -52.5t96 -13q80 0 121 26t62 105.5t21 237.5t-21 237.5t-62 105.5t-121 26q-60 0 -96 -13t-62.5 -52.5t-36.5 -112t-10 -191.5z" />
<glyph unicode="p" horiz-adv-x="1003" d="M102 -512v1024q0 79 1 129.5t4.5 106t9 87.5t18 67t26.5 53t38.5 37t52 26.5t68.5 15t85.5 9t106.5 1.5q80 0 135 -7.5t104.5 -28.5t79 -57.5t51.5 -96t31 -143t9 -199.5q-1 -117 -10.5 -200.5t-32 -143t-52 -96t-78.5 -57.5t-103 -28t-134 -7q-109 0 -205 14v-506h-205z M307 164q103 -21 205 -21q46 0 76.5 8t57 30t41 63.5t22.5 107t8 160.5q0 119 -10 191.5t-36.5 112t-62.5 52.5t-96 13q-52 0 -80 -2.5t-54.5 -16.5t-37.5 -34.5t-20 -66t-11 -100.5t-2 -149v-348z" />
<glyph unicode="q" horiz-adv-x="1003" d="M82 512q0 116 9 199.5t31 143t51.5 96t79 57.5t104.5 28.5t135 7.5q62 0 106.5 -1.5t85.5 -9t68 -15t51.5 -26.5t39 -36.5t26.5 -53t17.5 -67.5t9 -87.5t4.5 -105.5t1 -130v-1024h-205v506q-96 -14 -204 -14q-80 0 -134 7t-103 28t-78.5 57.5t-52 96t-32 143t-10.5 200.5 zM287 512q0 -95 8 -160.5t22.5 -107t41 -63.5t57 -30t76.5 -8q101 0 204 21v348q0 70 -1 116t-5.5 88t-9.5 66t-17.5 44.5t-25 29.5t-36.5 16t-47 8t-62 1q-60 0 -96 -13t-62.5 -52.5t-36.5 -112t-10 -191.5z" />
<glyph unicode="r" horiz-adv-x="788" d="M102 0v512q0 117 7.5 199.5t27 143t47 96.5t74 57.5t100.5 28.5t134 7q51 0 112.5 -5t97.5 -10l35 -5l31 -174q-151 31 -276 31q-79 0 -116 -27t-53 -103.5t-16 -238.5v-512h-205z" />
<glyph unicode="s" horiz-adv-x="962" d="M82 205q22 -7 60.5 -17.5t144 -27.5t194.5 -17q110 0 152.5 33t42.5 111q0 77 -41.5 105t-153.5 28q-225 0 -312 69.5t-87 247.5q0 170 87.5 238.5t311.5 68.5q53 0 132.5 -10t132.5 -20l53 -10l20 -185q-15 7 -43.5 17.5t-117 27.5t-177.5 17q-110 0 -152 -33t-42 -111 q0 -77 41 -105t153 -28q225 0 312.5 -69.5t87.5 -247.5q0 -170 -88 -238.5t-312 -68.5q-91 0 -186 10t-144 20l-49 10z" />
<glyph unicode="t" horiz-adv-x="573" d="M102 512v1024h205v-512h205v-164h-205v-348q0 -73 5.5 -130t15 -95.5t25 -65.5t31 -42t39 -23.5t42.5 -10t47 -2.5v-163q-95 0 -159 13.5t-115 47t-79 94.5t-42.5 152.5t-14.5 224.5z" />
<glyph unicode="u" horiz-adv-x="1024" d="M102 512v512h205v-512q0 -119 10 -191.5t36.5 -112t62.5 -52.5t96 -13t96 13t62.5 52.5t36.5 112t10 191.5v512h205v-512q0 -116 -9 -199.5t-31 -143t-51.5 -96t-79 -57.5t-104.5 -28.5t-135 -7.5t-135 7.5t-104.5 28.5t-79 57.5t-51.5 96t-31 143t-9 199.5z" />
<glyph unicode="v" d="M41 1024h205l225 -707l21 -122l20 122q149 469 225 707h205l-287 -911q-23 -71 -67 -102t-96 -31q-113 0 -164 133q-191 611 -287 911z" />
<glyph unicode="w" horiz-adv-x="1720" d="M41 1024h205l225 -707l21 -122l20 122q108 356 184 594q51 133 164 133q52 0 96.5 -31t67.5 -102l184 -594l21 -122l20 122q150 469 226 707h204l-286 -911q-23 -71 -67.5 -102t-96.5 -31q-113 0 -164 133q-100 325 -184 594q-15 99 -21 122l-20 -122l-185 -594 q-23 -71 -67 -102t-96 -31q-113 0 -164 133q-191 611 -287 911z" />
<glyph unicode="x" horiz-adv-x="942" d="M41 0l317 512l-317 512h225l205 -332l205 332h225l-317 -512l317 -512h-225l-205 330l-205 -330h-225z" />
<glyph unicode="y" horiz-adv-x="1024" d="M102 492v532h205v-532q0 -111 11 -180.5t38.5 -106.5t62.5 -49.5t93 -12.5q102 0 205 21v860h205v-1006q0 -116 -9 -199.5t-31 -143t-51.5 -96t-79 -57.5t-104.5 -28.5t-135 -7.5q-91 0 -175.5 11t-123.5 21l-39 11l-31 182q19 -7 52.5 -17t130.5 -27t186 -17 q55 0 89.5 10.5t62 41t39.5 88t12 147.5v57q-96 -14 -203 -14q-79 0 -134 7t-104 27.5t-79 56t-52.5 92.5t-31.5 137.5t-9 191.5z" />
<glyph unicode="z" horiz-adv-x="911" d="M61 51q0 19 21 51l465 758h-455v164h707q27 0 39 -16t12 -35q0 -16 -21 -51l-467 -758h457v-164h-706q-28 0 -40 16t-12 35z" />
<glyph unicode="{" horiz-adv-x="655" d="M61 553v123h48q64 0 90 78t26 290q0 128 11 213.5t33 141.5t63 85.5t91.5 40.5t129.5 11h41v-123q-65 0 -98 -26.5t-49.5 -105.5t-16.5 -237q0 -176 -23 -278t-73 -152q50 -51 73 -153.5t23 -276.5q0 -158 16.5 -236.5t49 -105t98.5 -26.5v-123h-41q-79 0 -129.5 11 t-91.5 40t-63 85t-33 141.5t-11 213.5q0 143 -12.5 223.5t-37 113t-66.5 32.5h-48z" />
<glyph unicode="|" horiz-adv-x="450" d="M123 -512v2048h205v-2048h-205z" />
<glyph unicode="}" horiz-adv-x="655" d="M61 -184q66 0 98.5 26.5t49 105t16.5 236.5q0 173 23.5 276t73.5 154q-50 50 -73.5 152.5t-23.5 277.5q0 158 -16.5 237t-49.5 105.5t-98 26.5v123h41q79 0 129.5 -11t91.5 -40.5t63 -85.5t33 -141.5t11 -213.5q0 -144 12.5 -225t37 -112t67.5 -31h47v-123h-47 q-43 0 -67.5 -32.5t-37 -113t-12.5 -223.5q0 -128 -11 -213.5t-33 -141.5t-63 -85t-91.5 -40t-129.5 -11h-41v123z" />
<glyph unicode="~" horiz-adv-x="1146" d="M82 717q0 119 78.5 197.5t208.5 78.5q62 0 111 -21t78.5 -54.5t52 -73.5t39.5 -80.5t33.5 -74t40.5 -54.5t54 -21q50 0 80.5 29t30.5 74h176q0 -119 -78.5 -198t-208.5 -79q-62 0 -111 21t-78.5 54.5t-52.5 73.5t-40 80.5t-33.5 74t-40 54.5t-53.5 21q-50 0 -80.5 -28.5 t-30.5 -73.5h-176z" />
<glyph unicode="&#xa1;" horiz-adv-x="409" d="M102 -410v1024h205v-1024h-205zM102 819v205h205v-205h-205z" />
<glyph unicode="&#xa2;" horiz-adv-x="880" d="M82 512q0 126 11.5 213.5t34.5 147.5t63.5 95.5t92 52t126.5 21.5v125h204v-129q55 -4 101 -12.5t65 -15.5l19 -6l20 -185q-78 37 -205 53v-722q56 7 107.5 21t74.5 24l23 10l-20 -185q-64 -24 -185 -34v-129h-204v125q-95 6 -153.5 30.5t-100 84t-58 158.5t-16.5 257z M287 512q0 -185 27.5 -263t95.5 -97v718q-67 -19 -95 -96.5t-28 -261.5z" />
<glyph unicode="&#xa3;" horiz-adv-x="1024" d="M82 0v172q87 0 135.5 95.5t101.5 363.5h-237v172h268q16 85 30 146.5t31.5 124t36 106t42.5 85.5t52.5 69.5t64.5 51.5t80 37.5t96.5 21.5t117.5 9l29 -172q-58 0 -102.5 -10.5t-80 -35.5t-61 -60t-48 -92t-39 -122t-34.5 -159h336v-172h-366q-62 -324 -138 -459h545 v-172h-860z" />
<glyph unicode="&#xa4;" horiz-adv-x="1187" d="M41 932l131 131l156 -156q95 56 266 56q165 0 264 -58l158 158l131 -131l-166 -166q43 -94 43 -254q0 -164 -43 -258l154 -154l-131 -131l-148 146q-97 -54 -262 -54q-162 0 -264 54l-146 -146l-131 131l154 154q-43 94 -43 258q0 158 41 254zM369 512 q0 -148 50.5 -217.5t174.5 -69.5q122 0 173.5 70t51.5 217t-51.5 217t-173.5 70q-124 0 -174.5 -69.5t-50.5 -217.5z" />
<glyph unicode="&#xa5;" horiz-adv-x="1146" d="M45 1434h225l271 -471l32 -82l31 82l270 471h226l-320 -553h264v-174h-364v-164h364v-174h-364v-369h-215v369h-363v174h363v164h-363v174h263z" />
<glyph unicode="&#xa6;" horiz-adv-x="450" d="M123 369h205v-881h-205v881zM123 655v881h205v-881h-205z" />
<glyph unicode="&#xa7;" d="M82 205q23 -7 63.5 -17.5t149 -27.5t197.5 -17q117 0 160.5 24.5t43.5 98.5q0 72 -44.5 102t-159.5 33q-216 0 -313 74t-97 242q0 147 72 219q-72 66 -72 231q0 90 22.5 146t76 87.5t125 42.5t186.5 11q91 0 173 -10t118 -20l36 -11l21 -184q-17 7 -46.5 17t-121 27 t-180.5 17q-117 0 -161 -24.5t-44 -98.5q0 -73 45 -104t160 -31q216 0 312.5 -73.5t96.5 -241.5q0 -144 -74 -221q74 -68 74 -230q0 -90 -22.5 -146t-75.5 -87t-124.5 -42t-186.5 -11q-91 0 -188.5 10t-149.5 20l-52 10zM287 717q0 -76 48.5 -110t156.5 -34t156 35t48 109 q0 76 -48 109.5t-156 33.5q-111 -3 -158 -36.5t-47 -106.5z" />
<glyph unicode="&#xa8;" horiz-adv-x="655" d="M102 1270v164h154v-164h-154zM399 1270v164h154v-164h-154z" />
<glyph unicode="&#xa9;" horiz-adv-x="1392" d="M82 717q0 115 17 207t46 156.5t74.5 112t95 75.5t115 45t127.5 22.5t139 5.5t138.5 -5.5t127.5 -22.5t115.5 -45t95 -75.5t75 -112t46.5 -156.5t17 -207q0 -114 -17 -206t-46.5 -156.5t-75 -112t-95.5 -76t-115.5 -45.5t-127 -23t-138.5 -6t-139 6t-127.5 23t-115 45.5 t-95 76t-74.5 112t-46 156.5t-17 206zM266 717q0 -85 13 -154t35 -117t55 -84.5t69 -58t81 -35t86.5 -18t90.5 -4.5q57 0 105 7t99 24.5t90 52t70.5 84.5t48.5 127.5t17 175.5q0 118 -25.5 205.5t-65 137t-98.5 79.5t-115 39.5t-126 9.5q-71 0 -127 -9.5t-115 -39.5t-98 -80 t-64.5 -137t-25.5 -205zM389 717q0 199 80 283.5t229 84.5q38 0 94 -7.5t93 -15.5l37 -7l18 -133q-131 34 -244 34q-73 0 -108 -53.5t-35 -185.5q0 -133 35 -186.5t108 -53.5q50 0 111 8.5t97 17.5l36 9l-18 -133q-138 -31 -224 -31q-149 0 -229 85t-80 284z" />
<glyph unicode="&#xaa;" horiz-adv-x="778" d="M82 1004q0 125 65.5 179t241.5 54h141q-4 76 -21 114.5t-43.5 50t-76.5 11.5q-51 0 -119 -12.5t-110 -25.5l-43 -13l28 151q153 43 244 43q63 0 107 -6t80 -23.5t57.5 -44.5t36.5 -71.5t20.5 -102.5t5.5 -141t-5.5 -141t-20.5 -102.5t-36.5 -71.5t-57.5 -44.5t-80 -23.5 t-107 -6q-177 0 -242 51t-65 175zM248 1008q0 -50 30 -68t111 -18q51 0 77 10t43 48.5t21 115.5h-141q-81 0 -111 -18t-30 -70z" />
<glyph unicode="&#xab;" horiz-adv-x="1085" d="M41 512l430 430l117 -115l-320 -315l320 -315l-117 -115zM471 512l430 430l117 -115l-320 -315l320 -315l-117 -115z" />
<glyph unicode="&#xac;" horiz-adv-x="1208" d="M82 498v172h1024v-424h-184v252h-840z" />
<glyph unicode="&#xad;" horiz-adv-x="614" d="M82 498v172h450v-172h-450z" />
<glyph unicode="&#xae;" horiz-adv-x="880" d="M61 1085q0 202 86 285.5t293 83.5t293 -83.5t86 -285.5t-86 -285t-293 -83t-293 83t-86 285zM174 1085q0 -146 62.5 -211t203.5 -65t204 65t63 211t-63 211.5t-204 65.5t-203.5 -65.5t-62.5 -211.5zM283 877v419h163q164 0 164 -133q0 -64 -24.5 -89t-69.5 -25l111 -172 h-119l-102 174q-15 15 -15 30q0 6 2 12t10.5 12.5t22.5 6.5h18q64 0 64 51q0 26 -13 38.5t-49 12.5h-61v-337h-102z" />
<glyph unicode="&#xaf;" horiz-adv-x="614" d="M82 1260v174h450v-174h-450z" />
<glyph unicode="&#xb0;" horiz-adv-x="737" d="M82 1167q0 119 84 203t203 84q118 0 202 -84t84 -203t-83.5 -202.5t-202.5 -83.5t-203 84t-84 202zM246 1167q0 -51 36 -87t87 -36t87 36t36 87t-36 87t-87 36t-87 -36t-36 -87z" />
<glyph unicode="&#xb1;" horiz-adv-x="1187" d="M82 0v172h1024v-172h-1024zM82 627v172h410v368h204v-368h410v-172h-410v-371h-204v371h-410z" />
<glyph unicode="&#xb2;" horiz-adv-x="737" d="M82 778v185q0 53 13 96.5t42.5 80.5t83 58t127.5 21q73 0 98 17t25 85q0 56 -28.5 74t-94.5 18q-51 0 -114 -10.5t-100 -20.5l-38 -10l29 150q127 34 223 34q65 0 109 -4.5t84.5 -18.5t63.5 -39.5t36.5 -68.5t13.5 -104q0 -43 -4 -76.5t-13.5 -59t-21.5 -43.5t-33 -30.5 t-41.5 -19.5t-53.5 -11t-63.5 -5t-76.5 -1q-48 0 -70 -31.5t-22 -80.5v-41h399v-144h-573z" />
<glyph unicode="&#xb3;" horiz-adv-x="696" d="M76 938q116 -37 231 -37q66 0 94.5 18t28.5 74q0 50 -23.5 71t-78.5 21h-92v144h92q53 0 77.5 20.5t24.5 71.5q0 56 -28.5 74t-94.5 18q-51 0 -109 -9.5t-90 -18.5l-32 -9l28 150q107 30 203 30q65 0 109 -4.5t84.5 -18.5t63.5 -39.5t36.5 -68.5t13.5 -104 q0 -103 -47 -164q47 -64 47 -164q0 -61 -13.5 -104t-36.5 -68.5t-63.5 -39.5t-84.5 -18.5t-109 -4.5q-43 0 -93.5 7.5t-79.5 14.5l-30 8z" />
<glyph unicode="&#xb4;" horiz-adv-x="593" d="M90 1249l307 307l109 -108l-307 -307z" />
<glyph unicode="&#xb6;" horiz-adv-x="1105" d="M82 1044q0 95 15.5 159t49.5 110.5t96 72t148 37t213 11.5h379v-1434h-205v1262h-123v-1262h-204v637q-108 10 -179 37t-113.5 77.5t-59.5 120t-17 172.5zM295 1044q0 -101 34.5 -154.5t121.5 -74.5v436q-89 -15 -122.5 -61.5t-33.5 -145.5z" />
<glyph unicode="&#xb7;" horiz-adv-x="368" d="M82 410v204h205v-204h-205z" />
<glyph unicode="&#xb8;" horiz-adv-x="471" d="M102 -20v163q119 0 203 -84t84 -202q0 -119 -84.5 -203t-202.5 -84v164q51 0 87 36t36 87t-36 87t-87 36z" />
<glyph unicode="&#xb9;" horiz-adv-x="450" d="M37 1393l26 143h203q82 0 82 -82v-676h-184v615h-127z" />
<glyph unicode="&#xba;" horiz-adv-x="778" d="M82 1167q0 104 12 173.5t33.5 112.5t61.5 65.5t84.5 30t115.5 7.5q70 0 114.5 -7.5t85 -30t61.5 -65.5t33.5 -113t12.5 -173q0 -87 -7.5 -149.5t-25.5 -106t-40.5 -69.5t-60 -40.5t-76.5 -19t-97 -4.5q-59 0 -98 4.5t-76.5 19t-60 40.5t-40 69.5t-25 106t-7.5 149.5z M246 1167q0 -58 2.5 -97t10 -67t16.5 -43.5t27 -24t36.5 -11t50.5 -2.5q31 0 49.5 2.5t36.5 11t27.5 24t17 43.5t10 67t2.5 97q0 86 -6 134.5t-24.5 73.5t-42.5 31.5t-70 6.5q-38 0 -59 -4t-40 -17t-27 -41t-12.5 -71t-4.5 -113z" />
<glyph unicode="&#xbb;" horiz-adv-x="1085" d="M68 197l319 315l-319 315l116 115l430 -430l-430 -430zM498 197l319 315l-319 315l116 115l430 -430l-430 -430z" />
<glyph unicode="&#xbc;" horiz-adv-x="1433" d="M57 1290l27 144h203q82 0 82 -82v-676h-185v614h-127zM82 0l778 1434h184l-778 -1434h-184zM758 543v215h184v-195q0 -70 27.5 -91t115.5 -21v307h185v-307h82v-144h-82v-307h-185v307h-45q-166 0 -224 50t-58 186z" />
<glyph unicode="&#xbd;" horiz-adv-x="1351" d="M57 1290l27 144h203q82 0 82 -82v-676h-185v614h-127zM82 0l778 1434h184l-778 -1434h-184zM696 0v184q0 53 13.5 96.5t43 80.5t83 58t127.5 21q72 0 97 17.5t25 85.5q0 56 -28 74t-94 18q-51 0 -114 -10.5t-101 -20.5l-37 -10l28 149q128 35 224 35q65 0 109 -4.5 t84.5 -18.5t63.5 -39.5t36.5 -68.5t13.5 -104q0 -43 -4 -76.5t-13.5 -59t-21.5 -43.5t-33 -30.5t-41.5 -19.5t-53.5 -11t-63.5 -5t-76.5 -1q-48 0 -70.5 -32t-22.5 -81v-41h400v-143h-574z" />
<glyph unicode="&#xbe;" horiz-adv-x="1638" d="M76 815q116 -37 231 -37q66 0 94.5 18t28.5 74q0 51 -23.5 72t-78.5 21h-92v143h92q53 0 77.5 20.5t24.5 71.5q0 56 -28.5 74t-94.5 18q-51 0 -109 -9t-90 -19l-32 -9l28 150q107 31 203 31q65 0 109 -4.5t84.5 -19t63.5 -40t36.5 -68.5t13.5 -104q0 -103 -47 -164 q47 -64 47 -164q0 -61 -13.5 -104t-36.5 -68.5t-63.5 -39.5t-84.5 -18.5t-109 -4.5q-43 0 -93.5 7.5t-79.5 15.5l-30 8zM287 0l778 1434h184l-778 -1434h-184zM963 543v215h184v-195q0 -70 27.5 -91t115.5 -21v307h185v-307h81v-144h-81v-307h-185v307h-45q-166 0 -224 50 t-58 186z" />
<glyph unicode="&#xbf;" horiz-adv-x="1024" d="M82 -41q0 36 5 71.5t26 87t55 92.5t99.5 77.5t152.5 50.5q55 9 92 33t56.5 61.5t27.5 80.5t8 101h205q0 -57 -5 -104.5t-22.5 -106t-47 -101t-84 -78t-128.5 -50.5q-61 -12 -105.5 -33t-67 -41.5t-35 -49t-15 -47.5t-2.5 -44q0 -44 6 -76.5t15 -56t29.5 -39t40.5 -24.5 t57 -13.5t70.5 -6t88.5 -1.5q74 0 139.5 5.5t106 13t70 15.5t41.5 14l12 5l-21 -184q-11 -5 -35 -11.5t-114 -18t-199 -11.5q-104 0 -174.5 5t-133 20.5t-100 42t-65 70.5t-38.5 105t-11 146zM604 819v205h205v-205h-205z" />
<glyph unicode="&#xc0;" horiz-adv-x="1228" d="M41 0l369 1290q15 51 37 85.5t50.5 50.5t55 22t61.5 6q74 0 125.5 -33.5t79.5 -130.5l369 -1290h-215l-125 430h-469l-123 -430h-215zM408 1858l108 108l307 -307l-108 -109zM428 594h373l-166 573l-21 113l-20 -113z" />
<glyph unicode="&#xc1;" horiz-adv-x="1228" d="M41 0l369 1290q15 51 37 85.5t50.5 50.5t55 22t61.5 6q74 0 125.5 -33.5t79.5 -130.5l369 -1290h-215l-125 430h-469l-123 -430h-215zM410 1659l307 307l108 -108l-307 -308zM428 594h373l-166 573l-21 113l-20 -113z" />
<glyph unicode="&#xc2;" horiz-adv-x="1228" d="M41 0l369 1290q15 51 37 85.5t50.5 50.5t55 22t61.5 6q74 0 125.5 -33.5t79.5 -130.5l369 -1290h-215l-125 430h-469l-123 -430h-215zM326 1659l286 287l287 -287l-102 -113l-185 185l-184 -185zM428 594h373l-166 573l-21 113l-20 -113z" />
<glyph unicode="&#xc3;" horiz-adv-x="1228" d="M41 0l369 1290q15 51 37 85.5t50.5 50.5t55 22t61.5 6q74 0 125.5 -33.5t79.5 -130.5l369 -1290h-215l-125 430h-469l-123 -430h-215zM309 1716q0 76 54.5 130.5t130.5 54.5q48 0 82.5 -13.5t52 -35.5t29 -48t17.5 -52t12.5 -48t19 -35.5t32.5 -13.5q25 0 43.5 17.5 t18.5 43.5h123q0 -76 -54 -130t-131 -54q-48 0 -82 13.5t-51.5 35.5t-28.5 48t-17 52t-12.5 48t-19.5 35.5t-34 13.5q-26 0 -44 -18.5t-18 -43.5h-123zM428 594h373l-166 573l-21 113l-20 -113z" />
<glyph unicode="&#xc4;" horiz-adv-x="1228" d="M41 0l369 1290q15 51 37 85.5t50.5 50.5t55 22t61.5 6q74 0 125.5 -33.5t79.5 -130.5l369 -1290h-215l-125 430h-469l-123 -430h-215zM389 1679v164h154v-164h-154zM428 594h373l-166 573l-21 113l-20 -113zM686 1679v164h154v-164h-154z" />
<glyph unicode="&#xc5;" horiz-adv-x="1228" d="M41 0l369 1290q15 51 37 85.5t50.5 50.5t55 22t61.5 6q74 0 125.5 -33.5t79.5 -130.5l369 -1290h-215l-125 430h-469l-123 -430h-215zM428 594h373l-166 573l-21 113l-20 -113zM453 1720q0 68 48 116t115 48q68 0 116 -48t48 -116t-48 -116t-116 -48q-67 0 -115 48 t-48 116zM575 1720q0 -17 12 -29t29 -12t29 12t12 29t-12 29t-29 12t-29 -12t-12 -29z" />
<glyph unicode="&#xc6;" horiz-adv-x="1710" d="M51 0l535 1280q22 53 41.5 84.5t42.5 46.5t44 19t56 4h858v-172h-612l41 -459h530v-172h-514l39 -459h516v-172h-717l-37 430h-430l-178 -430h-215zM514 594h346l-59 678z" />
<glyph unicode="&#xc7;" horiz-adv-x="1085" d="M102 717q0 120 7 215t22.5 169.5t37 129.5t55 94.5t71 64t91 39t109 20t130.5 5.5q82 0 176.5 -10t148.5 -20l54 -11l20 -194q-80 36 -177 49.5t-233 13.5q-71 0 -116 -12t-82.5 -45t-57.5 -97t-30.5 -163t-10.5 -248t10.5 -248t30.5 -163t57.5 -97t82.5 -45t116 -12 q136 0 233 13.5t177 49.5l-20 -195q-74 -16 -168 -26q34 -61 34 -137q0 -119 -84 -203t-202 -84v164q51 0 87 36t36 87q0 49 -33.5 83.5t-79.5 36.5q-94 2 -160 14t-124.5 43t-95 82.5t-63 133.5t-38 196t-11.5 271z" />
<glyph unicode="&#xc8;" horiz-adv-x="1044" d="M123 0v1434h840v-174h-625v-457h532v-172h-532v-457h625v-174h-840zM313 1858l109 108l307 -307l-108 -109z" />
<glyph unicode="&#xc9;" horiz-adv-x="1044" d="M123 0v1434h840v-174h-625v-457h532v-172h-532v-457h625v-174h-840zM315 1659l308 307l108 -108l-307 -308z" />
<glyph unicode="&#xca;" horiz-adv-x="1044" d="M123 0v1434h840v-174h-625v-457h532v-172h-532v-457h625v-174h-840zM233 1659l287 287l287 -287l-102 -113l-185 185l-184 -185z" />
<glyph unicode="&#xcb;" horiz-adv-x="1044" d="M123 0v1434h840v-174h-625v-457h532v-172h-532v-457h625v-174h-840zM297 1679v164h154v-164h-154zM594 1679v164h154v-164h-154z" />
<glyph unicode="&#xcc;" horiz-adv-x="460" d="M18 1858l109 108l307 -307l-108 -109zM123 0v1434h215v-1434h-215z" />
<glyph unicode="&#xcd;" horiz-adv-x="460" d="M29 1659l307 307l108 -108l-307 -308zM123 0v1434h215v-1434h-215z" />
<glyph unicode="&#xce;" horiz-adv-x="460" d="M-55 1659l286 287l287 -287l-102 -113l-185 185l-184 -185zM123 0v1434h215v-1434h-215z" />
<glyph unicode="&#xcf;" horiz-adv-x="460" d="M6 1679v164h154v-164h-154zM123 0v1434h215v-1434h-215zM303 1679v164h154v-164h-154z" />
<glyph unicode="&#xd0;" horiz-adv-x="1228" d="M41 635v164h123v635h430q65 0 112 -2.5t96 -9.5t83 -19t68.5 -32.5t56.5 -48.5t43.5 -68.5t33.5 -91.5t21.5 -118t13.5 -147t4 -180t-4 -180t-13.5 -147t-21.5 -118t-33.5 -91.5t-43.5 -68.5t-56.5 -48.5t-68.5 -32.5t-83 -19t-96 -9.5t-112 -2.5h-430v635h-123zM379 172 h215q77 0 124.5 11t88 42.5t61.5 93t32 157.5t11 241q0 93 -3.5 164.5t-13 128t-21.5 96t-32.5 68t-42.5 45.5t-55.5 27t-67 13t-81.5 3h-215v-463h153v-164h-153v-463z" />
<glyph unicode="&#xd1;" horiz-adv-x="1310" d="M123 0v1321q0 50 39 91.5t104 41.5q59 0 98 -27.5t87 -115.5l471 -860l51 -156v1139h215v-1321q0 -50 -39.5 -91.5t-104.5 -41.5q-59 0 -97.5 27.5t-86.5 115.5l-471 860l-51 164v-1147h-215zM348 1720q0 77 54 131t130 54q48 0 82.5 -13.5t52.5 -35.5t29.5 -48t17.5 -52 t12.5 -48t19 -35.5t32.5 -13.5q25 0 43.5 17.5t18.5 43.5h123q0 -76 -54 -130t-131 -54q-48 0 -82 13.5t-51.5 35.5t-28.5 48t-17 52t-13 48t-20 35.5t-34 13.5q-26 0 -43.5 -18.5t-17.5 -43.5h-123z" />
<glyph unicode="&#xd2;" horiz-adv-x="1228" d="M102 717q0 100 3.5 180.5t12 148.5t19.5 120t30.5 94t41 72t53.5 52t65.5 35t80.5 21t94.5 11t111.5 3t111.5 -3t94.5 -11t80.5 -21t65.5 -35t53.5 -52t41 -72t30.5 -94t19.5 -120t12 -148.5t3.5 -180.5t-3.5 -180.5t-12 -148.5t-19.5 -120t-30.5 -94t-41 -72t-53.5 -52 t-65.5 -35t-80.5 -21t-94.5 -11t-111.5 -3t-111.5 3t-94.5 11t-80.5 21t-65.5 35t-53.5 52t-41 72t-30.5 94t-19.5 120t-12 148.5t-3.5 180.5zM317 717q0 -123 5.5 -208.5t19.5 -150.5t34.5 -103.5t56 -62t77.5 -32t104 -8.5t104 8.5t77.5 32t56 62t34.5 103.5t19.5 150.5 t5.5 208.5q0 126 -5 213t-19.5 152t-35 102.5t-56 60t-77 30t-104.5 7.5t-104.5 -7.5t-77 -30t-56 -60t-35 -102.5t-19.5 -152t-5 -213zM406 1858l108 108l307 -307l-108 -109z" />
<glyph unicode="&#xd3;" horiz-adv-x="1228" d="M102 717q0 100 3.5 180.5t12 148.5t19.5 120t30.5 94t41 72t53.5 52t65.5 35t80.5 21t94.5 11t111.5 3t111.5 -3t94.5 -11t80.5 -21t65.5 -35t53.5 -52t41 -72t30.5 -94t19.5 -120t12 -148.5t3.5 -180.5t-3.5 -180.5t-12 -148.5t-19.5 -120t-30.5 -94t-41 -72t-53.5 -52 t-65.5 -35t-80.5 -21t-94.5 -11t-111.5 -3t-111.5 3t-94.5 11t-80.5 21t-65.5 35t-53.5 52t-41 72t-30.5 94t-19.5 120t-12 148.5t-3.5 180.5zM317 717q0 -123 5.5 -208.5t19.5 -150.5t34.5 -103.5t56 -62t77.5 -32t104 -8.5t104 8.5t77.5 32t56 62t34.5 103.5t19.5 150.5 t5.5 208.5q0 126 -5 213t-19.5 152t-35 102.5t-56 60t-77 30t-104.5 7.5t-104.5 -7.5t-77 -30t-56 -60t-35 -102.5t-19.5 -152t-5 -213zM408 1659l307 307l108 -108l-307 -308z" />
<glyph unicode="&#xd4;" horiz-adv-x="1228" d="M102 717q0 100 3.5 180.5t12 148.5t19.5 120t30.5 94t41 72t53.5 52t65.5 35t80.5 21t94.5 11t111.5 3t111.5 -3t94.5 -11t80.5 -21t65.5 -35t53.5 -52t41 -72t30.5 -94t19.5 -120t12 -148.5t3.5 -180.5t-3.5 -180.5t-12 -148.5t-19.5 -120t-30.5 -94t-41 -72t-53.5 -52 t-65.5 -35t-80.5 -21t-94.5 -11t-111.5 -3t-111.5 3t-94.5 11t-80.5 21t-65.5 35t-53.5 52t-41 72t-30.5 94t-19.5 120t-12 148.5t-3.5 180.5zM317 717q0 -123 5.5 -208.5t19.5 -150.5t34.5 -103.5t56 -62t77.5 -32t104 -8.5t104 8.5t77.5 32t56 62t34.5 103.5t19.5 150.5 t5.5 208.5q0 126 -5 213t-19.5 152t-35 102.5t-56 60t-77 30t-104.5 7.5t-104.5 -7.5t-77 -30t-56 -60t-35 -102.5t-19.5 -152t-5 -213zM326 1659l286 287l287 -287l-102 -113l-185 185l-184 -185z" />
<glyph unicode="&#xd5;" horiz-adv-x="1228" d="M102 717q0 100 3.5 180.5t12 148.5t19.5 120t30.5 94t41 72t53.5 52t65.5 35t80.5 21t94.5 11t111.5 3t111.5 -3t94.5 -11t80.5 -21t65.5 -35t53.5 -52t41 -72t30.5 -94t19.5 -120t12 -148.5t3.5 -180.5t-3.5 -180.5t-12 -148.5t-19.5 -120t-30.5 -94t-41 -72t-53.5 -52 t-65.5 -35t-80.5 -21t-94.5 -11t-111.5 -3t-111.5 3t-94.5 11t-80.5 21t-65.5 35t-53.5 52t-41 72t-30.5 94t-19.5 120t-12 148.5t-3.5 180.5zM307 1720q0 76 54.5 130.5t130.5 54.5q48 0 82.5 -13.5t52 -35.5t29 -48t17.5 -52t12.5 -48t19 -35.5t32.5 -13.5q25 0 43.5 17.5 t18.5 43.5h123q0 -76 -54 -130t-131 -54q-48 0 -82 13.5t-51.5 35.5t-28.5 48t-17 52t-12.5 48t-19.5 35.5t-34 13.5q-26 0 -44 -18.5t-18 -43.5h-123zM317 717q0 -123 5.5 -208.5t19.5 -150.5t34.5 -103.5t56 -62t77.5 -32t104 -8.5t104 8.5t77.5 32t56 62t34.5 103.5 t19.5 150.5t5.5 208.5q0 126 -5 213t-19.5 152t-35 102.5t-56 60t-77 30t-104.5 7.5t-104.5 -7.5t-77 -30t-56 -60t-35 -102.5t-19.5 -152t-5 -213z" />
<glyph unicode="&#xd6;" horiz-adv-x="1228" d="M102 717q0 100 3.5 180.5t12 148.5t19.5 120t30.5 94t41 72t53.5 52t65.5 35t80.5 21t94.5 11t111.5 3t111.5 -3t94.5 -11t80.5 -21t65.5 -35t53.5 -52t41 -72t30.5 -94t19.5 -120t12 -148.5t3.5 -180.5t-3.5 -180.5t-12 -148.5t-19.5 -120t-30.5 -94t-41 -72t-53.5 -52 t-65.5 -35t-80.5 -21t-94.5 -11t-111.5 -3t-111.5 3t-94.5 11t-80.5 21t-65.5 35t-53.5 52t-41 72t-30.5 94t-19.5 120t-12 148.5t-3.5 180.5zM317 717q0 -123 5.5 -208.5t19.5 -150.5t34.5 -103.5t56 -62t77.5 -32t104 -8.5t104 8.5t77.5 32t56 62t34.5 103.5t19.5 150.5 t5.5 208.5q0 126 -5 213t-19.5 152t-35 102.5t-56 60t-77 30t-104.5 7.5t-104.5 -7.5t-77 -30t-56 -60t-35 -102.5t-19.5 -152t-5 -213zM389 1679v164h154v-164h-154zM686 1679v164h154v-164h-154z" />
<glyph unicode="&#xd7;" horiz-adv-x="1228" d="M61 72l422 440l-411 430l133 133l409 -428l410 428l133 -133l-414 -430l424 -440l-133 -133l-420 438l-419 -438z" />
<glyph unicode="&#xd8;" horiz-adv-x="1228" d="M102 717q0 100 3.5 180.5t12 148.5t19.5 120t30.5 94t41 72t53.5 52t65.5 35t80.5 21t94.5 11t111.5 3q74 0 136 -6l49 149h205l-64 -196q104 -58 145 -211.5t41 -472.5q0 -100 -3.5 -180.5t-12 -148.5t-19.5 -120t-30.5 -94t-41 -72t-53.5 -52t-65.5 -35t-80.5 -21 t-94.5 -11t-111.5 -3q-76 0 -137 6l-47 -150h-205l64 197q-104 57 -145.5 210.5t-41.5 473.5zM317 717q0 -331 50 -445l327 1006q-50 4 -80 4q-63 0 -104.5 -7.5t-77 -30t-56 -60t-35 -102.5t-19.5 -152t-5 -213zM535 156q50 -4 79 -4q62 0 104 8.5t77.5 32t56 62 t34.5 103.5t19.5 150.5t5.5 208.5q0 335 -49 446z" />
<glyph unicode="&#xd9;" horiz-adv-x="1228" d="M102 717v717h215v-717q0 -123 5.5 -208.5t19.5 -150.5t34.5 -103.5t56 -62t77.5 -32t104 -8.5t104 8.5t77.5 32t56 62t34.5 103.5t19.5 150.5t5.5 208.5v717h215v-717q0 -100 -3.5 -180.5t-12 -148.5t-19.5 -120t-30.5 -94t-41 -72t-53.5 -52t-65.5 -35t-80.5 -21 t-94.5 -11t-111.5 -3t-111.5 3t-94.5 11t-80.5 21t-65.5 35t-53.5 52t-41 72t-30.5 94t-19.5 120t-12 148.5t-3.5 180.5zM406 1858l108 108l307 -307l-108 -109z" />
<glyph unicode="&#xda;" horiz-adv-x="1228" d="M102 717v717h215v-717q0 -123 5.5 -208.5t19.5 -150.5t34.5 -103.5t56 -62t77.5 -32t104 -8.5t104 8.5t77.5 32t56 62t34.5 103.5t19.5 150.5t5.5 208.5v717h215v-717q0 -100 -3.5 -180.5t-12 -148.5t-19.5 -120t-30.5 -94t-41 -72t-53.5 -52t-65.5 -35t-80.5 -21 t-94.5 -11t-111.5 -3t-111.5 3t-94.5 11t-80.5 21t-65.5 35t-53.5 52t-41 72t-30.5 94t-19.5 120t-12 148.5t-3.5 180.5zM408 1659l307 307l108 -108l-307 -308z" />
<glyph unicode="&#xdb;" horiz-adv-x="1228" d="M102 717v717h215v-717q0 -123 5.5 -208.5t19.5 -150.5t34.5 -103.5t56 -62t77.5 -32t104 -8.5t104 8.5t77.5 32t56 62t34.5 103.5t19.5 150.5t5.5 208.5v717h215v-717q0 -100 -3.5 -180.5t-12 -148.5t-19.5 -120t-30.5 -94t-41 -72t-53.5 -52t-65.5 -35t-80.5 -21 t-94.5 -11t-111.5 -3t-111.5 3t-94.5 11t-80.5 21t-65.5 35t-53.5 52t-41 72t-30.5 94t-19.5 120t-12 148.5t-3.5 180.5zM326 1659l286 287l287 -287l-102 -113l-185 185l-184 -185z" />
<glyph unicode="&#xdc;" horiz-adv-x="1228" d="M102 717v717h215v-717q0 -123 5.5 -208.5t19.5 -150.5t34.5 -103.5t56 -62t77.5 -32t104 -8.5t104 8.5t77.5 32t56 62t34.5 103.5t19.5 150.5t5.5 208.5v717h215v-717q0 -100 -3.5 -180.5t-12 -148.5t-19.5 -120t-30.5 -94t-41 -72t-53.5 -52t-65.5 -35t-80.5 -21 t-94.5 -11t-111.5 -3t-111.5 3t-94.5 11t-80.5 21t-65.5 35t-53.5 52t-41 72t-30.5 94t-19.5 120t-12 148.5t-3.5 180.5zM389 1679v164h154v-164h-154zM686 1679v164h154v-164h-154z" />
<glyph unicode="&#xdd;" horiz-adv-x="1105" d="M29 1434h225l270 -471l33 -82l31 82l270 471h225l-419 -717v-717h-215v717zM356 1659l308 307l108 -108l-307 -308z" />
<glyph unicode="&#xde;" horiz-adv-x="1146" d="M123 0v1434h215v-308h194q157 0 255 -20.5t156 -71.5t79.5 -125t21.5 -192q0 -117 -21.5 -191.5t-79 -126.5t-156.5 -74t-255 -22h-194v-303h-215zM338 475h194q91 0 148.5 12.5t90.5 43t45.5 74t12.5 112.5q0 91 -24 140t-88 73t-185 24h-194v-479z" />
<glyph unicode="&#xdf;" horiz-adv-x="1105" d="M102 0v922q0 116 9 199.5t31 143t51.5 96t79 57.5t104.5 28.5t135 7.5t135 -7.5t104.5 -28.5t79 -57.5t51.5 -96t31 -143t9 -199.5h-164q-35 0 -58.5 -28.5t-23.5 -74.5q0 -39 19 -71.5t50 -56.5t68 -47t74 -50.5t68 -59.5t50 -79.5t19 -106.5q0 -86 -18 -148.5 t-48 -100.5t-76 -60.5t-94.5 -30.5t-111.5 -8h-246v164h184q44 0 76 6t63.5 22t48.5 50.5t17 85.5q0 37 -19 69.5t-50 58.5t-68 52t-74 56t-68 64t-50 83.5t-19 107.5q0 60 17 108.5t42 77.5t59 50.5t61.5 30.5t56.5 14q-14 114 -58 152t-137 38q-60 0 -96 -13t-62.5 -52.5 t-36.5 -111.5t-10 -191v-922h-205z" />
<glyph unicode="&#xe0;" d="M82 297q0 91 21 148t72 90.5t125 46t192 12.5h202q-5 121 -28 183.5t-62.5 83t-111.5 20.5q-89 0 -181.5 -15.5t-140.5 -31.5l-47 -15l20 185q144 40 349 40q80 0 135 -7.5t104 -28.5t78.5 -57t51.5 -96t31 -143.5t9 -199.5t-9 -199.5t-31 -143.5t-51.5 -96t-78.5 -57 t-104 -28.5t-135 -7.5q-227 0 -318.5 70.5t-91.5 246.5zM283 1448l108 108l307 -307l-108 -108zM287 297q0 -85 46 -119.5t159 -34.5q72 0 111.5 20.5t62.5 83t28 183.5h-202q-116 0 -160.5 -27t-44.5 -106z" />
<glyph unicode="&#xe1;" d="M82 297q0 91 21 148t72 90.5t125 46t192 12.5h202q-5 121 -28 183.5t-62.5 83t-111.5 20.5q-89 0 -181.5 -15.5t-140.5 -31.5l-47 -15l20 185q144 40 349 40q80 0 135 -7.5t104 -28.5t78.5 -57t51.5 -96t31 -143.5t9 -199.5t-9 -199.5t-31 -143.5t-51.5 -96t-78.5 -57 t-104 -28.5t-135 -7.5q-227 0 -318.5 70.5t-91.5 246.5zM285 1249l307 307l108 -108l-307 -307zM287 297q0 -85 46 -119.5t159 -34.5q72 0 111.5 20.5t62.5 83t28 183.5h-202q-116 0 -160.5 -27t-44.5 -106z" />
<glyph unicode="&#xe2;" d="M82 297q0 91 21 148t72 90.5t125 46t192 12.5h202q-5 121 -28 183.5t-62.5 83t-111.5 20.5q-89 0 -181.5 -15.5t-140.5 -31.5l-47 -15l20 185q144 40 349 40q80 0 135 -7.5t104 -28.5t78.5 -57t51.5 -96t31 -143.5t9 -199.5t-9 -199.5t-31 -143.5t-51.5 -96t-78.5 -57 t-104 -28.5t-135 -7.5q-227 0 -318.5 70.5t-91.5 246.5zM203 1249l286 287l287 -287l-102 -112l-185 184l-184 -184zM287 297q0 -85 46 -119.5t159 -34.5q72 0 111.5 20.5t62.5 83t28 183.5h-202q-116 0 -160.5 -27t-44.5 -106z" />
<glyph unicode="&#xe3;" d="M82 297q0 91 21 148t72 90.5t125 46t192 12.5h202q-5 121 -28 183.5t-62.5 83t-111.5 20.5q-89 0 -181.5 -15.5t-140.5 -31.5l-47 -15l20 185q144 40 349 40q80 0 135 -7.5t104 -28.5t78.5 -57t51.5 -96t31 -143.5t9 -199.5t-9 -199.5t-31 -143.5t-51.5 -96t-78.5 -57 t-104 -28.5t-135 -7.5q-227 0 -318.5 70.5t-91.5 246.5zM184 1311q0 76 54 130t131 54q48 0 82.5 -13.5t52 -35.5t29 -48t17.5 -52t12.5 -48t19 -35.5t32.5 -13.5q25 0 43.5 18t18.5 44h123q0 -77 -54.5 -131t-130.5 -54q-48 0 -82 13.5t-51.5 35.5t-28.5 48t-17 52 t-12.5 48t-19.5 35.5t-34 13.5q-26 0 -44 -18t-18 -43h-123zM287 297q0 -85 46 -119.5t159 -34.5q72 0 111.5 20.5t62.5 83t28 183.5h-202q-116 0 -160.5 -27t-44.5 -106z" />
<glyph unicode="&#xe4;" d="M82 297q0 91 21 148t72 90.5t125 46t192 12.5h202q-5 121 -28 183.5t-62.5 83t-111.5 20.5q-89 0 -181.5 -15.5t-140.5 -31.5l-47 -15l20 185q144 40 349 40q80 0 135 -7.5t104 -28.5t78.5 -57t51.5 -96t31 -143.5t9 -199.5t-9 -199.5t-31 -143.5t-51.5 -96t-78.5 -57 t-104 -28.5t-135 -7.5q-227 0 -318.5 70.5t-91.5 246.5zM266 1270v164h154v-164h-154zM287 297q0 -85 46 -119.5t159 -34.5q72 0 111.5 20.5t62.5 83t28 183.5h-202q-116 0 -160.5 -27t-44.5 -106zM563 1270v164h154v-164h-154z" />
<glyph unicode="&#xe5;" d="M82 297q0 91 21 148t72 90.5t125 46t192 12.5h202q-5 121 -28 183.5t-62.5 83t-111.5 20.5q-89 0 -181.5 -15.5t-140.5 -31.5l-47 -15l20 185q144 40 349 40q80 0 135 -7.5t104 -28.5t78.5 -57t51.5 -96t31 -143.5t9 -199.5t-9 -199.5t-31 -143.5t-51.5 -96t-78.5 -57 t-104 -28.5t-135 -7.5q-227 0 -318.5 70.5t-91.5 246.5zM287 297q0 -85 46 -119.5t159 -34.5q72 0 111.5 20.5t62.5 83t28 183.5h-202q-116 0 -160.5 -27t-44.5 -106zM328 1311q0 67 48 115.5t116 48.5q67 0 115 -48t48 -116t-48 -116t-115 -48q-68 0 -116 48.5t-48 115.5z M451 1311q0 -17 12 -29t29 -12t28.5 12t11.5 29t-11.5 29t-28.5 12t-29 -12t-12 -29z" />
<glyph unicode="&#xe6;" horiz-adv-x="1597" d="M82 297q0 91 21 148t72 90.5t125 46t192 12.5h202q-5 121 -28 183.5t-62.5 83t-111.5 20.5q-89 0 -181.5 -15.5t-140.5 -31.5l-47 -15l20 185q144 40 349 40q116 0 188 -17.5t119 -65.5q47 48 119 65.5t188 17.5q227 0 318.5 -70.5t91.5 -246.5q0 -91 -21 -148t-72 -90.5 t-125 -46t-192 -12.5h-203q4 -91 16.5 -147.5t39 -87.5t60 -41.5t87.5 -10.5q89 0 181.5 15.5t140.5 31.5l47 15l-21 -185q-143 -40 -348 -40q-116 0 -188 17t-119 64q-47 -47 -119 -64t-188 -17q-227 0 -318.5 70.5t-91.5 246.5zM287 297q0 -85 46 -119.5t159 -34.5 q72 0 111.5 20.5t62.5 83t28 183.5h-202q-116 0 -160.5 -27t-44.5 -106zM903 594h203q116 0 160.5 27t44.5 106q0 85 -46 119.5t-159 34.5q-54 0 -87.5 -10.5t-60 -41.5t-39 -87.5t-16.5 -147.5z" />
<glyph unicode="&#xe7;" horiz-adv-x="880" d="M82 512q0 116 9 199.5t31 143t51.5 96t79 57.5t104.5 28.5t135 7.5q91 0 168 -10t108 -20l31 -10l20 -185q-14 7 -40.5 17.5t-112 27.5t-174.5 17q-60 0 -96 -13t-62.5 -52.5t-36.5 -112t-10 -191.5t10 -191.5t36.5 -112t62.5 -52.5t96 -13q89 0 171 15.5t119 31.5l37 15 l-20 -185q-38 -14 -99 -24q37 -66 37 -139q0 -119 -84 -203t-202 -84v164q51 0 86.5 36t35.5 87t-35.5 87t-86.5 36q-85 0 -142.5 13.5t-103.5 47t-71.5 94.5t-38.5 152.5t-13 224.5z" />
<glyph unicode="&#xe8;" d="M82 512q0 116 9 199.5t31 143t51.5 96t79 57.5t104.5 28.5t135 7.5q226 0 317.5 -70.5t91.5 -246.5q0 -91 -20.5 -148t-71.5 -90.5t-125 -46t-192 -12.5h-203q4 -91 16.5 -147.5t39 -87.5t60 -41.5t87.5 -10.5q89 0 181 15.5t139 31.5l48 15l-20 -185q-143 -40 -348 -40 q-80 0 -135 7.5t-104.5 28.5t-79 57.5t-51.5 96t-31 143t-9 199.5zM283 1448l108 108l307 -307l-108 -108zM289 594h203q116 0 160 26.5t44 106.5q0 85 -46 119.5t-158 34.5q-54 0 -87.5 -10.5t-60 -41.5t-39 -87.5t-16.5 -147.5z" />
<glyph unicode="&#xe9;" d="M82 512q0 116 9 199.5t31 143t51.5 96t79 57.5t104.5 28.5t135 7.5q226 0 317.5 -70.5t91.5 -246.5q0 -91 -20.5 -148t-71.5 -90.5t-125 -46t-192 -12.5h-203q4 -91 16.5 -147.5t39 -87.5t60 -41.5t87.5 -10.5q89 0 181 15.5t139 31.5l48 15l-20 -185q-143 -40 -348 -40 q-80 0 -135 7.5t-104.5 28.5t-79 57.5t-51.5 96t-31 143t-9 199.5zM285 1249l307 307l108 -108l-307 -307zM289 594h203q116 0 160 26.5t44 106.5q0 85 -46 119.5t-158 34.5q-54 0 -87.5 -10.5t-60 -41.5t-39 -87.5t-16.5 -147.5z" />
<glyph unicode="&#xea;" d="M82 512q0 116 9 199.5t31 143t51.5 96t79 57.5t104.5 28.5t135 7.5q226 0 317.5 -70.5t91.5 -246.5q0 -91 -20.5 -148t-71.5 -90.5t-125 -46t-192 -12.5h-203q4 -91 16.5 -147.5t39 -87.5t60 -41.5t87.5 -10.5q89 0 181 15.5t139 31.5l48 15l-20 -185q-143 -40 -348 -40 q-80 0 -135 7.5t-104.5 28.5t-79 57.5t-51.5 96t-31 143t-9 199.5zM203 1249l286 287l287 -287l-102 -112l-185 184l-184 -184zM289 594h203q116 0 160 26.5t44 106.5q0 85 -46 119.5t-158 34.5q-54 0 -87.5 -10.5t-60 -41.5t-39 -87.5t-16.5 -147.5z" />
<glyph unicode="&#xeb;" d="M82 512q0 116 9 199.5t31 143t51.5 96t79 57.5t104.5 28.5t135 7.5q226 0 317.5 -70.5t91.5 -246.5q0 -91 -20.5 -148t-71.5 -90.5t-125 -46t-192 -12.5h-203q4 -91 16.5 -147.5t39 -87.5t60 -41.5t87.5 -10.5q89 0 181 15.5t139 31.5l48 15l-20 -185q-143 -40 -348 -40 q-80 0 -135 7.5t-104.5 28.5t-79 57.5t-51.5 96t-31 143t-9 199.5zM266 1270v164h154v-164h-154zM289 594h203q116 0 160 26.5t44 106.5q0 85 -46 119.5t-158 34.5q-54 0 -87.5 -10.5t-60 -41.5t-39 -87.5t-16.5 -147.5zM563 1270v164h154v-164h-154z" />
<glyph unicode="&#xec;" horiz-adv-x="409" d="M-2 1448l108 108l308 -307l-109 -108zM102 0v1024h205v-1024h-205z" />
<glyph unicode="&#xed;" horiz-adv-x="409" d="M-2 1249l307 307l109 -108l-308 -307zM102 0v1024h205v-1024h-205z" />
<glyph unicode="&#xee;" horiz-adv-x="409" d="M20 1137v215l185 184l184 -184v-215l-184 184zM102 0v1024h205v-1024h-205z" />
<glyph unicode="&#xef;" horiz-adv-x="409" d="M0 1167v164h143v-164h-143zM102 0v1024h205v-1024h-205zM266 1167v164h144v-164h-144z" />
<glyph unicode="&#xf0;" d="M82 512q0 100 7 175t20 132.5t38 96.5t54.5 64.5t75.5 39t95.5 19t119.5 5.5q15 0 41.5 -1t39.5 -1q-51 85 -112 146l-182 -101l-80 144l129 72q-52 37 -148 94l107 159q154 -97 223 -153l244 135l77 -143l-192 -107q140 -145 201 -326.5t61 -449.5q0 -117 -8.5 -200 t-30 -143.5t-50.5 -96.5t-78 -57t-104.5 -28t-137.5 -7q-70 0 -119.5 5.5t-95.5 19t-75.5 39t-54.5 64.5t-38 96.5t-20 132.5t-7 175zM287 512q0 -119 10 -191.5t36.5 -112t62.5 -52.5t96 -13q80 0 121 26t62 105.5t21 237.5t-21 237.5t-62 105.5t-121 26q-60 0 -96 -13 t-62.5 -52.5t-36.5 -112t-10 -191.5z" />
<glyph unicode="&#xf1;" horiz-adv-x="1024" d="M102 0v512q0 116 9 199.5t31 143t51.5 96t79 57.5t104.5 28.5t135 7.5t135 -7.5t104.5 -28.5t79 -57.5t51.5 -96t31 -143t9 -199.5v-512h-205v512q0 119 -10 191.5t-36.5 112t-62.5 52.5t-96 13t-96 -13t-62.5 -52.5t-36.5 -112t-10 -191.5v-512h-205zM205 1311 q0 77 53.5 130.5t130.5 53.5q48 0 82.5 -13.5t52.5 -35.5t29.5 -48t17.5 -52t12.5 -48t19 -35.5t32.5 -13.5q25 0 43 18t18 44h123q0 -77 -54 -131t-130 -54q-48 0 -82 13.5t-51.5 35.5t-28.5 48t-17 52t-13 48t-20 35.5t-34 13.5q-26 0 -43.5 -18t-17.5 -43h-123z" />
<glyph unicode="&#xf2;" d="M82 512q0 116 9 199.5t31 143t51.5 96t79 57.5t104.5 28.5t135 7.5t135 -7.5t104 -28.5t78.5 -57t51.5 -96t31 -143.5t9 -199.5t-9 -199.5t-31 -143.5t-51.5 -96t-78.5 -57t-104 -28.5t-135 -7.5t-135 7.5t-104.5 28.5t-79 57.5t-51.5 96t-31 143t-9 199.5zM283 1448 l108 108l307 -307l-108 -108zM287 512q0 -119 10 -191.5t36.5 -112t62.5 -52.5t96 -13q80 0 121 26t62 105.5t21 237.5t-21 237.5t-62 105.5t-121 26q-60 0 -96 -13t-62.5 -52.5t-36.5 -112t-10 -191.5z" />
<glyph unicode="&#xf3;" d="M82 512q0 116 9 199.5t31 143t51.5 96t79 57.5t104.5 28.5t135 7.5t135 -7.5t104 -28.5t78.5 -57t51.5 -96t31 -143.5t9 -199.5t-9 -199.5t-31 -143.5t-51.5 -96t-78.5 -57t-104 -28.5t-135 -7.5t-135 7.5t-104.5 28.5t-79 57.5t-51.5 96t-31 143t-9 199.5zM285 1249 l307 307l108 -108l-307 -307zM287 512q0 -119 10 -191.5t36.5 -112t62.5 -52.5t96 -13q80 0 121 26t62 105.5t21 237.5t-21 237.5t-62 105.5t-121 26q-60 0 -96 -13t-62.5 -52.5t-36.5 -112t-10 -191.5z" />
<glyph unicode="&#xf4;" d="M82 512q0 116 9 199.5t31 143t51.5 96t79 57.5t104.5 28.5t135 7.5t135 -7.5t104 -28.5t78.5 -57t51.5 -96t31 -143.5t9 -199.5t-9 -199.5t-31 -143.5t-51.5 -96t-78.5 -57t-104 -28.5t-135 -7.5t-135 7.5t-104.5 28.5t-79 57.5t-51.5 96t-31 143t-9 199.5zM203 1249 l286 287l287 -287l-102 -112l-185 184l-184 -184zM287 512q0 -119 10 -191.5t36.5 -112t62.5 -52.5t96 -13q80 0 121 26t62 105.5t21 237.5t-21 237.5t-62 105.5t-121 26q-60 0 -96 -13t-62.5 -52.5t-36.5 -112t-10 -191.5z" />
<glyph unicode="&#xf5;" d="M82 512q0 116 9 199.5t31 143t51.5 96t79 57.5t104.5 28.5t135 7.5t135 -7.5t104 -28.5t78.5 -57t51.5 -96t31 -143.5t9 -199.5t-9 -199.5t-31 -143.5t-51.5 -96t-78.5 -57t-104 -28.5t-135 -7.5t-135 7.5t-104.5 28.5t-79 57.5t-51.5 96t-31 143t-9 199.5zM184 1311 q0 76 54 130t131 54q48 0 82.5 -13.5t52 -35.5t29 -48t17.5 -52t12.5 -48t19 -35.5t32.5 -13.5q25 0 43.5 18t18.5 44h123q0 -77 -54.5 -131t-130.5 -54q-48 0 -82 13.5t-51.5 35.5t-28.5 48t-17 52t-12.5 48t-19.5 35.5t-34 13.5q-26 0 -44 -18t-18 -43h-123zM287 512 q0 -119 10 -191.5t36.5 -112t62.5 -52.5t96 -13q80 0 121 26t62 105.5t21 237.5t-21 237.5t-62 105.5t-121 26q-60 0 -96 -13t-62.5 -52.5t-36.5 -112t-10 -191.5z" />
<glyph unicode="&#xf6;" d="M82 512q0 116 9 199.5t31 143t51.5 96t79 57.5t104.5 28.5t135 7.5t135 -7.5t104 -28.5t78.5 -57t51.5 -96t31 -143.5t9 -199.5t-9 -199.5t-31 -143.5t-51.5 -96t-78.5 -57t-104 -28.5t-135 -7.5t-135 7.5t-104.5 28.5t-79 57.5t-51.5 96t-31 143t-9 199.5zM266 1270v164 h154v-164h-154zM287 512q0 -119 10 -191.5t36.5 -112t62.5 -52.5t96 -13q80 0 121 26t62 105.5t21 237.5t-21 237.5t-62 105.5t-121 26q-60 0 -96 -13t-62.5 -52.5t-36.5 -112t-10 -191.5zM563 1270v164h154v-164h-154z" />
<glyph unicode="&#xf7;" horiz-adv-x="1187" d="M82 498v172h1024v-172h-1024zM492 184v205h204v-205h-204zM492 778v205h204v-205h-204z" />
<glyph unicode="&#xf8;" d="M82 512q0 116 9 199.5t31 143t51.5 96t79 57.5t104.5 28.5t135 7.5q32 0 90 -4l53 148h205l-74 -199q72 -50 103.5 -161t31.5 -316q0 -116 -9 -199.5t-31 -143.5t-51.5 -96t-78.5 -57t-104 -28.5t-135 -7.5q-37 0 -91 4l-53 -148h-205l72 199q-71 50 -102 160.5 t-31 316.5zM287 512q0 -162 18 -233l217 600q-10 2 -30 2q-60 0 -96 -13t-62.5 -52.5t-36.5 -112t-10 -191.5zM459 143h33q80 0 121 26t62 105.5t21 237.5q0 148 -18 231z" />
<glyph unicode="&#xf9;" horiz-adv-x="1024" d="M102 512v512h205v-512q0 -119 10 -191.5t36.5 -112t62.5 -52.5t96 -13t96 13t62.5 52.5t36.5 112t10 191.5v512h205v-512q0 -116 -9 -199.5t-31 -143t-51.5 -96t-79 -57.5t-104.5 -28.5t-135 -7.5t-135 7.5t-104.5 28.5t-79 57.5t-51.5 96t-31 143t-9 199.5zM303 1448 l109 108l307 -307l-109 -108z" />
<glyph unicode="&#xfa;" horiz-adv-x="1024" d="M102 512v512h205v-512q0 -119 10 -191.5t36.5 -112t62.5 -52.5t96 -13t96 13t62.5 52.5t36.5 112t10 191.5v512h205v-512q0 -116 -9 -199.5t-31 -143t-51.5 -96t-79 -57.5t-104.5 -28.5t-135 -7.5t-135 7.5t-104.5 28.5t-79 57.5t-51.5 96t-31 143t-9 199.5zM305 1249 l307 307l109 -108l-307 -307z" />
<glyph unicode="&#xfb;" horiz-adv-x="1024" d="M102 512v512h205v-512q0 -119 10 -191.5t36.5 -112t62.5 -52.5t96 -13t96 13t62.5 52.5t36.5 112t10 191.5v512h205v-512q0 -116 -9 -199.5t-31 -143t-51.5 -96t-79 -57.5t-104.5 -28.5t-135 -7.5t-135 7.5t-104.5 28.5t-79 57.5t-51.5 96t-31 143t-9 199.5zM223 1249 l287 287l287 -287l-103 -112l-184 184l-184 -184z" />
<glyph unicode="&#xfc;" horiz-adv-x="1024" d="M102 512v512h205v-512q0 -119 10 -191.5t36.5 -112t62.5 -52.5t96 -13t96 13t62.5 52.5t36.5 112t10 191.5v512h205v-512q0 -116 -9 -199.5t-31 -143t-51.5 -96t-79 -57.5t-104.5 -28.5t-135 -7.5t-135 7.5t-104.5 28.5t-79 57.5t-51.5 96t-31 143t-9 199.5zM287 1270 v164h153v-164h-153zM584 1270v164h153v-164h-153z" />
<glyph unicode="&#xfd;" horiz-adv-x="1024" d="M102 492v532h205v-532q0 -111 11 -180.5t38.5 -106.5t62.5 -49.5t93 -12.5q102 0 205 21v860h205v-1006q0 -116 -9 -199.5t-31 -143t-51.5 -96t-79 -57.5t-104.5 -28.5t-135 -7.5q-91 0 -175.5 11t-123.5 21l-39 11l-31 182q19 -7 52.5 -17t130.5 -27t186 -17 q55 0 89.5 10.5t62 41t39.5 88t12 147.5v57q-96 -14 -203 -14q-79 0 -134 7t-104 27.5t-79 56t-52.5 92.5t-31.5 137.5t-9 191.5zM305 1249l307 307l109 -108l-307 -307z" />
<glyph unicode="&#xfe;" horiz-adv-x="1003" d="M102 -410v1844h205v-412q76 22 205 22q70 0 119.5 -5.5t95.5 -19t75.5 -39t54.5 -64.5t38 -96.5t20 -132.5t7 -175t-7 -175t-20 -132.5t-38 -96.5t-54.5 -64.5t-75.5 -39t-95.5 -19t-119.5 -5.5q-126 0 -205 20v-410h-205zM307 512q0 -119 10 -191.5t36.5 -112 t62.5 -52.5t96 -13t96 13t62.5 52.5t36.5 112t10 191.5t-10 191.5t-36.5 112t-62.5 52.5t-96 13q-46 0 -76 -7t-56.5 -29t-41 -62.5t-23 -107t-8.5 -163.5z" />
<glyph unicode="&#xff;" horiz-adv-x="1024" d="M102 492v532h205v-532q0 -111 11 -180.5t38.5 -106.5t62.5 -49.5t93 -12.5q102 0 205 21v860h205v-1006q0 -116 -9 -199.5t-31 -143t-51.5 -96t-79 -57.5t-104.5 -28.5t-135 -7.5q-91 0 -175.5 11t-123.5 21l-39 11l-31 182q19 -7 52.5 -17t130.5 -27t186 -17 q55 0 89.5 10.5t62 41t39.5 88t12 147.5v57q-96 -14 -203 -14q-79 0 -134 7t-104 27.5t-79 56t-52.5 92.5t-31.5 137.5t-9 191.5zM287 1270v164h153v-164h-153zM584 1270v164h153v-164h-153z" />
<glyph unicode="&#x152;" horiz-adv-x="1781" d="M102 717q0 100 3.5 180.5t12 148.5t19.5 120t30.5 94t41 72t53.5 52t65.5 35t80.5 21t94.5 11t111.5 3q149 0 246 -20h840v-174h-625v-457h533v-172h-533v-457h625v-174h-840q-97 -20 -246 -20q-64 0 -111.5 3t-94.5 11t-80.5 21t-65.5 35t-53.5 52t-41 72t-30.5 94 t-19.5 120t-12 148.5t-3.5 180.5zM317 717q0 -123 5.5 -208.5t19.5 -150.5t34.5 -103.5t56 -62t77.5 -32t104 -8.5q99 0 156.5 25.5t89.5 92.5v897q-32 67 -89 91t-157 24q-63 0 -104.5 -7.5t-77 -30t-56 -60t-35 -102.5t-19.5 -152t-5 -213z" />
<glyph unicode="&#x153;" horiz-adv-x="1597" d="M82 512q0 116 9 199.5t31 143t51.5 96t79 57.5t104.5 28.5t135 7.5q116 0 188 -17.5t119 -65.5q47 48 119 65.5t188 17.5q227 0 318.5 -70.5t91.5 -246.5q0 -91 -21 -148t-72 -90.5t-125 -46t-192 -12.5h-203q4 -91 16.5 -147.5t39 -87.5t60 -41.5t87.5 -10.5 q89 0 181.5 15.5t140.5 31.5l47 15l-21 -185q-143 -40 -348 -40q-116 0 -188 17t-119 64q-47 -47 -119 -64t-188 -17q-80 0 -135 7.5t-104.5 28.5t-79 57.5t-51.5 96t-31 143t-9 199.5zM287 512q0 -119 10 -191.5t36.5 -112t62.5 -52.5t96 -13q80 0 121 26t62 105.5 t21 237.5q0 119 -11.5 193t-39 112.5t-62 51t-91.5 12.5q-60 0 -96 -13t-62.5 -52.5t-36.5 -112t-10 -191.5zM903 594h203q116 0 160.5 27t44.5 106q0 85 -46 119.5t-159 34.5q-54 0 -87.5 -10.5t-60 -41.5t-39 -87.5t-16.5 -147.5z" />
<glyph unicode="&#x178;" horiz-adv-x="1126" d="M39 1434h225l271 -471l32 -82l31 82l270 471h226l-420 -717v-717h-215v717zM342 1679v164h154v-164h-154zM639 1679v164h154v-164h-154z" />
<glyph unicode="&#x2c6;" horiz-adv-x="737" d="M82 1249l287 287l286 -287l-102 -112l-184 184l-185 -184z" />
<glyph unicode="&#x2dc;" horiz-adv-x="757" d="M72 1311q0 77 54 130.5t130 53.5q48 0 82.5 -13.5t52.5 -35.5t29.5 -48t17.5 -52t12.5 -48t19 -35.5t32.5 -13.5q25 0 43 18t18 44h123q0 -77 -54 -131t-130 -54q-48 0 -82 13.5t-51.5 35.5t-28.5 48t-17 52t-13 48t-20 35.5t-34 13.5q-26 0 -43.5 -18t-17.5 -43h-123z " />
<glyph unicode="&#x2000;" />
<glyph unicode="&#x2001;" horiz-adv-x="1966" />
<glyph unicode="&#x2002;" />
<glyph unicode="&#x2003;" horiz-adv-x="1966" />
<glyph unicode="&#x2004;" horiz-adv-x="655" />
<glyph unicode="&#x2005;" horiz-adv-x="491" />
<glyph unicode="&#x2006;" horiz-adv-x="327" />
<glyph unicode="&#x2007;" horiz-adv-x="327" />
<glyph unicode="&#x2008;" horiz-adv-x="245" />
<glyph unicode="&#x2009;" horiz-adv-x="393" />
<glyph unicode="&#x200a;" horiz-adv-x="109" />
<glyph unicode="&#x2010;" horiz-adv-x="614" d="M82 498v172h450v-172h-450z" />
<glyph unicode="&#x2011;" horiz-adv-x="614" d="M82 498v172h450v-172h-450z" />
<glyph unicode="&#x2012;" horiz-adv-x="614" d="M82 498v172h450v-172h-450z" />
<glyph unicode="&#x2013;" d="M82 498v172h819v-172h-819z" />
<glyph unicode="&#x2014;" horiz-adv-x="1802" d="M82 498v172h1638v-172h-1638z" />
<glyph unicode="&#x2018;" horiz-adv-x="368" d="M82 942l20 492h185v-492h-205z" />
<glyph unicode="&#x2019;" horiz-adv-x="368" d="M82 942v492h205l-21 -492h-184z" />
<glyph unicode="&#x201a;" horiz-adv-x="368" d="M82 -205v492h205l-21 -492h-184z" />
<glyph unicode="&#x201c;" horiz-adv-x="696" d="M82 942l20 492h185v-492h-205zM410 942l20 492h184v-492h-204z" />
<glyph unicode="&#x201d;" horiz-adv-x="696" d="M82 942v492h205l-21 -492h-184zM410 942v492h204l-20 -492h-184z" />
<glyph unicode="&#x201e;" horiz-adv-x="696" d="M82 -205v492h205l-21 -492h-184zM410 -205v492h204l-20 -492h-184z" />
<glyph unicode="&#x2022;" horiz-adv-x="471" d="M82 410v307h307v-307h-307z" />
<glyph unicode="&#x2026;" horiz-adv-x="1187" d="M82 0v205h205v-205h-205zM492 0v205h204v-205h-204zM901 0v205h205v-205h-205z" />
<glyph unicode="&#x202f;" horiz-adv-x="393" />
<glyph unicode="&#x2039;" horiz-adv-x="655" d="M41 512l430 430l117 -115l-320 -315l320 -315l-117 -115z" />
<glyph unicode="&#x203a;" horiz-adv-x="655" d="M68 197l319 315l-319 315l116 115l430 -430l-430 -430z" />
<glyph unicode="&#x205f;" horiz-adv-x="491" />
<glyph unicode="&#x20ac;" horiz-adv-x="1187" d="M61 461v174h123v164h-123v174h134q11 102 32.5 178t56 129t76 87t100.5 53.5t121.5 26.5t147.5 7q82 0 176.5 -10t148.5 -20l54 -11l20 -194q-80 36 -177 49.5t-232 13.5q-70 0 -117 -11.5t-87.5 -44.5t-65 -94.5t-37.5 -158.5h632v-174h-645v-164h645v-174h-632 q13 -97 37.5 -159t65 -94.5t87 -44t117.5 -11.5q135 0 232 13.5t177 49.5l-20 -195q-197 -40 -381 -40q-85 0 -147 7t-121 26t-100.5 53t-75.5 87t-55.5 129.5t-32.5 178.5h-134z" />
<glyph unicode="&#x2122;" horiz-adv-x="1310" d="M41 1331v103h451v-103h-164v-553h-123v553h-164zM573 778v594q0 36 21.5 55t60.5 19q41 0 63 -16.5t40 -67.5l102 -297l31 -123l31 123l102 297q18 51 39.5 67.5t62.5 16.5q39 0 60.5 -19t21.5 -55v-594h-123v410l-20 -103l-82 -225q-21 -56 -40.5 -74t-51.5 -18 t-51.5 18t-40.5 74l-82 225l-21 103v-410h-123z" />
<glyph unicode="&#x25fc;" horiz-adv-x="1024" d="M0 0v1024h1024v-1024h-1024z" />
<glyph unicode="&#xfb01;" horiz-adv-x="839" d="M102 0v1024q0 132 16 222.5t45 147.5t81.5 88.5t114 42.5t153.5 11h225v-164h-225q-25 0 -37 -0.5t-34 -3.5t-33 -9t-27.5 -17.5t-25.5 -29t-19.5 -43.5t-16 -60.5t-9 -81t-3.5 -103.5h430v-1024h-205v860h-225v-860h-205z" />
<glyph unicode="&#xfb02;" horiz-adv-x="880" d="M102 0v1024q0 132 16 222.5t45 147.5t81.5 88.5t114 42.5t153.5 11h266v-1536h-205v1372h-61q-25 0 -37 -0.5t-34 -3.5t-33 -9t-27.5 -17.5t-25.5 -29t-19.5 -43.5t-16 -60.5t-9 -81t-3.5 -103.5h205v-164h-205v-860h-205z" />
</font>
</defs>
</svg>
