<?xml version="1.0" standalone="no"?>
<!DOCTYPE svg PUBLIC "-//W3C//DTD SVG 1.1//EN" "http://www.w3.org/Graphics/SVG/1.1/DTD/svg11.dtd" >
<svg>
<metadata>
Created by FontForge 20090622 at Thu Aug 10 14:47:09 2017
 By deploy user
&#194;&#169; 1999-2001, WolfBainX &#38; Apostrophic Labs. All rights reserved. Email info@apostrophiclab.com or visit www.apostrophiclab.com for more information.
</metadata>
<defs>
<font id="KomikaDisplayKaps-Bold" horiz-adv-x="736" >
  <font-face 
    font-family="Komika Display Kaps"
    font-weight="700"
    font-stretch="normal"
    units-per-em="1000"
    panose-1="2 0 5 6 8 0 0 2 0 4"
    ascent="800"
    descent="-200"
    x-height="561"
    cap-height="704"
    bbox="-88 -256 1490 955"
    underline-thickness="57"
    underline-position="-76"
    unicode-range="U+000D-U+E000"
  />
<missing-glyph horiz-adv-x="500" 
 />
    <glyph glyph-name=".notdef" horiz-adv-x="500" 
 />
    <glyph glyph-name=".null" horiz-adv-x="0" 
 />
    <glyph glyph-name="nonmarkingreturn" horiz-adv-x="1000" 
 />
    <glyph glyph-name="uni000D" unicode="&#xd;" horiz-adv-x="500" 
 />
    <glyph glyph-name="space" unicode=" " horiz-adv-x="349" 
 />
    <glyph glyph-name="exclam" unicode="!" horiz-adv-x="439" 
d="M109 222l86 -37q16 6 31.5 18.5t27.5 26.5t19.5 28.5t9.5 24.5l-1 -3q1 3 8.5 23.5l18.5 51.5l25 70l28.5 79.5l28.5 79.5l26 70.5l19.5 52t9.5 24.5l-1 -3q10 13 10 28q0 12 -4.5 22t-11.5 17l-6 4q-22 23 -43.5 31t-42.5 8q-7 0 -15.5 -1t-18.5 -3q-29 -6 -47 -19
t-29 -31t-17.5 -39.5t-12.5 -43.5q-15 -61 -32 -119t-36 -116l-18 -56t-17 -56q-1 -5 -3.5 -13.5t-4.5 -20l-4 -23.5t-2 -22q0 -31 13 -48zM104 -17q14 0 24.5 0.5t18.5 1.5q2 0 4 0.5t4 0.5q15 3 30 12t27.5 21t21.5 25.5t12 25.5q1 5 2 11.5t1 12.5q0 35 -33 61l-98 59
q8 -16 10 -23t0 -7q-11 -2 -25.5 -1t-25.5 1t-13.5 -3t11.5 -12q-48 -22 -66 -65q-11 -13 -11 -35q0 -12 7 -26q5 -14 17.5 -29t27.5 -25h7q22 -6 47 -6z" />
    <glyph glyph-name="quotedbl" unicode="&#x22;" horiz-adv-x="336" 
d="M163 525l41 119q0 1 0.5 3t0.5 4v0q0 1 1 3q2 8 3 17t1 20q0 22 -11 37.5t-46 15.5q-41 0 -62.5 -26.5t-29.5 -61.5l2 3q-4 -8 -4 -13v-2l-28 -104q-5 -10 -6 -13t-3 -10q-2 -6 -3 -14t-1 -17q0 -20 9 -36t35 -20h9q28 0 54.5 27.5t37.5 68.5v-1zM354 641l4 14v-1
q1 2 1.5 5.5t1.5 4.5q1 3 1 4q0 2 1 4q4 15 4 27q0 20 -11.5 32.5t-44.5 12.5q-26 0 -42 -8.5t-26 -22.5t-16 -31.5t-10 -35.5h1l-33 -117l-1 -9l1 2q-8 -27 -8 -43q0 -21 10 -34t36 -15h5q35 0 60.5 32.5t37.5 79.5l-1 1z" />
    <glyph glyph-name="numbersign" unicode="#" horiz-adv-x="577" 
d="M635 456q0 23 -20 54q-24 36 -58 36h-47q1 5 1.5 8.5t-1.5 -0.5q2 11 2.5 21.5t0.5 15.5q0 86 -79 86q-38 0 -57 -29q-18 -29 -19 -80q-1 -22 -3 -35h-6h-56v39q0 16 -0.5 26t-0.5 15v7q-13 73 -73 73q-61 0 -70 -68q-1 -5 -1.5 -10t-0.5 -12q-1 -4 -1 -14v-12
q-2 -19 -3 -33.5t-1 -26.5h-3q-5 0 -14 1t-22 3q-17 4 -42 4q-73 0 -73 -73q0 -16 5.5 -30t15.5 -28h-1q8 -14 28.5 -25t41.5 -17q-15 -1 -42 -14v1q-2 -2 -4 -2.5t-4 -2.5l-18.5 -10.5t-20.5 -12.5h20q-8 -15 -8 -35q0 -15 5.5 -29.5t17.5 -27.5q23 -27 54 -32
q11 -1 22 -1.5t21 -0.5q3 -17 6 -30l3 -19q3 -14 9.5 -26.5t17.5 -23.5q27 -27 53 -27q46 0 66 63h-1q7 21 7 44q0 5 -0.5 9t-1.5 8q13 2 31.5 3t43.5 1q-1 -2 -1 -6v-11q0 -10 1 -20.5t5 -24.5v1q2 -11 5.5 -19.5t6.5 -14.5l4 -8l-2 3q4 -6 13 -13.5t19.5 -14.5t20.5 -12
t15 -5q11 0 24 7.5t23.5 19t17.5 24.5t7 25v74h18q15 3 27.5 11t26.5 22q15 19 24 35.5t9 34.5q0 10 -5 22t-14 22.5t-20 17.5t-23 7h-58v1q14 3 25.5 4t22.5 3q5 1 10 1t10 1q15 3 26.5 10t22.5 24l-1 -1q20 28 20 49zM344 353h-53v6q13 3 38 3q11 0 16 -1q0 -2 -0.5 -4
t-0.5 -4z" />
    <glyph glyph-name="dollar" unicode="$" horiz-adv-x="503" 
d="M505 385q0 2 -0.5 4t-0.5 4l2 10t2 11l-5 -5q-6 30 -24 66l2 1q-3 5 -5 9l-4 8h10q-5 5 -11 9t-11 9q-1 2 -2 2.5t-2 1.5l-3 6v-3l-2 2l-1 -2q-32 25 -68 41t-74 24q-20 1 -43 2t-43 3q-8 0 -13.5 -0.5t-9.5 -1.5q2 2 4.5 3.5t5.5 4.5q11 11 19 12q93 15 115 15h7
q31 0 49 6q18 7 35 42q6 13 8.5 23t2.5 17q0 17 -8 30t-20 22t-27 13.5t-30 4.5h-10q-5 0 -9 -0.5t-9 -2.5l3 2q-4 -1 -6 -1q-3 -1 -10 -1h-25q0 2 0.5 3.5t0.5 3.5q0 17 -2 37t-9.5 37t-23.5 28.5t-43 11.5q-17 0 -37.5 -13t-28.5 -30q-5 -11 -5.5 -30t-0.5 -39v-23
q0 -22 -4 -30l-14.5 -9t-11.5 -9q-7 -5 -12.5 -9.5t-10.5 -7.5q-81 -75 -81 -133q0 -54 37 -91v1q32 -36 128 -50h-1q16 -3 32 -5l32 -4q1 0 3 -0.5t4 -0.5q15 -2 30.5 -4.5t33.5 -4.5q42 -11 42 -18q0 1 -4 -4q-17 -24 -34 -31q-30 -15 -49 -15q-12 0 -23 1t-20 3
q-7 1 -12 1.5t-12 0.5q-2 0 -2.5 -0.5t-1.5 -0.5h-9q-11 0 -26.5 9t-32.5 20l-23 13.5t-22 11.5l1 -1q-8 4 -15 4q-14 0 -27 -11t-26 -25q-26 -34 -26 -59q0 -54 48 -88q13 -10 30 -18.5t43 -19.5q9 -5 15.5 -8l10.5 -5v-8h5v-81q0 -22 23 -53q24 -33 54 -33t56 38
q8 14 12.5 25.5t4.5 23.5v84q10 1 24 7l23.5 8l14.5 5t11 3.5t12 4.5q123 75 125 173h-1q0 3 1 5h1q2 9 2 10q0 2 1 4z" />
    <glyph glyph-name="percent" unicode="%" horiz-adv-x="972" 
d="M856 716q-4 30 -26 43t-51 13q-17 0 -34.5 -4.5t-31.5 -14.5l1 1q-46 -31 -77 -67t-60 -74l-8 -10.5l-8 -10.5q-2 -4 -8 -11t-4 -5l-22 -29t-25 -30q-4 -4 -8 -8.5t-9 -9.5q6 25 6 52q0 35 -7 63l-2 1q-8 29 -25 48t-39 32t-47 21l-47 15q-21 6 -36.5 7.5t-29.5 1.5
q-46 0 -83.5 -16t-67 -42t-52 -58t-39.5 -63q-15 -32 -15 -62q0 -35 16 -67.5t42 -53.5l-1 1q27 -23 61 -32.5t72 -9.5q28 0 54 3q45 8 76.5 22l60.5 28l4 2q-5 -5 -9.5 -11l-9.5 -13v1l-66 -80.5l-51.5 -65l-45 -59.5l-46.5 -63l-16.5 -22l-17.5 -22q-21 -30 -21 -56
q0 -31 21 -48.5t54 -17.5q22 0 46.5 11.5t44.5 34.5l114 140.5l114 137.5q-10 -14 -18 -29t-14 -32q-5 -21 -8.5 -37.5t-4.5 -44.5q0 -47 26 -85t80 -54h-1q25 -9 51 -13t52 -4q69 0 128 24.5t99 62.5q16 15 32.5 33.5t29.5 41t21 48.5t8 56q0 21 -3 39.5t-11 34.5
q-11 25 -28 41.5t-39 26.5t-48.5 14t-55.5 4q-32 0 -61 -3t-56 -7q-38 -5 -74 -24t-67 -48l100 113l104 113q6 7 14.5 13.5l16.5 12.5q2 2 2 1l2 2l-2 -1q15 11 30 23.5t27.5 28.5t20 36.5t7.5 46.5v10q0 9 -1 13zM786 222q2 -8 2 -10q0 -23 -12.5 -44t-34.5 -30
q-11 -5 -26 -9.5t-35 -4.5q-5 0 -11.5 1l-13.5 2t-12 2.5t-5 3.5q-8 10 -10.5 18t-2.5 15q0 22 16 41.5t36 26.5q8 3 24 4t33 1h38q9 0 14 -17zM314 548q-7 -13 -20.5 -21.5t-30 -14t-33 -8t-28.5 -2.5t-13 4q0 2 -0.5 3t-0.5 3q0 27 17 41.5t34 23.5q2 2 6 3.5t6 3.5h5
q8 0 18 -3t19 -7.5t15 -11.5t6 -14zM551 579l-1 -1q-1 -1 -1 -2q0 1 2 3zM499 262q0 -1 -2 -3q2 2 2 3z" />
    <glyph glyph-name="ampersand" unicode="&#x26;" horiz-adv-x="764" 
d="M782 418q0 57 -20.5 83t-64.5 26q-14 0 -23.5 -1t-20.5 -3q-5 -1 -12 -2t-13 -2q-4 0 -7 -1h-3q-9 -1 -17 -1.5t-15 -0.5h-23q-6 0 -12.5 0.5t-13.5 0.5q-65 0 -87 -50q-5 -14 -8 -25t-5 -19l1 2q-1 -2 -2 -5.5t-2 -5.5q0 -4 -3 -16v1q-29 -78 -39 -95v1l-3.5 -5t-5.5 -7
l-22 -30t-20 -24l1 3q-44 -63 -136 -63q-12 0 -20 4.5t-8 12.5q0 17 13 46q28 45 44 61l12.5 12.5t11.5 10.5q11 10 18 17t12 13q14 13 44 30q5 0 9 4q4 2 12 6.5t18 9.5q21 11 36 18q20 14 27.5 28t7.5 30q0 106 -98 106q-9 0 -26.5 -5.5t-42.5 -17.5l-9 -3.5t-7 -2.5
q-1 5 -1.5 10.5t-0.5 9.5q0 12 7 25t30 24q22 10 42.5 12.5t37.5 2.5h26q9 0 29 -23q51 -51 83 -51q26 0 48 16.5t22 48.5q0 51 -45 102q-30 27 -54.5 41.5t-43.5 18.5q-5 1 -11 2.5l-14 3.5l-28 6t-27 3q-30 0 -58 -8.5t-53.5 -22t-48.5 -30.5t-43 -34q-75 -66 -75 -166
q0 -30 3.5 -54.5t16.5 -50.5q-2 -7 -9.5 -14l-15.5 -15l-19.5 -18t-10.5 -20q-54 -83 -54 -166q0 -93 58 -154q62 -65 161 -65q162 0 251 83q14 12 28 27t31 35q12 15 21.5 28l16.5 23q3 5 6.5 9.5t5.5 8.5l6.5 14.5t5.5 13.5v-1l20 50.5t14 38.5q0 1 -0.5 2.5t-0.5 2.5
q0 -3 16 -3q6 0 11 0.5t10 1.5h1q66 0 96.5 24.5t30.5 66.5z" />
    <glyph glyph-name="quotesingle" unicode="'" horiz-adv-x="187" 
d="M163 525l41 119q0 1 0.5 3t0.5 4v0q0 1 1 3q2 8 3 17t1 20q0 22 -11 37.5t-46 15.5q-41 0 -62.5 -26.5t-29.5 -61.5l2 3q-4 -8 -4 -13v-2l-28 -104q-5 -10 -6 -13t-3 -10q-2 -6 -3 -14t-1 -17q0 -20 9 -36t35 -20h9q28 0 54.5 27.5t37.5 68.5v-1z" />
    <glyph glyph-name="parenleft" unicode="(" horiz-adv-x="383" 
d="M387 831q0 82 -83 82q-19 0 -39 -10t-39 -24.5t-34 -31.5t-23 -31q-42 -41 -74 -101q-37 -66 -47 -118v1q-2 -5 -2 -10q0 -4 -2 -8q-5 -12 -6 -21q-7 -23 -14.5 -50.5t-13.5 -56t-10.5 -55t-5.5 -46.5q6 -84 29.5 -156.5t80.5 -138.5l6 -6q2 -2 3.5 -3t3.5 -3v1
q15 -17 25 -23h-1q33 -24 70 -24q72 0 72 71q0 36 -37 83q-5 8 -10 15t-10 13q-24 31 -30 43q-12 24 -18.5 49.5t-6.5 54.5q0 80 38 211q4 6 5 11q4 7 6.5 14.5t4.5 14.5v2v-4l9.5 20.5t9.5 16.5q17 29 52 69.5t90 90.5h-13q14 28 14 58z" />
    <glyph glyph-name="parenright" unicode=")" horiz-adv-x="390" 
d="M354 715q-8 17 -24.5 42.5t-35 51.5t-37 49t-30.5 35h1q-14 14 -29 18.5t-31 4.5q-71 0 -71 -72q0 -32 14 -53.5t30 -39.5q1 -1 1.5 -2t1.5 -2l-2 3q3 -6 8 -11q1 -2 3.5 -6t4.5 -6l11 -18l13 -22l-2 3q7 -28 16 -48q4 -10 6.5 -18t2.5 -18q2 -9 2.5 -16t0.5 -16
q0 -19 -6.5 -53t-17.5 -85q-5 -9 -6 -19.5t-2 -19.5q-1 -5 -1 -10q0 -4 -2 -6q-12 -32 -20.5 -52l-14.5 -33t-10.5 -20.5t-8.5 -13.5q-1 -1 -1.5 -2.5t-1.5 -2.5q-2 -10 -15 -25.5t-30 -33.5q-14 -15 -27.5 -31t-24.5 -31t-18 -29t-7 -25q0 -42 18.5 -61.5t62.5 -19.5
q15 0 28 4.5t23 10.5q4 3 8.5 8l9.5 11v-1l10 10.5l10 10.5h-1l14 12.5t13 11.5l30 40l23 29q12 15 19.5 25.5t15.5 24.5q5 8 7.5 13t4.5 12l8 20.5t10 20.5q17 31 30 71t22 86t14.5 96.5t8.5 101.5z" />
    <glyph glyph-name="asterisk" unicode="*" horiz-adv-x="450" 
d="M452 630q0 70 -73 70q-5 0 -15.5 -1l-21.5 -2q-11 -2 -22 -2.5t-16 -0.5q-20 0 -27 7q-5 15 -6 53q-1 25 -3.5 40.5t-6.5 25.5q-16 40 -62 40q-28 -3 -45 -23.5t-17 -47.5v-8v-11q0 -5 1 -10q-8 7 -17 19q-31 26 -61 26q-21 0 -36.5 -15.5t-15.5 -37.5q0 -23 30 -63
l10.5 -14l10.5 -13l-1 2q2 -4 4 -7t4 -5q-3 -1 -9 -1h-2q-19 0 -24 -2q-19 -4 -32.5 -18.5t-13.5 -32.5q0 -39 30 -66q32 -28 69 -28q4 0 8 0.5t9 1.5t9.5 1.5t6.5 0.5q11 0 14 -4q3 -5 3 -22q0 -5 -0.5 -10t-0.5 -10v-19q0 -54 46 -85q8 -7 33 -7q41 0 50 55q2 17 4.5 30.5
t5.5 21.5q6 -2 13.5 -5.5l17.5 -8.5q40 -19 45 -19q23 0 37.5 18t14.5 38q0 28 -34 53q-6 4 -10 7.5t-8 6.5q2 1 5 1t6 1q10 2 21 4.5t21 5.5q51 15 51 70z" />
    <glyph glyph-name="plus" unicode="+" horiz-adv-x="534" 
d="M540 418q0 58 -56 72q-30 4 -54 6t-40 3q-40 3 -36 -1q-15 12 -15 34q0 5 1 16.5t3 24.5t3.5 29l1.5 16q0 88 -77 88q-54 0 -70 -60q-2 -11 -4 -31.5t-4 -50.5q-1 -7 -1 -14q0 -6 -1 -11l-3.5 -23t-1.5 -18q-2 -15 -61 -15q-57 0 -84 -6q-56 -15 -56 -68q0 -14 2.5 -25
t7.5 -21q25 -44 91 -44q3 0 9 0.5t11 0.5q6 1 11 1h10q22 0 22 -13q0 -16 -3 -46q-3 -32 -3 -48q0 -104 76 -104q32 0 49 19q3 5 9 19.5t14 40.5q5 19 9.5 34.5t6.5 26.5q6 34 22 54q18 24 42 24h90q36 0 60 30q19 23 19 60z" />
    <glyph glyph-name="comma" unicode="," horiz-adv-x="225" 
d="M-42 -8q0 -30 20 -48.5t51 -18.5q10 0 23.5 4.5t25.5 15.5l1 -1q4 4 11 13.5l16 22l19.5 26.5l19.5 27l7.5 9.5t6.5 9.5h9q4 21 4.5 28t0.5 15q0 18 -9.5 32t-25.5 27q-17 5 -24.5 6.5t-12.5 1.5h-5q-8 0 -16 -1t-28 -9v-5q-11 -12 -27 -36t-31 -49.5t-25.5 -45.5
t-10.5 -24z" />
    <glyph glyph-name="hyphen" unicode="-" horiz-adv-x="537" 
d="M33 212q11 -16 34 -21.5t55 -5.5h24q7 0 14 0.5t15 0.5q4 0 8.5 0.5t8.5 0.5q9 1 18 1.5t18 0.5h2q6 0 32 0.5t57 1.5t58.5 2.5t35.5 3.5h17q26 0 40 1.5t26 9.5q15 7 19 14.5t4 23.5l-5 10h1q-5 11 -9.5 19.5t-12.5 13.5h1q-29 27 -71.5 34t-90.5 7h-43q-5 0 -11.5 -0.5
t-11.5 -0.5q-5 -1 -10 -1h-8q-23 0 -51 -0.5t-54 -1.5t-46.5 -2.5t-29.5 -2.5v1q-26 -5 -40 -11.5t-14 -31.5v-4q0 -6 1 -9v-4q0 -3 0.5 -5.5t2.5 -7.5l-1 3q3 -9 6.5 -21t11.5 -21z" />
    <glyph glyph-name="period" unicode="." horiz-adv-x="158" 
d="M-31 74v-10q0 -14 4.5 -25t11.5 -20q23 -17 43.5 -23.5t31.5 -6.5q16 0 31 4t26 10q22 12 37 31t16 42q0 46 -46 64l1 -1q-11 6 -24 10t-26 4q-14 0 -19 -1h1q-2 -1 -6 -1q-32 -6 -55 -27t-27 -50z" />
    <glyph glyph-name="slash" unicode="/" horiz-adv-x="732" 
d="M679 763h-15q-2 0 -2.5 0.5t-2.5 0.5q-29 0 -55.5 -11t-50.5 -28t-45 -37.5t-38 -39.5l-438 -466v1l-22 -22.5t-25 -30t-21 -33.5t-9 -33q0 -11 4 -19l9 -18q27 -39 81 -39q27 0 48 12q20 14 32.5 27.5l22.5 24.5v-1q5 5 8.5 9t6.5 7q2 3 4 5l4 4h1l505 530l13 13l2 2
l19 19q14 13 23 25t9 32q0 5 -1 10.5t-8 18.5h1q-2 2 -3 4l-10 17l-14 24v-19q-12 6 -33 11z" />
    <glyph glyph-name="zero" unicode="0" horiz-adv-x="517" 
d="M515 247q14 36 21.5 66.5t7.5 57.5q0 31 -15 72q-7 17 -14.5 28.5t-16 20t-17.5 15t-20 13.5v1h-2q0 1 -2 1l-2 2v-1q-1 0 -1.5 0.5t0.5 0.5q-2 1 -4 3q-36 23 -71.5 36t-73.5 13q-69 0 -139 -42q-78 -47 -118.5 -110t-54.5 -152v1q-6 -32 -6 -67q0 -53 16 -94.5
t58 -74.5q26 -26 56.5 -37t68.5 -11q75 0 158 49h-1q66 37 105.5 87t65.5 122h1zM334 198q-27 -23 -50.5 -34t-52.5 -11h-10q-26 2 -40.5 8.5t-29.5 23.5q-27 30 -27 71q0 14 4 30.5t11 35.5v-1q22 50 64 77t87 27q3 0 9 -0.5t11 -1.5q41 -5 68.5 -33.5t27.5 -69.5
q0 -21 -10 -46v-2q-9 -24 -24 -39.5t-38 -34.5z" />
    <glyph glyph-name="one" unicode="1" horiz-adv-x="230" 
d="M255 496q0 35 -21 56t-47 21q-23 0 -46 -16q-14 -13 -26 -21l-23 -15h1q-5 -2 -6 -3l-2 -2t-2 -1t-2 -1l3 1l-9 -6q-20 -13 -38 -26.5t-39 -35.5q-5 -10 -7 -18.5t-2 -16.5q0 -24 12.5 -45.5t26.5 -29.5q5 -5 10.5 -5.5t13.5 -0.5q13 0 25 5q-2 -5 -3 -10l-2 -10
q0 -2 -0.5 -4t-0.5 -4v2q-2 -6 -3 -12.5t-2 -11.5q-5 -35 -12 -62.5l-14 -53.5q-1 -3 -1.5 -5.5t-1.5 -5.5h1l-15.5 -58.5t-13.5 -67.5v-9q0 -36 17.5 -45t44.5 -9h26q22 10 34.5 19t18.5 20.5t8.5 27t4.5 39.5q1 8 5 28l9 46l6 27l-1 -1q3 8 3.5 13t1.5 9v-1q4 22 7.5 38.5
l6.5 29.5l6 25t7 26h-1l11.5 45.5l16.5 67.5h-1q2 5 3.5 11t3.5 12v3q8 26 8 41z" />
    <glyph glyph-name="two" unicode="2" horiz-adv-x="526" 
d="M563 448q0 29 -15.5 55t-44.5 46l1 1q-3 2 -5.5 3t-5.5 2l-6 4l-6 4v-4q-2 1 -5 1q-2 0 -4 1h-2q-15 6 -37 6q-23 0 -52 -5.5t-57.5 -13.5t-52.5 -16t-36 -14l1 -1q-26 -8 -58 -27t-59.5 -42.5t-46.5 -47.5t-19 -42q0 -8 5 -18.5t13 -20.5t18 -18t21 -9q6 -2 11 -2h10
q23 0 34.5 11.5t22.5 27.5v-2q5 6 10 9q2 1 4.5 2.5t4.5 2.5l3 3q7 5 15 9.5t12 6.5l4 4q1 1 3.5 3t3.5 3h-1q20 13 40.5 22.5t44.5 11.5q2 1 4 1t3.5 0.5t3.5 0.5h3q1 0 2.5 0.5t2.5 0.5q10 2 19.5 3t15.5 1h8q4 0 4 1v-1q0 -8 -17 -16t-36 -15q-2 -1 -4.5 -2t-4.5 -2
t-3.5 -1.5t-3.5 -1.5l1 1l-11.5 -4.5t-10.5 -4.5q-7 -4 -12 -6.5t-8 -3.5q-8 -4 -12 -5q-6 -2 -12 -5.5t-11 -5.5l-6 -3l1 1l-43 -21t-49 -30l1 1q-2 -1 -3.5 -1.5t-3.5 -1.5q-4 -2 -8 -5l-11 -8q-14 -9 -26 -17.5t-23.5 -18t-23.5 -22l-27 -28.5q-38 -46 -38 -89
q0 -10 1 -15h-3q11 -36 29 -63.5t49 -27.5q8 0 12 0.5t7 1.5q39 11 66.5 14.5t51.5 3.5q22 0 49 -3h-2q3 -1 7 -1h9q2 0 4.5 -0.5t5.5 -0.5q5 -1 17 -1q4 0 7 -0.5t7 -0.5t9 -0.5t11 -1.5h5h1q5 -1 19 -3.5t36 -7.5q3 -1 9 -1q7 0 10 1l-32 32l-16 -25q15 -5 29 -7
q6 -2 12 -3.5l14 -3.5l-7 7q27 3 48 31q11 15 18.5 34.5t7.5 36.5t-8 30.5t-27 21.5q-45 16 -88 21.5t-84 5.5h-20q-9 0 -18 -1q26 17 54.5 30.5t56.5 24.5l66 30.5t59.5 37.5t49.5 54t37 79h-1q1 5 1.5 11t0.5 11zM185 324l3 3z" />
    <glyph glyph-name="three" unicode="3" horiz-adv-x="501" 
d="M522 225q0 17 -4 35t-12 37q-1 1 -1.5 2.5t-1.5 2.5l2 -4l-9.5 17t-9.5 15q19 20 36 50t17 68q0 10 -1.5 19.5t-6.5 23.5v-1q-11 38 -33 58t-62 25q-16 3 -32.5 4t-34.5 1q-33 0 -68 -6t-69.5 -20.5t-66.5 -38.5t-58 -60q3 -16 9.5 -31.5t15.5 -27.5t21.5 -19.5
t28.5 -7.5h4q14 4 16.5 4.5t6.5 2.5q5 4 6 4.5l3 1.5l8 4q1 1 5 3q28 18 59.5 35t60.5 17q8 0 29 -8q-3 -5 -7.5 -9.5l-9.5 -9.5l2 1q-17 -12 -30.5 -16.5t-27.5 -6.5q-2 -1 -6 -1.5t-6 -1.5l1 1l-12 -3h1q-32 -6 -61.5 -15.5t-52.5 -30.5q-5 -16 -6 -26.5t-1 -18.5
q0 -34 16.5 -54.5t45.5 -22.5v-7q29 11 56.5 18t45.5 7q15 0 27 -4t16 -15q2 -5 3 -10.5t1 -10.5q0 -12 -5 -23.5t-16 -19.5q-27 -19 -51 -28.5t-53 -9.5q-12 0 -24 1t-26 5q-13 3 -24.5 15t-21.5 24q-16 19 -30 32.5t-35 13.5q-10 0 -15.5 -1t-10.5 -6l-3 -3l2 1l-21 -16
t-22.5 -20t-18 -24.5t-7.5 -28.5v-6q0 -4 0.5 -7.5t4.5 -8.5l-2 2q12 -28 25 -45.5t29.5 -29.5t36 -21t43.5 -18q25 -8 48.5 -11t47.5 -3q42 0 84.5 11t78.5 31t63.5 47.5t40.5 61.5q29 63 29 115z" />
    <glyph glyph-name="four" unicode="4" horiz-adv-x="506" 
d="M557 255q0 37 -15 49t-41 12q-9 0 -14 -0.5t-10 -1.5v-1h-11q-2 -1 -4 -1t-4 -1q2 13 4.5 22t4.5 18q0 4 1 6v1q1 5 2 9.5t2 9.5q2 6 3 14t3 18q1 2 1 3v1q10 14 17 27t7 28v12q-6 27 -24.5 40.5t-44.5 13.5q-13 0 -36 -11t-52 -27l5 -21q-4 -9 -5.5 -17t-2.5 -16
q-1 -5 -1.5 -8.5t-0.5 -4.5v1q-8 -20 -12 -35.5t-6 -29.5q0 -4 -1 -6t-1 -6q-1 -2 -1 -5q-2 -4 -2 -5q-1 -3 -1.5 -6.5t-1.5 -8.5l1 3q-4 -11 -4 -14q0 -2 -1 -5q-1 -5 -2 -9.5t-3 -9.5q-30 -6 -70.5 -10.5t-75.5 -5.5q8 14 16 25v-1q5 8 12 18t12 18q9 19 17 29v-1l4.5 6.5
t5.5 8.5q1 1 1.5 2.5t2.5 3.5q13 19 23.5 38t17.5 37q5 10 8 19.5t3 17.5q0 25 -13 42.5t-34 26.5v1q-6 2 -12 2h-12q-52 0 -82 -77q-6 -19 -11 -29t-11 -19q1 1 -1 -3l-1 1l2 2q2 4 0 2q-1 -1 -3 -4.5t-4 -8.5q-1 -1 -1 -2v0q-2 -2 -2 -3l-2 3l-20 -35.5t-18 -26.5
q-11 -16 -20.5 -32t-19 -35t-18.5 -42.5t-18 -53.5h11q4 -25 18 -53t25 -43q11 -7 19.5 -10.5t18.5 -3.5q5 0 11.5 1.5l15.5 3.5q-6 -4 -1 -2.5t10 3.5h-2q2 0 3 0.5t2 0.5l19.5 5l22.5 6h-2q27 2 62 3t61 1q-2 -8 -4.5 -16.5t-4.5 -17.5q-2 -5 -5 -16.5l-5 -19.5
q0 -1 -1 -1v-1v-4l2 7q0 -1 -1 -1v0q0 -1 -1 -1v-1q0 -2 -0.5 -3t-0.5 -3h21l-14 20l-2 -6q-1 -2 -2 -3t-1 -3q0 -1 -0.5 -1.5l-0.5 -0.5q-1 -3 -1 -6v1q-2 -4 -2 -10q0 1 -0.5 0.5l-0.5 -0.5v-4q-3 -11 -5 -22t-2 -21q0 -23 9 -36t38 -13h18q1 0 1.5 -0.5t1.5 -0.5h8
q12 0 21.5 2t17.5 7.5t16 15t16 25.5q11 24 15.5 49t7.5 49h1q3 32 8 52q3 1 10 1h14q1 0 1.5 -0.5t1.5 -0.5q10 0 21.5 2t25.5 13q14 8 25 15.5t18.5 18.5t11.5 27t4 40v4zM238 565l-4 -9l2 11zM262 58q-2 -2 -2 -3l-1 -3zM254 37l1 4v-2q0 -1 -1 -1v-1z" />
    <glyph glyph-name="five" unicode="5" horiz-adv-x="460" 
d="M474 151q15 52 15 82q0 43 -16.5 78t-43.5 58q-34 28 -71 38t-75 10h-15q7 1 13 2t14 3h-1q2 0 3.5 0.5t3.5 0.5h6t8 2l-3 -1h1l19 3q1 0 1.5 0.5t1.5 0.5l3 1v0h49q19 0 34.5 2t32.5 10q22 10 35.5 35t13.5 48q0 14 -4 23t-12 17q-23 31 -65 31q-14 0 -25.5 -2l-22.5 -4
l-9 -3v1l-39.5 -10t-37.5 -8h1q-2 0 -3.5 -0.5t-2.5 -0.5q-6 -1 -10 -1h-9q-2 0 -4 -0.5t-4 -0.5h-8q-31 -2 -61 -8.5t-71 -27.5q-4 -20 -8 -34.5t-8.5 -25t-9 -18.5l-8.5 -15l-5 -10v1q-11 -18 -21 -40.5t-15 -65.5q10 -27 18 -44t16 -27t16.5 -14t20.5 -4q8 0 15 0.5
t15 4.5q23 7 53 12.5t62 8.5h9q33 0 58 -11.5t25 -32.5q0 -5 -2 -10.5t-4 -12.5q-5 -14 -16 -23l-25 -20q-7 -2 -12 -9q-23 -17 -45.5 -23.5t-45.5 -6.5q-10 0 -22 2t-26 5q-5 1 -7.5 6.5t-4.5 12.5h-1q-7 19 -18 32t-42 13h-10t-9 -1q-40 -8 -54.5 -30t-14.5 -53
q0 -18 6.5 -37.5l12.5 -36.5q18 -35 60 -50.5t95 -15.5q16 0 33.5 1.5t34.5 5.5q27 4 50.5 9.5t45.5 16t43 27t41 41.5v-1q21 21 35 42t25 52h2zM140 237h1q0 1 1 1z" />
    <glyph glyph-name="six" unicode="6" horiz-adv-x="503" 
d="M538 257q0 37 -16 68q-20 38 -46.5 52.5t-68.5 16.5h-10q-42 0 -82.5 -9.5t-79.5 -25.5q25 22 50 33.5t54 18.5h-1q21 5 43.5 20t35.5 35l34 -28q0 1 -3 10.5l-6.5 20l-6.5 20t-3 10.5l-1 1v1v3q0 5 -4.5 19l-7.5 23l-5 -5q-20 29 -52 29q-8 0 -17 -1t-20 -5l-37.5 -11
t-30.5 -11t-29 -14t-33 -20q-72 -50 -115 -109t-65 -144h1q-8 -27 -11.5 -50t-3.5 -46q0 -22 2.5 -38t6.5 -32q17 -59 56.5 -92.5t112.5 -33.5q41 0 81 10q43 10 78 24t65.5 36t57.5 53.5t53 78.5q24 49 24 92zM400 227v-3q-1 -6 -8.5 -15t-19 -18.5t-25.5 -19.5t-28 -18
q-30 -18 -59.5 -26t-45.5 -8q-7 0 -16 0.5t-17 1t-13.5 2.5t-5.5 5q0 5 6 15q26 22 56.5 43t72.5 29q3 0 6 1q1 0 2.5 0.5t2.5 0.5q20 5 39 7.5t36 2.5h17z" />
    <glyph glyph-name="seven" unicode="7" horiz-adv-x="429" 
d="M487 506q-5 14 -10.5 24t-13 16t-18.5 8.5t-27 2.5h-9q-5 0 -8 -1v1q-70 -10 -122 -15t-97 -5h-16q-6 0 -11 1v-1q-8 2 -14 3t-12 1q-19 0 -36.5 -6.5t-31 -19t-21.5 -30.5t-8 -41v-12q0 -2 0.5 -4t0.5 -4q5 -24 16 -38.5t45 -14.5q7 0 15.5 0.5t19.5 3.5q21 6 42.5 7.5
t42.5 1.5q8 0 17 -0.5t18 -1.5l-26 -38.5t-26 -35.5l-18 -24l1 2q-2 -2 -1.5 -2.5t-1.5 -2.5l-31 -42.5l-33 -47.5v5q-24 -39 -37.5 -55t-22.5 -24l-5 -5q-17 -17 -28 -34t-11 -50v-13q13 -30 36 -46.5t45 -16.5q10 0 21 3.5t21 12.5q17 23 34.5 50.5t34.5 57.5h1l29 51
q26 40 50 73.5l48.5 65t52.5 62.5l62 67v-1q17 17 32 41.5t15 48.5q0 11 -4 22z" />
    <glyph glyph-name="eight" unicode="8" horiz-adv-x="543" 
d="M574 172q3 12 3 30q0 38 -16 57.5t-39 36.5q24 28 44.5 63.5t20.5 76.5q0 29 -12 55q-25 55 -70 74.5t-106 19.5h-30q-36 -2 -70 -9t-65 -22.5t-58.5 -40.5t-51.5 -63q-32 -52 -32 -104q0 -25 6 -44q-37 -20 -61 -42.5t-43 -65.5v1q-11 -21 -15 -41.5t-4 -40.5
q0 -14 5 -33t17 -44h-2q3 -5 5.5 -10t5.5 -10l8 -14l9 -15v10q26 -24 60.5 -32.5t75.5 -13.5q4 -1 10 -1l2 -1h5h1t2 -1h-1q15 -2 29.5 -3.5t31.5 -1.5q80 0 153.5 31t136.5 98v-1q12 12 20 26.5t13 29t8 26.5t4 19zM391 137q-33 -18 -64 -25t-62 -7q-26 0 -49 4t-45 12
q-17 7 -29 15t-14 19q2 14 15.5 20.5t30.5 12.5q3 0 5 1q5 0 11 4q2 0 3 1v-27l37 37q3 0 4 1q2 0 4.5 0.5t4.5 0.5q11 0 15 1h-3q17 2 35 3t36 1q14 0 29 -2t32 -7l8 -2q13 -3 23.5 -6.5t10.5 -5.5v-1q-1 -16 -11.5 -29t-26.5 -21zM350 368q-15 -3 -26.5 -5t-16.5 -2
q-26 0 -45 4.5t-26 11.5q5 15 20 24t36 15t44.5 9.5t45.5 5.5h5q1 0 1.5 0.5t1.5 0.5q18 0 33.5 -6t17.5 -13q-2 -10 -11.5 -17.5t-23 -13t-28.5 -9t-28 -5.5z" />
    <glyph glyph-name="nine" unicode="9" horiz-adv-x="523" 
d="M563 304q5 19 7 38.5t2 39.5q0 23 -4 44t-15 44q-13 31 -27.5 50.5t-44.5 41.5q-24 15 -48 21t-50 6q-35 0 -70 -9t-60 -17q-69 -23 -115 -64.5t-75 -106.5q-10 -20 -14 -40t-4 -39q0 -27 8.5 -48t28.5 -41v1q16 -18 31 -28t30.5 -15t32 -7.5t36.5 -3.5q4 -2 7 -1.5
t6 0.5h5q7 -1 15 -1.5t18 -0.5q41 0 76 7q-39 -31 -79 -41.5t-86 -10.5q-8 0 -23 10q1 -1 1 -3l-9 6q3 0 4 -1l-2 2h-4q-14 8 -27.5 14t-27.5 6q-27 0 -55.5 -23.5t-41.5 -60.5v-8q0 -32 10 -51.5t26 -30t36 -14t40 -4.5q-1 1 -2 1.5t-2 1.5l5 14l-1 -17q6 -1 10 -1.5
t9 -0.5q12 -3 26 -4t28 -1q21 0 41.5 2.5t44.5 10.5v-1q23 6 42 12.5t37 15.5t36.5 22t39.5 31q32 28 55.5 54.5t40.5 56t29 64t22 78.5h1zM297 331q-31 0 -57 5.5t-42 14.5q-7 3 -7 0q0 4 6.5 10t15.5 13q13 11 30.5 20t37 15.5t40 10t39.5 3.5q11 0 23 -3
q19 -5 29.5 -20.5t14.5 -37.5q-22 -17 -57.5 -24t-72.5 -7zM151 133q-2 2 -4 2q1 -1 2 -1t2 -1z" />
    <glyph glyph-name="colon" unicode=":" horiz-adv-x="159" 
d="M219 433q0 53 -24.5 79t-65.5 26q-28 0 -47.5 -13.5t-32 -35t-18 -47.5t-5.5 -51q0 -45 25.5 -72t60.5 -27q23 0 42.5 12t34 32t22.5 45t8 52zM199 125q0 53 -25 79.5t-66 26.5q-27 0 -46.5 -13.5t-31.5 -34.5t-18 -47t-6 -51q0 -45 25 -72.5t60 -27.5q23 0 43 12.5
t34.5 32t22.5 44.5t8 51z" />
    <glyph glyph-name="semicolon" unicode=";" horiz-adv-x="236" 
d="M237 174q0 19 -8.5 38t-22 34t-30.5 24.5t-33 9.5q-15 0 -30.5 -9t-28 -23.5t-21 -32.5t-8.5 -37q0 -26 -1 -48t-9 -41l1 2l-3 -6l-2 -4q-1 -2 -1 -3t-1 -3q-7 -4 -10 -11q-2 -3 -2 -10q-2 -4 -4 -4l-11.5 -13.5t-9.5 -16t-6.5 -23t-2.5 -33.5q0 -28 8.5 -44.5t21 -25
t28 -11t30.5 -2.5q57 0 88 61l24.5 53t22 55.5t15.5 59t6 64.5zM248 444q0 54 -25.5 81t-67.5 27q-29 0 -50 -14t-34.5 -35.5t-19.5 -48.5t-6 -52q0 -47 26.5 -75t63.5 -28q25 0 46 12.5t36 32.5t23 46.5t8 53.5z" />
    <glyph glyph-name="less" unicode="&#x3c;" horiz-adv-x="417" 
d="M418 705q0 18 -7 34.5t-19 28.5t-27 19.5t-30 7.5q-35 0 -107 -74v1l-9.5 -9.5t-8.5 -9.5h1q-4 -5 -8.5 -9.5t-14.5 -13.5q-6 -6 -11 -11.5l-10 -10.5l-19 -19h1q-39 -32 -63 -48l-6 -4.5t-12 -8.5q-80 -60 -80 -113q0 -39 15 -70q8 -14 21 -33.5t34 -48.5l21.5 -30
l17.5 -24l6 -9l-1 1q3 -6 4.5 -8t3.5 -4l-2 3q1 -2 4 -5q19 -34 40 -65t46 -59l14 -14l3.5 -3.5t7.5 -6.5l36 -46q39 -41 72 -41q68 0 68 86q0 26 -24 62l1 1q-5 9 -9.5 14.5t-9.5 10.5q-4 3 -6.5 6l-2.5 3l-11.5 13.5t-7.5 8.5q-8 8 -15.5 16.5t-15.5 18.5l-35 41.5
t-25 35.5h11l-5.5 5.5t-9.5 10t-9.5 10l-5.5 5.5t-3 3.5t-4 4.5l-1 -1q-44 65 -44 69q0 8 79 78l13.5 12t14.5 12q1 1 2 1.5t3 2.5v-1q3 3 9.5 9l14 12.5l14.5 12.5t10 9q8 8 16.5 15l17.5 15q57 57 57 101zM222 345l-1 -1q-2 4 1 1z" />
    <glyph glyph-name="equal" unicode="=" horiz-adv-x="447" 
d="M424 254q0 34 -11.5 54t-34.5 34q-17 7 -38 11t-46 5l18 1q4 1 15 3h-1q2 0 4 0.5t3 0.5q3 1 5 1t6 1h-1q21 3 27 3q40 0 53.5 14t13.5 55v20l-1 1q0 48 -56 74q-32 14 -73 14q-43 0 -95 -4.5t-115 -14.5q-11 -2 -18 -3q-10 -1 -14 -2t-10 -4h1q-12 -5 -29 -15
q-3 -2 -5.5 -3.5t-4.5 -3.5l-14.5 -10l-16.5 -11h14q-5 -13 -5 -25q3 -29 19.5 -55.5t33.5 -37.5q16 -9 56 -9h11q9 0 13 1l123 6h-5h2q-5 0 -9.5 -0.5t-8.5 -0.5q-8 -1 -14.5 -1.5t-13.5 -0.5q-3 0 -6.5 -0.5t-7.5 -0.5q-11 -1 -25.5 -2l-14.5 -1q-30 -4 -49 -6
q-11 -2 -20 -3t-17 -3q-2 -1 -4 -1.5t-4 -1.5h-1q-20 -8 -32 -28t-12 -40q0 -50 42 -81q35 -28 81 -28q5 0 52 3q45 2 83.5 5t70.5 6q6 1 9 1h7t4.5 0.5t3.5 0.5h9q25 4 41 34q5 12 8.5 24t3.5 24z" />
    <glyph glyph-name="greater" unicode="&#x3e;" horiz-adv-x="417" 
d="M414 439q0 61 -77 108q-17 11 -36.5 25.5t-42.5 36.5l-12 12t-12 13q-3 3 -10 11l-15.5 17l-15.5 17t-10 11v-3q-72 72 -102 72q-16 0 -31 -7.5t-26 -20t-18 -28t-7 -31.5q0 -29 23 -63l-1 1q1 -2 2.5 -3.5t2.5 -3.5l16.5 -19t19.5 -21.5l18.5 -20t13.5 -14.5
q29 -31 50.5 -51t35.5 -31v1q14 -12 22 -17q4 -3 8.5 -7t9.5 -7q18 -18 20 -16q-1 -3 -12 -19l-31 -45l-1 -1l-12.5 -15.5t-8.5 -13.5q-8 -17 -22.5 -37t-34.5 -43l-42.5 -46.5t-24.5 -28.5v1q-4 -4 -8 -12l1 3q-31 -38 -31 -67q0 -14 3.5 -27t11.5 -24q11 -18 24 -25.5
t30 -7.5q33 0 71 41v-1q3 3 8 9.5l10 13.5h1l1 1q0 1 1 2q5 5 11.5 13.5l11.5 14.5q6 9 13 18.5l14 18.5l12 15l-1 -2q2 2 2.5 4t2.5 4q7 9 12.5 17.5t10.5 15.5t9 12t6 7q3 5 6 8.5t6 7.5l27 36l24 31q3 4 6.5 9.5t8.5 11.5q2 3 3.5 6t3.5 6v-3l9 15q7 10 10 15.5t9 17.5
h-2q25 50 25 82z" />
    <glyph glyph-name="question" unicode="?" 
d="M731 657q0 46 -31 87q-45 55 -105 67q-20 4 -48.5 6t-66.5 2q-62 0 -96 -7q-99 -13 -132 -25h1q-166 -47 -190 -126q0 -1 -0.5 -1.5t-0.5 -1.5l1 5q-2 -5 -2 -8v-8q0 -9 0.5 -22t4 -25t10 -21t18.5 -11q14 -14 35 -14q17 0 36.5 9.5t45.5 23.5q13 8 23.5 15.5t16.5 12.5
q5 2 3 4q29 10 46 19l20.5 9t27.5 6q34 5 59 7.5t42 2.5h2q115 0 115 -30l-2 -8l1 1q-17 -53 -141 -93q-13 -5 -23 -8t-22 -5l-41.5 -7t-53.5 -11q3 1 2 1t-4 -0.5t-6.5 -2t-5.5 -1.5l-12 -3h1q-10 -2 -14 -3q-6 -2 -13.5 -3.5t-12.5 -3.5q-2 -1 -5.5 -1.5t-7.5 -1.5h-2
q-28 -7 -48 -29.5t-28 -46.5v1q-3 -6 -4.5 -16t-2.5 -30v-1v-1q-1 -6 -1.5 -11.5t-0.5 -11.5v-21q0 -9 -0.5 -18t-1.5 -18q-1 -8 -1.5 -14.5t-0.5 -13.5q0 -21 8 -34t34 -15q8 -1 16 -1h14q22 0 35.5 3t21 10.5t10 19.5t2.5 29q0 9 1 21t3 27l5 10l1 1h-1q4 2 7.5 4t8.5 4
l-2 -1q13 2 16.5 2.5t12.5 2.5h-1q36 5 76.5 17.5t86.5 32.5q98 42 152 85q33 29 60 67l-1 -2q1 1 3 4t3 4v1q1 3 4 7t5 7.5t2.5 5t-1.5 -1.5q9 14 16 26t12 27l-1 1q5 12 6 22t1 19zM273 119q0 28 -24 51q-26 23 -63 23q-66 0 -93 -40l1 3q-8 -8 -14 -15t-8 -14h-1
q-5 -17 -7.5 -31.5t-2.5 -29.5q0 -70 73 -70q41 0 82 31q21 14 33.5 31t19.5 37q3 7 3.5 11.5t0.5 12.5z" />
    <glyph glyph-name="at" unicode="@" horiz-adv-x="935" 
d="M930 535v44q0 11 -1 16q-1 50 -28 96l-2 2v1q-14 29 -23 40l1 -1q-48 78 -154 125q-90 40 -191 40q-76 0 -163 -27q-100 -28 -153 -74v1q-21 -17 -42.5 -40.5t-44.5 -55.5q-129 -179 -129 -380q0 -45 6 -80t23 -64l10 -16.5t13 -17.5q5 -6 11.5 -15l12.5 -17q2 -2 3.5 -4
t3.5 -4q14 -17 25.5 -28.5t22.5 -19.5q109 -66 275 -66q25 0 45.5 9.5t35 26t22 38.5t7.5 46q0 38 -34 60q-21 11 -41 14q23 3 55 12q22 6 36 9.5t19 3.5l12 -4q1 0 1 -1v0l-2 1l4 -2q15 -8 29.5 -12.5t30.5 -4.5h9q50 0 78 8t51 22q78 48 125 139q21 42 30.5 87t10.5 93z
M391 183q-8 -1 -16.5 -1.5t-13.5 -0.5q-37 0 -97 18q-44 13 -70 72q-18 43 -18 82q0 9 1 18.5t5 20.5q66 314 326 317h39q17 0 32 -2t26 -5q60 -12 78 -25q44 -25 56 -40v1q11 -14 17 -38q7 -22 7 -55q0 -12 -6 -49q-2 -21 -11.5 -43.5t-26.5 -45.5l1 1q-18 -22 -34.5 -33.5
t-33.5 -11.5q-11 0 -11 41q0 44 9 92q1 6 3 16t7 23v-1q9 21 11 33.5t2 18.5q0 50 -60 76q-18 9 -36.5 12.5t-41.5 3.5q-19 0 -43.5 -5t-53.5 -16q-36 -11 -77 -39v2l-17.5 -12t-16.5 -14l-2 -2q-15 -16 -29 -34.5t-25 -41.5v1q-21 -35 -34 -69.5t-13 -67.5v-11q0 -5 1 -10
q8 -54 27.5 -87.5t44.5 -52.5t51.5 -26.5t48.5 -9.5h-6zM482 439q-2 -13 -3.5 -24t-3.5 -19q-1 -5 -2 -9.5t-2 -7.5q-2 -1 -3 -1t-3 -1q-14 -5 -26 -8.5t-20 -5.5q-10 2 -16 11.5t-6 20.5q0 29 40 65q31 28 53 35q-2 -11 -4 -24.5t-4 -32.5v1z" />
    <glyph glyph-name="A" unicode="A" horiz-adv-x="628" 
d="M453 93l10 -51q5 -26 12 -40.5t17.5 -22.5t24.5 -11.5t33 -6.5q9 0 18.5 2t22.5 8h-1q23 8 32.5 28t9.5 41q0 16 -7 32l-1 3l2 -5q-84 603 -130 621h-2h2q-7 2 -12 3l-10 2v4q-57 -9 -90 -21t-53 -28.5t-31.5 -38l-24.5 -47.5l-22.5 -44t-27.5 -47l-55 -89.5l-60 -101.5
l-57.5 -103t-47.5 -94q-8 -18 -11.5 -32.5t-3.5 -34.5v-13q0 -15 7 -27t18 -20.5t24 -13t26 -4.5q31 0 55 12.5t41 48.5q5 12 10 22.5l9 19.5q10 23 18 38.5t20 28.5h10h1q0 1 2 1q12 1 26 1.5t29 1.5l84.5 4t67.5 2h7l3 -2h1zM278 246l120 199l24 -197l-2 -2h-142z" />
    <glyph glyph-name="B" unicode="B" horiz-adv-x="674" 
d="M654 393q17 16 27 34t13 34q3 12 3 29q0 34 -20.5 63t-53.5 51t-74.5 36.5t-84.5 19.5q-32 5 -71 8t-82 3q-17 0 -34 -1t-32 -3q-58 -2 -92 -60v1q-12 -20 -17 -32.5t-6 -20.5v1l-49 -189.5l-33 -130l-20.5 -83t-11 -47.5t-4 -24t-0.5 -13q0 -11 1 -15v-1q1 -23 6 -41
t18 -25l13 -14l6 -1q29 -22 56.5 -28.5t54.5 -6.5h10q48 0 112 11t127.5 33t120 55.5t91.5 78.5q23 31 23 61q0 15 -6 31t-19 30l1 -1q-40 56 -101 82q35 14 68 31.5t60 43.5zM360 239q75 0 119 -28q3 -2 4.5 -5t3.5 -6q-6 -23 -34.5 -45t-65.5 -41t-76.5 -33.5t-68.5 -23.5
q-6 -2 -17.5 -4t-28.5 -2h-13l3 22v-2l39 150q73 18 135 18zM316 517l-1 -3l9 9q51 14 112 14q57 -5 81 -16.5t24 -26.5q0 -21 -26 -44.5t-66.5 -43t-89 -33t-93.5 -13.5l-3 2l16.5 66t12 41t11 26t13.5 22zM488 203v-1q0 -1 -1 -1v0v4v-1q1 0 1 -1z" />
    <glyph glyph-name="C" unicode="C" horiz-adv-x="610" 
d="M517 487q19 -11 30 -16.5t16.5 -8t8.5 -3t6 -0.5q29 13 45.5 33t16.5 36q0 4 -1 8v9q-8 30 -32 51.5t-61 40.5q-28 15 -49 24.5t-37.5 15t-31 8t-29.5 2.5q-16 0 -39.5 -4t-55.5 -14q-63 -39 -117 -90.5t-95.5 -113.5t-68 -132.5t-34.5 -146.5v-15q0 -9 1 -13
q2 -28 7 -48t16 -40l23 -27l-1 1q19 -26 43.5 -43.5t51.5 -29t56.5 -19t58.5 -11.5l32.5 -4t36.5 -2q39 0 73 6.5t65.5 19.5t62 32t62.5 43q19 16 27 26t14 21l-20 5h22q0 64 -57 64h-4q-2 0 -27 -9t-57 -27v2q-26 -14 -57 -28t-82 -28q-3 -1 -10.5 -1.5t-21.5 -0.5t-37 4.5
t-65 21.5q-17 17 -30.5 36t-18.5 44v9q0 10 1 13q6 57 30 105q27 53 59.5 103.5t70.5 85.5q26 28 55.5 47t61.5 20z" />
    <glyph glyph-name="D" unicode="D" horiz-adv-x="666" 
d="M129 -54q23 0 42 2t33 5l6 -6l14 11q64 5 123.5 26.5t111.5 54.5t95.5 75t74 89t47.5 97t17 98q0 49 -18.5 94t-58.5 81.5t-103.5 62.5t-152.5 37q-26 7 -62 8.5t-81 1.5l-73 -12q-41 -106 -46 -133v-7q-19 -68 -34 -127.5t-27.5 -116.5t-22 -114t-17.5 -121v-23l2 -2
q4 -28 29 -47zM495 511h-1q36 -27 49 -49.5t15 -40.5l1 -7q-2 -38 -27.5 -81.5t-68 -86.5t-98.5 -82t-119 -68q-6 -4 -27.5 -12t-47.5 -16l-3 3q3 30 11 70.5t18 85t22.5 90.5l24.5 88l23 78l18 59q85 0 135.5 -7t74.5 -24zM169 69l1 -1z" />
    <glyph glyph-name="E" unicode="E" horiz-adv-x="649" 
d="M-6 15l40 -25.5t8 -5l-6 3t-2 0.5q20 -16 39 -28.5t35 -12.5q24 0 42.5 2.5t40.5 6.5q5 1 11 2t13 2h2l309 44q24 2 35 6t15 8q8 8 11.5 16t3.5 23q0 4 -0.5 10t-2.5 24h-13q-12 8 -29 12t-34 6q-5 0 -9 1q-15 0 -27.5 -1t-23.5 -3q-12 -2 -23.5 -3t-22.5 -1h-7
q-2 0 -3.5 0.5t-3.5 0.5h-7t-12 -1h1q-14 -1 -31 -2.5t-28 -1.5q-9 -1 -19 -1q-9 0 -19 -1q-27 -2 -54 -3.5t-52 -4.5l-2 1q2 14 6.5 38t10.5 50l11.5 49t9.5 35h14q7 -1 13 -1h12h21q16 0 33 0.5t38.5 2t50.5 4t71 6.5q5 0 15.5 0.5t21.5 1.5q10 1 18 1.5t11 0.5
q18 2 28.5 8t15.5 14.5t6.5 18t1.5 18.5v23q-3 14 -12.5 22t-22.5 12t-29 5t-33 1h-112h-70t-59 3l-1 1q2 9 6.5 26l10 37.5l11.5 41l11 36.5q7 1 11 1q5 0 9 1q7 1 13 1.5t17 0.5h40l189 8h37q8 0 12 0.5t8 3.5h-3q30 8 40.5 21t10.5 27v13q-6 13 -13.5 21t-18 12.5
t-26.5 7t-39 4.5q-14 1 -30 1.5t-33 1.5q-25 1 -51.5 2.5t-51.5 2.5t-47.5 1.5t-38.5 0.5h-78h-19q-10 0 -21 1q-32 0 -50.5 -3.5t-29.5 -15t-17 -32.5t-14 -56z" />
    <glyph glyph-name="F" unicode="F" horiz-adv-x="551" 
d="M496 274v3q0 1 0.5 2t0.5 2q0 15 -8 23t-26 12.5t-48 5.5t-73 1h-131q6 31 14 67l15 67l12 52t7 22l6 6q21 5 54.5 8t91.5 3h44t52 -1h6q14 -1 26.5 -1.5t21.5 -0.5q33 0 48.5 10t15.5 41l-2 43v10q-14 14 -34.5 18t-44.5 4q-7 0 -13.5 -0.5t-13.5 -0.5h-26h-125h-72
q-25 0 -36 -0.5t-20 -0.5t-21.5 -0.5t-41.5 -0.5q-4 1 -9 1h-9q-21 0 -34.5 -8t-21.5 -21.5t-13 -31.5t-9 -37q-1 -5 -2 -8.5t-2 -7.5l-44 -216.5l-29.5 -147l-18 -91.5t-9.5 -50t-3.5 -22t-0.5 -8v-13q3 -14 9 -26t30 -29q10 -6 22 -9t40 -3q17 5 29 21t21 37.5t15.5 47.5
l12.5 51q6 29 13 53.5t16 35.5v1l1 1l1 1h184q6 0 11.5 -0.5t10.5 -0.5h18q25 0 44.5 6.5t34.5 28.5z" />
    <glyph glyph-name="G" unicode="G" horiz-adv-x="665" 
d="M659 490l-9 54q-3 15 -21 41t-45.5 51.5t-61.5 45t-70 21.5h-24q-21 0 -45 -2.5t-35 -7.5l1 1q-1 0 -1 -1v0q-1 0 -1.5 -0.5t-1.5 -0.5l3 1q-60 -17 -110 -52.5t-90.5 -82t-71.5 -100t-52 -107t-31.5 -103t-10.5 -86.5q0 -15 1.5 -26.5t3.5 -20.5l13 -42q6 -17 14 -30.5
t20.5 -24.5t29.5 -21t41 -20q4 -2 10 -4h1q6 -2 10 -3h1v21l-26 -11q2 -2 4 -3t4.5 -2t5.5 -2h1q2 -2 5 -2.5t6 -2.5v2l13 -4.5t9 -3.5h1q30 -8 58 -12t53 -4q53 0 99 11.5t75 25.5q36 13 77 40t76.5 59t58.5 65.5t23 61.5l-1 4v-2q-1 5 -1 8v8q0 17 -5.5 33.5t-28.5 30.5
q-18 10 -47 11.5t-60 1.5h-37q-52 0 -107 -5t-93 -12l3 10q-44 -19 -64.5 -39.5t-20.5 -36.5q0 -15 8 -26t27 -12q17 -10 39 -13.5t48 -3.5q87 18 127 18q37 0 37 -7q0 -10 -15 -23.5t-38.5 -26.5t-53 -24t-58.5 -17q-23 -8 -50 -11.5t-48 -3.5q-14 0 -15 -4l-11 11h-8l-4 3
l-24.5 18.5t-15.5 25.5q-10 3 -13.5 15.5t-3.5 29.5q0 23 4 45t12 33q40 88 75 147t70 94t71.5 50t80.5 16h3q20 0 41 -17.5t41 -36.5h-1q17 -17 33 -30t33 -13h7z" />
    <glyph glyph-name="H" unicode="H" horiz-adv-x="695" 
d="M416 2q12 -18 33.5 -32.5t41.5 -14.5q15 0 26 7q18 1 30.5 11t21.5 23.5t14 29.5t8 31l4 15v11l83 445q4 10 7.5 20.5t7 25t7 35t6.5 51.5q-6 56 -75 58h-7q-73 0 -79 -44q-14 -38 -30.5 -104t-36.5 -157q-7 -28 -13.5 -57t-14.5 -61l-3 -1l-231 -4q4 23 12 55.5
t18.5 66.5t22.5 66t24 54l-1 -2q17 25 17 43q0 19 -12.5 37.5t-35.5 25.5h2q-17 7 -52 7q-3 0 -6 -0.5t-7 -0.5l-2 8l-21 -12q-20 -4 -32.5 -13.5t-20 -23t-11.5 -31t-8 -37.5l-51 -243.5l-32 -156.5t-16.5 -90t-4.5 -44q0 -17 4.5 -25t10.5 -13q15 -13 34 -19t40 -6h5
q1 0 1 1h1t3 0.5t4 0.5q8 1 17 3.5t17.5 8.5t14.5 18t8 32v-1q4 18 7.5 36t8.5 37l8 37.5t9 37.5l-1 -1l4 12q1 3 1 6t2 7l2 1q24 1 55 2l62.5 2l60.5 2t50 1l2 -2q-3 -17 -3.5 -25.5t-1.5 -19.5q0 -2 -0.5 -8.5t-1.5 -14.5z" />
    <glyph glyph-name="I" unicode="I" horiz-adv-x="278" 
d="M97 -42h21q2 3 6 8.5t6 7.5v-1q6 8 9 13.5t5 10.5t3.5 11t3.5 17q0 1 4 20.5t11.5 51l16.5 72.5l19.5 85l20.5 87.5l19 80.5q4 21 8 34.5t8 25.5q3 10 7 20t6 19l-1 -1q8 21 11 38.5t8 36.5q1 5 2 9t2 9q0 17 -7.5 32t-19.5 26.5t-28.5 18.5t-34.5 7h-8q-10 7 -21 7
q-24 0 -45.5 -45t-43 -131t-45 -211.5l-51.5 -286.5q5 -25 20 -40l1 -1l9 21v-25q-2 0 2 -2h-4z" />
    <glyph glyph-name="J" unicode="J" horiz-adv-x="548" 
d="M441 691q-14 -3 -24 -11t-19 -28t-18 -55t-19.5 -89.5t-23 -132.5l-30.5 -184v-8q0 -15 -6.5 -34t-18 -35.5t-26.5 -28t-33 -11.5q-17 0 -37 16l-20 14t-15 11q-25 20 -52 38.5t-54 18.5q-23 0 -41 -16t-28 -55v-6q0 -29 21 -55.5t54 -34.5q110 -59 204 -59q46 0 86 15
t70 45t49 76t25 108v-2q5 27 10 51l9 45l5.5 31t5.5 28q7 45 15 82l17 75q7 28 13.5 58.5t13.5 67.5q0 38 -16 48q-19 11 -37.5 17t-35.5 6q-10 0 -13.5 -0.5t-7.5 -1.5h-5z" />
    <glyph glyph-name="K" unicode="K" horiz-adv-x="631" 
d="M252 466q1 13 4.5 27.5t8.5 30.5l11.5 42t5.5 43v5q0 14 -8 27t-20.5 22.5t-28 15.5t-30.5 6q-2 0 -3 -0.5t-2 -0.5h-10q-38 0 -62 -23.5t-24 -65.5v-7l-33.5 -149l-24.5 -115l-22 -100l-25 -114q-2 -11 -3 -19t-3 -14q-3 -12 -4.5 -22.5t-3.5 -35.5v-12q4 -26 17 -39
q21 -12 35 -15.5t27 -3.5h15q19 3 31.5 10t24.5 31t26 72.5t37 135.5q9 -6 25 -19t37 -33l22 -18q8 -8 16 -14.5l16 -13.5q7 -6 13 -12.5t12 -11.5q36 -30 60 -54q28 -28 54 -47.5t67 -29.5q55 24 55 65q0 19 -13.5 42t-37 49.5t-56.5 57l-72 65.5l-18.5 17t-19.5 17
l-24.5 21t-31.5 30q7 8 25 21l40 28l43.5 29l36.5 23l13.5 9t9.5 7l9.5 9.5t7.5 6.5l192 139l-1 -1q1 1 0 1l2 1q20 14 32.5 27t12.5 35q-2 14 -9.5 25t-19 19t-25 12t-25.5 4q-20 0 -36.5 -10.5t-45.5 -33.5l-21 -17l-15 -12l-33.5 -25l-20 -14l-12.5 -8.5t-12 -7.5
l-10.5 -6t-13.5 -8l-168 -117q2 8 2.5 13.5t1.5 7.5z" />
    <glyph glyph-name="L" unicode="L" horiz-adv-x="499" 
d="M162 98v4l102 341l5 5q3 9 7.5 21l8.5 22q11 28 20 56.5t9 52.5q0 29 -16.5 48t-61.5 19q-18 0 -37 -3h1q-42 -3 -63 -15.5t-28 -46.5v-1q-8 -12 -10 -25.5t-2 -28.5l-17.5 -70.5t-13.5 -58l-12 -55.5t-13 -64l-15.5 -72.5l-19.5 -95.5l-2 -10.5t-3 -12.5l-8 -41.5
t-4 -41.5q2 -20 5.5 -33t13.5 -23v-6q27 -15 44.5 -19t35.5 -4q50 8 90 12.5l75 8.5q13 2 25 2.5t24 2.5q48 5 96 12.5t105 22.5q8 13 10.5 21.5t2.5 19.5q0 27 -17 43t-37 16q-6 0 -10 -1q-26 -2 -42 -3q-27 -2 -43 -3t-38 -5h2q-5 -1 -10 -1t-10 -1l-34.5 -3.5l-29.5 -3
t-35 -3t-51 -2.5l-3 1v4z" />
    <glyph glyph-name="M" unicode="M" horiz-adv-x="833" 
d="M135 14v3l113 306q0 -17 0.5 -31.5t0.5 -26.5v-93q-1 -10 -1.5 -23t-0.5 -27q0 -23 2.5 -46.5t10.5 -43t21.5 -31.5t36.5 -12h4q14 0 35 9h-1q20 8 34.5 17t15.5 10q11 17 28.5 50.5l39.5 75.5l32 63t33.5 60t31 49t24.5 29q-8 -34 -13.5 -62t-9 -52.5t-5.5 -48t-2 -49.5
q-1 -3 -1.5 -17t-0.5 -31v-20q0 -10 2 -18v2q3 -23 9 -39.5t20 -29.5h-1l8 -8q17 -10 33.5 -14t33.5 -4q11 0 23 3h-3q19 1 29 5.5t15 10.5t6 14.5t1 18.5v22q0 73 9.5 141.5t28 136t45.5 137t61 145.5v9q0 21 -12.5 39t-32 32t-44 23t-47.5 12q-25 0 -45 -12t-37 -29
q-2 -2 -3 -2.5t-2 -2.5q-6 -6 -11 -12t-10 -11l1 -1q-3 -4 -5 -7l-2 -3l4 11q-5 -5 -5 -7q-2 -4 -2 -5q-20 -21 -46 -53.5t-56 -74.5l-63.5 -93t-67.5 -109q1 43 2.5 72.5t3 53t4 43t6.5 43.5q3 7 6.5 19.5t6 25.5t4.5 25t2 20q-4 19 -17.5 30t-31.5 17t-37 8.5t-34 3.5h-13
q-9 0 -13 -1q-44 -3 -66.5 -22t-39.5 -50q-8 -18 -12.5 -30t-9.5 -24q-6 -14 -11 -27l-10 -27v1l-28 -68l-31.5 -81l-40 -108l-53.5 -149h1l-10.5 -33t-5.5 -32v-5q1 -34 20 -51.5t45 -17.5h23q23 0 35 8z" />
    <glyph glyph-name="N" unicode="N" horiz-adv-x="668" 
d="M615 690q-21 -4 -35.5 -15t-24.5 -26.5t-16 -33.5t-9 -36l-3.5 -17.5t-10 -46.5l-15.5 -66l-19 -76.5l-20.5 -78.5t-20.5 -71q-30 72 -48 134.5t-29 131.5q-3 6 -3.5 16t-0.5 22v16q0 19 -1.5 39.5t-8 38t-19.5 28.5t-35 13q-58 -3 -91.5 -13.5t-52 -28t-26.5 -42
t-14 -55.5v1q-4 -14 -6.5 -27.5t-6.5 -26.5l-13 -45l-27 -107.5l-22 -85.5l-28.5 -112l-16 -62.5t-6.5 -30t-1 -14.5v-8q0 -17 8 -31.5t20 -25t27.5 -16t30.5 -5.5q26 0 45.5 13.5t23.5 47.5v5q6 18 18.5 60.5t26.5 95l28 109t22 101.5q19 -65 39 -119.5t39.5 -97t36 -71
t28.5 -39.5q26 -33 51 -48t48 -15q28 0 48.5 18t31.5 48l22.5 71t15.5 49l11 34.5t6.5 21t4.5 16l5 19.5q2 13 6.5 31l9.5 36.5t10 35l8 26.5v-2q3 6 8.5 22.5t12 40t12.5 50.5t9 53q8 19 14 41.5t6 44.5q0 15 -4.5 28.5t-15.5 24.5z" />
    <glyph glyph-name="O" unicode="O" 
d="M455 672q-70 -8 -120.5 -20t-82.5 -30l-40.5 -24t-25.5 -15q-1 -1 -2 -1.5t-2 -1.5l2 1q-45 -33 -82 -76.5t-62.5 -91.5t-39.5 -98.5t-14 -97.5v-15q0 -11 1 -16v1q2 -20 10 -44.5t31 -61.5h-1l10 -15.5l10 -14.5q2 -3 4 -5.5t4 -5.5v2q34 -39 82 -60.5t117 -32.5h-2
q22 -5 43 -6.5t46 -1.5q69 0 125 14.5t98 46.5q47 41 81 88.5t56.5 98.5t33.5 102.5t11 100.5v22q0 7 -0.5 13t-1.5 11q-2 20 -7 40.5t-15 40.5q-22 41 -47 69t-51.5 45.5t-52 26.5t-47.5 12h-69zM488 558q27 0 50 -16l-1 1q22 -16 33.5 -47.5t16.5 -63.5v1q1 -8 1.5 -16
t0.5 -16q0 -35 -7.5 -74t-23.5 -77.5t-40 -74t-56.5 -63t-74 -44.5t-91.5 -19q-10 0 -26.5 6.5t-33.5 14.5q-35 11 -53.5 38t-20.5 62h-1q1 31 11 68.5t28 77t42.5 77.5t55.5 70t67 55.5t76 32.5q10 3 21.5 5t25.5 2z" />
    <glyph glyph-name="P" unicode="P" horiz-adv-x="608" 
d="M404 250q101 45 158 97.5t57 127.5q-6 56 -34 93t-90 66q-23 10 -56.5 19.5t-71.5 17t-78 12t-75 5.5h-3q-27 0 -46 -8.5t-34 -22.5q-26 -27 -36 -55t-17 -62v1q-1 -3 -1 -4l-1 -3q-4 -23 -9.5 -51.5l-10.5 -53.5l-15 -76t-15 -74t-15 -73.5l-15 -75.5q-6 -26 -11 -56
t-7 -58v-7q0 -10 10 -21.5t25 -22t32.5 -17.5t31.5 -7q5 0 9 0.5t10 3.5l-3 -2q18 4 28.5 8.5t16.5 12t9 19t5 29.5q0 25 6 49l26 131h1q75 10 125 23.5t94 34.5zM215 361q1 5 2 11l2 12q14 78 24.5 127t21.5 49q18 0 40.5 -2t46.5 -6t47 -11t40 -16q3 -5 8 -6q4 -2 6 -2
q22 -24 22 -41q0 -20 -19.5 -39.5t-53 -38.5t-77 -37.5t-91.5 -36.5l2 1l-26 -6l-2 2q2 11 3.5 20.5t3.5 19.5z" />
    <glyph glyph-name="Q" unicode="Q" horiz-adv-x="728" 
d="M734 379q0 5 -1 22t-4.5 40t-11.5 50t-23 52q-31 52 -72 81.5t-109 42.5l-16 2t-14 2h1q-11 2 -22.5 3.5t-26.5 1.5q-48 0 -99 -16t-98.5 -43t-87.5 -63.5t-66 -78.5q-48 -75 -68.5 -148t-20.5 -135q0 -3 0.5 -6t0.5 -6v-12q2 -22 7.5 -44.5t18 -44.5t34.5 -43t57 -40
q55 -29 98.5 -40t84.5 -11q22 0 38 0.5t28 2t23 4t23 6.5l35 12q9 -4 17.5 -10.5l18.5 -13.5h-1l9 -7l9 -7q1 0 2 -1l20.5 -16t27.5 -19t30.5 -15.5t30.5 -6.5q23 0 44 22q3 7 7 19.5t4 28.5v1q1 0 1 1v-4q1 3 1 7v8q0 16 -7.5 27t-19.5 19.5t-26.5 14l-28.5 10.5q-5 1 -9 3
l-8 4q14 9 33 26.5l47 45.5h-5q48 57 71 130t23 142zM405 136q-1 7 -9 8l-23 23v-14q-18 8 -36 14.5t-35 7.5q-3 1 -9 1q-11 0 -23 -6t-22.5 -16t-17.5 -22t-7 -24q0 -23 21 -36q2 -2 3 -2.5t6 -2.5q14 -8 24 -11l6 -3h-26q-30 0 -51.5 18.5t-36 44t-21 53.5t-6.5 48
q0 48 21.5 95.5t56 90.5t78 80t87.5 65l-3 -1q16 6 40 11.5t51 5.5q12 0 27 -3l-1 1q34 -11 50.5 -43.5t19.5 -70.5q1 -8 1.5 -17t0.5 -18q0 -33 -6.5 -69.5t-18.5 -71t-29.5 -65t-40.5 -53.5h1l-37 -34q-7 2 -15.5 6t-19.5 10z" />
    <glyph glyph-name="R" unicode="R" horiz-adv-x="631" 
d="M641 511q-2 16 -7.5 28.5t-16 24t-25 23t-34.5 25.5q-80 37 -149 48t-134 11q-5 0 -11 -0.5t-11 -0.5q-24 -2 -48 -4.5t-44 -14.5v10q-5 -6 -9 -11.5l-8 -10.5q-4 -4 -10 -12l2 -1q-17 -26 -25.5 -46.5l-10.5 -25.5l-16.5 -78t-15.5 -69l-34 -153l-23 -105.5l-14.5 -67
t-8 -38t-3 -19.5t-0.5 -10v-9q1 -30 39 -55l-1 1q7 -5 23.5 -14t27.5 -9h2q22 0 36 16.5t15 41.5q5 11 12.5 31.5l18.5 48.5l21 57.5t21 53.5q9 -8 17.5 -14.5t16.5 -13.5l21 -19.5t21 -17.5l8 -8l-1 2h1q2 -3 5.5 -6.5t11.5 -8.5l-2 1q49 -48 97.5 -84t113.5 -64
q22 8 38 16t20 29q21 9 21 27q0 20 -29.5 44t-71.5 55l-82.5 61t-71.5 67l2 2q50 14 101.5 35.5t95 49.5t74 61.5t39.5 70.5zM246 366q-16 -13 -20 -13q1 0 1 12q0 17 5 41t12 50t14.5 50t13.5 41q2 5 2.5 8.5t1.5 6.5q20 0 43.5 -1.5t47 -4.5t45 -9t37.5 -15l5 -5
q2 -2 6.5 -6l4.5 -4l16.5 -16.5t10.5 -14.5q-1 -3 -4 -10.5t-8 -16.5l-35 -40h-1q-25 -15 -47.5 -24t-45.5 -15t-48.5 -9t-56.5 -5z" />
    <glyph glyph-name="S" unicode="S" horiz-adv-x="649" 
d="M308 619l1 1q-60 -28 -105.5 -66.5t-65.5 -76.5q-17 -32 -28 -58.5t-11 -52.5q1 -27 13.5 -52t32 -47.5t43.5 -40t48 -29.5q8 -4 14 -6.5t10 -5.5q18 -9 35 -13.5t35 -8.5q29 -7 56 -14.5t33 -15.5q14 -7 18.5 -11t5.5 -7v-4q0 -7 -5 -13t-12 -10.5t-14.5 -7.5t-12.5 -4
q-3 -2 -15 -3.5t-26 -2l-27.5 -1t-19.5 -0.5q-11 0 -21.5 1t-22.5 3t-27 5.5l-35 8.5l3 -2q-26 14 -48.5 31.5t-39.5 42.5q-7 11 -15 21t-22 19v12q-11 -2 -20.5 -4t-10.5 -2q-14 -1 -28 -3.5t-25 -12.5q-23 -29 -23 -55q0 -24 16 -47t43 -44.5t62.5 -39.5t74.5 -31.5
t78 -21t74 -7.5q9 0 17.5 0.5t16.5 1.5q23 0 41.5 4.5t35.5 9.5q5 2 10 3t10 3q41 15 71 35t53 46q21 24 30 48t9 27q0 1 -0.5 4t-0.5 5q-2 16 -5 27q-16 35 -52.5 65t-98.5 42l2 -1l-29 10l-30 10h1l-35.5 11.5t-42.5 16.5q-4 2 -7.5 2.5t-6.5 0.5q-21 1 -33 19.5t-12 41.5
q0 21 11 38q20 33 54.5 61.5t76.5 42.5h3q14 0 31.5 -1.5t35 -5.5t34 -11.5t29.5 -20.5q25 -20 41.5 -30.5t27.5 -12.5h8q35 0 48 17.5t13 44.5q0 8 -1 17t-4 16v-1q-8 22 -24.5 33.5t-51.5 30.5q-40 21 -76.5 37t-84.5 21q-10 0 -14 -1q-25 -1 -49.5 -6.5t-47.5 -14.5z" />
    <glyph glyph-name="T" unicode="T" horiz-adv-x="583" 
d="M612 551q23 8 34 24.5t11 34.5q0 27 -22.5 51t-62.5 24q-14 0 -27 -3h3q-7 0 -14.5 0.5t-16.5 0.5q-13 1 -28 1h-29h-16h-10t-9 -1q-7 0 -28.5 -1t-46.5 -2l-48.5 -2t-33.5 -2h-77q-19 0 -32 0.5t-23 0.5h-35h-14q-6 0 -15 -1q-11 -1 -26.5 -2t-36.5 -2q-23 -3 -31.5 -19
t-8.5 -36q0 -17 7 -37t16 -37q23 -6 41.5 -8t43.5 -2h105v-1l-42 -209.5l-28.5 -142l-18 -88t-10 -47t-5 -20t-2.5 -6.5q0 -8 1.5 -14.5t6.5 -15.5t15 -22.5t28 -34.5v19q11 -4 28 -4q13 0 26.5 3t24 9.5t17 17.5t6.5 27v4l48 217l31 141l16 77.5t11 45t9.5 26.5t12.5 22z
" />
    <glyph glyph-name="U" unicode="U" horiz-adv-x="634" 
d="M467 521q-1 -4 -1 -8t-1 -8l-10.5 -59.5t-19.5 -85.5q-8 -33 -17.5 -67.5t-19.5 -66t-20 -56.5t-19 -38l-37 -49l-2 -3q-11 -7 -24.5 -11t-26 -6t-23 -2.5t-15.5 -0.5h-5q-6 0 -17 3.5t-22.5 10t-19.5 17t-8 25.5q0 2 1 6q0 26 6 56t17 67l31.5 105l23 74l15.5 48.5
t10 29.5l6.5 17.5t3.5 11.5t1.5 11t1.5 15q1 7 1 15q0 9 2 23v4q0 14 -10 27t-24.5 23.5t-31 18.5t-29.5 11q-17 0 -31.5 -6.5t-30.5 -24.5v7q-4 -6 -7 -12t-6 -11q-8 -9 -15 -21l-2 -10h1q-7 -16 -11 -30.5l-8 -30.5h1q-5 -19 -10 -35t-10 -30q-15 -48 -23.5 -77.5
t-14 -52.5t-9.5 -45t-9 -56q-3 -18 -5 -37t-2 -39q0 -42 13.5 -81t51.5 -71l7 -3q47 -37 84.5 -52t80.5 -15q5 1 12 1h19q5 0 11 -0.5t11 -0.5h15v1h1q72 0 121 37.5t82.5 96.5t55.5 131.5t39 141.5h-1q17 61 31.5 128t21.5 127q0 22 -1 36.5t-6 34.5q-6 9 -17 16.5
t-23.5 13t-25.5 8t-22 2.5q-8 0 -16 -4t-15 -9t-12.5 -10t-7.5 -7z" />
    <glyph glyph-name="V" unicode="V" horiz-adv-x="660" 
d="M53 57q3 -12 7.5 -27t12 -30t18 -28t26.5 -22q25 -5 57 -5q30 0 60.5 5.5t55 17t40.5 29.5t16 44l93.5 177.5l68.5 122l49 81.5l36 56l14 21q4 8 13 19.5l20 25.5q18 23 35 48.5t24 46.5q0 10 -4 22t-11.5 22.5t-18 18t-22.5 8.5q-9 3 -22 3q-14 0 -29.5 -2.5t-21.5 -8.5
l2 1q-29 -21 -63 -65t-70 -99t-71.5 -115.5l-67.5 -115.5l-45.5 -79t-35.5 -59q-2 11 -5 22.5t-5 23.5q-2 20 -3.5 39t-1.5 36v68q0 47 4 78t9 54q5 25 6.5 50.5t1.5 44.5q-5 33 -33 48.5t-57 15.5h-21h-8t-8 -2l2 1q-38 -8 -53.5 -38t-22.5 -78q-2 -18 -3.5 -47t-1.5 -66
q0 -43 2.5 -92.5t8.5 -109.5z" />
    <glyph glyph-name="W" unicode="W" horiz-adv-x="877" 
d="M82 -50v13q14 -7 31 -7q14 0 31 5q8 -2 15 -2q17 0 30.5 10.5t25.5 30.5t24 49l26 66v-1l12 31.5t13 33.5v-1l21 49.5l15.5 35t11.5 23.5t10 16q2 -20 3 -31.5t2 -17.5t1.5 -8.5t0.5 -4.5v1q1 -4 2 -10t3 -23q1 -4 1 -7t1 -7v1l7.5 -40.5t7.5 -36.5v2q3 -20 9.5 -44.5
t17 -48.5t26 -44.5t36.5 -30.5q17 -6 33.5 -8t28.5 -2q19 0 31.5 0.5t27.5 5.5q14 5 22.5 9.5t14.5 10.5t10 14.5t9 21.5l22 53.5l21 52.5l25 64.5t36.5 88l56 125.5l83.5 177v2q8 14 12 24.5t7 20.5h17q-26 40 -48.5 56t-45.5 16q-11 0 -20 -1.5t-18 -3.5q-24 -2 -47 -26
t-46.5 -65.5t-48.5 -98l-53 -123.5l-28 -65l-28 -63q-4 -8 -7 -17q-3 30 -5 52t-3 38.5t-1 30.5v30v60v36q0 14 -0.5 20t-0.5 9q-1 13 -5 23.5t-16 18.5q-12 7 -25.5 12t-26.5 8t-24 4.5t-17 1.5q-42 -6 -73.5 -36.5t-56.5 -68.5h1l-20 -31.5l-17.5 -28.5t-17 -30l-19.5 -35
l-9 -15q4 61 9 96t10 60h1q1 3 1.5 8.5t1.5 7.5q1 9 2.5 17.5t2 19t1.5 24.5t3 34q-2 16 -10.5 28t-21 19.5t-27.5 11t-30 3.5q-20 0 -31 -5q-24 -2 -38 -9t-21 -19t-10.5 -29.5t-6.5 -41.5v-2q-9 -57 -14.5 -130.5t-5.5 -156.5q1 -51 2.5 -107t6.5 -113q3 -17 9.5 -32.5
t23.5 -26.5z" />
    <glyph glyph-name="X" unicode="X" horiz-adv-x="631" 
d="M199 644h-9q-9 0 -23 -1.5t-29 -3.5t-29 -6t-23 -8l1 1q-17 -8 -23 -22t-6 -29q0 -25 10 -45l5 -4l16 -32.5l25 -53l30 -67t30 -75.5l-1 -3l-15.5 -19l-14.5 -18l-63 -78.5l-45.5 -58.5l-41.5 -55.5l-51 -70.5q3 -37 56 -48q2 0 5 -0.5t5 -0.5t3 -0.5t3 -0.5h11
q30 0 63 18l54.5 62l42.5 50q8 9 14 16.5l12 14.5q5 7 11 13.5t11 12.5v-1q7 7 13 14.5t11 15.5q13 -21 33.5 -51t43 -58.5t45 -52.5t40.5 -33v-4l24.5 -3.5t19.5 -1.5q23 0 40 7q24 4 34.5 15.5t10.5 25.5q-2 23 -17.5 42.5t-33.5 39.5q-13 14 -23.5 27.5t-15.5 27.5
l-19 29t-18 32t-18 40.5t-19 53.5v1l16.5 18t10.5 12q18 20 29 33.5l18 21.5v-1l9 9q5 2 6 9q5 7 13.5 15.5l23.5 23.5l17.5 18l23.5 24l38 39l28 27.5l21 19.5l18 16l36 33q8 10 8 22t-10 24.5t-24.5 22t-31 15.5t-29.5 6h-4q-12 0 -25 -4.5t-28.5 -15.5t-34.5 -31.5
t-42 -51.5l1 1l-154 -158l-1 -1l-2 1q-17 26 -29 52.5l-23 50.5q-13 29 -24.5 51.5t-28.5 39.5zM468 394l0.5 0.5t0.5 1.5v-1z" />
    <glyph glyph-name="Y" unicode="Y" horiz-adv-x="576" 
d="M598 674q-8 15 -28 23.5t-42 8.5q-35 0 -60 -27l-121 -133t-113 -136q-8 14 -15 32.5l-15 40.5q-21 53 -45.5 102t-56.5 74q-11 3 -22 4.5t-19 1.5q-17 0 -34 -2.5t-28 -11.5h1q-14 -9 -18 -21.5t-4 -28.5v-5q0 -18 7 -36t16 -35q14 -21 28.5 -55.5t28 -72t23.5 -73.5
t15 -60l-41 -238q1 -31 33 -52l10 -10q51 -19 77 -19q19 0 30.5 7t19 22t12.5 38.5t11 56.5l14 71.5t22 92.5q3 15 5.5 26t6.5 20.5t10 19.5t16 23q36 53 92.5 117t145.5 147q4 2 5.5 3.5l3.5 3.5l-2 -1q11 9 26 23t15 32v19q-1 0 -1 -9z" />
    <glyph glyph-name="Z" unicode="Z" horiz-adv-x="730" 
d="M616 447l43.5 40t43.5 44.5t33.5 45.5t13.5 43q0 25 -22 42.5t-77 22.5q-22 0 -52 -3h1q-5 0 -22 -0.5t-36 -1.5t-34.5 -1.5t-20.5 -0.5h-56q-13 0 -33 -1t-59 -5q-96 -6 -154.5 -13t-91 -15.5t-43.5 -19.5t-11 -25q0 -5 0.5 -9.5t2.5 -8.5v-6q0 -16 3.5 -34t21.5 -26
q17 -13 30.5 -17t30.5 -4q9 0 21.5 1t26.5 3q9 0 31 2t49.5 5t58 7t56.5 8l-2 -2q2 0 11.5 1.5t20.5 3.5t20.5 3.5t11.5 1.5q16 3 29 3q5 0 13 -2l-401 -367q-14 -13 -27.5 -27.5t-25 -30.5t-18.5 -33t-7 -35v-2q-2 -8 -3.5 -15t-1.5 -18q0 -10 11 -30q15 -16 40.5 -22.5
t60.5 -6.5q60 2 108.5 4.5t85.5 5.5l46.5 3.5t34.5 1.5h12q20 -1 50.5 -1.5t58.5 -0.5h32q8 0 13.5 0.5t10.5 1.5q52 2 72.5 16t20.5 35q0 8 -4 18t-9 19q-7 58 -97 58h-71q-13 0 -24 0.5t-30 2.5q-9 0 -21 -0.5t-31.5 -1.5l-47.5 -2.5t-69 -4.5z" />
    <glyph glyph-name="bracketleft" unicode="[" horiz-adv-x="373" 
d="M370 76q0 19 -8 32q-19 25 -42 31l2 -1q-7 2 -23 5t-40 5q-20 2 -32.5 4t-19.5 4l1 -1q-3 2 -6.5 7t-3.5 8q0 5 1 16.5t3 24.5q2 11 3 20.5t1 15.5q6 96 6 203q0 25 -0.5 43t-1.5 28q-5 45 -9.5 79l-7.5 56q-1 3 -2.5 7t-3.5 12q-2 5 -3.5 10.5l-3.5 12.5q-9 25 -9 33
q0 1 4 4l26 3.5t21 1.5q7 2 12.5 2.5t10.5 1.5q6 1 12.5 1.5t12.5 1.5q33 3 52 15h-1q50 26 50 64q0 32 -25 51l2 -1q-10 10 -52 10h-142q-3 -1 -6 -1h-40q-116 0 -116 -97q0 -14 3 -30t12 -39q3 -9 5.5 -17.5t5.5 -16.5v1l6 -16l6 -16q4 -10 6.5 -18.5t5.5 -15.5
q8 -17 9 -22l-1 3q5 -32 7.5 -57l4.5 -45q1 -5 1 -10t1 -9v2q2 -23 3 -36t1 -18t-0.5 -12t-0.5 -18t-0.5 -24t-0.5 -30q-1 -4 -1 -11v-30q-1 -6 -2 -16t-3 -25v1l-4.5 -30l-5.5 -38q-10 -64 -12 -109v-7q0 -43 41 -63q16 -6 35 -11t43 -9q10 -2 19.5 -2.5t19.5 -1.5
q8 -1 17.5 -2t20.5 -2q17 -2 28 -2.5t14 -0.5q35 0 64 29h-1q31 29 31 62z" />
    <glyph glyph-name="backslash" unicode="\" horiz-adv-x="596" 
d="M571 83q0 36 -238 428l-21 30.5t-17 23.5l-9 12l-14.5 20.5t-13.5 18.5l-37.5 51l-28.5 38l-13.5 21.5l-22.5 35.5v-1q-3 5 -6 11t-7 12q-15 25 -28.5 44.5t-27.5 33.5q-25 28 -39 28q-97 0 -97 -90q0 -29 14 -54l37 -55.5l29 -41.5l90 -127l65 -90q38 -54 60 -91l32 -54
l51 -96.5t46 -77.5q32 -51 36 -59q39 -70 66 -70q28 0 61 36t33 63z" />
    <glyph glyph-name="bracketright" unicode="]" horiz-adv-x="373" 
d="M380 788q0 27 -5 44.5t-17 27.5t-31.5 13.5t-47.5 3.5q-17 0 -46 2t-72 6h1l-74 9q-8 0 -15 0.5t-11 0.5h-4q-16 0 -53 -28q0 -48 16.5 -77.5t54.5 -39.5l-1 1q8 -3 24 -4.5t42 -3.5q37 -2 52 -7q7 -4 7 -5q0 -8 -9 -33q-11 -33 -13 -46l-11 -86q0 -4 -0.5 -8t-0.5 -7
q-2 -24 -4 -40t-2 -28q0 -110 2.5 -181.5t8.5 -108.5q2 -12 2.5 -17.5l0.5 -5.5q0 -12 -17 -15l-59.5 -10t-42.5 -6q-8 -2 -17.5 -8t-17.5 -13t-13.5 -15t-5.5 -15q0 -38 26 -72q28 -31 69 -31v30q30 0 57.5 -1t44.5 -3t18.5 -5t-21.5 -7l47 6q55 9 67 21q25 25 25 44
q0 17 -2 22q-4 31 -6.5 58t-5.5 51q-4 31 -7 57t-6 46q-1 2 -1 7v26q-3 66 -3 91q0 47 5 88.5t13 83.5v-1q3 11 11 35t22 60v-1q14 32 20 56t6 39zM176 -4l19 3q-5 -1 -9.5 -1.5t-9.5 -1.5z" />
    <glyph glyph-name="asciicircum" unicode="^" horiz-adv-x="430" 
d="M377 714l1 -1q-5 3 -6 4t-6 3l2 -1q-15 12 -23.5 15.5t-20.5 7.5q-5 2 -10.5 3.5t-17.5 8.5l1 2l-9 3q-17 11 -39.5 22t-43.5 13q-4 1 -8 1h-7q-26 0 -42.5 -13t-24.5 -44q-1 -1 -2 -1v0v-1q2 2 -3.5 -2.5t-9.5 -6.5q-6 -5 -11 -8t-10 -5q-2 -2 -3 -2h-2q-7 -3 -14.5 -8
t-20.5 -16l1 1q-17 -12 -29 -34t-12 -48q0 -22 10 -41q11 -22 27 -31.5t37 -9.5q25 0 49 18l22 19l17 15q3 3 7 5.5t7 5.5l3 3q4 3 7.5 6.5t8.5 7.5q26 -3 44.5 -11t44.5 -25l14 -8q11 -6 22 -10.5t23 -4.5q11 0 21 3.5t21 9.5q16 11 24 28.5t8 38.5q0 30 -17 62h-1
q-7 11 -14 16t-15 10zM121 736h-1l0.5 -0.5t0.5 0.5zM124 739h2q-1 0 -1.5 -0.5t-1.5 -0.5zM122 736v-2v2z" />
    <glyph glyph-name="underscore" unicode="_" horiz-adv-x="529" 
d="M529 -48q0 65 -81 76q-5 1 -10 1h-15l-156 -13q-20 -2 -30.5 -2.5t-18 -1t-13.5 -1t-16 -0.5h-139q-15 0 -30 -15q-22 -27 -22 -39q0 -56 32 -87.5t88 -31.5h77h15q9 0 19 1q2 0 5 0.5t6 0.5q126 7 204 15q26 2 35 5l-3 -2q27 6 42 41q6 13 8.5 26t2.5 27z" />
    <glyph glyph-name="grave" unicode="`" horiz-adv-x="271" 
d="M209 581q26 9 37.5 18.5t11.5 29.5q0 7 -3.5 16t-9.5 23q-8 17 -20.5 36.5t-27 37.5t-29.5 33.5t-28 24.5q-17 11 -33 17t-30 6q-23 0 -36 -11.5t-13 -40.5q0 -11 1 -16t3 -11q6 -18 12.5 -30t15.5 -22.5t20.5 -20l28.5 -22.5v-1h1q16 -11 26.5 -19.5t14.5 -13.5
q18 -23 33.5 -28.5t20.5 -5.5h4z" />
    <glyph glyph-name="a" unicode="a" horiz-adv-x="502" 
d="M349 82l8 -41q4 -24 10.5 -37.5t16 -21t22.5 -10.5t31 -6q9 0 18 1.5t23 8.5q21 8 31 26.5t10 39.5q0 7 -2.5 15t-4.5 16l1 -3q-35 244 -62.5 370t-52.5 136h-1v-1v1h-5v1q4 0 5 -1q-1 1 -2 1t-3 1v8q-51 -8 -81.5 -18.5t-48.5 -24t-28 -29.5t-20 -36l-3 -5
q-8 -17 -18.5 -36.5t-24.5 -40.5l-43.5 -71l-47 -79.5l-45 -80t-36.5 -72.5q-8 -22 -12.5 -37t-4.5 -31v-10q0 -15 6.5 -27t17 -20.5t23.5 -13t26 -4.5q29 0 50 11.5t38 43.5l9 18.5t7 16.5q6 16 11 27t12 19h11l0.5 0.5t-0.5 0.5q6 0 13.5 0.5t15.5 1.5h9q5 0 10 0.5
t10 0.5h11q6 0 11 1h-1q23 2 43.5 2.5t34.5 0.5zM310 326l13 -106h-77z" />
    <glyph glyph-name="b" unicode="b" horiz-adv-x="539" 
d="M532 315q11 9 18.5 24.5t13.5 35.5l2 -1q3 7 4 14t1 14v6q0 5 2 15l-4 -4q-5 27 -23 49t-44.5 38.5t-59 27.5t-65.5 16v1q-53 9 -128 9q-30 0 -54 -3q-27 -2 -48 -16t-36 -38q-11 -17 -15 -27t-5 -18v1l-39 -151.5l-26.5 -105l-16.5 -67.5t-8.5 -39t-3 -20t-0.5 -11v-13
q1 -20 5.5 -36.5t17.5 -24.5h-1l14 -14l6 -1q24 -19 48 -24t47 -5h8q39 0 91.5 9t105 27t99 45.5t75.5 65.5q10 14 15.5 28t5.5 29q0 14 -6 29t-17 28l1 -1q-27 36 -61 56q23 10 43.5 22.5t37.5 29.5zM288 188q55 0 88 -19q-6 -15 -27 -30.5t-47.5 -28.5t-55 -23.5
t-49.5 -16.5q-11 -6 -35 -6l29 112q55 12 97 12zM262 413l4 4q36 10 82 10q39 -4 55.5 -9.5t16.5 -12.5q0 -14 -18 -29.5t-45.5 -29t-62 -23.5t-67.5 -12l11.5 44t8.5 28t7.5 18t8.5 15z" />
    <glyph glyph-name="c" unicode="c" horiz-adv-x="488" 
d="M409 387q16 -9 25 -13.5t14 -6.5t8.5 -2.5t8.5 -0.5q28 12 44 32.5t16 35.5q0 5 -1 10v7q-5 26 -25.5 44t-49.5 34v1q-25 13 -43.5 21.5t-33.5 14t-27.5 7.5t-25.5 2q-30 0 -81 -14q-52 -32 -96.5 -74.5t-78.5 -93.5t-56 -109.5t-29 -121.5v-13q0 -8 1 -13
q2 -23 6.5 -40.5t14.5 -36.5l23 -27q2 -3 4.5 -5.5t4.5 -5.5l13 -14v3q32 -27 71 -39.5t78 -18.5q14 -2 28 -3.5t29 -1.5q64 0 114.5 21.5t103.5 61.5q18 15 25 24t13 20l2 6q0 67 -59 67h-3q-1 0 -16 -4.5t-35 -14.5v2q-29 -16 -59 -29.5t-69 -25.5q-10 -2 -25 -2
q-11 0 -27.5 3t-45.5 14q-11 12 -21.5 26t-13.5 31v5q0 5 1 7q5 48 23 82q20 42 46 81t55 66q19 20 39.5 34t41.5 16z" />
    <glyph glyph-name="d" unicode="d" horiz-adv-x="533" 
d="M101 -46l80 10h-1q53 4 102 21.5t92 45t78.5 62.5t61 74t39.5 80t14 81q0 42 -15.5 80t-49 69t-86 53t-127.5 31q-26 6 -54 7t-63 1l-66 -10q-20 -51 -29.5 -78.5t-11.5 -36.5v-8q0 -1 -1 -3q-15 -53 -27 -99.5t-21.5 -91.5t-17 -91t-13.5 -98v-19q5 -30 32 -53zM387 408
q26 -20 35 -37t11 -32v-2q-3 -29 -23 -61.5t-53 -65t-76.5 -62t-91.5 -51.5q-3 -2 -14 -6.5t-26 -9.5q5 39 16 88t24 98.5l25.5 93t21.5 70.5q62 -1 98 -6t53 -17z" />
    <glyph glyph-name="e" unicode="e" horiz-adv-x="519" 
d="M-19 16q4 -2 12.5 -7.5t13.5 -9.5q4 -3 8 -5.5t6 -4.5q16 -13 33.5 -23.5t31.5 -10.5q22 0 37.5 2t33.5 5q2 1 6 1.5t6 1.5h6l247 35q22 2 31.5 5t13.5 7q10 12 14.5 20.5t4.5 23.5q0 4 -0.5 11.5t-3.5 28.5h-18q-11 7 -25.5 9.5t-28.5 4.5q-2 0 -3.5 0.5t-3.5 0.5h-5
q-33 -2 -55.5 -3.5t-39.5 -3.5q-22 -2 -32.5 -2.5t-17.5 -0.5q-3 0 -6.5 -0.5t-6.5 -0.5h-12l-39.5 -2t-38.5 -3q2 12 5 27t6.5 30.5l6.5 29.5t6 24l40 -1q13 0 26.5 0.5t31 1.5t41 3l56.5 5q5 0 13 0.5t17 1.5q2 0 3.5 0.5t3.5 0.5q5 1 9 1h7q18 3 29 9t16 14.5t6.5 18
t1.5 18.5v20q-4 16 -12.5 24.5t-20.5 12.5t-27 5t-30 1h-90h-47t-41 1q4 17 11 43.5l13 47.5h4l211 8h29q5 0 8 0.5t8 2.5h-1h3q2 2 4 3t5 3l-4 -4q26 9 35.5 22.5t9.5 26.5v13q-8 14 -15 22t-17 13t-24 7.5t-34 4.5q-14 1 -32 1.5t-38 1.5q-10 1 -20 1t-21 1
q-26 2 -50.5 2.5t-41.5 0.5h-62h-14t-16 1q-30 0 -47.5 -3t-27.5 -13t-16 -29.5t-13 -51.5zM498 447q-1 0 -5 -2h-2q5 0 7 2z" />
    <glyph glyph-name="f" unicode="f" horiz-adv-x="441" 
d="M410 226q1 2 1 9q0 17 -7 26t-23 13.5t-42.5 5.5t-64.5 1h-90q4 22 9.5 45l10.5 43.5l9 36t7 21.5q17 4 43 6t66 2h75q12 -1 24.5 -1.5t20.5 -0.5q33 0 48.5 11t15.5 43l-2 35v13q-16 16 -35 20.5t-41 4.5q-3 0 -6 -0.5t-5 -0.5h-31h-100h-58q-20 0 -29 -0.5t-16 -0.5
h-11q-6 0 -14.5 -0.5t-20.5 -0.5q-3 1 -8 1h-10q-21 0 -34 -7.5t-21 -19.5t-12.5 -27.5t-8.5 -32.5q-2 -6 -2 -8q-1 -3 -1 -6l-35.5 -174.5l-23.5 -118.5l-14 -73l-7.5 -39.5t-3 -17.5t-0.5 -6v-14q2 -14 8 -25t28 -27q11 -8 22 -10.5t37 -2.5q16 6 27.5 18.5t20 30t14 37.5
l10.5 40l-1 -1q1 2 2 7t2 7q4 18 8.5 33.5t9.5 26.5h140q2 0 4.5 -0.5t4.5 -0.5h23q23 0 41.5 6.5t33.5 28.5zM150 258q0 4 3 7l16 -7h-19z" />
    <glyph glyph-name="g" unicode="g" horiz-adv-x="532" 
d="M541 395l-8 56v-3q-3 13 -18.5 35t-39 44t-53 39t-60.5 19h-20q-14 0 -31 -1.5t-29 -4.5v1q-50 -14 -92.5 -43.5t-77 -68t-60.5 -83t-43.5 -89t-26.5 -85t-9 -71.5q0 -12 1 -22t4 -20l9 -34q10 -32 33 -51t70 -37q3 -3 6 -3.5t8 -0.5q2 -2 5 -2.5t5 -2.5l2 -1q3 0 7 -2
q8 -2 11 -2q19 -5 38 -6.5t37 -1.5q45 0 84.5 10t66.5 24q25 11 53.5 29t54 39.5t45.5 45t29 45.5l16 -15q-4 21 -6.5 32.5t-3.5 17t-1 7.5v3q0 16 -5 32.5t-28 29.5q-17 9 -41.5 10.5t-50.5 1.5h-30q-45 0 -93 -4.5t-79 -11.5q-33 -9 -50 -27.5t-17 -35.5t8.5 -29.5
t27.5 -14.5q14 -8 33.5 -10.5t44.5 -2.5q35 7 59.5 10.5t39.5 3.5q12 0 15 4q-3 -6 -14.5 -14t-27.5 -16t-36 -14.5t-39 -10.5q-20 -8 -40.5 -10.5t-36.5 -2.5v5h-24l-3 3h-5q-6 5 -12 11.5t-8 20.5q-7 2 -10 9.5t-3 16.5q0 17 3 33.5t9 25.5q30 68 57 113t53.5 72t54 38.5
t60.5 12.5h3q11 0 26 -13t29 -27q16 -16 30.5 -27t31.5 -11h10z" />
    <glyph glyph-name="h" unicode="h" horiz-adv-x="556" 
d="M320 8q11 -18 32 -32.5t41 -14.5q15 0 25 7q18 2 30 12t20 24t12 29t6 28v-1l71 375q5 16 10.5 36.5t10.5 66.5q-8 59 -73 59h-6q-70 0 -77 -52l27 -8l3 6l-27 12q-12 -35 -25 -87l-30 -123l-9 -39l-12 -48l-161 -3q5 19 12.5 44.5t16.5 52t19.5 52.5t21.5 47h-1
q3 9 3 17q0 17 -10.5 34t-28.5 25l1 2q-11 5 -24 6.5t-29 1.5q-11 0 -16 -1l-17 -4q-19 -3 -30.5 -11.5t-18 -20.5t-10.5 -27.5t-8 -33.5l-41 -195l-25.5 -125t-13 -73t-3.5 -37q0 -19 4 -26.5t10 -13.5q14 -12 32 -17.5t38 -5.5h23v3q15 4 29 14.5t18 45.5q1 3 1 5q0 3 1 5
q2 12 5 23t6 24q3 15 7 31l8 31h-1l1 2q0 1 1 3v2q18 1 39 1.5t42 1.5t41.5 1.5t36.5 0.5v-14q0 -2 -0.5 -4t-0.5 -4q0 -4 -1 -9q0 -2 -0.5 -6t-0.5 -6v1z" />
    <glyph glyph-name="i" unicode="i" horiz-adv-x="222" 
d="M74 -37h27q6 8 14 20v-1q10 13 13.5 20t5.5 27l3.5 15.5l9 40.5l13 57l15.5 67l16.5 69.5l15.5 64.5q2 18 5 26.5t5 16.5l3 9q2 6 3.5 11.5t3.5 10.5v2h1q5 17 10.5 39t8.5 39q0 17 -7 32t-18.5 26.5t-27 18.5t-32.5 7h-3q-9 5 -20 5q-22 0 -41.5 -37t-38.5 -108
t-38.5 -173.5l-42.5 -234.5q3 -12 8 -22.5t12 -17.5l2 -2l3 -2q4 -4 10 -6zM15 15h2l-3 -3z" />
    <glyph glyph-name="j" unicode="j" horiz-adv-x="438" 
d="M350 576q-20 -4 -32.5 -19.5t-24 -59t-25.5 -122.5t-35 -210v-9q0 -10 -4.5 -23t-12 -24t-17.5 -19t-21 -8q-10 0 -20 9q-13 8 -15 10t-7 6q-3 2 -7 6h1q-20 17 -44 32.5t-50 15.5q-24 0 -41.5 -15t-26.5 -52v-8q0 -27 19 -52t49 -33q89 -47 168 -47q78 0 131.5 49
t64.5 152h1l6 34t6 31l12 63q5 33 11 61.5l12 55.5l-1 -1q1 2 1 4t1 4q1 3 2 7t2 7q5 19 9.5 40.5l9.5 46.5q0 21 -4.5 33.5t-13.5 19.5q-17 9 -33.5 14.5t-32.5 5.5q-11 0 -15.5 -0.5t-7.5 -1.5z" />
    <glyph glyph-name="k" unicode="k" horiz-adv-x="505" 
d="M225 428v0q0 1 1 3q0 2 1 3q1 2 2 7t2 7q3 11 5.5 22.5t2.5 26.5v4q0 13 -8 26t-20 22.5t-26.5 15.5t-28.5 6q-1 0 -1 -1h-1h-10q-36 0 -59 -22.5t-23 -61.5v-3l-26.5 -119l-19.5 -92l-5.5 -26.5t-5.5 -25.5l-12.5 -55l-14.5 -63q-1 -5 -1.5 -10t-1.5 -9q0 -2 -0.5 -4
t-1.5 -5q-2 -8 -3.5 -17t-2.5 -32v-12q2 -11 7.5 -21.5t12.5 -19.5q19 -10 31 -13t25 -3h15q19 4 30.5 10t21.5 25t20.5 55t27.5 101q8 -6 16 -13l18 -16l27.5 -24.5l16.5 -15t9 -8.5l6 -6l21.5 -18t20.5 -19l9 -9q25 -23 47 -40t59 -26q57 24 57 66q0 35 -41.5 79
t-106.5 101l-3.5 3t-7.5 8q-6 5 -11.5 10.5t-11.5 10.5q-7 5 -15 12t-16 15q10 8 24 18t29.5 20l29.5 19l24 15l4 2q5 4 8.5 5.5l3.5 1.5q10 13 14 15l154 111l-7 7l8 -7q1 1 1.5 2l0.5 1q17 11 28 23t11 35q-1 14 -8.5 25.5t-19 19.5t-24 12t-24.5 4q-18 0 -33.5 -9.5
t-41.5 -30.5q-5 -5 -12 -10.5t-15 -10.5h1l-193 -132q2 8 4.5 17t5.5 18z" />
    <glyph glyph-name="l" unicode="l" horiz-adv-x="399" 
d="M143 88l80 269l3 3q2 7 6 17l7 18l3 10q8 21 15 43t7 42q0 29 -15.5 48t-59.5 19q-15 0 -33 -3q-38 -2 -56.5 -14.5t-25.5 -43.5q-7 -11 -8 -23t-1 -23l-15.5 -61l-12 -50l-11 -50t-12.5 -63q-5 -22 -10 -48l-12 -60l-2 -6q-2 -8 -2 -14v-2q-1 -4 -1.5 -8t-1.5 -7
q-2 -13 -4.5 -24.5t-2.5 -27.5q3 -18 5.5 -28.5t9.5 -19.5v-8q28 -15 45 -19.5t34 -4.5q30 5 57 8t50 5q4 1 7 1t7 1q13 2 25.5 3t24.5 3h-1q45 5 86 11t83 16q8 16 11.5 25.5t3.5 21.5q0 27 -18 43.5t-38 16.5q-7 0 -12 -1q-4 0 -7.5 -0.5t-6.5 -0.5q-14 0 -19 -1h2
q-26 -2 -45 -4t-34 -4l-29.5 -3.5t-24 -2.5l-24 -2t-28.5 -2z" />
    <glyph glyph-name="m" unicode="m" horiz-adv-x="666" 
d="M121 17v5l65 176v-49q-1 -8 -1 -18v-23q0 -21 2.5 -42.5t10 -38.5t21 -28t35.5 -11h4q6 0 12 2t14 5q2 1 4 1.5t4 1.5l-1 -1q17 7 30 15.5t14 9.5l21 38.5l27 50.5l0.5 1.5t2.5 3.5q1 2 1 1l1 2l31 61t31 56q-6 -31 -8.5 -58t-2.5 -59q-2 -8 -2 -17v-18v-16q0 -13 3 -22
q3 -17 8 -31t18 -25h-1l8 -8q16 -9 30.5 -12.5t30.5 -3.5h10t11 2q18 2 28 6.5t14.5 11t5.5 15t1 18.5v19q0 58 8 112t22.5 107.5t36 109t48.5 116.5v10q0 20 -11 36.5t-28.5 29.5t-38.5 21t-42 11q-33 0 -59 -22t-49 -48l1 -1q-29 -31 -70.5 -87.5t-89.5 -131.5
q1 19 1.5 34t2 28l3 25.5t3.5 26.5q5 14 11 39t6 39q-5 19 -17.5 30.5t-29 17.5t-33.5 7.5t-30 2.5h-10q-8 0 -13 -1q-40 -3 -58.5 -19t-32.5 -40q-10 -26 -17 -42q-5 -10 -8.5 -19.5t-9.5 -24.5q-12 -27 -24.5 -58.5l-28 -73l-34.5 -94.5l-44 -123h1l-5.5 -21t-2.5 -18v-4
q1 -33 20 -50.5t45 -17.5h19q19 0 38 10zM557 -29l-2 -2l-2 11z" />
    <glyph glyph-name="n" unicode="n" horiz-adv-x="534" 
d="M493 575q-20 -3 -34.5 -13.5t-24 -24t-15 -30t-8.5 -31.5l-5.5 -24.5l-14 -61l-19 -80t-21.5 -82.5q-17 45 -28 86.5t-19 89.5q-2 5 -2.5 12t-0.5 16v12q0 18 -1.5 36.5t-7.5 34t-19 26t-36 12.5q-51 -3 -80 -12.5t-45 -24.5t-23 -36t-12 -49q-5 -19 -10.5 -37.5
t-9.5 -35.5l-22 -86l-18 -70l-23.5 -91.5t-12.5 -51.5t-5 -25.5t-1 -13.5v-6q0 -17 7.5 -31t19 -23.5t26 -15t29.5 -5.5q25 0 44.5 13t23.5 47v5l12 41t17 60.5l18.5 70t17.5 70.5q29 -88 58 -146.5t48 -77.5q43 -50 86 -50q27 0 46.5 17t28.5 45l9.5 31.5l8.5 26.5v-1
q4 11 7 20.5t5 17.5q3 10 6 17.5t5 13.5l-1 -1l9 28t5 20q3 20 10.5 47l12.5 44h1q2 5 7 19.5t10.5 34.5t10.5 42.5t7 43.5q6 15 11.5 34t5.5 38q0 14 -5.5 28.5t-17.5 26.5z" />
    <glyph glyph-name="o" unicode="o" horiz-adv-x="589" 
d="M363 561q-58 -7 -100 -16.5t-68 -25.5l-35 -20.5t-21 -13.5q-37 -27 -67 -63t-51.5 -76t-33 -81.5t-11.5 -80.5v-12q0 -6 1 -9h-1q3 -20 9 -41.5t25 -53.5v1q5 -9 8.5 -14.5t7.5 -10.5q1 -3 4 -6q29 -35 70 -53.5t101 -28.5h-1q17 -4 34.5 -5t38.5 -1q57 0 104 12t82 39
q39 34 67.5 73.5t47 81.5t27.5 85t9 83v17q0 8 -0.5 12.5t-1.5 9.5q-2 15 -6 31.5t-13 35.5q-18 35 -39.5 59t-44 39t-44 22.5t-39.5 10.5h-59zM390 443q19 0 32 -9q14 -11 22 -34.5t13 -47.5v-13q0 -2 0.5 -4t0.5 -4q0 -40 -13 -86.5t-40.5 -86.5t-69 -67t-98.5 -29
q-7 0 -18.5 4.5t-24.5 11.5q-23 6 -36 26.5t-16 46.5q3 36 19.5 81t44.5 87t66 75t83 44q18 5 35 5z" />
    <glyph glyph-name="p" unicode="p" horiz-adv-x="486" 
d="M328 198q85 37 132.5 82t47.5 111q-5 49 -29 82t-78 56q-18 8 -45.5 15.5t-59 13.5t-64.5 10t-61 5h-2q-25 0 -41.5 -7.5t-30.5 -19.5q-14 -20 -28 -64.5t-27 -98t-25 -109.5l-21 -99l-7 -32.5t-5 -25.5v1q-5 -20 -9 -45t-6 -48v-8q0 -8 6.5 -17t16.5 -18t22.5 -16.5
t25.5 -11.5l-14 -14l21 5.5l18 4.5q4 0 15 3l-1 2q32 11 42 24.5t14 38.5q0 19 4 35l19 99q57 8 96 18.5t74 27.5zM184 296q0 3 1 6l3 13l16 93.5t8 36.5q26 0 62.5 -5.5t63.5 -17.5q5 -10 17 -11q12 -12 12 -20q0 -13 -14.5 -26.5t-38.5 -27t-56.5 -27.5t-68.5 -27v1l-7 -2
q0 3 0.5 5.5t1.5 5.5v3z" />
    <glyph glyph-name="q" unicode="q" horiz-adv-x="582" 
d="M600 313q0 4 -0.5 18.5t-4 33.5t-10 41.5t-18.5 43.5q-26 45 -62 70.5t-96 36.5q-5 1 -9 1t-8 1v1q-8 2 -17.5 3t-26.5 1q-40 0 -82.5 -13t-81.5 -36t-72.5 -53.5t-54.5 -64.5q-40 -62 -57 -122t-17 -111q0 -2 0.5 -3t0.5 -3v-15q1 -19 5.5 -38.5t15.5 -38.5t30 -37
t49 -34q47 -25 82.5 -33.5t70.5 -8.5q18 0 31 0.5t23 2t19 3.5t20 6l20 7l42 -28l15 25q-63 31 -88.5 41.5t-26 7t17 -16.5l40.5 -29l2 1q9 -6 17 -12l-2 1q2 -2 3 -2.5t3 -2.5q-1 1 2.5 -1.5t8.5 -5.5q2 -2 4 -3t4 -3q2 -1 3.5 -2t3.5 -3h-2q7 -6 16.5 -13t20.5 -14
t24.5 -11.5t27.5 -4.5q25 0 43 19q4 8 9 21.5t5 28.5v8q0 1 0.5 1.5t0.5 1.5q0 29 -21.5 43t-45.5 23l18.5 18t22.5 24q41 48 61.5 109.5t20.5 119.5zM318 138l-12 5l1 -1q-16 8 -32 14t-32 7q-3 1 -9 1q-10 0 -22 -6t-22.5 -16t-17.5 -22t-7 -24q0 -10 2 -15
q-11 10 -18.5 23t-12 27.5t-7 28t-2.5 24.5q0 37 16.5 73t43 69t60 61.5t67.5 49.5l-3 -1q11 4 29 8t38 4q2 0 6 -0.5t8 -0.5q24 -9 35.5 -32t14.5 -49q1 -7 1.5 -13.5t0.5 -12.5q0 -26 -5 -53.5t-14 -54t-22.5 -50t-30.5 -41.5l1 1l-24 -21q-3 2 -7 3.5t-9 4.5q-4 7 -15 9z
M359 -25h-10q1 0 3 -2z" />
    <glyph glyph-name="r" unicode="r" horiz-adv-x="505" 
d="M526 420q-5 30 -21.5 48.5t-49.5 41.5q-68 32 -124.5 41t-110.5 9q-2 0 -5 -0.5t-5 -0.5h-9q-2 0 -5.5 -0.5t-5.5 -0.5q-18 -2 -37 -3.5t-35 -9.5q-2 -3 -8 -9q-2 -2 -2.5 -3.5t-2.5 -3.5t-4.5 -5.5t-4.5 -8.5q-13 -19 -20 -35.5t-8 -21.5l-38.5 -171.5l-25.5 -117.5
l-16 -74t-9 -42t-3.5 -21t-0.5 -11v-8q1 -15 10.5 -28t25.5 -25h-1q5 -5 21 -13t28 -8h2q23 0 37.5 16.5t16.5 41.5q3 5 6.5 15t8.5 23v-1q2 5 3.5 10.5t3.5 11.5q1 2 1.5 3.5t1.5 3.5l12.5 34.5l12.5 33.5q4 -3 7 -6t7 -6l23.5 -20.5t13.5 -12.5h-1q5 -5 17 -14l-2 1
q40 -38 80.5 -67.5t97.5 -54.5q20 6 36 13.5t21 27.5q19 10 19 31q0 20 -25.5 42t-60.5 48l-56.5 40t-50.5 44q39 12 79 30t73 41.5t56.5 51t30.5 58.5zM231 447q15 0 32 -1.5t34 -4t32.5 -7.5t27.5 -13l-3 1l2 -2q1 -1 2 -1.5t2 -1.5l10.5 -10t8.5 -10q-2 -5 -5 -10
q-29 -22 -52 -35.5t-43 -21t-39.5 -10.5t-42.5 -4l-2 -1q2 14 6 31.5t9.5 35.5l10.5 35t10 30z" />
    <glyph glyph-name="s" unicode="s" horiz-adv-x="519" 
d="M241 517l1 1q-50 -23 -88 -55.5t-55 -64.5q-14 -26 -23.5 -48.5t-9.5 -47.5q1 -23 12 -45t27.5 -41t37 -34.5t41.5 -25.5q8 -3 12.5 -5t6.5 -4q17 -8 30.5 -12.5t27.5 -7.5q21 -5 41 -10.5t25 -11.5q12 -6 14 -4v-2q0 -5 -10.5 -9t-17.5 -6q-2 -2 -10.5 -3t-19 -1.5
l-20.5 -1t-14 -0.5q-19 0 -35 2.5t-42 9.5q-20 10 -37.5 23t-28.5 31l-15.5 20.5t-18.5 17.5q-6 4 -12 4.5t-11 0.5h-10q-12 -1 -26.5 -4.5t-31.5 -20.5v-4q-13 -20 -13 -41q0 -30 29 -60t73 -53.5t94.5 -38t94.5 -14.5q9 0 16.5 0.5t13.5 1.5q20 1 33.5 3.5t27.5 7.5
q3 2 5 2q3 0 6 1q39 14 65.5 32t45.5 39q9 10 16 21.5t11 21.5t6 17t2 9q0 6 -1 15t-2 14q-16 33 -49 60.5t-88 38.5q-2 1 1 1.5t2 1.5t-10.5 3.5t-36.5 8.5q-12 3 -25.5 7.5t-25.5 9.5q-8 7 -20 7q-11 1 -18 11.5t-7 24.5q0 15 6 24q14 23 40 44t58 33q21 0 48 -5.5
t47 -23.5q42 -34 61 -37h9q35 0 48.5 17.5t13.5 45.5q0 5 -1 13t-4 16l-2 4l-2 4v1q-8 17 -22.5 26.5t-40.5 23.5q-32 17 -61.5 30t-71.5 18q-11 0 -15 -1q-42 -2 -77 -16z" />
    <glyph glyph-name="t" unicode="t" horiz-adv-x="466" 
d="M490 438q26 8 37.5 25t11.5 35q0 13 -5.5 26t-16 23.5t-25.5 17t-34 6.5h-10t-13 -2h-23q-29 0 -59 -0.5t-57 -1t-48.5 -1.5t-33.5 -2h-61h-47q-19 0 -33 -0.5t-24 -1t-19 -0.5q-6 0 -13.5 -0.5t-13.5 -0.5q-23 -5 -32 -20t-9 -37q0 -16 6.5 -35.5t15.5 -33.5
q26 -7 42.5 -9.5t35.5 -2.5h67q-2 -8 -3 -15t-3 -14q-2 -9 -3 -17t-3 -16l-27 -135l-18.5 -91l-11.5 -56.5t-6.5 -31t-3.5 -13.5t-2 -5q0 -14 3 -23.5t17 -27.5q2 -4 3.5 -5.5l3.5 -3.5l19 -9q20 -5 30 -5q13 0 25.5 2.5t23 9.5t17 18t6.5 28v1l39.5 175.5t24.5 113.5
q2 8 3 13.5t3 11.5q6 25 9.5 41.5t6.5 27t5.5 17.5t6.5 13z" />
    <glyph glyph-name="u" unicode="u" horiz-adv-x="507" 
d="M361 429q-2 -6 -2 -9q-1 -4 -1 -8q-1 -2 -1 -6q-3 -19 -8 -43.5t-14 -61.5q-6 -26 -13.5 -53.5t-15 -52t-15 -44t-14.5 -28.5l-30 -39l2 1q-7 -5 -16.5 -7.5t-19 -4t-17 -2t-11.5 -0.5h-4q-4 0 -11 2t-13.5 6t-11.5 10t-5 14q0 3 1 6q0 18 5 41t13 52l24.5 82.5l18 58.5
l12.5 39l8 24q1 2 1.5 4t1.5 4q5 16 6 21.5t2 17.5q1 5 1.5 13t1.5 22q0 13 -9 26t-22 23.5t-28 18t-27 10.5q-12 0 -23.5 -3.5t-23 -14t-24.5 -28.5t-29 -46h7l-13.5 -41t-6.5 -21q-1 -3 -2 -7t1 1l-20.5 -70.5t-12.5 -46t-8.5 -37.5l-8.5 -45q-2 -15 -3.5 -30.5
t-1.5 -32.5q0 -35 11 -69.5t43 -60.5l8 -3q40 -32 73 -44.5t71 -12.5q4 1 6 1h14q2 0 4.5 -0.5t4.5 -0.5h35v2q57 3 96.5 35t66.5 79.5t44.5 105.5t31.5 114h-1q14 49 25.5 103t16.5 103q0 19 -0.5 31.5t-5.5 32.5q-6 9 -16.5 16.5t-22.5 12.5t-24 7.5t-20 2.5t-16.5 -4
t-15.5 -9t-12.5 -10t-7.5 -7zM248 86l-2 -2h1z" />
    <glyph glyph-name="v" unicode="v" horiz-adv-x="528" 
d="M29 55q2 -11 6 -24t11 -26.5t17.5 -26t25.5 -21.5q9 -2 21.5 -3t28.5 -1q25 0 51 5t48 15.5t36 26.5t16 39l76.5 147t54.5 98t38.5 63l27.5 42q-1 0 4.5 7t8.5 12q2 3 8.5 11.5l14.5 19.5q15 19 29.5 39.5t19.5 36.5q0 12 -9.5 26.5t-26.5 26.5l2 2q-9 17 -19.5 20
t-21.5 3q-7 0 -13.5 -0.5t-12.5 -1.5h-7l2 -2q-10 -1 -16 -6q-25 -18 -53.5 -54t-58 -81.5t-58.5 -95.5l-54 -95q-3 -5 -5.5 -10t-5.5 -10q-9 -17 -17 -30.5l-16 -26.5q-2 8 -2 7q-2 15 -3 29.5t-1 26.5v54q0 35 3 59t8 43q4 20 5 42t1 39q-5 29 -27.5 44.5t-48.5 17.5
l11 11q-23 -5 -37 -10q-4 0 -7 -0.5t-10 -2.5l2 -4q-35 -16 -50 -41t-20 -57q-2 -14 -3 -38t-1 -54q0 -35 2 -75t7 -88zM491 392l1 3q-1 -2 -2.5 -4t-0.5 0l-2 -2q1 0 4 3z" />
    <glyph glyph-name="w" unicode="w" horiz-adv-x="702" 
d="M45 -23v1q30 -16 45 -16q13 0 25 3q2 0 5 -0.5t7 -0.5q17 0 29.5 8.5t23 25t20.5 40t21 53.5q1 2 2 4.5t2 4.5v-1q5 11 9.5 23l9.5 25l14 34.5t11 25.5q0 -1 0.5 -2.5l0.5 -1.5q2 -4 2.5 -9.5t2.5 -18.5q0 -2 0.5 -2.5t0.5 -1.5q0 -5 1 -8q2 -17 5 -34.5t8 -31.5
q3 -17 8.5 -37t14.5 -39.5t22 -35.5t30 -24q17 -7 31.5 -8.5t25.5 -1.5q17 0 28 0.5t23 4.5q14 4 22.5 8t13.5 9.5t9 14t9 22.5q9 20 15.5 37l13.5 34v-1q2 4 2.5 7t2.5 7l20.5 53l29.5 71l45 100.5l66 140.5l-1 -1q6 12 9.5 22.5l7.5 22.5q-12 37 -32 52t-43 15
q-20 0 -31 -4q-23 -2 -43 -22t-40 -54t-40.5 -80.5l-43.5 -101.5l-15.5 -36l-15.5 -35q-2 20 -2 34v28v9v49v30t-0.5 16t-0.5 7v-1q-2 11 -6 22t-15 20q-21 12 -47 18t-38 6q-35 -5 -63 -31t-49 -59l-19.5 -31l-17.5 -28q2 21 5 36t6 28q0 2 0.5 5.5t0.5 5.5t1 4
q2 12 3.5 26.5t3.5 48.5q-2 16 -10 28t-20 19.5t-26.5 11t-27.5 3.5q-12 0 -24 -3q-24 -2 -37.5 -8.5t-20.5 -17.5t-10 -27l-7 -38v-2q-7 -46 -11.5 -105t-4.5 -126l2 -87t6 -91q1 -8 2.5 -16t5.5 -15h-16q9 -5 17 -10l16 -10q2 -4 9 -7z" />
    <glyph glyph-name="x" unicode="x" horiz-adv-x="505" 
d="M163 538h-11q-7 0 -19 -1t-24.5 -3t-24.5 -4.5t-20 -6.5q-18 -9 -24.5 -23.5t-6.5 -29.5q0 -10 3 -23.5t8 -22.5l3 -3l-2 4l13 -25.5t20 -41l23.5 -51.5t23.5 -56q-5 -7 -10 -13l-9 -11l-52.5 -65l-37.5 -48.5l-34 -45.5l-41 -57q0 -45 55 -56h4q4 -2 11 -2h9q27 0 57 17
l28.5 32.5l23.5 26.5l29.5 33.5l19 22l12 14l8.5 10.5l-1 -2q5 5 7 8l26.5 -37.5t30.5 -40t31.5 -36t29.5 -25.5v-6q23 -5 32 -6t16 -1q10 0 18.5 1t17.5 5q24 5 34.5 17.5t10.5 27.5q-2 20 -14 37t-25 32q-2 2 -2.5 3.5t-2.5 3.5v-1q-9 10 -16.5 19.5t-9.5 17.5
q-18 25 -31.5 50.5t-28.5 68.5q4 4 7.5 8t7.5 8l12 13.5t8 8.5q11 12 18 21l12 15q9 11 15 17l16 16q6 6 14 15t19 20q25 28 41.5 43l30.5 27q2 2 5.5 4.5t5.5 4.5h-1l15.5 13t16.5 15q3 5 6 12t3 14q0 12 -9.5 24.5t-23 22t-29 15.5t-27.5 6h-3q-11 0 -23 -4t-26 -13.5
t-30.5 -26.5t-35.5 -44l-110 -114q-11 19 -18 33.5t-13 28.5l-3 7l1 -1q-11 24 -21.5 43.5t-26.5 35.5z" />
    <glyph glyph-name="y" unicode="y" horiz-adv-x="461" 
d="M487 562l-2 -1q-10 13 -27 20t-36 7q-34 0 -57 -26v1q-4 -4 -7 -8.5t-7 -8.5l-85.5 -93t-76.5 -90q-6 15 -12 33l-2 -1l1 1v1v2q-18 45 -38.5 87t-49.5 64q-17 5 -39 5q-16 0 -31.5 -3t-26.5 -11h1q-13 -8 -18 -21t-5 -29v-4q0 -17 5 -31.5t12 -26.5q11 -18 23 -45.5
t22.5 -57.5t19 -58.5t12.5 -47.5l-32 -188q1 -31 29 -51l10 -10q49 -18 70 -18q19 0 31 6t19.5 19.5t12 34.5t9.5 51l11 56.5t17 73.5q4 22 8 34t16 27q29 44 75 96t117 118q4 1 8 5l-2 -1q10 8 23.5 22t13.5 33v11z" />
    <glyph glyph-name="z" unicode="z" horiz-adv-x="584" 
d="M502 358q1 1 2.5 1.5t3.5 2.5l-3 -2q2 2 4 3.5t4 3.5h-1l34 32.5t33 35.5t24.5 36t9.5 35q0 25 -19.5 42.5t-70.5 22.5h-13q-7 0 -15 -1q-4 0 -8 -0.5t-8 -0.5q-17 -1 -30.5 -1.5t-26.5 -0.5q-36 -1 -59 -1.5t-39.5 -1.5t-28.5 -1.5t-25 -1.5q-80 -5 -129.5 -11.5
t-76.5 -15t-36.5 -19.5t-9.5 -26q0 -7 3 -16v-3q0 -15 3 -32.5t22 -27.5q15 -11 28 -14.5t28 -3.5q17 0 40 3q10 0 34.5 2.5t54 6t57.5 7.5t45 7h12l-295 -269q-23 -22 -44 -49t-22 -59q-2 -7 -3 -13t-1 -17q0 -7 1.5 -14.5t6.5 -14.5q17 -18 40 -24.5t54 -6.5q49 1 89 3.5
t69 4.5q5 0 9 0.5t9 0.5q14 1 24.5 2t19.5 1h10q16 -1 40.5 -1.5t46.5 -0.5h26q8 0 13 0.5t9 1.5q46 2 65 17t19 36q0 7 -3 15.5t-7 16.5q-8 57 -91 57h-42q-15 0 -25 0.5t-17 1t-14 1.5q-11 0 -34 -1t-66 -4z" />
    <glyph glyph-name="braceleft" unicode="{" horiz-adv-x="462" 
d="M417 -55v8q0 24 -15.5 45t-42.5 21q-8 0 -13.5 -2l-13.5 -5q-24 -12 -35 -12q-9 0 -9 15v3q0 2 1 4v-1v1v1v-1q2 13 3.5 25.5l3.5 29.5q4 26 8 60t8 77q1 8 1 15v17q0 29 -7 54t-24 50q38 39 51.5 95.5t21.5 136.5q1 17 4 35.5t8 34.5t13 26t20 10h20q11 0 21.5 1.5t19 8
t14 19.5t7.5 35v10q0 20 -4.5 32.5t-13 19t-20 9t-25.5 2.5q-48 0 -85 -20.5t-63 -54.5t-41.5 -76.5t-20.5 -87.5l-2 -29q-3 -29 -5.5 -50.5t-9.5 -36t-20 -22t-36 -7.5q-21 0 -37.5 -8t-28 -20.5t-17.5 -28.5t-6 -31q0 -27 17 -48t52 -21q31 0 41.5 -8t10.5 -27v-10
q0 -4 -1 -11q0 -2 -0.5 -5.5t-0.5 -5.5q-2 -23 -5 -43l-6 -40q-2 -8 -2.5 -15t-1.5 -15h-1q-4 -20 -6 -39.5l-4 -38.5q-1 -8 -1.5 -16.5t-0.5 -17.5q0 -66 27 -100t91 -34q7 0 14 0.5t15 1.5q-5 -7 -2 -8.5t11 1t19 7.5l23 11q3 1 7 3h2q27 10 48 26.5t24 44.5z" />
    <glyph glyph-name="bar" unicode="|" horiz-adv-x="191" 
d="M165 -97l3 49v-1q1 5 1.5 12t0.5 15l57 655q0 2 0.5 5t0.5 7q1 4 1 9v10q2 13 3 27t1 31q0 33 -11 57t-43 24h-4q-2 0 -2.5 -0.5t-2.5 -0.5q-26 -7 -40 -16t-21.5 -23t-10 -34.5t-5.5 -50.5q-1 -5 -1 -10v-8q0 -3 -0.5 -6t-0.5 -6v1l-62 -703q-2 -10 -2 -16v-10
q0 -23 7.5 -37.5t18.5 -22.5t24 -11.5t24 -3.5q38 0 58 64z" />
    <glyph glyph-name="braceright" unicode="}" horiz-adv-x="462" 
d="M381 413q-5 1 -9.5 7t-4.5 36q0 42 9 105t26 140l-7 -7q-1 27 -9.5 52t-25 44t-41.5 30.5t-59 11.5q-30 0 -50.5 -1.5t-46.5 -8.5v-1q-26 -7 -38.5 -28.5t-12.5 -44.5q0 -26 15 -46.5t53 -20.5v30q1 0 12.5 -1.5t26 -4.5t21.5 -6.5t-1 -7.5t-41 -8q3 0 6 0.5t5 0.5l27 3
q2 0 3.5 -0.5t3.5 -0.5v-1q2 -1 3 -1h1q0 -5 -1 -9q-12 -59 -19 -117t-7 -108q0 -70 26 -108q-32 -30 -47.5 -72.5t-18.5 -93.5l-8 -96q-1 -8 -2 -18t-4 -18.5t-8.5 -14.5t-14.5 -7q-44 -5 -67.5 -28.5t-27.5 -52.5v-10q0 -21 6.5 -35t17 -22t23 -11.5t25.5 -3.5
q37 0 71.5 18.5t61.5 49.5t44.5 70t20.5 80l8 95q1 10 4 26t10.5 31t20 25.5t33.5 10.5t37 7t27 18.5t16.5 25t5.5 27.5q0 24 -17.5 44t-52.5 21h1l-21 2q-2 0 -2 1q-2 1 -3 1l-2 1l-10 -14z" />
    <glyph glyph-name="asciitilde" unicode="~" horiz-adv-x="436" 
d="M445 592v4q0 9 -6 18.5t-15.5 17t-21.5 12.5t-24 5q-19 0 -35.5 -10t-28.5 -31q-3 -12 -4 -14q0 -1 -0.5 -2.5t-0.5 -3.5v3q-2 -5 -3 -9.5t0 -5.5q-2 0 -6.5 5.5l-10.5 13.5l1 -2q-13 17 -31.5 33t-56.5 16q-22 0 -50 -10t-53 -26.5t-42.5 -37t-18.5 -41.5v-4
q0 -23 19 -40t50 -17q20 0 34 10.5t28 24.5v-1l12.5 12.5t7.5 5.5l6 -11q14 -16 36 -31.5t63 -15.5q33 0 59.5 6t46 21t31 40.5t14.5 64.5z" />
    <glyph glyph-name="uni00A0" unicode="&#xa0;" horiz-adv-x="349" 
 />
    <glyph glyph-name="onesuperior" unicode="&#xa1;" horiz-adv-x="401" 
d="M343 411l-86 37q-16 -6 -31.5 -18.5t-27.5 -26.5t-20 -28.5t-9 -24.5l1 3q-1 -3 -8.5 -23.5l-18.5 -51.5l-25 -70l-28.5 -79.5l-28.5 -79.5l-26 -70.5l-19.5 -52t-9.5 -24.5l1 3q-10 -13 -10 -28q0 -12 4.5 -22t11.5 -17l6 -4q22 -23 43.5 -31t42.5 -8q6 0 15 1t19 3
q28 6 46.5 19t29.5 31t17.5 39.5t12.5 43.5q15 61 32 119t36 116l18 56t17 56q1 4 3.5 13t4.5 20.5l4 23t2 22.5q0 31 -13 48zM348 650q-14 0 -24.5 -0.5t-18.5 -1.5q-2 0 -4.5 -0.5t-3.5 -0.5q-15 -3 -30 -12t-28 -21t-22 -25.5t-12 -26.5q-1 -4 -1.5 -9t-0.5 -14
q0 -36 33 -61l54 -32l15 26l35 -19h2q36 7 62.5 27t38.5 49q11 13 11 35q0 12 -7 26q-5 13 -17.5 28t-27.5 26h-7q-23 6 -47 6zM320 448h1q3 0 11 -1.5l13.5 -2.5t6 0.5t-11.5 8.5q-4 -2 -9 -3t-11 -2z" />
    <glyph glyph-name="cent" unicode="&#xa2;" horiz-adv-x="349" 
d="M275 572l4 9v-1q9 16 19.5 36.5t10.5 37.5q0 2 -0.5 3.5t-0.5 3.5v6q-11 27 -28.5 35.5t-39.5 8.5q-29 0 -49 -13t-28 -34l-8.5 -15.5t-6 -13.5t-5.5 -16.5l-8 -24.5q-2 -4 -3 -7t-2 -8q-49 -20 -81.5 -54.5t-52 -73t-27.5 -76t-8 -64.5v-11q4 -40 19 -69.5t53 -45.5v-9
q-9 -25 -13 -44t-4 -30v-9q8 -20 19.5 -33t36.5 -20h14q29 0 46 12t25 30l-1 -1q4 7 6.5 14t4.5 17.5t3.5 25t3.5 36.5q24 8 46 18.5t37 18.5q5 2 10 5t8 5q3 3 7 6q52 39 52 72v9q-10 20 -20.5 28.5t-21.5 15.5h-4q-4 2 -7 2h-4h-6q-14 0 -26 -5t-32 -18
q-11 -8 -22.5 -13.5t-33.5 -11.5q-13 -6 -21 -9t-14 -3v3v4q0 14 5 34.5t14 42t21 40t26 27.5q5 -2 14 -5q6 -3 9.5 -4.5l8.5 -3.5q11 -6 20 -9t24 -3q14 0 31 6q21 11 30 20.5t9 28.5q0 18 -12 38q-22 28 -55 49q0 1 1 2l1 3l0.5 1t5.5 4z" />
    <glyph glyph-name="sterling" unicode="&#xa3;" horiz-adv-x="510" 
d="M49 255q2 -5 4 -15t2 -14q7 -23 23.5 -32t39.5 -11q-9 -9 -20 -16.5t-22.5 -14.5t-22 -11.5l-17.5 -7.5q-5 -3 -11.5 -7.5l-15.5 -10.5q-21 -21 -21 -45q0 -13 3 -20t14 -18v1q26 -27 53 -36.5t70 -9.5h35q4 0 7.5 0.5t8.5 0.5q31 2 51.5 3.5t35.5 2.5t25.5 1.5t21.5 0.5
q8 0 16.5 0.5t19.5 1.5q19 1 42 4.5t45.5 10.5t41 16.5t29.5 22.5q11 1 13 10t2 40q-1 0 -1 -7q-1 20 -14 34q-23 16 -45 16h-7q-2 0 -6 -0.5t-7 -0.5q-3 -1 -12 -1q-17 0 -22 -1h3q-2 0 -6 -0.5t-9 -0.5q-24 -3 -59 -6t-69 -5q6 8 10.5 18.5t10.5 27.5q4 9 4 15
q11 0 20 0.5t17 1.5q2 0 5 0.5t5 0.5h6q16 0 26 0.5t16.5 2t11.5 4t11 6.5l8 4q13 11 15 17t2 16q0 5 -1 11.5t-5 14.5l0.5 0.5t1.5 0.5q18 4 28.5 8t18 15t13.5 32t15 59l15 48v-1q2 5 2 7v5v2q5 11 7 19t2 25q0 20 -9.5 40.5t-31.5 38.5q-8 6 -31.5 18.5t-51.5 25
t-55.5 22t-45.5 9.5h-10q-42 -6 -79.5 -30t-67.5 -54.5t-51.5 -62t-30.5 -53.5v-4q-7 -20 -7 -37v-7q0 -5 1 -9q2 -21 8 -40t14 -36q-37 -7 -37 -50zM308 321h-15q-4 0 -7.5 -0.5t-8.5 -0.5h-24q-3 3 -4 6q-8 11 -14.5 22t-6.5 22v5v2h1q5 23 20 44t34 38t39.5 29.5
t37.5 18.5h4h3q0 -3 -1 -6l-2 -6l1 1q-1 -2 -1.5 -4.5t-1.5 -4.5q-5 -13 -5 -26l-15 -39q-3 -8 -3 -16l-2 -6q-4 -11 -6 -22t-2 -25q0 -9 1 -17t4 -16q-7 1 -13 1h-13zM512 59l-2 -4q-1 -1 -2 -1q3 3 4 5z" />
    <glyph glyph-name="twosuperior" unicode="&#xa4;" horiz-adv-x="355" 
d="M289 705q-25 11 -47 11q-25 0 -56 -13.5t-67 -42.5h1q-15 -11 -38.5 -35t-45.5 -50.5t-37.5 -51t-15.5 -37.5v-7q6 -16 16.5 -27.5t36.5 -21.5l-1 -2q2 -1 4 -1q3 0 6 -1q8 -2 17.5 -5t21.5 -5l-12 12q9 2 17.5 6.5t15.5 12.5q32 45 49 63.5t24 24.5l-2 -2q10 6 13 13
q14 14 30 26t30 14q-3 -12 -6.5 -20t-8.5 -17t-13 -20t-21 -27q-25 -32 -55 -61t-78 -64q-7 -3 -13 -6t-19 -6v-1h-1l-2 -1v-24l-4 23q-2 -1 -4 -1t-4 -1h1q-12 -3 -23.5 -7t-22.5 -20v-2l-6 -12t-3 -14v-5q0 -6 1 -12.5t6 -11.5q18 -37 61 -37q2 0 7 0.5t15 3.5l32.5 6.5
t23.5 4t23.5 2.5t31.5 3q5 0 10 0.5t10 0.5q18 3 33 4t29 1h44q45 11 50 45q1 5 1 13q0 17 -10.5 29t-22.5 17h1q-9 5 -23 7l-29 4q12 11 24.5 24l26.5 28q16 18 30.5 41t26 46.5t18.5 45.5t7 39v8q-4 53 -57 61q-4 0 -10 2q-7 0 -11 2l2 -1q-3 3 -4 6q-3 1 -5 6
q-3 4 -6.5 7.5t-11.5 7.5z" />
    <glyph glyph-name="yen" unicode="&#xa5;" horiz-adv-x="576" 
d="M393 149q0 27 -11 42t-33 26q-10 3 -20.5 5.5t-21.5 4.5h5q11 2 17 2h10q40 0 53.5 11.5t13.5 43.5v17h-1q-1 37 -58 57q35 48 87 103.5t126 124.5q4 2 5.5 3.5l3.5 3.5l-2 -1q11 9 26 23t15 32v19q-1 0 -1 -2v-12v5l-9 17q-8 15 -28 23.5t-42 8.5q-35 0 -60 -27
l-122.5 -135.5t-111.5 -132.5q-14 28 -30 72q-21 53 -45.5 102t-56.5 74q-11 3 -22 4.5t-19 1.5q-17 0 -34 -2.5t-28 -11.5h1q-14 -9 -18 -21.5t-4 -28.5v-5q0 -17 8 -37.5t19 -40.5q17 -26 34.5 -71.5t32.5 -91.5q-2 -1 -2.5 -0.5t-1.5 0.5q-2 0 -4.5 -0.5t-3.5 -0.5
q-5 -1 -10 -1q-9 -1 -14 -2t-10 -3q-14 -5 -22 -7.5t-13 -4.5v-1q-27 -14 -27 -41q4 -23 20.5 -44t34.5 -29q4 -2 9 -3t12 -2l-7.5 -1.5t-4.5 -0.5v-1q-21 -5 -35.5 -21.5t-14.5 -34.5q0 -41 44 -64h-1q9 -6 20 -10t22 -7l-8 -50q1 -31 33 -52l10 -10q51 -19 77 -19
q18 0 29.5 7t19 22t13 38.5t11.5 56.5q0 2 0.5 4.5t0.5 5.5h10t10 1q10 1 19.5 1.5t18.5 1.5q11 1 16 1h8h9q27 6 43 31h-1q11 20 11 34z" />
    <glyph glyph-name="brokenbar" unicode="&#xa6;" horiz-adv-x="190" 
d="M169 -117v49q1 6 1.5 12.5t1.5 13.5l14 165v11t1 14q0 4 1 6q2 13 3 27t1 30q0 33 -11 57t-44 24h-3q-2 0 -5 -0.5t-4 -0.5q-25 -6 -38.5 -15t-20.5 -23.5t-9.5 -36.5t-4.5 -53v3q-1 -3 -1 -7v-9q0 -3 -0.5 -6t-0.5 -6v1l-19 -214v-8l26 -8l3 7l-27 12q-5 -14 -5 -27
q0 -22 7.5 -36.5t18.5 -23t24 -12t24 -3.5q39 0 59 65zM209 429l1 14q0 5 1 8q1 5 1 9t1 9l14 165v11t1 14q0 4 1 6q2 12 2.5 27t0.5 30q0 33 -10.5 57t-43.5 24h-3q-2 0 -5 -0.5t-4 -0.5q-24 -6 -38 -15t-21 -24t-9.5 -37t-5.5 -54v-11t-1 -12l-19 -216q-2 -7 -2.5 -12
t-0.5 -9q0 -23 7.5 -37.5t18.5 -22.5t24 -11.5t24 -3.5q23 0 40.5 22.5t25.5 67.5v2z" />
    <glyph glyph-name="section" unicode="&#xa7;" horiz-adv-x="423" 
d="M416 485q0 31 -12.5 41t-34.5 10q-7 0 -12 -0.5t-10 -1.5q7 29 12 45t10 27t7 19.5t2 23.5q-6 23 -21.5 33.5t-36.5 10.5q-27 -3 -44.5 -24.5t-28.5 -49.5t-16.5 -56.5t-7.5 -43.5v-1q-18 -3 -41 -5.5t-44 -4.5q2 4 4.5 7.5t5.5 8.5l23 36t21.5 36l16 29.5t6.5 17.5v1
q0 1 0.5 1.5t0.5 1.5l-1 -6q4 8 4 19q0 21 -10.5 35t-28.5 21q-4 1 -7.5 2t-11.5 1q-47 0 -67 -60l-21 -40t-13.5 -24l-8.5 -14t-5 -8q-18 -26 -30.5 -50.5t-20.5 -62.5q2 -21 13.5 -47t22.5 -38q12 -9 29 -9q11 0 25.5 4t23.5 6l-1 -1q7 0 9 2q17 1 39 2t41 2q-2 -8 -2 -10
l1 1q-6 -23 -10 -37t-6 -22.5t-2.5 -13t-0.5 -8.5q0 -20 8 -31t34 -11h10q16 0 26.5 1.5t18 6t13 12.5t10.5 21q3 6 6 16t5.5 21.5t4.5 23t4 20.5v-1q1 3 1 11q0 7 1 10q19 1 28.5 3t21.5 10h-1q11 6 20 12.5t15 14.5t9.5 20.5t3.5 30.5v3z" />
    <glyph glyph-name="dieresis" unicode="&#xa8;" horiz-adv-x="410" 
d="M407 632q-3 29 -30.5 49t-70.5 20h-5q-38 0 -63.5 -13.5t-31.5 -36.5q-10 22 -34.5 36t-63.5 14h-2q-45 0 -72.5 -18.5t-27.5 -50.5q7 -29 32.5 -47.5t67.5 -19.5q40 0 67.5 13t34.5 36q9 -22 33 -35t61 -14q45 0 75 17.5t30 47.5v2z" />
    <glyph glyph-name="copyright" unicode="&#xa9;" horiz-adv-x="809" 
d="M826 356q19 58 19 108q0 69 -29.5 126.5t-76.5 112.5q-20 23 -49.5 40t-63.5 28.5t-69.5 17.5t-66.5 6q-26 0 -51.5 -7.5t-49.5 -19.5t-46.5 -26.5l-43.5 -28.5q-56 -39 -100 -90.5t-76 -110t-52 -122.5t-27 -128q-1 -11 -1.5 -21.5t-0.5 -21.5q0 -56 15 -102t45.5 -80
t77 -52.5t108.5 -18.5q26 0 50 3.5t47 9.5q82 22 150.5 51t123 72.5t96.5 105t71 148.5zM707 440q-8 -66 -32.5 -116.5t-68.5 -95.5q-29 -29 -63.5 -51.5t-72 -38t-75.5 -24t-72 -8.5q-78 0 -120.5 36.5t-42.5 118.5v18q0 10 2 21q4 47 26 98t54 96.5t71.5 81.5t78.5 53
q10 -5 25 -5q14 0 26.5 5t26.5 12q17 8 36.5 15.5t40.5 7.5q36 0 65.5 -15.5t50.5 -42t33 -62.5t12 -77v-14q0 -6 -1 -14v1zM608 297v4q0 10 -4.5 21t-11.5 20.5t-16 16t-18 6.5q-13 0 -24.5 -7.5t-21.5 -15.5h1q-7 -5 -8.5 -6t-2.5 -2l3 2q-27 -17 -60.5 -34t-62.5 -17
q-25 0 -45 2.5t-20 15.5v1q2 25 16.5 42.5t33.5 35.5l11.5 11t11.5 12q7 8 21.5 20.5t30.5 24t31.5 20.5t25.5 10q4 -28 21 -38.5t37 -10.5q18 0 31 11t21 26.5t12.5 33t5.5 29.5v-1q1 5 1 18q0 43 -25.5 65t-70.5 22q-39 0 -84.5 -25t-87.5 -61.5t-74.5 -77.5t-44.5 -74v1
q-11 -25 -20 -51t-9 -54v-10q1 -26 8.5 -51.5t23 -46.5t40 -34t60.5 -13q8 0 14.5 0.5t13.5 1.5q56 10 100 27t91 49q7 4 14.5 15t14.5 23t11.5 24t4.5 19z" />
    <glyph glyph-name="ordfeminine" unicode="&#xaa;" horiz-adv-x="342" 
d="M310 195q35 0 53.5 16t18.5 38q0 21 -21.5 39t-66.5 18h-6q-2 0 -4 0.5t-4 0.5h-9q-2 0 -4.5 0.5t-4.5 0.5q-13 0 -23 -3h-88q27 5 50.5 13t43.5 16q5 -11 17 -17.5t38 -6.5q35 0 49.5 17.5t14.5 54.5l14 197v8q0 30 -8.5 48.5t-22.5 29.5t-31 15t-34 4q-35 0 -80 -11
t-96 -38v2l-8 -4q-7 -3 -13.5 -7t-11.5 -11l-9 -6h5q-2 -5 -4 -12t-3 -15v-5q0 -21 7.5 -31.5t21.5 -13.5q-30 -18 -49.5 -44t-24.5 -61q0 -2 -0.5 -4t-0.5 -4v-5q0 -15 6 -32t16 -32t24 -27t30 -18q-5 0 -9 -0.5t-8 -0.5q-5 -1 -8 -1q-37 0 -55 -16.5t-18 -36.5
q0 -21 20 -39.5t59 -18.5l2 -1q1 0 2.5 -0.5t3.5 -0.5q5 -1 10.5 -1.5t13.5 -0.5q14 0 24 5l117 1zM140 412h-6q-4 1 -4.5 2t-0.5 6v1q1 7 12 14.5t28.5 14t40 12t45.5 9.5v-14l-17.5 -10.5t-29 -15t-35 -13.5t-33.5 -6zM157 560l-6 12l20 -8q-4 -1 -7.5 -2t-6.5 -2z
M175 550q-1 -2 -10 -2q2 1 5 1t5 1z" />
    <glyph glyph-name="guillemotleft" unicode="&#xab;" horiz-adv-x="427" 
d="M222 463h-5q-19 0 -41 -14v1l-119 -78q-18 -8 -33 -23.5t-19 -36.5q0 -3 -0.5 -7t-0.5 -6q0 -19 6.5 -28t15.5 -15h1l94 -113l5 -6l1 -1q9 -13 20 -20l4 -3v1q4 -2 15 -4h12q15 0 28 10t25 39h-1q2 3 3 6.5t2 5.5q0 1 0.5 2.5t0.5 2.5v6q0 12 -6 25t-23 28l2 -1l-52 62
l62 41h-1q27 14 38.5 33.5t12.5 30.5q0 1 0.5 2.5t0.5 3.5q0 9 -4 14q-6 23 -15 31.5t-29 10.5zM422 445h-5q-19 0 -41 -14v1l-119 -78q-18 -8 -33 -23.5t-19 -36.5q0 -3 -0.5 -7t-0.5 -6q0 -19 6.5 -28t15.5 -15h1l94 -113l5 -5q9 -16 21 -22l4 -3v1q4 -2 15 -4h12
q15 0 28 10t25 39h-1q2 3 3 6.5t2 5.5q0 1 0.5 2.5t0.5 2.5v6q0 12 -6 25t-23 28l2 -1l-52 62l62 41h-1q27 14 38.5 33.5t12.5 30.5q0 1 0.5 2.5t0.5 3.5q0 9 -4 14q-6 23 -15 31.5t-29 10.5z" />
    <glyph glyph-name="logicalnot" unicode="&#xac;" horiz-adv-x="949" 
d="M682 741l-54 -289l1 2q-2 -5 -2 -8v-5q0 -14 5 -24t13 -18q9 -9 24 -19q2 -2 6 -5.5t0 1.5q3 -3 11 -7q-14 -5 -25.5 -9.5t-22.5 -9.5q-2 -38 -8 -83t-14 -90l-4 -25.5l-4 -24.5q-2 38 -3 74.5t-1 68.5v28t1 24q0 15 -4.5 25t-18.5 16q14 5 15 23q7 40 17 85l20.5 88.5
l21 83.5l18.5 71h1q1 4 1 13q0 10 -4.5 17t-17.5 15t-28 14.5t-30 9.5q-5 1 -8.5 1.5t-8.5 0.5q-22 0 -29 -26q-7 -23 -14 -51.5l-14 -59.5l-10 -43l-20 -2l-21 -2l5.5 19t4.5 18v-1l11 43t8 28q0 2 0.5 5t0.5 5q0 20 -23 34q-13 8 -29 13.5l-30 10.5h1q-11 4 -20 4
q-26 0 -30 -28q-1 -4 -1.5 -7.5t-1.5 -8.5l-10 17.5t-11 16.5q-8 8 -16.5 11.5t-27.5 3.5q-25 -1 -57 -3.5t-66 -5.5t-66.5 -7t-57.5 -8q-23 -3 -23 -24l0.5 -4t1.5 -7l8 -16l10.5 -17.5t13.5 -17.5t14.5 -11.5t17.5 -3.5q6 0 9 0.5t7 1.5q8 2 19 3h1q-7 -28 -13.5 -60.5
l-12.5 -64t-10.5 -60.5t-6.5 -51l1 4q-2 -5 -2 -8v-6q0 -14 5.5 -22.5t16.5 -14.5q-4 1 -10 1q-21 0 -31 -24q-11 -31 -22 -72.5t-20.5 -84.5t-17 -83t-11.5 -68v-8q0 -14 4 -23t12 -17q3 -2 6 -4.5t7 -6.5q6 -5 12 -9t12 -9q6 -4 13.5 -8t20.5 -4t27 5l-2 -1l61.5 12.5
l64.5 12.5q5 2 9.5 2.5t7.5 1.5q8 -6 12 -10l-2 1l2.5 -2.5t6.5 -3.5l12 -6q9 -5 12.5 -6.5t4.5 -1.5t0 0h1q11 -4 19 -4q11 0 16.5 5.5t12.5 19.5l2.5 5l2.5 5l-1 -1l10.5 22.5t13.5 25.5q21 5 50 9l59 8q1 -4 1 -8q0 -3 1 -6q2 -11 3 -21.5t2 -19.5q4 -18 11 -25.5
t24 -12.5h-1q14 -5 26 -6t26 -1q22 0 28 7t6 24q-1 5 -1 10q0 6 -1 12l2 -2l4 -4q13 -11 24.5 -19t28.5 -15q10 -6 17.5 -9t18.5 -3q8 0 15.5 1.5t16.5 3.5q17 4 37 11t39.5 16t37.5 20t32 24q16 14 25.5 28.5t9.5 34.5q0 5 -0.5 9t-1.5 8v-1q-2 15 -11 29.5t-22 25.5
q9 5 16 10.5l13 10.5h-1q19 16 32.5 35t13.5 42q0 11 -4 22l1 -1q-6 23 -19 41t-30 33q-21 16 -50 22q3 0 5 1q29 7 29 26q0 4 -5 16l1 -2q-2 8 -5.5 16t-9.5 19q-8 12 -17 18t-23 6h-10q-17 -2 -33 -3t-31 -3q1 2 1 3t1 3q1 5 1.5 9t1.5 8q21 5 43 8t44 7l18 3q15 4 22.5 9
t7.5 17q0 4 -5 16l1 -2q-6 21 -16 38q-7 11 -16.5 15.5t-23.5 4.5h-6h-19q-8 0 -16 -1q1 1 1 2t1 3q4 12 7 23t7 22l35.5 4l34.5 4l16.5 2l16.5 2q17 3 24 7.5t7 18.5q0 5 -1 10q-2 11 -5.5 19.5t-9.5 19.5q-13 25 -46 25q-54 -2 -105.5 -10.5t-88.5 -17.5zM472 384h-7
q-22 0 -34 -8t-20 -21q-18 -29 -39 -67.5l-42 -80.5l-40 -83t-33 -74q-1 5 -10 18q-12 13 -19.5 17.5t-21.5 4.5h-7q-17 -2 -32.5 -3t-31.5 -3l32.5 120.5t32.5 107.5q1 3 2 6.5t1 7.5q0 18 -24 32q-2 1 -3.5 1.5t-3.5 1.5h9q11 0 18.5 5t9.5 19q6 34 14.5 72l17.5 76.5
l18.5 76l18.5 72.5q11 2 22 2.5t22 1.5q6 1 12 1t11 1q5 0 13 2l-4 -22l-4 -22l-20.5 -112.5t-22.5 -101.5q-1 -4 -1 -14q0 -13 6.5 -21t18.5 -15h-1q10 -7 21.5 -10.5t23.5 -5.5l-2 1q2 -1 4.5 -1.5t4.5 -1.5q4 -1 4.5 -1.5t9.5 -0.5q14 0 19.5 5.5t7.5 18.5q2 10 4.5 21
t4.5 23l6 32.5t6 28.5q8 1 14.5 1.5t14.5 2.5l18 2q-7 -37 -9 -69q-1 -4 -1 -11q0 -23 23 -36q-12 1 -32 3zM302 216q13 14 29 40.5t25 48.5v4q0 3 1 5v-1q1 3 1 6v6q0 5 -1.5 11.5t-6.5 11.5q-8 8 -17.5 15t-18.5 12l1 -1q-14 9 -23 9q-19 0 -28 -20q-8 -18 -21.5 -43.5
l-25.5 -48.5q-5 -9 -9.5 -18l-7.5 -15q-3 -8 -3 -13q0 -23 27 -27q1 0 3 -0.5t4 -0.5h-1q4 -1 9 -1h10q8 0 12 1q12 0 21 5t19 13zM773 273q17 8 31 11t25 3q4 0 6.5 -0.5t4.5 -0.5q-3 -11 -24 -27.5t-56 -30.5q3 13 6.5 24.5zM772 125q9 0 14 -1t7 -2q-2 -9 -20.5 -21
t-50.5 -23q4 11 7 26l-1 -1q1 4 2 7.5t2 7.5q22 7 40 7zM444 170l18 33.5l17 31.5l3 -69l-21.5 -2l-21.5 -2q2 2 2.5 4t2.5 4zM841 289v-1l-1 4q0 -1 0.5 -1.5t0.5 -1.5z" />
    <glyph glyph-name="uni00AD" unicode="&#xad;" horiz-adv-x="537" 
d="M33 212q11 -16 34 -21.5t55 -5.5h24q7 0 14 0.5t15 0.5q4 0 8.5 0.5t8.5 0.5q9 1 18 1.5t18 0.5h2q6 0 32 0.5t57 1.5t58.5 2.5t35.5 3.5h17q26 0 40 1.5t26 9.5q15 7 19 14.5t4 23.5l-5 10h1q-5 11 -9.5 19.5t-12.5 13.5h1q-29 27 -71.5 34t-90.5 7h-43q-5 0 -11.5 -0.5
t-11.5 -0.5q-5 -1 -10 -1h-8q-23 0 -51 -0.5t-54 -1.5t-46.5 -2.5t-29.5 -2.5v1q-26 -5 -40 -11.5t-14 -31.5v-4q0 -6 1 -9v-4q0 -3 0.5 -5.5t2.5 -7.5l-1 3q3 -9 6.5 -21t11.5 -21z" />
    <glyph glyph-name="registered" unicode="&#xae;" horiz-adv-x="888" 
d="M887 357l14 58t8 49q1 8 1.5 16t0.5 17q0 38 -9.5 71t-26.5 63q-39 66 -126 114q-122 65 -227 65q-107 0 -210 -60q-215 -126 -232 -372v-2q-1 -11 -1.5 -22t-0.5 -22q0 -80 22 -136q31 -80 110 -139q91 -65 196 -65q104 0 238 70q53 29 92 59t65 62h-1q29 35 50 77
t36 97h1zM694 540q-40 79 -177 79q-73 0 -154 -22q-47 -13 -53 -65v-9q0 -22 13 -35q-1 -23 -6 -69.5t-16 -118.5q-1 -8 -2.5 -12.5l-3.5 -10.5q-4 -12 -7.5 -24.5t-3.5 -14.5v-8q0 -20 10 -37q34 -25 57 -25q20 0 40 10q30 14 35 65v10t1 11q0 2 0.5 4t0.5 4v9h2
q17 0 29 -6q19 -10 47 -44q18 -20 33.5 -32.5t27.5 -19.5q5 -2 9 -2h11h9q-67 -35 -147 -35h-12t-13 1q-101 8 -158 62q-59 56 -59 147q0 8 0.5 16t1.5 16v-1q6 43 21 86q30 86 109 138q80 55 171 55q103 0 184 -72q77 -67 77 -154v-10q0 -4 -1 -10q-6 -52 -41 -109
q-16 -26 -32.5 -47t-34.5 -38q6 9 6 20v1q0 14 -21 44l-21.5 20.5l-17.5 17.5q41 21 62 47l-1 -1q17 20 28 42.5t13 46.5v13q0 36 -15 66zM515 494q14 0 28 -2t30 -6l-1 1q16 -4 16 -13v-3q-2 -13 -31 -29l1 1q-25 -13 -51 -19q-20 -5 -36 -7.5t-30 -2.5q1 15 3 33t5 39
q20 5 36 6.5t30 1.5z" />
    <glyph glyph-name="macron" unicode="&#xaf;" horiz-adv-x="244" 
d="M215 626q0 2 1 4v-3q1 3 1.5 8t2.5 7q2 4 3 8t3 8q5 13 9 25.5t4 23.5q0 8 -3 14.5t-6 11.5q-19 21 -35 26t-44 5q-2 0 -13.5 -0.5t-28 -2t-35.5 -5t-34 -9.5v20q-21 -26 -30.5 -43t-9.5 -26q0 -21 14 -31q9 -15 20.5 -19t22.5 -5l-67 -245h-3q-5 -1 -7 -1h-4
q-7 0 -11.5 -0.5t-9.5 -1.5v-1q-39 -14 -39 -50v-13q4 -35 45 -48q9 -3 14 -3.5t13 -0.5q10 0 26 1.5t33 3.5l33.5 4t29.5 4h-1q2 0 3.5 0.5t2.5 0.5q5 1 9 1q6 0 9.5 0.5t6.5 1.5q27 9 35.5 20.5t8.5 28.5q0 2 -0.5 3t-0.5 2v6q-9 17 -19 26t-23 14z" />
    <glyph glyph-name="degree" unicode="&#xb0;" horiz-adv-x="215" 
d="M254 602v8q0 2 0.5 3t0.5 3q0 37 -21.5 65t-66.5 28q-34 0 -61.5 -14.5t-46.5 -36.5t-30 -48t-12 -50v-5q0 -36 20.5 -63.5t70.5 -27.5q27 0 52.5 11t46 30t33 44t14.5 53zM148 591q-4 -9 -10 -13q3 8 10 13z" />
    <glyph glyph-name="plusminus" unicode="&#xb1;" horiz-adv-x="461" 
d="M489 465q0 52 -46 62q-25 3 -46 4.5l-35 2.5q-17 2 -25 2.5l-8 0.5h1q-7 4 -7 22q0 5 0.5 13.5t2.5 19.5t3 20.5t1 17.5q0 76 -66 76q-45 0 -60 -51q-5 -15 -4.5 -27t-1.5 -31q0 -3 -0.5 -6t-0.5 -7v2q-1 -6 -1 -11q0 -4 -1 -9q-1 -10 -1.5 -15.5t-3.5 -17.5
q-2 -12 -47 -12q-27 0 -42.5 -1t-22.5 -2q-54 -15 -54 -60q0 -12 2.5 -21.5t6.5 -18.5q22 -38 77 -38q2 0 6.5 0.5t9.5 0.5q5 1 10 1h8q16 0 16 -8v-13q0 -6 -1 -15q0 -3 -0.5 -5.5t-0.5 -4.5q-3 -24 -3 -41q0 -89 65 -89q27 0 41 16v-1q9 9 22 53q2 6 2.5 11.5t2.5 10.5
q2 9 4.5 17.5t3.5 11.5q6 27 17 43q15 20 33 20h75q30 0 51 24q17 20 17 53zM465 113q0 50 -45 61q-5 1 -12 1.5t-12 1.5l-29 3.5t-24 1.5h-7q-35 -2 -62.5 -4t-50.5 -4q-29 -2 -53 -3.5t-51 -1.5t-42.5 -1t-22.5 -2q-54 -15 -54 -60q0 -12 2.5 -21.5t6.5 -18.5
q22 -38 77 -38q2 0 6.5 0.5t9.5 0.5q5 1 10 1h8l277 6q30 0 51 24q17 20 17 53z" />
    <glyph glyph-name="threesuperior" unicode="&#xb3;" horiz-adv-x="419" 
d="M380 370q10 20 15.5 41.5t5.5 44.5q0 44 -24 80q14 15 25 36.5t11 49.5v5q0 25 -9 43.5t-25 31t-36.5 18.5t-42.5 6h-11q-5 0 -10 -1h2q-25 0 -51.5 -5t-52 -16.5t-50 -30t-44.5 -46.5q6 -27 19 -48.5t42 -22.5q-4 -2 -7 -5t-7 -6q-5 -14 -5.5 -22t-0.5 -14
q0 -29 15.5 -46.5t41.5 -17.5q8 0 12.5 1t10.5 3q11 4 23 6.5t24 2.5q2 0 3.5 0.5t3.5 0.5q10 0 15.5 -6.5t5.5 -16.5v3q-7 -26 -32.5 -43.5t-53.5 -17.5q-18 0 -31 7q-8 3 -16.5 11l-16.5 16l-2 3l1 -2q-12 15 -23.5 25.5t-30.5 10.5q-10 -1 -22 -8v2q-8 -5 -17.5 -13
t-17.5 -18t-13.5 -22.5t-5.5 -27.5q0 -12 3 -16q18 -38 42 -53t60 -27q19 -6 37.5 -8.5t35.5 -2.5q32 0 64 8.5t60 23.5t49 36t31 47zM268 609q6 0 10 -1q-3 -4 -12 -13q-11 -5 -24.5 -8t-27.5 -5h2q-1 0 -1.5 -0.5t-1.5 -0.5h-5q-4 -1 -8 -1.5t-8 -2.5q18 12 38 22t38 10z
" />
    <glyph glyph-name="acute" unicode="&#xb4;" horiz-adv-x="248" 
d="M87 578h7q10 0 21 4.5t31 29.5q4 5 14.5 13.5t26.5 19.5l1 1l28 22.5t21 20t16 23.5t13 32q0 1 0.5 2.5t0.5 3.5v-3q1 3 1.5 7t0.5 14q0 29 -13 40.5t-36 11.5q-26 0 -64 -24q-14 -9 -29 -25t-29.5 -34t-26.5 -37t-20 -35q-12 -24 -12 -39q0 -20 11.5 -29t36.5 -19z" />
    <glyph glyph-name="paragraph" unicode="&#xb6;" horiz-adv-x="468" 
d="M378 626q-55 0 -113.5 -20.5t-108 -60t-84 -97t-40.5 -130.5q-1 -6 -1 -14v-14q0 -79 37.5 -124t109.5 -45h17l-13 -210v-7q0 -29 10.5 -47t27.5 -25l-17 -17q12 3 22.5 6.5l19.5 6.5q5 0 16 3l-2 3q28 13 43 31t23 46q0 -29 11 -46.5t28 -24.5l-16 -16q25 7 41 12
q4 0 15 3l-2 3q40 18 55.5 49t20.5 88l36 566v4q0 25 -15 40t-36.5 23t-45 11t-39.5 3z" />
    <glyph glyph-name="cedilla" unicode="&#xb7;" horiz-adv-x="158" 
d="M28 349v-10q0 -14 4.5 -25t11.5 -20q23 -17 43.5 -23.5t31.5 -6.5q16 0 31 4t26 10q22 12 37 31t16 42q0 46 -46 64l1 -1q-11 6 -24 10t-26 4q-14 0 -19 -1h1q-2 -1 -6 -1q-32 -6 -55 -27t-27 -50z" />
    <glyph glyph-name="ordmasculine" unicode="&#xba;" horiz-adv-x="449" 
d="M324 673q-21 6 -36.5 7.5t-29.5 1.5q-46 0 -83.5 -16t-67 -42t-52 -58t-39.5 -63q-15 -32 -15 -62q0 -35 16 -67.5t42 -53.5l-1 1q27 -23 61 -32.5t72 -9.5q28 0 54 3q45 8 76.5 22l60.5 28l6 3q5 2 10.5 4.5l14.5 6.5q45 22 61.5 62t16.5 85q0 35 -7 63l-2 1
q-8 29 -25 48t-39 32t-47 21zM29 151q11 -16 34 -21.5t55 -5.5h24q7 0 14 0.5t15 0.5h3q16 0 41.5 0.5t51.5 1.5t47.5 2.5t28.5 3.5h16q26 0 40 1.5t26 9.5q15 7 19 14.5t4 23.5l-5 10h1q-5 11 -9.5 19.5t-12.5 13.5h1q-29 27 -71.5 34t-90.5 7h-43q-5 0 -11.5 -0.5
t-11.5 -0.5q-5 -1 -10 -1h-8q-48 0 -74 -0.5t-40 -2.5q-26 -5 -40 -11.5t-14 -31.5v-4q0 -6 1 -9v-4q0 -3 0.5 -5.5t2.5 -7.5l-1 3q3 -9 6.5 -21t11.5 -21zM314 490q-7 -13 -20.5 -21.5t-30 -14t-33 -8t-28.5 -2.5t-13 4q0 2 -0.5 3t-0.5 3q0 27 17 41.5t34 23.5q2 2 6 3.5
t6 3.5h5q8 0 18 -3t19 -7.5t15 -11.5t6 -14z" />
    <glyph glyph-name="guillemotright" unicode="&#xbb;" horiz-adv-x="427" 
d="M52 111h5q20 0 41 14v-1l118 77q19 8 34 23.5t19 37.5q0 3 0.5 7t0.5 6q0 18 -6.5 27t-16.5 15l-94 114l-5 5q-5 7 -10 12t-12 9l-3 4v-2q-4 2 -7.5 2.5t-7.5 2.5h-12q-15 0 -28 -10t-25 -39q-4 -10 -4 -12q0 -1 -0.5 -2.5t-0.5 -2.5v-6q0 -12 6 -25t23 -28l-2 1l52 -63
l-62 -40h1q-27 -14 -38.5 -33.5t-12.5 -30.5q0 -1 -0.5 -2.5t-0.5 -3.5q0 -8 3 -15q6 -23 15.5 -31t29.5 -10zM252 93h5q20 0 41 14v-1l118 77q19 8 34 23.5t19 37.5q0 3 0.5 7t0.5 6q0 18 -6.5 27t-16.5 15l-94 114l-5 4q-9 16 -22 22l-3 4v-2q-4 2 -7.5 2.5t-7.5 2.5h-12
q-15 0 -28 -10t-25 -39q-4 -10 -4 -12q0 -1 -0.5 -2.5t-0.5 -2.5v-6q0 -12 6 -25t23 -28l-2 1l52 -63l-62 -40h1q-27 -14 -38.5 -33.5t-12.5 -30.5q0 -1 -0.5 -2.5t-0.5 -3.5q0 -8 3 -15q6 -23 15.5 -31t29.5 -10z" />
    <glyph glyph-name="onequarter" unicode="&#xbc;" horiz-adv-x="709" 
d="M520 607q0 25 -13.5 42.5t-45.5 17.5q-21 0 -35.5 -4.5t-24 -12t-15.5 -17t-9 -19.5q-11 -17 -27.5 -46l-37 -65l-43 -77l-44.5 -82v1v9q-5 15 -14 23.5t-20 13.5l78 203l3 3l-9 12l9 -9q1 2 2 4.5t2 4.5v-1l14.5 32t7.5 31v5q0 14 -10 24l1 -2q-14 20 -30 23.5t-43 3.5
q-1 0 -17 -0.5t-37 -3t-42 -8.5t-31 -17v1q-8 -8 -11 -18.5t-3 -18.5q0 -5 1 -11t3 -11q6 -14 17.5 -19t24.5 -7l-77 -215q-7 -1 -12 -2t-13 -3l2 -4q-27 -11 -37 -25t-10 -25q0 -39 44 -53q5 -3 10.5 -3.5t12.5 -0.5q12 0 26.5 1t30 3t30 3.5t25.5 3.5q6 0 14 2
q1 0 2.5 0.5t2.5 0.5q4 2 5 2h8q13 6 21 12l-55.5 -107t-37.5 -78l1 1q-22 -45 -22 -75t15.5 -44.5t51.5 -14.5q16 0 28.5 7t21.5 17.5t15.5 22.5l11.5 22l-1 -1q2 3 3.5 6t1.5 5l-1 -2l7.5 18t4.5 10q9 20 24.5 49.5l35 63.5l42 71.5l44.5 74.5q5 8 8.5 14.5t8.5 14.5
l-19.5 -36.5l-12.5 -22l-7.5 -12.5l-4.5 -7q-18 -26 -30.5 -50.5t-20.5 -62.5q2 -21 13.5 -47t22.5 -38q12 -9 29 -9q11 0 25.5 4t23.5 6l-1 -1q7 0 9 2q17 1 39 2t41 2q-2 -8 -2 -10l1 1q-6 -23 -10 -37t-6 -22.5t-2.5 -13t-0.5 -8.5q0 -20 8 -31t34 -11h10q16 0 26.5 1.5
t18 6t13 12.5t10.5 21q3 6 6 16t5.5 21.5t4.5 23t4 20.5v-1q1 3 1 11q0 7 1 10q19 1 28.5 3t21.5 10h-1q11 6 20 12.5t15 14.5t9.5 20.5t3.5 30.5v3q0 31 -12.5 41t-34.5 10q-7 0 -12 -0.5t-10 -1.5q7 29 12 45t10 27t7 19.5t2 23.5q-6 23 -21.5 33.5t-36.5 10.5
q-27 -3 -44.5 -24.5t-28.5 -49.5t-16.5 -56.5t-7.5 -43.5v-1q-18 -3 -41 -5.5t-44 -4.5q2 4 4.5 7.5t5.5 8.5l23 36t21.5 36l16 29.5t6.5 17.5v1q0 1 0.5 1.5t0.5 1.5l-1 -6q4 8 4 19q0 21 -10.5 35t-28.5 21q-4 1 -7.5 2t-11.5 1q-24 0 -39 -14l36.5 64t26.5 51v3
q1 3 2 6.5t2 6.5l-1 -1q8 22 8 39zM171 294h-3h3z" />
    <glyph glyph-name="onehalf" unicode="&#xbd;" horiz-adv-x="709" 
d="M520 607q0 25 -13.5 42.5t-45.5 17.5q-21 0 -35.5 -4.5t-24 -12t-15.5 -17t-9 -19.5q-11 -17 -27.5 -46l-37 -65l-43 -77l-44.5 -82v1v9q-5 15 -14 23.5t-20 13.5l78 203l3 3l-9 12l9 -9q1 2 2 4.5t2 4.5v-1l14.5 32t7.5 31v5q0 14 -10 24l1 -2q-14 20 -30 23.5t-43 3.5
q-1 0 -17 -0.5t-37 -3t-42 -8.5t-31 -17v1q-8 -8 -11 -18.5t-3 -18.5q0 -5 1 -11t3 -11q6 -14 17.5 -19t24.5 -7l-77 -215q-7 -1 -12 -2t-13 -3l2 -4q-27 -11 -37 -25t-10 -25q0 -39 44 -53q5 -3 10.5 -3.5t12.5 -0.5q12 0 26.5 1t30 3t30 3.5t25.5 3.5q5 0 15 2q1 0 2 0.5
t2 0.5q4 2 5 2h8q13 6 21 12l-55.5 -107t-37.5 -78l1 1q-22 -45 -22 -75t15.5 -44.5t51.5 -14.5q16 0 28.5 7t21.5 17.5t15.5 22.5l11.5 22l-1 -1q2 3 3.5 6t1.5 5l-1 -2l7.5 18t4.5 10q9 21 25.5 52t37.5 67v-7q5 -16 16 -27.5t37 -21.5l-1 -2q2 -1 4 -1q3 0 6 -1
q8 -2 17.5 -5t21.5 -5l-12 12q9 2 17.5 6.5t15.5 12.5q32 45 49 63.5t24 24.5l-2 -2q10 6 13 13q14 14 30 26t30 14q-3 -12 -6.5 -20t-8.5 -17t-13 -20t-21 -27q-25 -32 -55 -61t-78 -64q-7 -3 -13 -6t-19 -6v-1h-1l-2 -1v-24l-4 23q-2 -1 -4 -1t-4 -1h1q-12 -3 -23.5 -7
t-22.5 -20v-2q-4 -6 -6.5 -12t-2.5 -14v-5q0 -6 1 -13t7 -13q18 -35 60 -35q2 0 7 0.5t15 4.5l32.5 6.5t23.5 4t23.5 2t31.5 2.5q5 0 10 0.5t10 0.5q18 3 33 4t29 1h44q45 11 50 45q1 5 1 13q0 17 -10.5 29t-22.5 17h1q-9 5 -23 7l-29 4q12 11 24.5 24l26.5 28
q16 18 30.5 41t26 46.5t18.5 45.5t7 39v8q-4 53 -57 61q-4 0 -10 2q-7 0 -11 2l2 -1q-3 3 -4 6q-3 1 -5 6q-3 4 -6.5 7.5t-11.5 7.5l-1 2q-25 11 -47 11q-25 0 -56 -13.5t-67 -42.5h1q-17 -12 -40.5 -37l-46.5 -52l16.5 27.5l16.5 27.5l16 27.5l16 26.5l47 81t33 63v3
q1 3 2 6.5t2 6.5l-1 -1q8 22 8 39zM171 294h-3h3z" />
    <glyph glyph-name="threequarters" unicode="&#xbe;" horiz-adv-x="822" 
d="M633 607q0 25 -13.5 42.5t-45.5 17.5q-21 0 -35.5 -4.5t-24 -12t-15.5 -17t-9 -19.5l-34.5 -58.5l-47 -83.5l-53.5 -97l-53 -98.5l-45 -87.5t-31 -65l1 1q-22 -45 -22 -75t15.5 -44.5t51.5 -14.5q16 0 28.5 7t21.5 17.5t15.5 22.5l11.5 22l-1 -1q2 3 3.5 6t1.5 5l-1 -2
l7.5 18t4.5 10q9 20 24.5 49.5l35 63.5l42 71.5l44.5 74.5q5 8 8.5 14.5t8.5 14.5l-19.5 -36.5l-12.5 -22l-7.5 -12.5l-4.5 -7q-18 -26 -30.5 -50.5t-20.5 -62.5q2 -21 13.5 -47t22.5 -38q12 -9 29 -9q11 0 25.5 4t23.5 6l-1 -1q7 0 9 2q17 1 39 2t41 2q-2 -8 -2 -10l1 1
q-6 -23 -10 -37t-6 -22.5t-2.5 -13t-0.5 -8.5q0 -20 8 -31t34 -11h10q16 0 26.5 1.5t18 6t13 12.5t10.5 21q3 6 6 16t5.5 21.5t4.5 23t4 20.5v-1q1 3 1 11q0 7 1 10q19 1 28.5 3t21.5 10h-1q11 6 20 12.5t15 14.5t9.5 20.5t3.5 30.5v3q0 31 -12.5 41t-34.5 10q-7 0 -12 -0.5
t-10 -1.5q7 29 12 45t10 27t7 19.5t2 23.5q-6 23 -21.5 33.5t-36.5 10.5q-27 -3 -44.5 -24.5t-28.5 -49.5t-16.5 -56.5t-7.5 -43.5v-1q-18 -3 -41 -5.5t-44 -4.5q2 4 4.5 7.5t5.5 8.5l23 36t21.5 36l16 29.5t6.5 17.5v1q0 1 0.5 1.5t0.5 1.5l-1 -6q4 8 4 19q0 21 -10.5 35
t-28.5 21q-4 1 -7.5 2t-11.5 1q-24 0 -39 -14l36.5 64t26.5 51v3q1 3 2 6.5t2 6.5l-1 -1q8 22 8 39zM352 374q10 20 15.5 41.5t5.5 44.5q0 44 -24 80q14 15 25 36.5t11 49.5v5q0 25 -9 43.5t-25 31t-36.5 18.5t-42.5 6h-11q-5 0 -10 -1q-50 -1 -103 -22t-93 -76
q6 -27 19 -48.5t42 -22.5q-4 -2 -7 -5t-7 -6q-5 -14 -5.5 -22t-0.5 -14q0 -29 15.5 -46.5t41.5 -17.5q8 0 12.5 1t10.5 3q11 4 23 6.5t24 2.5q2 0 3.5 0.5t3.5 0.5q9 0 14.5 -6t6.5 -14q-7 -26 -32.5 -43.5t-53.5 -17.5q-18 0 -31 7q-8 3 -16.5 11l-16.5 16l-2 3l1 -2
q-12 15 -23.5 25.5t-30.5 10.5q-10 -1 -22 -8v2q-8 -5 -17.5 -13t-17.5 -18t-13.5 -22.5t-5.5 -27.5q0 -7 0.5 -10t3.5 -6q17 -38 41 -53t60 -27q19 -6 37.5 -8.5t35.5 -2.5q32 0 64 8.5t60 23.5t49 36t31 47zM240 613q6 0 10 -1q-3 -4 -12 -13q-11 -5 -24.5 -8t-27.5 -5h2
q-1 0 -1.5 -0.5t-1.5 -0.5h-5q-4 -1 -8 -1.5t-8 -2.5q18 12 38 22t38 10z" />
    <glyph glyph-name="questiondown" unicode="&#xbf;" horiz-adv-x="675" 
d="M0 -57q0 -46 31 -87q45 -55 105 -67q20 -4 48.5 -6t66.5 -2q61 0 96 7q99 13 132 25h-1q166 47 190 126q0 1 0.5 1.5t0.5 1.5l-1 -5q2 5 2 8v8q0 9 -1 22t-4 25t-9.5 21t-18.5 11q-17 14 -35 14q-17 0 -37 -9.5t-46 -23.5q-13 -8 -23 -15.5t-16 -12.5q-6 -2 -4 -4
q-15 -5 -26 -10t-19 -9l-20.5 -9t-27.5 -6q-34 -5 -59 -7.5t-42 -2.5h-2q-115 0 -115 30l2 8l-1 -1q16 52 141 93q12 5 22 8t23 5l41.5 7t53.5 11q-3 -2 -2 -1.5t4 1t6.5 2t5.5 1.5l12 3h-1q10 2 14 3q6 2 13.5 3.5t12.5 3.5q2 1 13 3h2q28 7 48 29.5t28 46.5v-1q3 6 4.5 16
t2.5 29v3q1 5 1.5 10.5t0.5 12.5v21q0 9 0.5 18t1.5 18q1 8 1.5 14.5t0.5 13.5q0 21 -8 34t-34 15q-8 1 -16 1h-14q-44 0 -56.5 -14t-12.5 -48q0 -10 -1.5 -22t-3.5 -26l-5 -11l-1 -2q-3 -2 -6 -3.5t-8 -2.5l2 1q-13 -2 -16.5 -2.5t-12.5 -2.5h1q-36 -5 -76.5 -17.5
t-86.5 -32.5q-50 -20 -87.5 -41.5t-65.5 -44.5q-31 -28 -59 -66l1 2q-4 -4 -5.5 -6.5t-1.5 -8.5l4 11q-1 -1 -1.5 -2.5t-1.5 -2.5l-4.5 -7l-4.5 -7.5t-2.5 -5t1.5 1.5q-9 -14 -16 -26t-12 -27v-1q-4 -13 -5 -22.5t-1 -18.5zM458 481q0 -29 24 -51q26 -23 63 -23q66 0 93 40
l-1 -3q18 18 23 32q5 17 7.5 31t2.5 27q0 70 -73 70q-41 0 -82 -31q-21 -14 -34 -31.5t-19 -36.5q-3 -7 -3.5 -11.5t-0.5 -12.5zM468 278q-2 -2 -3 -2v1z" />
    <glyph glyph-name="Agrave" unicode="&#xc0;" horiz-adv-x="628" 
d="M499 694q26 9 37.5 18.5t11.5 29.5q0 7 -3.5 16t-9.5 23q-8 17 -20.5 36.5t-27 37.5t-29.5 33.5t-28 24.5q-17 11 -33 17t-30 6q-23 0 -36 -11.5t-13 -40.5q0 -11 1 -16t3 -11q6 -18 12.5 -30t15.5 -22.5t20.5 -20l28.5 -22.5v-1h1q16 -11 26.5 -19.5t14.5 -13.5
q8 -11 16 -17.5t16 -10.5q-56 -9 -89 -21t-53 -28.5t-31.5 -38l-24.5 -47.5l-22.5 -44t-27.5 -47l-55 -89.5l-60 -101.5l-57.5 -103t-47.5 -94q-8 -18 -11.5 -32.5t-3.5 -34.5v-13q0 -15 7 -27t18 -20.5t24 -13t26 -4.5q31 0 55 12.5t41 48.5q5 12 10 22.5l9 19.5
q10 23 18 38.5t20 28.5h10h1q0 1 2 1q12 1 26 1.5t29 1.5l84.5 4t67.5 2h7l3 -2h1l4 -26l10 -51q5 -26 12 -40.5t17.5 -22.5t24.5 -11.5t33 -6.5q9 0 18.5 2t22.5 8h-1q23 8 32.5 28t9.5 41q0 16 -7 32l-1 3l2 -5q-84 603 -130 621h-2h2q-7 2 -12 3l-10 2v3q8 -4 13 -4.5
t8 -0.5h4zM278 246l120 199l24 -197l-2 -2h-142z" />
    <glyph glyph-name="Aacute" unicode="&#xc1;" horiz-adv-x="628" 
d="M453 93l10 -51q5 -26 12 -40.5t17.5 -22.5t24.5 -11.5t33 -6.5q9 0 18.5 2t22.5 8h-1q23 8 32.5 28t9.5 41q0 16 -7 32l-1 3l2 -5q-84 603 -130 621h-2h2q-7 2 -12 3l-10 2v4q-57 -9 -90 -21t-53 -28.5t-31.5 -38l-24.5 -47.5l-22.5 -44t-27.5 -47l-55 -89.5l-60 -101.5
l-57.5 -103t-47.5 -94q-8 -18 -11.5 -32.5t-3.5 -34.5v-13q0 -15 7 -27t18 -20.5t24 -13t26 -4.5q31 0 55 12.5t41 48.5q5 12 10 22.5l9 19.5q10 23 18 38.5t20 28.5h10h1q0 1 2 1q12 1 26 1.5t29 1.5l84.5 4t67.5 2h7l3 -2h1zM388 688h7q10 0 21 4.5t31 29.5q4 5 14.5 13.5
t26.5 19.5l1 1l28 22.5t21 20t16 23.5t13 32q0 1 0.5 2.5t0.5 3.5v-3q1 3 1.5 7t0.5 14q0 29 -13 40.5t-36 11.5q-26 0 -64 -24q-14 -9 -29 -25t-29.5 -34t-26.5 -37t-20 -35q-12 -24 -12 -39q0 -20 11.5 -29t36.5 -19zM278 246l120 200l24 -198l-2 -2h-142z" />
    <glyph glyph-name="Acircumflex" unicode="&#xc2;" horiz-adv-x="628" 
d="M453 93l10 -51q5 -26 12 -40.5t17.5 -22.5t24.5 -11.5t33 -6.5q9 0 18.5 2t22.5 8h-1q23 8 32.5 28t9.5 41q0 16 -7 32l-1 3l2 -5q-84 603 -130 621h-2h2q-7 2 -12 3l-10 2v4q-57 -9 -90 -21t-53 -28.5t-31.5 -38l-24.5 -47.5l-22.5 -44t-27.5 -47l-55 -89.5l-60 -101.5
l-57.5 -103t-47.5 -94q-8 -18 -11.5 -32.5t-3.5 -34.5v-13q0 -15 7 -27t18 -20.5t24 -13t26 -4.5q31 0 55 12.5t41 48.5q5 12 10 22.5l9 19.5q10 23 18 38.5t20 28.5h10h1q0 1 2 1q12 1 26 1.5t29 1.5l84.5 4t67.5 2h7l3 -2h1zM553 814q-6 12 -11.5 17.5t-13.5 10.5l-7 -26
q-2 4 -12 19t-25.5 30.5t-36 28t-43.5 12.5h-3q-20 0 -32.5 -11.5t-18.5 -39.5q0 -2 -6 -5.5t-14 -7.5l-17 -9.5t-13 -11.5q-11 -11 -19 -28t-8 -37q0 -8 1 -16.5t6 -16.5q17 -34 47 -34q19 0 42 19l17 17q4 4 7 7.5t6 6.5l5 5t6 7q16 -3 29.5 -10.5t36.5 -24.5q7 -5 14 -8
t18 -3q15 0 30 12q12 9 18 23t6 31q0 10 -3.5 20.5t-6.5 22.5h1zM278 246l120 200l24 -198l-2 -2h-142z" />
    <glyph glyph-name="Atilde" unicode="&#xc3;" horiz-adv-x="628" 
d="M581 788v3q0 18 -18.5 31.5t-38.5 13.5q-16 0 -30 -7t-22 -22q-4 -6 -4 -12q-1 -2 -1 -4v1q0 -1 -1 -1v0l-0.5 0.5t-0.5 1.5h-1v1l-11.5 16l-14.5 20v-10q-8 5 -19 8.5t-25 3.5q-18 0 -40 -8t-41.5 -20.5t-33 -29t-14.5 -32.5v-3q0 -20 16 -34.5t42 -14.5q18 0 29 8
t22 19l7 7l2 -2q8 -8 18 -17t26 -14q-41 -9 -65 -21t-39.5 -27.5t-25.5 -35l-22 -42.5l-22.5 -44t-27.5 -47l-55 -89.5l-60 -101.5l-57.5 -103t-47.5 -94q-8 -18 -11.5 -32.5t-3.5 -34.5v-13q0 -15 7 -27t18 -20.5t24 -13t26 -4.5q31 0 55 12.5t41 48.5q5 12 10 22.5l9 19.5
q10 23 18 38.5t20 28.5h10h1q0 1 2 1q12 1 26 1.5t29 1.5l84.5 4t67.5 2h7l3 -2h1l4 -26l10 -51q5 -26 12 -40.5t17.5 -22.5t24.5 -11.5t33 -6.5q9 0 18.5 2t22.5 8h-1q23 8 32.5 28t9.5 41q0 16 -7 32l-1 3l2 -5q-81 581 -127 618q36 6 56.5 28.5t25.5 71.5zM278 246
l120 199l24 -197l-2 -2h-142z" />
    <glyph glyph-name="Adieresis" unicode="&#xc4;" horiz-adv-x="628" 
d="M621 756q-3 29 -30.5 49t-70.5 20h-5q-38 0 -63.5 -13.5t-31.5 -36.5q-10 22 -34.5 36t-63.5 14h-2q-45 0 -72.5 -18.5t-27.5 -50.5q7 -29 32.5 -47.5t67.5 -19.5q40 0 67.5 13t34.5 36q11 -27 43 -40q-53 -9 -84.5 -21t-51 -28.5t-30.5 -37.5l-24 -46l-22.5 -44
t-27.5 -47l-55 -89.5l-60 -101.5l-57.5 -103t-47.5 -94q-8 -18 -11.5 -32.5t-3.5 -34.5v-13q0 -15 7 -27t18 -20.5t24 -13t26 -4.5q31 0 55 12.5t41 48.5q5 12 10 22.5l9 19.5q10 23 18 38.5t20 28.5h10h1q0 1 2 1q12 1 26 1.5t29 1.5l84.5 4t67.5 2h7l3 -2h1l4 -26l10 -51
q5 -26 12 -40.5t17.5 -22.5t24.5 -11.5t33 -6.5q9 0 18.5 2t22.5 8h-1q23 8 32.5 28t9.5 41q0 16 -7 32l-1 3l2 -5q-83 593 -129 620q5 -1 9 -1h10q45 0 75 17.5t30 47.5v2zM278 246l120 200l24 -198l-2 -2h-142z" />
    <glyph glyph-name="Aring" unicode="&#xc5;" horiz-adv-x="628" 
d="M549 824v8q0 2 0.5 3t0.5 3q0 37 -21.5 65t-66.5 28q-34 0 -61.5 -14.5t-46.5 -36.5t-30 -48t-12 -50v-5q0 -36 20.5 -63.5t70.5 -27.5h3q-33 -9 -53.5 -21.5t-34 -27.5t-23 -33l-20.5 -39l-22.5 -44t-27.5 -47l-55 -89.5l-60 -101.5l-57.5 -103t-47.5 -94
q-8 -18 -11.5 -32.5t-3.5 -34.5v-13q0 -15 7 -27t18 -20.5t24 -13t26 -4.5q31 0 55 12.5t41 48.5q5 12 10 22.5l9 19.5q10 23 18 38.5t20 28.5h10h1q0 1 2 1q12 1 26 1.5t29 1.5l84.5 4t67.5 2h7l3 -2h1l4 -26l10 -51q5 -26 12 -40.5t17.5 -22.5t24.5 -11.5t33 -6.5
q9 0 18.5 2t22.5 8h-1q23 8 32.5 28t9.5 41q0 16 -7 32l-1 3l2 -5q-84 603 -130 621h-2h2q-7 2 -12 3l-10 2v4q-5 -1 -9.5 -1.5t-9.5 -1.5q38 16 65 50t29 77zM278 246l120 199l24 -197l-2 -2h-142zM443 813q-4 -9 -10 -13q3 8 10 13z" />
    <glyph glyph-name="AE" unicode="&#xc6;" horiz-adv-x="1045" 
d="M453 93l10 -51q5 -26 12 -40.5t17.5 -22.5t24.5 -11.5t33 -6.5q6 0 14.5 1.5t17.5 5.5q9 -3 16 -3q24 0 42 2.5t38 6.5l10.5 2t12.5 2h2l294 44q25 2 35.5 7.5t13.5 10.5v-1q7 12 7 22q0 8 -4 19l1 -2q-2 5 -4.5 12.5t-9.5 18.5h-9q-14 9 -32 12.5t-35 5.5q-3 0 -7 0.5
t-7 0.5q-12 0 -23.5 -1t-22.5 -3t-22.5 -3t-22.5 -1h-8q-2 0 -3.5 0.5t-3.5 0.5h-7t-11 -1h1q-13 -1 -29.5 -2.5t-27.5 -1.5q-9 -1 -19 -1q-9 0 -18 -1q-26 -2 -53 -3.5t-52 -5.5l-4 3q-6 36 -9 69q-5 33 -9 63q0 3 -0.5 6.5t-0.5 7.5q-1 7 -1.5 13.5t-0.5 11.5h10
q7 -1 13 -1h12h21q16 0 33 0.5t38.5 2t50 4t68.5 6.5q5 0 14.5 0.5t20.5 1.5q9 1 17 1.5t12 0.5q24 4 32.5 15t8.5 25q0 5 -1.5 10.5l-3.5 12.5l-7 21q-15 26 -43 32t-61 6h-112h-71q-35 0 -60 3l-6 5q-1 10 -2.5 28t-2.5 38l-2 39.5t-1 31.5l18 2q5 1 10 1.5t16 0.5h40
l188 8h37q6 0 10 0.5t9 3.5h-4q3 0 7 2l3 3q0 -1 -0.5 -1.5t-0.5 -1.5q19 7 26 17t7 22q0 4 -0.5 6.5t-2.5 7.5l1 -2l-4 11q-10 13 -19 20.5t-21 11.5t-28 6t-39 4q-23 0 -53 1t-63 3l-92 4t-92 2q-42 0 -77.5 -2.5t-61.5 -9.5q-28 -9 -45.5 -20.5t-30 -26t-21.5 -32
l-19 -38.5l-22.5 -44t-27.5 -47l-55 -89.5l-60 -101.5l-57.5 -103t-47.5 -94q-8 -18 -11.5 -32.5t-3.5 -34.5v-13q0 -15 7 -27t18 -20.5t24 -13t26 -4.5q31 0 55 12.5t41 48.5q5 12 10 22.5l9 19.5q10 23 18 38.5t20 28.5h10h1q0 1 2 1q12 1 26 1.5t29 1.5l84.5 4t67.5 2h7
l3 -2h1zM278 246l120 200l24 -198l-2 -2h-142zM910 580h-2q-2 -2 -3 -2q3 0 5 2z" />
    <glyph glyph-name="Ccedilla" unicode="&#xc7;" horiz-adv-x="610" 
d="M156 -85q-1 0 -3 -2q-13 -7 -17.5 -12t-4.5 -22q0 -12 11 -14t29 -2h11q-32 -19 -45 -39.5t-13 -31.5q0 -25 29.5 -36.5t72.5 -11.5q34 0 73 6.5t72 18.5t54.5 29t21.5 37v11q0 24 -17 43t-40 35l-15.5 7.5t-15.5 5.5q61 8 112.5 32.5t105.5 66.5q19 16 27.5 27t15.5 24
q-2 65 -57 65h-4q-2 0 -27 -9t-57 -27v2q-26 -14 -57 -28t-82 -28q-3 -1 -10.5 -1.5t-21.5 -0.5t-37 4.5t-65 21.5q-17 17 -30.5 36t-18.5 44v9q0 10 1 13q6 57 30 105q27 53 59.5 103.5t70.5 85.5q26 28 55.5 47t61.5 20l86 -62q19 -11 30 -16.5t16.5 -8t8.5 -3t6 -0.5
q29 13 45.5 33t16.5 36q0 4 -1 8v9q-8 30 -32 51.5t-61 40.5q-28 15 -49 24.5t-37.5 15t-31 8t-29.5 2.5q-16 0 -39.5 -4t-55.5 -14q-63 -39 -117 -90.5t-95.5 -113.5t-68 -132.5t-34.5 -146.5v-15q0 -9 1 -13q2 -28 7 -48t16 -40l23 -27l-1 1q31 -42 74 -63t91 -32z" />
    <glyph glyph-name="Egrave" unicode="&#xc8;" horiz-adv-x="649" 
d="M-6 15l40 -25.5t8 -5l-6 3t-2 0.5q20 -16 39 -28.5t35 -12.5q24 0 42.5 2.5t40.5 6.5q5 1 11 2l12 2h3l309 44q24 2 35 6t15 8q8 8 11.5 16t3.5 23q0 4 -0.5 10t-2.5 24h-13q-12 8 -29 12t-34 6q-5 0 -9 1q-15 0 -27.5 -1t-23.5 -3q-12 -2 -23.5 -3t-22.5 -1h-7
q-2 0 -3.5 0.5t-3.5 0.5h-7t-12 -1q-14 -1 -30.5 -2.5t-27.5 -1.5q-9 -1 -19 -1q-9 0 -19 -1q-27 -2 -54 -3.5t-52 -4.5l-2 1q2 14 6.5 38t10.5 50l11.5 49t9.5 35h14q7 -1 13 -1h12h21q16 0 33 0.5t38.5 2t50.5 4t71 6.5q5 0 15.5 0.5t21.5 1.5q10 1 18 1.5t11 0.5
q18 2 28.5 8t15.5 14.5t6.5 18t1.5 18.5v23q-3 14 -12.5 22t-22.5 12t-29 5t-33 1h-112h-70t-59 3l-1 1q2 9 6.5 26l10 37.5l11.5 41l11 36.5q7 1 11 1q5 0 9 1q7 1 13 1.5t17 0.5h40l189 8h37q8 0 12 0.5t8 3.5h-3q2 0 4 1l-1 -1l1 1q28 8 37.5 20.5t9.5 26.5v13
q-6 13 -13.5 21t-18 12.5t-26.5 7t-39 4.5q-14 1 -30 1.5t-33 1.5q-25 1 -51.5 2.5t-51.5 2.5t-47.5 1.5t-38.5 0.5h-78h-19q-10 0 -21 1q-32 0 -50.5 -3.5t-29.5 -15t-17 -32.5t-14 -56zM439 690q26 9 37.5 18.5t11.5 29.5q0 7 -3.5 16t-9.5 23q-8 17 -20.5 36.5t-27 37.5
t-29.5 33.5t-28 24.5q-17 11 -33 17t-30 6q-23 0 -36 -11.5t-13 -40.5q0 -11 1 -16t3 -11q6 -18 12.5 -30t15.5 -22.5t20.5 -20l28.5 -22.5v-1h1q16 -11 26.5 -19.5t14.5 -13.5q18 -23 33.5 -28.5t20.5 -5.5h4z" />
    <glyph glyph-name="Eacute" unicode="&#xc9;" horiz-adv-x="649" 
d="M-6 15l40 -25.5t8 -5l-6 3t-2 0.5q20 -16 39 -28.5t35 -12.5q24 0 42.5 2.5t40.5 6.5q5 1 11 2l12 2h3l309 44q24 2 35 6t15 8q8 8 11.5 16t3.5 23q0 4 -0.5 10t-2.5 24h-13q-12 8 -29 12t-34 6q-5 0 -9 1q-15 0 -27.5 -1t-23.5 -3q-12 -2 -23.5 -3t-22.5 -1h-7
q-2 0 -3.5 0.5t-3.5 0.5h-7t-12 -1h1q-14 -1 -31 -2.5t-28 -1.5q-9 -1 -19 -1q-9 0 -19 -1q-27 -2 -54 -3.5t-52 -4.5l-2 1q2 14 6.5 38t10.5 50l11.5 49t9.5 35h14q7 -1 13 -1h12h21q16 0 33 0.5t38.5 2t50.5 4t71 6.5q5 0 15.5 0.5t21.5 1.5q10 1 18 1.5t11 0.5
q18 2 28.5 8t15.5 14.5t6.5 18t1.5 18.5v23q-3 14 -12.5 22t-22.5 12t-29 5t-33 1h-112h-70t-59 3l-1 1q2 9 6.5 26l10 37.5l11.5 41l11 36.5q7 1 11 1q5 0 9 1q7 1 13 1.5t17 0.5h40l189 8h37q8 0 12 0.5t8 3.5h-3q2 0 4 1l-1 -1l1 1q28 8 37.5 20.5t9.5 26.5v13
q-6 13 -13.5 21t-18 12.5t-26.5 7t-39 4.5q-14 1 -30 1.5t-33 1.5q-25 1 -51.5 2.5t-51.5 2.5t-47.5 1.5t-38.5 0.5h-78h-19q-10 0 -21 1q-32 0 -50.5 -3.5t-29.5 -15t-17 -32.5t-14 -56zM334 682h7q10 0 21 4.5t31 29.5q4 5 14.5 13.5t26.5 19.5l1 1l28 22.5t21 20t16 23.5
t13 32q0 1 0.5 2.5t0.5 3.5v-3q1 3 1.5 7t0.5 14q0 29 -13 40.5t-36 11.5q-26 0 -64 -24q-14 -9 -29 -25t-29.5 -34t-26.5 -37t-20 -35q-12 -24 -12 -39q0 -20 11.5 -29t36.5 -19z" />
    <glyph glyph-name="Ecircumflex" unicode="&#xca;" horiz-adv-x="649" 
d="M-6 15l40 -25.5t8 -5l-6 3t-2 0.5q20 -16 39 -28.5t35 -12.5q24 0 42.5 2.5t40.5 6.5q5 1 11 2l12 2h3l309 44q24 2 35 6t15 8q8 8 11.5 16t3.5 23q0 4 -0.5 10t-2.5 24h-13q-12 8 -29 12t-34 6q-5 0 -9 1q-15 0 -27.5 -1t-23.5 -3q-12 -2 -23.5 -3t-22.5 -1h-7
q-2 0 -3.5 0.5t-3.5 0.5h-7t-12 -1h1q-14 -1 -31 -2.5t-28 -1.5q-9 -1 -19 -1q-9 0 -19 -1q-27 -2 -54 -3.5t-52 -4.5l-2 1q2 14 6.5 38t10.5 50l11.5 49t9.5 35h14q7 -1 13 -1h12h21q16 0 33 0.5t38.5 2t50.5 4t71 6.5q5 0 15.5 0.5t21.5 1.5q10 1 18 1.5t11 0.5
q18 2 28.5 8t15.5 14.5t6.5 18t1.5 18.5v23q-3 14 -12.5 22t-22.5 12t-29 5t-33 1h-112h-70t-59 3l-1 1q2 9 6.5 26l10 37.5l11.5 41l11 36.5q7 1 11 1q5 0 9 1q7 1 13 1.5t17 0.5h40l189 8h37q8 0 12 0.5t8 3.5h-3q2 0 4 1l-1 -1l1 1q28 8 37.5 20.5t9.5 26.5v13
q-6 13 -13.5 21t-18 12.5t-26.5 7t-39 4.5q-14 1 -30 1.5t-33 1.5q-25 1 -51.5 2.5t-51.5 2.5t-47.5 1.5t-38.5 0.5h-78h-19q-10 0 -21 1q-32 0 -50.5 -3.5t-29.5 -15t-17 -32.5t-14 -56zM519 820q-6 12 -11.5 17.5t-13.5 10.5l-7 -26q-2 4 -12 19t-25.5 30.5t-36 28
t-43.5 12.5h-3q-20 0 -32.5 -11.5t-18.5 -39.5q0 -2 -6 -5.5t-14 -7.5l-17 -9.5t-13 -11.5q-11 -11 -19 -28t-8 -37q0 -8 1 -16.5t6 -16.5q17 -34 47 -34q19 0 42 19l17 17q4 4 7 7.5t6 6.5l12 12q15 -3 28.5 -10.5t36.5 -24.5q7 -5 14 -8t18 -3q15 0 30 12q12 9 18 23t6 31
q0 10 -3.5 20.5t-6.5 22.5h1z" />
    <glyph glyph-name="Edieresis" unicode="&#xcb;" horiz-adv-x="649" 
d="M-6 15l40 -25.5t8 -5l-6 3t-2 0.5q20 -16 39 -28.5t35 -12.5q24 0 42.5 2.5t40.5 6.5q5 1 11 2t13 2h2l309 44q24 2 35 6t15 8q8 8 11.5 16t3.5 23q0 4 -0.5 10t-2.5 24h-13q-12 8 -29 12t-34 6q-5 0 -9 1q-15 0 -27.5 -1t-23.5 -3q-12 -2 -23.5 -3t-22.5 -1h-7
q-2 0 -3.5 0.5t-3.5 0.5h-7t-12 -1q-14 -1 -30.5 -2.5t-27.5 -1.5q-9 -1 -19 -1q-9 0 -19 -1q-27 -2 -54 -3.5t-52 -4.5l-2 1q2 14 6.5 38t10.5 50l11.5 49t9.5 35h14q7 -1 13 -1h12h21q16 0 33 0.5t38.5 2t50.5 4t71 6.5q5 0 15.5 0.5t21.5 1.5q10 1 18 1.5t11 0.5
q18 2 28.5 8t15.5 14.5t6.5 18t1.5 18.5v23q-3 14 -12.5 22t-22.5 12t-29 5t-33 1h-112h-70t-59 3l-1 2q2 9 6.5 26.5l10 37.5l11.5 40l11 36q7 1 11 1q5 0 9 1q7 1 13 1.5t17 0.5h40l189 8h37q8 0 12 0.5t8 3.5h-3q2 0 4 1l-1 -1l1 1q28 8 37.5 20.5t9.5 26.5v13
q-6 13 -13.5 21t-18 12.5t-26.5 7t-39 4.5q-14 1 -30 1.5t-33 1.5q-25 1 -51.5 2.5t-51.5 2.5t-47.5 1.5t-38.5 0.5h-78h-19q-10 0 -21 1q-32 0 -50.5 -3.5t-29.5 -15t-17 -32.5t-14 -56zM598 769q-3 29 -30.5 49t-70.5 20h-5q-38 0 -63.5 -13.5t-31.5 -36.5
q-10 22 -34.5 36t-63.5 14h-2q-45 0 -72.5 -18.5t-27.5 -50.5q7 -29 32.5 -47.5t67.5 -19.5q40 0 67.5 13t34.5 36q9 -22 33 -35t61 -14q45 0 75 17.5t30 47.5v2z" />
    <glyph glyph-name="Igrave" unicode="&#xcc;" horiz-adv-x="278" 
d="M97 -42h21q2 3 6 8.5t6 7.5v-1q6 8 9 13.5t5 10.5t3.5 11t3.5 17q0 1 4 20.5t11.5 51l16.5 72.5l19.5 85l20.5 87.5l19 80.5q4 21 8 34.5t8 25.5q3 10 7 20t6 19l-1 -1q8 21 11 38.5t8 36.5q1 5 2 9t2 9q0 17 -7.5 32t-19.5 26.5t-28.5 18.5t-34.5 7h-8q-10 7 -21 7
q-24 0 -45.5 -45t-43 -131t-45 -211.5l-51.5 -286.5q5 -25 20 -40l1 -1l9 21v-25q-2 0 2 -2h-4zM278 713q26 9 37.5 18.5t11.5 29.5q0 7 -3.5 16t-9.5 23q-8 17 -20.5 36.5t-27 37.5t-29.5 33.5t-28 24.5q-17 11 -33 17t-30 6q-23 0 -36 -11.5t-13 -40.5q0 -11 1 -16t3 -11
q6 -18 12.5 -30t15.5 -22.5t20.5 -20l28.5 -22.5v-1h1q16 -11 26.5 -19.5t14.5 -13.5q18 -23 33.5 -28.5t20.5 -5.5h4z" />
    <glyph glyph-name="Iacute" unicode="&#xcd;" horiz-adv-x="278" 
d="M97 -42h21q2 3 6 8.5t6 7.5v-1q6 8 9 13.5t5 10.5t3.5 11t3.5 17q0 1 4 20.5t11.5 51l16.5 72.5l19.5 85l20.5 87.5l19 80.5q4 21 8 34.5t8 25.5q3 10 7 20t6 19l-1 -1q8 21 11 38.5t8 36.5q1 5 2 9t2 9q0 17 -7.5 32t-19.5 26.5t-28.5 18.5t-34.5 7h-8q-10 7 -21 7
q-24 0 -45.5 -45t-43 -131t-45 -211.5l-51.5 -286.5q5 -25 20 -40l1 -1l9 21v-25q-2 0 2 -2h-4zM173 707h7q10 0 21 4.5t31 29.5q4 5 14.5 13.5t26.5 19.5l1 1l28 22.5t21 20t16 23.5t13 32q0 1 0.5 2.5t0.5 3.5v-3q1 3 1.5 7t0.5 14q0 29 -13 40.5t-36 11.5q-26 0 -64 -24
q-14 -9 -29 -25t-29.5 -34t-26.5 -37t-20 -35q-12 -24 -12 -39q0 -20 11.5 -29t36.5 -19z" />
    <glyph glyph-name="Icircumflex" unicode="&#xce;" horiz-adv-x="278" 
d="M97 -42h21q2 3 6 8.5t6 7.5v-1q6 8 9 13.5t5 10.5t3.5 11t3.5 17q0 1 4 20.5t11.5 51l16.5 72.5l19.5 85l20.5 87.5l19 80.5q4 21 8 34.5t8 25.5q3 10 7 20t6 19l-1 -1q8 21 11 38.5t8 36.5q1 5 2 9t2 9q0 17 -7.5 32t-19.5 26.5t-28.5 18.5t-34.5 7h-8q-10 7 -21 7
q-24 0 -45.5 -45t-43 -131t-45 -211.5l-51.5 -286.5q5 -25 20 -40l1 -1l9 21v-25q-2 0 2 -2h-4zM346 825q-6 12 -11.5 17.5t-13.5 10.5l-7 -26q-2 4 -12 19t-25.5 30.5t-36 28t-43.5 12.5h-3q-20 0 -32.5 -11.5t-18.5 -39.5q0 -2 -6 -5.5t-14 -7.5l-17 -9.5t-13 -11.5
q-11 -11 -19 -28t-8 -37q0 -8 1 -16.5t6 -16.5q17 -34 47 -34q19 0 42 19l17 17q4 4 7 7.5t6 6.5t5.5 6t6.5 6q16 -2 29 -10t36 -25q7 -5 14 -8t18 -3q15 0 30 12q12 9 18 23t6 31q0 10 -3.5 20.5t-6.5 22.5h1z" />
    <glyph glyph-name="Idieresis" unicode="&#xcf;" horiz-adv-x="278" 
d="M97 -42h21q2 3 6 8.5t6 7.5v-1q6 8 9 13.5t5 10.5t3.5 11t3.5 17q0 1 4 20.5t11.5 51l16.5 72.5l19.5 85l20.5 87.5l19 80.5q4 21 8 34.5t8 25.5q3 10 7 20t6 19l-1 -1q8 21 11 38.5t8 36.5q1 5 2 9t2 9q0 17 -7.5 32t-19.5 26.5t-28.5 18.5t-34.5 7h-8q-10 7 -21 7
q-24 0 -45.5 -45t-43 -131t-45 -211.5l-51.5 -286.5q5 -25 20 -40l1 -1l9 21v-25q-2 0 2 -2h-4zM423 777q-3 29 -30.5 49t-70.5 20h-5q-38 0 -63.5 -13.5t-31.5 -36.5q-10 22 -34.5 36t-63.5 14h-2q-45 0 -72.5 -18.5t-27.5 -50.5q7 -29 32.5 -47.5t67.5 -19.5q40 0 67.5 13
t34.5 36q9 -22 33 -35t61 -14q45 0 75 17.5t30 47.5v2z" />
    <glyph glyph-name="Eth" unicode="&#xd0;" horiz-adv-x="710" 
d="M-68 293q11 -16 34 -21.5t55 -5.5h10q-21 -98 -34 -214v-23l2 -2q4 -28 29 -47l101 -34q24 0 41.5 1.5t31.5 3.5q5 1 11 1q66 6 127.5 28t115 55.5t97 76t75 90t48.5 98t17 98.5q0 49 -18.5 94t-58.5 81.5t-103.5 62.5t-152.5 37q-26 7 -62 8.5t-81 1.5l-73 -12
q-41 -106 -46 -133v-7l-18 -63l-17 -60q-32 -1 -58.5 -2t-38.5 -3q-13 -2 -23 -4.5t-17 -7t-10.5 -12.5t-3.5 -21q3 -23 7.5 -39t12.5 -27v1zM495 511h-1q36 -27 49 -49.5t15 -40.5l1 -7q-2 -38 -27.5 -81.5t-68 -86.5t-98.5 -82t-119 -68q-6 -4 -27 -11.5t-47 -15.5l-3 3
q4 37 14.5 90t24.5 110h3q16 1 33 1.5t31 1.5t24 1.5t14 1.5h16q26 0 40 1.5t26 9.5q15 7 19 14.5t4 23.5l-5 10h1q-5 11 -9.5 19.5t-12.5 13.5h1q-27 25 -65.5 32.5t-83.5 8.5l22 72l19 59q85 0 135.5 -7t74.5 -24z" />
    <glyph glyph-name="Ntilde" unicode="&#xd1;" horiz-adv-x="668" 
d="M615 690q-21 -4 -35.5 -15t-24.5 -26.5t-16 -33.5t-9 -36l-3.5 -17.5t-10 -46.5l-15.5 -66l-19 -76.5l-20.5 -78.5t-20.5 -71q-30 72 -48 134.5t-29 131.5q-3 6 -3.5 16t-0.5 22v16q0 19 -1.5 39.5t-8 38t-19.5 28.5t-35 13q-58 -3 -91.5 -13.5t-52 -28t-26.5 -42
t-14 -55.5v1q-4 -14 -6.5 -27.5t-6.5 -26.5l-13 -45l-27 -107.5l-22 -85.5l-28.5 -112l-16 -62.5t-6.5 -30t-1 -14.5v-8q0 -17 8 -31.5t20 -25t27.5 -16t30.5 -5.5q26 0 45.5 13.5t23.5 47.5v5q6 18 18.5 60.5t26.5 95l28 109t22 101.5q19 -65 39 -119.5t39.5 -97t36 -71
t28.5 -39.5q26 -33 51 -48t48 -15q28 0 48.5 18t31.5 48l22.5 71t15.5 49l11 34.5t6.5 21t4.5 16l5 19.5q2 13 6.5 31l9.5 36.5t10 35l8 26.5v-2q3 6 8.5 23t12 40t12.5 50.5t9 53.5q8 19 14 41t6 44q0 15 -4.5 28.5t-15.5 24.5zM600 788v3q0 18 -18.5 31.5t-38.5 13.5
q-16 0 -30 -7t-22 -22q-4 -6 -4 -12q-1 -2 -1 -4v1q0 -1 -1 -1v0l-0.5 0.5t-0.5 1.5h-1v1l-11.5 16l-14.5 20v-10q-8 5 -19 8.5t-25 3.5q-18 0 -40 -8t-41.5 -20.5t-33 -29t-14.5 -32.5v-3q0 -20 16 -34.5t42 -14.5q18 0 29 8t22 19l7 7l2 -2q11 -12 28.5 -24t50.5 -12
q53 0 83.5 21t35.5 81z" />
    <glyph glyph-name="Ograve" unicode="&#xd2;" 
d="M455 672q-70 -8 -120.5 -20t-82.5 -30l-40.5 -24t-25.5 -15q-1 -1 -2 -1.5t-2 -1.5l2 1q-45 -33 -82 -76.5t-62.5 -91.5t-39.5 -98.5t-14 -97.5v-15q0 -11 1 -16v1q2 -20 10 -44.5t31 -61.5h-1l10 -15.5l10 -14.5q2 -3 4 -5.5t4 -5.5v2q34 -39 82 -60.5t117 -32.5h-2
q22 -5 43 -6.5t46 -1.5q69 0 125 14.5t98 46.5q47 41 81 88.5t56.5 98.5t33.5 102.5t11 100.5v22q0 7 -0.5 13t-1.5 11q-2 20 -7 40.5t-15 40.5q-22 41 -47 69t-51.5 45.5t-52 26.5t-47.5 12h-69zM488 558q27 0 50 -16l-1 1q22 -16 33.5 -47.5t16.5 -63.5v1q1 -8 1.5 -16
t0.5 -16q0 -35 -7.5 -74t-23.5 -77.5t-40 -74t-56.5 -63t-74 -44.5t-91.5 -19q-10 0 -26.5 6.5t-33.5 14.5q-35 11 -53.5 38t-20.5 62h-1q1 31 11 68.5t28 77t42.5 77.5t55.5 70t67 55.5t76 32.5q10 3 21.5 5t25.5 2zM526 683q26 9 37.5 18.5t11.5 29.5q0 7 -3.5 16t-9.5 23
q-8 17 -20.5 36.5t-27 37.5t-29.5 33.5t-28 24.5q-17 11 -33 17t-30 6q-23 0 -36 -11.5t-13 -40.5q0 -11 1 -16t3 -11q6 -18 12.5 -30t15.5 -22.5t20.5 -20l28.5 -22.5v-1h1q16 -11 26.5 -19.5t14.5 -13.5q18 -23 33.5 -28.5t20.5 -5.5h4z" />
    <glyph glyph-name="Oacute" unicode="&#xd3;" 
d="M455 672q-70 -8 -120.5 -20t-82.5 -30l-40.5 -24t-25.5 -15q-1 -1 -2 -1.5t-2 -1.5l2 1q-45 -33 -82 -76.5t-62.5 -91.5t-39.5 -98.5t-14 -97.5v-15q0 -11 1 -16v1q2 -20 10 -44.5t31 -61.5h-1l10 -15.5l10 -14.5q2 -3 4 -5.5t4 -5.5v2q34 -39 82 -60.5t117 -32.5h-2
q22 -5 43 -6.5t46 -1.5q69 0 125 14.5t98 46.5q47 41 81 88.5t56.5 98.5t33.5 102.5t11 100.5v22q0 7 -0.5 13t-1.5 11q-2 20 -7 40.5t-15 40.5q-22 41 -47 69t-51.5 45.5t-52 26.5t-47.5 12h-69zM488 558q25 0 49 -15q22 -16 33.5 -47.5t16.5 -63.5v1q1 -8 1.5 -16t0.5 -16
q0 -35 -7.5 -74t-23.5 -77.5t-40 -74t-56.5 -63t-74 -44.5t-91.5 -19q-10 0 -26.5 6.5t-33.5 14.5q-35 11 -53.5 38t-20.5 62h-1q1 31 11 68.5t28 77t42.5 77.5t55.5 70t67 55.5t76 32.5q10 3 21.5 5t25.5 2zM371 674h7q10 0 21 4.5t31 29.5q4 5 14.5 13.5t26.5 19.5l1 1
l28 22.5t21 20t16 23.5t13 32q0 1 0.5 2.5t0.5 3.5v-3q1 3 1.5 7t0.5 14q0 29 -13 40.5t-36 11.5q-26 0 -64 -24q-14 -9 -29 -25t-29.5 -34t-26.5 -37t-20 -35q-12 -24 -12 -39q0 -20 11.5 -29t36.5 -19z" />
    <glyph glyph-name="Ocircumflex" unicode="&#xd4;" 
d="M455 672q-70 -8 -120.5 -20t-82.5 -30l-40.5 -24t-25.5 -15q-1 -1 -2 -1.5t-2 -1.5l2 1q-45 -33 -82 -76.5t-62.5 -91.5t-39.5 -98.5t-14 -97.5v-15q0 -11 1 -16v1q2 -20 10 -44.5t31 -61.5h-1l10 -15.5l10 -14.5q2 -3 4 -5.5t4 -5.5v2q34 -39 82 -60.5t117 -32.5h-2
q22 -5 43 -6.5t46 -1.5q69 0 125 14.5t98 46.5q47 41 81 88.5t56.5 98.5t33.5 102.5t11 100.5v22q0 7 -0.5 13t-1.5 11q-2 20 -7 40.5t-15 40.5q-22 41 -47 69t-51.5 45.5t-52 26.5t-47.5 12h-69zM488 558q25 0 49 -15q22 -16 33.5 -47.5t16.5 -63.5v1q1 -8 1.5 -16t0.5 -16
q0 -35 -7.5 -74t-23.5 -77.5t-40 -74t-56.5 -63t-74 -44.5t-91.5 -19q-10 0 -26.5 6.5t-33.5 14.5q-35 11 -53.5 38t-20.5 62h-1q1 31 11 68.5t28 77t42.5 77.5t55.5 70t67 55.5t76 32.5q10 3 21.5 5t25.5 2zM609 805q-6 12 -11.5 17.5t-13.5 10.5l-7 -26q-2 4 -12 19
t-25.5 30.5t-36 28t-43.5 12.5h-3q-20 0 -32.5 -11.5t-18.5 -39.5q0 -2 -6 -5.5t-14 -7.5l-17 -9.5t-13 -11.5q-11 -11 -19 -28t-8 -37q0 -8 1 -16.5t6 -16.5q17 -34 47 -34q19 0 42 19l17 17q4 4 7 7.5t6 6.5l12 12q15 -3 28.5 -10.5t36.5 -24.5q7 -5 14 -8t18 -3
q15 0 30 12q12 9 18 23t6 31q0 10 -3.5 20.5t-6.5 22.5h1z" />
    <glyph glyph-name="Otilde" unicode="&#xd5;" 
d="M455 672q-70 -8 -120.5 -20t-82.5 -30l-40.5 -24t-25.5 -15q-1 -1 -2 -1.5t-2 -1.5l2 1q-45 -33 -82 -76.5t-62.5 -91.5t-39.5 -98.5t-14 -97.5v-15q0 -11 1 -16v1q2 -20 10 -44.5t31 -61.5h-1l10 -15.5l10 -14.5q2 -3 4 -5.5t4 -5.5v2q34 -39 82 -60.5t117 -32.5h-2
q22 -5 43 -6.5t46 -1.5q69 0 125 14.5t98 46.5q47 41 81 88.5t56.5 98.5t33.5 102.5t11 100.5v22q0 7 -0.5 13t-1.5 11q-2 20 -7 40.5t-15 40.5q-22 41 -47 69t-51.5 45.5t-52 26.5t-47.5 12h-69zM488 558q25 0 49 -15q22 -16 33.5 -47.5t16.5 -63.5v1q1 -8 1.5 -16t0.5 -16
q0 -35 -7.5 -74t-23.5 -77.5t-40 -74t-56.5 -63t-74 -44.5t-91.5 -19q-10 0 -26.5 6.5t-33.5 14.5q-35 11 -53.5 38t-20.5 62h-1q1 31 11 68.5t28 77t42.5 77.5t55.5 70t67 55.5t76 32.5q10 3 21.5 5t25.5 2zM589 786v3q0 18 -18.5 31.5t-38.5 13.5q-16 0 -30 -7t-22 -22
q-4 -6 -4 -12q-1 -2 -1 -4v1q0 -1 -1 -1v0l-0.5 0.5t-0.5 1.5h-1v1l-11.5 16l-14.5 20v-10q-8 5 -19 8.5t-25 3.5q-18 0 -40 -8t-41.5 -20.5t-33 -29t-14.5 -32.5v-3q0 -20 16 -34.5t42 -14.5q18 0 29 8t22 19l7 7l2 -2q11 -12 28.5 -24t50.5 -12q53 0 83.5 21t35.5 81z" />
    <glyph glyph-name="Odieresis" unicode="&#xd6;" 
d="M455 672q-70 -8 -120.5 -20t-82.5 -30l-40.5 -24t-25.5 -15q-1 -1 -2 -1.5t-2 -1.5l2 1q-45 -33 -82 -76.5t-62.5 -91.5t-39.5 -98.5t-14 -97.5v-15q0 -11 1 -16v1q2 -20 10 -44.5t31 -61.5h-1l10 -15.5l10 -14.5q2 -3 4 -5.5t4 -5.5v2q34 -39 82 -60.5t117 -32.5h-2
q22 -5 43 -6.5t46 -1.5q69 0 125 14.5t98 46.5q47 41 81 88.5t56.5 98.5t33.5 102.5t11 100.5v22q0 7 -0.5 13t-1.5 11q-2 20 -7 40.5t-15 40.5q-22 41 -47 69t-51.5 45.5t-52 26.5t-47.5 12h-69zM488 558q27 0 50 -16l-1 1q22 -16 33.5 -47.5t16.5 -63.5v1q1 -8 1.5 -16
t0.5 -16q0 -35 -7.5 -74t-23.5 -77.5t-40 -74t-56.5 -63t-74 -44.5t-91.5 -19q-10 0 -26.5 6.5t-33.5 14.5q-35 11 -53.5 38t-20.5 62h-1q1 31 11 68.5t28 77t42.5 77.5t55.5 70t67 55.5t76 32.5q10 3 21.5 5t25.5 2zM640 744q-3 29 -30.5 49t-70.5 20h-5q-38 0 -63.5 -13.5
t-31.5 -36.5q-10 22 -34.5 36t-63.5 14h-2q-45 0 -72.5 -18.5t-27.5 -50.5q7 -29 32.5 -47.5t67.5 -19.5q40 0 67.5 13t34.5 36q9 -22 33 -35t61 -14q45 0 75 17.5t30 47.5v2z" />
    <glyph glyph-name="multiply" unicode="&#xd7;" horiz-adv-x="490" 
d="M466 218q23 23 23 51q0 21 -11 38l-61 75l-19.5 22.5l-6.5 7.5v5q0 10 14 24q6 6 16 14.5t21 16.5q8 7 14 10.5t11 7.5q36 39 36 70q0 29 -24 53v-1q-20 21 -46 21q-21 0 -47 -14q-8 -5 -23.5 -18t-39.5 -35l1 1q-4 -3 -7.5 -6t-6.5 -5l-24.5 -20t-13.5 -11q-1 -1 -4 -1
q-16 0 -49 33q-23 23 -38.5 36.5t-25.5 19.5q-11 6 -20.5 9.5t-20.5 3.5q-26 0 -48 -22q-8 -9 -15 -21t-13 -29q-1 -2 -1 -12q0 -36 37 -73q3 -3 9.5 -9t12.5 -11q3 -2 6.5 -4t5.5 -4l-3 1q10 -10 10 -17q0 -3 -4 -7l-14.5 -14l-19.5 -18l1 1q-16 -12 -24.5 -19.5
t-13.5 -12.5q-41 -41 -41 -79q0 -28 21 -49q22 -21 48 -21q14 3 60 26l29.5 17.5l22.5 13.5q28 20 61 25h6q21 0 35 -14l64 -64q21 -21 54 -21h10q31 4 56 29z" />
    <glyph glyph-name="Oslash" unicode="&#xd8;" 
d="M772 667q-4 30 -26 43t-51 13q-17 0 -34.5 -4.5t-31.5 -14.5h1q-19 -13 -32.5 -23.5t-24.5 -21.5q-14 5 -25.5 8t-22.5 5h-70q-70 -8 -120.5 -20t-82.5 -30l-40.5 -24t-25.5 -15q-1 -1 -2 -1.5t-2 -1.5l2 1q-45 -33 -82 -76.5t-62.5 -91.5t-39.5 -98.5t-14 -97.5v-15
q0 -11 1 -16v1q2 -20 10 -44t30 -61q10 -19 23 -36q2 -2 2.5 -3t2.5 -3v1q2 -3 6 -7q-6 -6 -8 -9q-2 -2 -3.5 -4.5t-9.5 -13.5v1q-21 -30 -21 -56q0 -31 21 -48.5t54 -17.5q22 0 46.5 11.5t44.5 34.5l10 14t10 13l24.5 -5.5t22.5 -4.5q22 -5 43 -6.5t46 -1.5q69 0 125 14.5
t98 46.5q47 41 81 88.5t56.5 98.5t33.5 102.5t11 100.5v22q0 7 -0.5 13t-1.5 11q-2 20 -7 40.5t-15 40.5l-3 6q-3 3 -4 5q23 20 40.5 47t17.5 67v10q0 9 -1 13zM589 401q0 -35 -7.5 -74t-23.5 -77.5t-40 -74t-56.5 -63t-74 -44.5t-91.5 -19q-4 0 -7.5 0.5t-8.5 1.5
l150 180.5l159 179.5v-10zM488 558h1q-6 -9 -12 -15q-2 -4 -8 -11t-4 -5l-22 -29t-25 -30q-4 -4 -8 -8.5t-9 -9.5l-2 -2l-14 -14.5t-9 -9.5q-8 -9 -10 -11.5t-4 -4.5q-6 -7 -12.5 -13.5t-12.5 -13.5l-26 -28.5t-28 -33.5v1l-68.5 -83.5l-52.5 -66.5h-1q1 31 11 68.5t28 77
t42.5 77.5t55.5 70t67 55.5t76 32.5q10 3 21.5 5t25.5 2zM466 529l1 1q-2 -2 -2 -3q0 1 1 2z" />
    <glyph glyph-name="Ugrave" unicode="&#xd9;" horiz-adv-x="634" 
d="M467 521q-1 -4 -1 -8t-1 -8l-10.5 -59.5t-19.5 -85.5q-8 -33 -17.5 -67.5t-19.5 -66t-20 -56.5t-19 -38l-37 -49l-2 -3q-11 -7 -24.5 -11t-26 -6t-23 -2.5t-15.5 -0.5h-5q-6 0 -17 3.5t-22.5 10t-19.5 17t-8 25.5q0 2 1 6q0 26 6 56t17 67l31.5 105l23 74l15.5 48.5
t10 29.5l6.5 17.5t3.5 11.5t1.5 11t1.5 15q1 7 1 15q0 9 2 23v4q0 14 -10 27t-24.5 23.5t-31 18.5t-29.5 11q-17 0 -31.5 -6.5t-30.5 -24.5v7q-4 -6 -7 -12t-6 -11q-8 -9 -15 -21l-2 -10h1q-7 -16 -11 -30.5l-8 -30.5h1q-5 -19 -10 -35t-10 -30q-15 -48 -23.5 -77.5
t-14 -52.5t-9.5 -45t-9 -56q-3 -18 -5 -37t-2 -39q0 -42 13.5 -81t51.5 -71l7 -3q47 -37 84.5 -52t80.5 -15q5 1 12 1h19q5 0 11 -0.5t11 -0.5h15v1h1q72 0 121 37.5t82.5 96.5t55.5 131.5t39 141.5h-1q17 61 31.5 128t21.5 127q0 22 -1 36.5t-6 34.5q-6 9 -17 16.5
t-23.5 13t-25.5 8t-22 2.5q-8 0 -16 -4t-15 -9t-12.5 -10t-7.5 -7zM420 674q26 9 37.5 18.5t11.5 29.5q0 7 -3.5 16t-9.5 23q-8 17 -20.5 36.5t-27 37.5t-29.5 33.5t-28 24.5q-17 11 -33 17t-30 6q-23 0 -36 -11.5t-13 -40.5q0 -11 1 -16t3 -11q6 -18 12.5 -30t15.5 -22.5
t20.5 -20l28.5 -22.5v-1h1q16 -11 26.5 -19.5t14.5 -13.5q18 -23 33.5 -28.5t20.5 -5.5h4z" />
    <glyph glyph-name="Uacute" unicode="&#xda;" horiz-adv-x="634" 
d="M467 521q-1 -4 -1 -8t-1 -8l-10.5 -59.5t-19.5 -85.5q-8 -33 -17.5 -67.5t-19.5 -66t-20 -56.5t-19 -38l-37 -49l-2 -3q-11 -7 -24.5 -11t-26 -6t-23 -2.5t-15.5 -0.5h-5q-6 0 -17 3.5t-22.5 10t-19.5 17t-8 25.5q0 2 1 6q0 26 6 56t17 67l31.5 105l23 74l15.5 48.5
t10 29.5l6.5 17.5t3.5 11.5t1.5 11t1.5 15q1 7 1 15q0 9 2 23v4q0 14 -10 27t-24.5 23.5t-31 18.5t-29.5 11q-17 0 -31.5 -6.5t-30.5 -24.5v7q-4 -6 -7 -12t-6 -11q-8 -9 -15 -21l-2 -10h1q-7 -16 -11 -30.5l-8 -30.5h1q-5 -19 -10 -35t-10 -30q-15 -48 -23.5 -77.5
t-14 -52.5t-9.5 -45t-9 -56q-3 -18 -5 -37t-2 -39q0 -42 13.5 -81t51.5 -71l7 -3q47 -37 84.5 -52t80.5 -15q5 1 12 1h19q5 0 11 -0.5t11 -0.5h15v1h1q72 0 121 37.5t82.5 96.5t55.5 131.5t39 141.5h-1q17 61 31.5 128t21.5 127q0 22 -1 36.5t-6 34.5q-6 9 -17 16.5
t-23.5 13t-25.5 8t-22 2.5q-8 0 -16 -4t-15 -9t-12.5 -10t-7.5 -7zM336 676h7q10 0 21 4.5t31 29.5q4 5 14.5 13.5t26.5 19.5l1 1l28 22.5t21 20t16 23.5t13 32q0 1 0.5 2.5t0.5 3.5v-3q1 3 1.5 7t0.5 14q0 29 -13 40.5t-36 11.5q-26 0 -64 -24q-14 -9 -29 -25t-29.5 -34
t-26.5 -37t-20 -35q-12 -24 -12 -39q0 -20 11.5 -29t36.5 -19z" />
    <glyph glyph-name="Ucircumflex" unicode="&#xdb;" horiz-adv-x="634" 
d="M467 521q-1 -4 -1 -8t-1 -8l-10.5 -59.5t-19.5 -85.5q-8 -33 -17.5 -67.5t-19.5 -66t-20 -56.5t-19 -38l-37 -49l-2 -3q-11 -7 -24.5 -11t-26 -6t-23 -2.5t-15.5 -0.5h-5q-6 0 -17 3.5t-22.5 10t-19.5 17t-8 25.5q0 2 1 6q0 26 6 56t17 67l31.5 105l23 74l15.5 48.5
t10 29.5l6.5 17.5t3.5 11.5t1.5 11t1.5 15q1 7 1 15q0 9 2 23v4q0 14 -10 27t-24.5 23.5t-31 18.5t-29.5 11q-17 0 -31.5 -6.5t-30.5 -24.5v7q-4 -6 -7 -12t-6 -11q-8 -9 -15 -21l-2 -10h1q-7 -16 -11 -30.5l-8 -30.5h1q-5 -19 -10 -35t-10 -30q-15 -48 -23.5 -77.5
t-14 -52.5t-9.5 -45t-9 -56q-3 -18 -5 -37t-2 -39q0 -42 13.5 -81t51.5 -71l7 -3q47 -37 84.5 -52t80.5 -15q5 1 12 1h19q5 0 11 -0.5t11 -0.5h15v1h1q72 0 121 37.5t82.5 96.5t55.5 131.5t39 141.5h-1q17 61 31.5 128t21.5 127q0 22 -1 36.5t-6 34.5q-6 9 -17 16.5
t-23.5 13t-25.5 8t-22 2.5q-8 0 -16 -4t-15 -9t-12.5 -10t-7.5 -7zM510 813q-6 12 -11.5 17.5t-13.5 10.5l-7 -26q-2 4 -12 19t-25.5 30.5t-36 28t-43.5 12.5h-3q-20 0 -32.5 -11.5t-18.5 -39.5q0 -2 -6 -5.5t-14 -7.5l-17 -9.5t-13 -11.5q-11 -11 -19 -28t-8 -37
q0 -8 1 -16.5t6 -16.5q17 -34 47 -34q19 0 42 19l17 17q4 4 7 7.5t6 6.5l5 5t6 7q16 -3 29.5 -10.5t36.5 -24.5q7 -5 14 -8t18 -3q15 0 30 12q12 9 18 23t6 31q0 10 -3.5 20.5t-6.5 22.5h1z" />
    <glyph glyph-name="Udieresis" unicode="&#xdc;" horiz-adv-x="634" 
d="M467 521q-1 -4 -1 -8t-1 -8l-10.5 -59.5t-19.5 -85.5q-8 -33 -17.5 -67.5t-19.5 -66t-20 -56.5t-19 -38l-37 -49l-2 -3q-11 -7 -24.5 -11t-26 -6t-23 -2.5t-15.5 -0.5h-5q-6 0 -17 3.5t-22.5 10t-19.5 17t-8 25.5q0 2 1 6q0 26 6 56t17 67l31.5 105l23 74l15.5 48.5
t10 29.5l6.5 17.5t3.5 11.5t1.5 11t1.5 15q1 7 1 15q0 9 2 23v4q0 14 -10 27t-24.5 23.5t-31 18.5t-29.5 11q-17 0 -31.5 -6.5t-30.5 -24.5v7q-4 -6 -7 -12t-6 -11q-8 -9 -15 -21l-2 -10h1q-7 -16 -11 -30.5l-8 -30.5h1q-5 -19 -10 -35t-10 -30q-15 -48 -23.5 -77.5
t-14 -52.5t-9.5 -45t-9 -56q-3 -18 -5 -37t-2 -39q0 -42 13.5 -81t51.5 -71l7 -3q47 -37 84.5 -52t80.5 -15q5 1 12 1h19q5 0 11 -0.5t11 -0.5h15v1h1q72 0 121 37.5t82.5 96.5t55.5 131.5t39 141.5h-1q17 61 31.5 128t21.5 127q0 22 -1 36.5t-6 34.5q-6 9 -17 16.5
t-23.5 13t-25.5 8t-22 2.5q-8 0 -16 -4t-15 -9t-12.5 -10t-7.5 -7zM567 781q-3 29 -30.5 49t-70.5 20h-5q-38 0 -63.5 -13.5t-31.5 -36.5q-10 22 -34.5 36t-63.5 14h-2q-45 0 -72.5 -18.5t-27.5 -50.5q7 -29 32.5 -47.5t67.5 -19.5q40 0 67.5 13t34.5 36q9 -22 33 -35
t61 -14q45 0 75 17.5t30 47.5v2z" />
    <glyph glyph-name="Yacute" unicode="&#xdd;" horiz-adv-x="576" 
d="M598 674q-8 15 -28 23.5t-42 8.5q-35 0 -60 -27l-122.5 -135.5t-111.5 -132.5q-14 28 -30 72q-21 53 -45.5 102t-56.5 74q-11 3 -22 4.5t-19 1.5q-17 0 -34 -2.5t-28 -11.5h1q-14 -9 -18 -21.5t-4 -28.5v-5q0 -18 7 -36t16 -35q14 -21 28.5 -55.5t28 -72t23.5 -73.5
t15 -60l-41 -238q1 -31 33 -52l10 -10q51 -19 77 -19q19 0 30.5 7t19 22t12.5 38.5t11 56.5l14 71.5t22 92.5q3 15 5.5 26t6.5 20.5t10 19.5t16 23q36 53 92.5 117t145.5 147q4 2 5.5 3.5l3.5 3.5l-2 -1q11 9 26 23t15 32v19q-1 0 -1 -2v-12v5zM247 646h7q10 0 21 4.5
t31 29.5q4 5 14.5 13.5t26.5 19.5l1 1l28 22.5t21 20t16 23.5t13 32q0 1 0.5 2.5t0.5 3.5v-3q1 3 1.5 7t0.5 14q0 29 -13 40.5t-36 11.5q-26 0 -64 -24q-14 -9 -29 -25t-29.5 -34t-26.5 -37t-20 -35q-12 -24 -12 -39q0 -20 11.5 -29t36.5 -19z" />
    <glyph glyph-name="Thorn" unicode="&#xde;" horiz-adv-x="560" 
d="M387 114q101 45 158 97.5t57 127.5q-6 56 -34 93t-90 66q-34 14 -88.5 27t-112.5 20l4 16.5l4 16.5l-1 -1q2 8 4.5 19t4.5 19q0 16 -7.5 31t-19.5 26.5t-28.5 18t-34.5 6.5h-8q-10 7 -21 7q-24 0 -45.5 -45t-43 -131t-45 -211.5l-51.5 -286.5q5 -25 20 -40l1 -1l10 23
v-27q-3 0 -4.5 0.5t-2.5 0.5q1 -1 2 -1.5t2 -1.5l80 -25h21q2 3 6 8.5t6 7.5v-1q6 8 9 13.5t5 10.5t3.5 11t3.5 17q0 2 6 32h14q74 10 123 23.5t93 33.5zM238 412v-2q8 14 10 14q18 0 40.5 -2t46.5 -6t47 -11t40 -16q3 -5 8 -6q4 -2 6 -2q22 -24 22 -41q0 -20 -19.5 -39.5
t-53 -38.5t-77 -37.5t-91.5 -36.5l2 1l-26 -6l-2 3l10.5 54.5l13.5 68t13.5 63.5t9.5 40z" />
    <glyph glyph-name="germandbls" unicode="&#xdf;" horiz-adv-x="974" 
d="M696 521l1 1q-48 -23 -84 -53t-55 -60q0 10 -5 28l-2 4l-2 4v1q-8 17 -22.5 26.5t-40.5 23.5q-32 17 -61.5 30t-71.5 18q-11 0 -15 -1q-42 -2 -77 -16l-20 -10l1 1q-50 -23 -88 -55.5t-55 -64.5q-14 -26 -23.5 -48.5t-9.5 -47.5q1 -23 12 -45t27.5 -41t37 -34.5
t41.5 -25.5q8 -3 12.5 -5t6.5 -4q17 -8 30.5 -12.5t27.5 -7.5q21 -5 41 -10.5t25 -11.5q12 -6 14 -4v-2q0 -5 -10.5 -9t-17.5 -6q-2 -2 -10.5 -3t-19 -1.5l-20.5 -1t-14 -0.5q-19 0 -35 2.5t-42 9.5q-20 10 -37.5 23t-28.5 31l-15.5 20.5t-18.5 17.5q-6 4 -12 4.5t-11 0.5
h-10q-12 -1 -26.5 -4.5t-31.5 -20.5v-4q-13 -20 -13 -41q0 -30 29 -60t73 -53.5t94.5 -38t94.5 -14.5q9 0 16.5 0.5t13.5 1.5q20 1 33.5 3.5t27.5 7.5q3 2 5 2q3 0 6 1q39 14 65.5 32t45.5 39v-1l1 1q22 -17 51.5 -32.5t62 -26.5t65.5 -17.5t62 -6.5q9 0 16.5 0.5t13.5 1.5
q20 1 33.5 3.5t27.5 7.5q3 2 5 2q3 0 6 1q39 14 65.5 32t45.5 39q9 10 16 21.5t11 21.5t6 17t2 9q0 6 -1 15t-2 14q-16 33 -49 60.5t-88 38.5q-2 1 1 1.5t2 1.5t-10.5 3.5t-36.5 8.5q-12 3 -25.5 7.5t-25.5 9.5q-8 7 -21 7q-11 1 -17.5 11.5t-6.5 24.5q0 15 6 24
q14 23 40 44t58 33q21 0 48 -5.5t47 -23.5q42 -34 61 -37h9q35 0 48.5 17.5t13.5 45.5q0 5 -1 13t-4 16l-2 4l-2 4v1q-8 17 -22.5 26.5t-40.5 23.5q-32 17 -61.5 30t-71.5 18q-11 0 -15 -1q-42 -2 -77 -16zM521 306q1 -23 12 -45t27.5 -41t37 -34.5t41.5 -25.5q8 -3 12.5 -5
t6.5 -4q17 -8 30.5 -12.5t27.5 -7.5q21 -5 41 -10.5t25 -11.5q12 -6 14 -4v-2q0 -5 -10.5 -9t-17.5 -6q-2 -2 -10.5 -3t-19 -1.5l-20.5 -1t-14 -0.5q-19 0 -35 2.5t-42 9.5q-20 10 -37.5 23t-28.5 31l-15.5 20.5t-18.5 17.5q-6 4 -12 4.5t-11 0.5h-12q-5 -1 -11 -1.5
t-13 -2.5q-18 16 -42.5 28.5t-58.5 19.5q-2 1 1 1.5t2 1.5t-10.5 3.5t-36.5 8.5q-12 3 -25.5 7.5t-25.5 9.5q-8 7 -21 7q-11 1 -17.5 11.5t-6.5 24.5q0 15 6 24q14 23 40 44t58 33q21 0 48 -5.5t47 -23.5q42 -34 61 -37h9q21 0 33 6q-8 -24 -8 -45z" />
    <glyph glyph-name="agrave" unicode="&#xe0;" horiz-adv-x="502" 
d="M349 82l8 -41q4 -24 10.5 -37.5t16 -21t22.5 -10.5t31 -6q9 0 18 1.5t23 8.5q21 8 31 26.5t10 39.5q0 7 -2.5 15t-4.5 16l1 -3q-29 204 -53 325t-46 162q20 8 28.5 17.5t8.5 29.5q0 9 -11 36q-7 14 -17 30.5t-22 32t-25 28t-25 20.5q-15 9 -29.5 15t-27.5 6
q-24 0 -38.5 -12.5t-14.5 -42.5q0 -17 4 -25q5 -16 11 -27t13.5 -20t17.5 -17.5t24 -18.5l-2 1l2.5 -2.5t6.5 -3.5q2 -1 2.5 -1.5t2.5 -1.5l-1 1q7 -5 11.5 -8.5t6.5 -6.5t4 -5.5t4 -4.5q-36 -8 -58 -18t-36 -22.5t-22.5 -27t-17.5 -31.5l-3 -5q-8 -17 -18.5 -36.5
t-24.5 -40.5l-43.5 -71l-47 -79.5l-45 -80t-36.5 -72.5q-8 -22 -12.5 -37t-4.5 -31v-10q0 -15 6.5 -27t17 -20.5t23.5 -13t26 -4.5q29 0 50 11.5t38 43.5l9 18.5t7 16.5q6 16 11 27t12 19h11l0.5 0.5t-0.5 0.5q6 0 13.5 0.5t15.5 1.5h9q5 0 10 0.5t10 0.5h11q6 0 11 1h-1
q23 2 43.5 2.5t34.5 0.5zM310 326l13 -106h-77z" />
    <glyph glyph-name="aacute" unicode="&#xe1;" horiz-adv-x="502" 
d="M349 82l8 -41q4 -24 10.5 -37.5t16 -21t22.5 -10.5t31 -6q9 0 18 1.5t23 8.5q21 8 31 26.5t10 39.5q0 7 -2.5 15t-4.5 16l1 -3q-35 244 -62.5 370t-52.5 136h-1v-1v1h-5v1q4 0 5 -1q-1 1 -2 1t-3 1v8q-14 -2 -22 -4q5 5 13 10.5t18 13.5l-1 -1q13 10 23 18.5t17.5 17.5
t13.5 21.5t13 30.5v4q0 1 0.5 1.5t0.5 1.5v-3q1 5 1 15q0 30 -14 42.5t-38 12.5q-13 0 -28 -5.5t-31 -15.5q-11 -7 -23.5 -20t-24 -28t-22 -31.5t-17.5 -30.5q-12 -23 -12 -37q0 -18 6 -26.5t20 -15.5q-32 -15 -45.5 -34.5t-25.5 -44.5l-3 -5q-8 -17 -18.5 -36.5
t-24.5 -40.5l-43.5 -71l-47 -79.5l-45 -80t-36.5 -72.5q-8 -22 -12.5 -37t-4.5 -31v-10q0 -15 6.5 -27t17 -20.5t23.5 -13t26 -4.5q29 0 50 11.5t38 43.5l9 18.5t7 16.5q6 16 11 27t12 19h11l0.5 0.5t-0.5 0.5q6 0 13.5 0.5t15.5 1.5h9q5 0 10 0.5t10 0.5h11q6 0 11 1h-1
q23 2 43.5 2.5t34.5 0.5zM310 326l13 -106h-77zM399 604l2 1h-1q0 -1 -1 -1v0z" />
    <glyph glyph-name="acircumflex" unicode="&#xe2;" horiz-adv-x="502" 
d="M462 649l-6 12v11h-7q-8 12 -15.5 19t-17.5 12l-10 -15q-2 1 -6 5l-22 17.5l-22.5 18t-19.5 14t-13 5.5h-2q-21 0 -34.5 -11.5t-19.5 -39.5q0 2 -2.5 1.5t-4.5 -2.5l-12 -8l1 1q-12 -7 -19 -14q-11 -11 -18 -26t-7 -34q0 -9 1.5 -18t5.5 -16q9 -17 20.5 -25t29.5 -8h6
q-22 -14 -32.5 -31t-21.5 -39l-3 -5q-8 -17 -18.5 -36.5t-24.5 -40.5l-43.5 -71l-47 -79.5l-45 -80t-36.5 -72.5q-8 -22 -12.5 -37t-4.5 -31v-10q0 -15 6.5 -27t17 -20.5t23.5 -13t26 -4.5q29 0 50 11.5t38 43.5l9 18.5t7 16.5q6 16 11 27t12 19h11l0.5 0.5t-0.5 0.5
q6 0 13 0.5t15 1.5h10q5 0 10 0.5t10 0.5h11q6 0 11 1h-1q23 2 43.5 2.5t34.5 0.5l2 -12l8 -41q4 -24 10.5 -37.5t16 -21t22.5 -10.5t31 -6q9 0 18 1.5t23 8.5q21 8 31 26.5t10 39.5q0 7 -2.5 15t-4.5 16l1 -3q-30 210 -54.5 332t-46.5 159q7 1 14.5 4t13.5 9l-2 -1
q25 18 25 54q0 12 -4 21zM310 326l13 -106h-77zM301 564l7.5 7.5t10.5 11.5v-1l4 4q1 2 5 6l4 4q8 -2 14.5 -5.5t15.5 -10.5q-39 -8 -61 -16zM456 657l-2 6q2 -4 2 -6zM339 602l-1 -1v0q0 1 1 1zM417 679q0 -1 -1 0h1z" />
    <glyph glyph-name="atilde" unicode="&#xe3;" horiz-adv-x="502" 
d="M478 639v4q0 20 -19 34.5t-40 14.5q-32 0 -49 -26q-8 9 -21 16t-34 7q-15 0 -35 -7.5t-37.5 -20t-30 -28t-13.5 -30.5v-2q0 -20 16.5 -36t42.5 -16q8 0 12 1q-23 -14 -34 -31.5t-22 -40.5l-3 -5q-8 -17 -18.5 -36.5t-24.5 -40.5l-43.5 -71l-47 -79.5l-45 -80t-36.5 -72.5
q-8 -22 -12.5 -37t-4.5 -31v-10q0 -15 6.5 -27t17 -20.5t23.5 -13t26 -4.5q29 0 50 11.5t38 43.5l9 18.5t7 16.5q6 16 11 27t12 19h11l0.5 0.5t-0.5 0.5q6 0 13 0.5t15 1.5h10q5 0 10 0.5t10 0.5h11q6 0 11 1h-1q23 2 43.5 2.5t34.5 0.5l2 -12l8 -41q4 -24 10.5 -37.5
t16 -21t22.5 -10.5t31 -6q9 0 18 1.5t23 8.5q21 8 31 26.5t10 39.5q0 7 -2.5 15t-4.5 16l1 -3q-29 198 -52 318t-44 164q26 8 41.5 28t19.5 59zM310 326l13 -106h-77zM375 653l11 -20l-24 7zM304 570q1 -1 2 -1.5t2 -1.5q-4 -2 -12 -4q2 2 4 3.5t4 3.5zM361 642v2q0 3 1 4
q0 -2 -0.5 -3.5t-0.5 -2.5zM388 647q-1 1 -1 2q0 -1 0.5 -1.5z" />
    <glyph glyph-name="adieresis" unicode="&#xe4;" horiz-adv-x="502" 
d="M510 616q-3 29 -29 48t-65 19h-4q-53 0 -78 -28q-12 13 -31 20.5t-45 7.5h-2q-42 0 -67.5 -19.5t-25.5 -51.5q7 -28 31 -45.5t62 -18.5h12q-22 -14 -32.5 -31t-21.5 -39l-3 -5q-8 -17 -18.5 -36.5t-24.5 -40.5l-43.5 -71l-47 -79.5l-45 -80t-36.5 -72.5q-8 -22 -12.5 -37
t-4.5 -31v-10q0 -15 6.5 -27t17 -20.5t23.5 -13t26 -4.5q29 0 50 11.5t38 43.5l9 18.5t7 16.5q6 16 11 27t12 19h11l0.5 0.5t-0.5 0.5q6 0 13 0.5t15 1.5h10q5 0 10 0.5t10 0.5h11q6 0 11 1h-1q23 2 43.5 2.5t34.5 0.5l2 -12l8 -41q4 -24 10.5 -37.5t16 -21t22.5 -10.5
t31 -6q9 0 18 1.5t23 8.5q21 8 31 26.5t10 39.5q0 7 -2.5 15t-4.5 16l1 -3q-28 194 -51 312.5t-43 165.5q40 1 65.5 18.5t25.5 46.5v3zM310 326l13 -106h-77z" />
    <glyph glyph-name="aring" unicode="&#xe5;" horiz-adv-x="502" 
d="M452 668v9q0 1 0.5 1.5t0.5 1.5q0 35 -20.5 61.5t-62.5 26.5q-31 0 -55 -13t-41.5 -32.5t-26.5 -42.5t-10 -44v-4q0 -25 9.5 -46t32.5 -32q-28 -14 -40.5 -33t-24.5 -43l-3 -5q-8 -17 -18.5 -36.5t-24.5 -40.5l-43.5 -71l-47 -79.5l-45 -80t-36.5 -72.5q-8 -22 -12.5 -37
t-4.5 -31v-10q0 -15 6.5 -27t17 -20.5t23.5 -13t26 -4.5q29 0 50 11.5t38 43.5l9 18.5t7 16.5q6 16 11 27t12 19h11l0.5 0.5t-0.5 0.5q6 0 13.5 0.5t15.5 1.5h9q5 0 10 0.5t10 0.5h11q6 0 11 1h-1q23 2 43.5 2.5t34.5 0.5l2 -12l8 -41q4 -24 10.5 -37.5t16 -21t22.5 -10.5
t31 -6q9 0 18 1.5t23 8.5q21 8 31 26.5t10 39.5q0 7 -2.5 15t-4.5 16l1 -3q-34 238 -61 363.5t-52 140.5q22 17 36 41t16 53zM310 326l13 -106h-77zM401 573l-10 -24v17l1 -1v3q2 2 4 3t4 3z" />
    <glyph glyph-name="ae" unicode="&#xe6;" horiz-adv-x="836" 
d="M349 82l8 -41q4 -24 10.5 -37.5t16 -21t22.5 -10.5t31 -6q6 0 13.5 1t15.5 4q10 -2 12 -2q17 0 28 1.5t23 3.5q2 1 7 1q6 0 14 3l-1 -1q3 1 6 1t7 1h3l235 36q32 3 44 15q6 6 8.5 13.5t2.5 15.5v5q0 4 -2 9v4q-1 3 -3.5 9.5t-14.5 23.5h-10q-13 7 -27.5 9.5l-26.5 4.5h-5
q-2 0 -2.5 0.5t-2.5 0.5h-4q-13 0 -19 -0.5t-11 -1.5q-2 0 -5 -0.5t-5 -0.5q-18 -3 -33 -3h-9q-1 0 -1.5 0.5t-1.5 0.5h-6t-10 -1h2q-3 0 -6.5 -0.5t-7.5 -0.5q-9 -1 -17.5 -1.5t-15.5 -0.5q-5 -1 -10 -1h-8q-5 0 -10 -0.5t-10 -0.5l-34 -2t-32 -3l-6 43.5t-5 41.5
q-1 3 -0.5 5.5t-0.5 5.5v-4q0 2 -0.5 4.5t-0.5 4.5q0 5 -1 9q4 -1 7.5 -0.5t6.5 0.5h17q13 0 27 0.5t31 1.5t40 3.5t55 5.5q4 0 9.5 0.5t12.5 1.5h6q8 1 16 1h10q24 4 33 16.5t9 28.5q0 12 -6 26l1 -2l-7 19q-14 25 -39.5 30.5t-54.5 5.5h-89q-26 0 -51.5 -0.5t-45.5 1.5
q-2 15 -3.5 42t-2.5 47q2 1 3 1t3 1h-1q5 1 17 1h32l150 6h30q7 0 11.5 0.5t10.5 4.5l-2 -1q21 7 30 19t9 26q0 3 -0.5 7t-3.5 10l-5 10q-8 11 -16 18t-18.5 10.5t-24.5 5.5t-34 4q-18 0 -42.5 1t-50.5 3h-16q-7 0 -15 1q-29 2 -58 3t-56 1q-35 0 -65.5 -2.5t-52.5 -8.5
q-25 -8 -40.5 -18t-26.5 -22.5t-18.5 -27.5l-16.5 -33l-16.5 -32.5t-23.5 -38.5l-43.5 -71l-47 -79.5l-45 -80t-36.5 -72.5q-8 -22 -12.5 -37t-4.5 -31v-10q0 -15 6.5 -27t17 -20.5t23.5 -13t26 -4.5q29 0 50 11.5t38 43.5l9 18.5t7 16.5q6 16 11 27t12 19h11l0.5 0.5
t-0.5 0.5q6 0 13 0.5t15 1.5h10q5 0 10 0.5t10 0.5h11q6 0 11 1h-1q23 2 43.5 2.5t34.5 0.5zM310 326l13 -106h-77zM453 -26q2 0 6 -2q-6 0 -6 2z" />
    <glyph glyph-name="ccedilla" unicode="&#xe7;" horiz-adv-x="488" 
d="M113 -51q1 3 3 3q-14 -8 -19 -13.5t-5 -25.5q0 -12 5 -17t13 -7q-13 -14 -18.5 -26t-5.5 -19q0 -28 27.5 -40t67.5 -12q30 0 63 6.5t61.5 17.5t47 27t18.5 35v9q0 23 -12.5 40t-31.5 28q38 10 72.5 28.5t69.5 44.5q18 16 25.5 26t14.5 21q-1 70 -59 70h-3q-1 0 -16 -4.5
t-35 -14.5v2q-29 -17 -60.5 -30.5t-73.5 -26.5l4 -28h5l-3 30q-10 -2 -25 -2q-10 0 -26 3.5t-48 15.5q-11 11 -21.5 25t-12.5 30v5q0 5 1 7q5 48 23 82q20 42 46 81t55 66q19 20 39.5 34t41.5 16l68 -49q16 -9 25 -13.5t14 -6.5t8.5 -2.5t8.5 -0.5q28 12 44 32.5t16 35.5
q0 5 -1 10v7q-5 26 -25.5 44t-49.5 34v1q-25 13 -43.5 21.5t-33.5 14t-27.5 7.5t-25.5 2q-30 0 -81 -14q-52 -32 -96.5 -74.5t-78.5 -93.5t-56 -109.5t-29 -121.5v-13q0 -8 1 -13q2 -23 6.5 -40.5t14.5 -36.5l45 -52v3q19 -16 40.5 -26.5t45.5 -18.5l-12 -9h5
q-1 0 -1.5 -0.5t-1.5 -0.5l4 -19l-9 18zM116 -48l3 2q-1 0 -3 -2z" />
    <glyph glyph-name="egrave" unicode="&#xe8;" horiz-adv-x="519" 
d="M-19 16q4 -2 12.5 -7.5t13.5 -9.5q4 -3 8 -5.5t6 -4.5q16 -13 33.5 -23.5t31.5 -10.5q22 0 37.5 2t33.5 5q2 1 6 1.5t6 1.5h6l247 35q22 2 31.5 5t13.5 7q10 12 14.5 20.5t4.5 23.5q0 4 -0.5 11.5t-3.5 28.5h-18q-11 7 -25.5 9.5t-28.5 4.5q-2 0 -3.5 0.5t-3.5 0.5h-4
q-7 0 -13.5 -0.5t-13.5 -1.5q-3 0 -6.5 -0.5t-5.5 -0.5q-20 -3 -35 -3h-11h-6t-10 -1h2q-2 0 -6 -0.5t-7 -0.5q-10 -1 -19 -1.5t-15 -0.5q-3 0 -6.5 -0.5t-6.5 -0.5h-12l-39.5 -2t-38.5 -3q2 12 5 27t6.5 30.5l6.5 29.5t6 24h1q6 -1 11 -1h11h17q13 0 26.5 0.5t31 1.5t41 3
l56.5 5q5 0 13 0.5t17 1.5q2 0 3.5 0.5t3.5 0.5q5 1 9 1h7q18 3 29 9t16 14.5t6.5 18t1.5 18.5v20q-4 16 -12.5 24.5t-20.5 12.5t-27 5t-30 1h-90h-47t-41 1q4 17 11 43.5l13 47.5h6q7 1 11 1h14h32l152 7h29q5 0 8 0.5t8 2.5h-1h3q2 2 4 3t5 3l-4 -4q26 9 35.5 22.5
t9.5 26.5v13q-8 14 -15 22t-17 13t-24 7.5t-34 4.5q-14 1 -32 1.5t-38 1.5h-4q13 7 18.5 16t5.5 25q0 11 -13 42q-6 13 -16 28t-22 29.5t-24.5 27t-24.5 20.5q-16 10 -31 16t-26 6q-24 0 -38.5 -12.5t-14.5 -42.5q0 -15 2 -20q6 -17 12 -29t13.5 -21t18 -18l24.5 -20l-2 1
q1 -1 2 -1.5t2 -1.5q0 -2 4 -3l1 -1q0 1 1 0l14 -10.5t8 -8.5q5 -6 9.5 -10.5t9.5 -8.5q-18 1 -34.5 1.5t-27.5 0.5h-62h-14t-16 1q-30 0 -47.5 -3t-27.5 -13t-16 -29.5t-13 -51.5zM498 447q-1 0 -5 -2h-2q5 0 7 2z" />
    <glyph glyph-name="eacute" unicode="&#xe9;" horiz-adv-x="519" 
d="M-19 16q4 -2 12.5 -7.5t13.5 -9.5q4 -3 8 -5.5t6 -4.5q16 -13 33.5 -23.5t31.5 -10.5q22 0 37.5 2t33.5 5q2 1 6 1.5t6 1.5h6l247 35q22 2 31.5 5t13.5 7q10 12 14.5 20.5t4.5 23.5q0 4 -0.5 11.5t-3.5 28.5h-18q-11 7 -25.5 9.5t-28.5 4.5q-2 0 -3.5 0.5t-3.5 0.5h-4
q-7 0 -13.5 -0.5t-13.5 -1.5q-3 0 -6.5 -0.5t-5.5 -0.5q-20 -3 -35 -3h-11h-6t-10 -1h2q-2 0 -6 -0.5t-7 -0.5q-10 -1 -19 -1.5t-15 -0.5q-3 0 -6.5 -0.5t-6.5 -0.5h-12l-39.5 -2t-38.5 -3q2 12 5 27t6.5 30.5l6.5 29.5t6 24h1q6 -1 11 -1h11h17q13 0 26.5 0.5t31 1.5t41 3
l56.5 5q5 0 13 0.5t17 1.5q2 0 3.5 0.5t3.5 0.5q5 1 9 1h7q18 3 29 9t16 14.5t6.5 18t1.5 18.5v20q-4 16 -12.5 24.5t-20.5 12.5t-27 5t-30 1h-90h-47t-41 1q4 17 11 43.5l13 47.5h6q7 1 11 1h14h32l152 7h29q5 0 8 0.5t8 2.5h-1h3q2 2 4 3t5 3l-4 -4q26 9 35.5 22.5
t9.5 26.5v13q-8 14 -15 22t-17 13t-24 7.5t-34 4.5q-14 1 -32 1.5t-38 1.5q-10 1 -20 1t-21 1q-8 0 -14.5 0.5t-13.5 0.5q3 3 6 6.5l7 8.5q1 1 6 5l13 10h-1q3 2 11 8l24 19.5t18 18t14 20.5t11 28v4v1v1q1 0 1 1v-4q2 8 2 19q0 29 -14.5 41.5t-37.5 12.5q-13 0 -28 -5.5
t-31 -15.5q-11 -8 -24 -20.5t-25 -28t-22 -32t-17 -30.5l1 1q-12 -23 -12 -37q0 -20 9 -30h-37h-14t-16 1q-30 0 -47.5 -3t-27.5 -13t-16 -29.5t-13 -51.5zM498 447q-1 0 -5 -2h-2q5 0 7 2z" />
    <glyph glyph-name="ecircumflex" unicode="&#xea;" horiz-adv-x="519" 
d="M435 654l-6 12v11h-7q-8 12 -15.5 19t-17.5 12l-10 -15q-2 1 -6 5l-22 17.5l-22.5 18t-19.5 14t-13 5.5h-2q-23 0 -35.5 -11.5t-18.5 -40.5q-1 2 -5 0.5t-8 -3.5q-1 -1 -2 -1l-1 -1l3 1q-15 -8 -25 -18q-11 -11 -17.5 -26t-6.5 -33q0 -19 7 -32l-1 1q7 -16 18 -25h-14
h-14t-16 1q-30 0 -47.5 -3t-27.5 -13t-16 -29.5t-13 -51.5l-73 -452q4 -2 12.5 -7.5t13.5 -9.5q4 -3 8 -5.5t6 -4.5q16 -13 33.5 -23.5t31.5 -10.5q22 0 37.5 2t33.5 5q2 1 6 1.5t6 1.5h6l247 35q22 2 31.5 5t13.5 7q10 12 14.5 20.5t4.5 23.5q0 4 -0.5 11.5t-3.5 28.5h-18
q-11 7 -25.5 9.5t-28.5 4.5q-2 0 -3.5 0.5t-3.5 0.5h-4q-7 0 -13.5 -0.5t-13.5 -1.5q-3 0 -6.5 -0.5t-5.5 -0.5q-20 -3 -35 -3h-11h-6t-10 -1h2q-2 0 -6 -0.5t-7 -0.5q-10 -1 -19 -1.5t-15 -0.5q-3 0 -6.5 -0.5t-6.5 -0.5h-12l-39.5 -2t-38.5 -3q2 12 5 27t6.5 30.5
l6.5 29.5t6 24h1q6 -1 11 -1h11h17q13 0 26.5 0.5t31 1.5t41 3l56.5 5q5 0 13 0.5t17 1.5q2 0 3.5 0.5t3.5 0.5q5 1 9 1h7q18 3 29 9t16 14.5t6.5 18t1.5 18.5v20q-4 16 -12.5 24.5t-20.5 12.5t-27 5t-30 1h-90h-47t-41 1q4 17 11 43.5l13 47.5h6q7 1 11 1h14h32l152 7h29
q5 0 8.5 0.5t8.5 2.5h-2h3q2 2 4 3t5 3l-4 -4q26 9 35.5 22.5t9.5 26.5v13q-8 14 -15 22t-17 13t-24 7.5t-34 4.5q-14 1 -32 1.5t-38 1.5q-10 1 -20 1t-21 1q-20 1 -39 1.5t-35 1.5q2 1 6 5l7.5 7.5t10.5 11.5v-1l4 4q1 2 5 6l4 4q8 -2 17 -8t24 -17q8 -5 15 -7.5t18 -2.5
q7 0 15 2t17 10q14 9 19 23t5 31q0 10 -3 21zM498 447q-1 0 -5 -2h-1q4 0 6 2zM390 684q0 -1 -1 0h1z" />
    <glyph glyph-name="edieresis" unicode="&#xeb;" horiz-adv-x="519" 
d="M491 625q-2 29 -27 48.5t-66 19.5h-4q-56 0 -79 -28q-12 13 -31 20.5t-45 7.5h-1q-42 0 -67.5 -19t-25.5 -51q5 -21 19 -36.5t38 -22.5h-14h-14t-16 1q-30 0 -47.5 -3t-27.5 -13t-16 -29.5t-13 -51.5l-73 -452q4 -2 12.5 -7.5t13.5 -9.5q4 -3 8 -5.5t6 -4.5
q16 -13 33.5 -23.5t31.5 -10.5q22 0 37.5 2t33.5 5q2 1 6 1.5t6 1.5h6l247 35q22 2 31.5 5t13.5 7q10 12 14.5 20.5t4.5 23.5q0 4 -0.5 11.5t-3.5 28.5h-18q-11 7 -25.5 9.5t-28.5 4.5q-2 0 -3.5 0.5t-3.5 0.5h-4q-7 0 -13.5 -0.5t-13.5 -1.5q-3 0 -6.5 -0.5t-5.5 -0.5
q-20 -3 -35 -3h-11h-6t-10 -1q-2 -1 -6 -1h-5q-10 -1 -19 -1.5t-15 -0.5q-3 0 -6.5 -0.5t-6.5 -0.5h-12l-39.5 -2t-38.5 -3q2 12 5 27t6.5 30.5l6.5 29.5t6 24h1q6 -1 11 -1h11h17q13 0 26.5 0.5t31 1.5t41 3l56.5 5q5 0 13 0.5t17 1.5q2 0 3.5 0.5t3.5 0.5q5 1 9 1h7
q18 3 29 9t16 14.5t6.5 18t1.5 18.5v20q-4 16 -12.5 24.5t-20.5 12.5t-27 5t-30 1h-90h-47t-41 1q4 17 11 43.5l13 47.5h6q7 1 11 1h14h32l152 7h29q5 0 8.5 0.5t8.5 2.5h-2h3q2 2 4 3t5 3l-4 -4q26 9 35.5 22.5t9.5 26.5v13q-8 14 -15 22t-17 13t-24 7.5t-34 4.5
q-14 1 -30 1.5t-34 1.5h5q42 0 69.5 17.5t27.5 47.5v1zM342 561q-17 1 -33.5 1.5t-30.5 1.5q26 6 42 22q11 -11 27.5 -18.5t39.5 -8.5h-4q-10 1 -20 1t-21 1zM498 447q-1 0 -5 -2h-1q4 0 6 2z" />
    <glyph glyph-name="igrave" unicode="&#xec;" horiz-adv-x="222" 
d="M224 567q26 10 38.5 19t12.5 33q0 5 -1.5 9.5l-3.5 10.5q-1 2 -2 5l-2 6q-11 20 -27 44t-33 44h9l-14 9t-13 8q-4 3 -7.5 6t-6.5 5l-1 -2q-40 23 -56 23q-24 0 -38 -12.5t-14 -42.5q0 -13 1 -18q6 -18 12 -30.5t14 -22t18.5 -18l24.5 -19.5q12 -8 21.5 -15.5t13.5 -13.5
q10 -15 23 -21q-8 3 -15.5 5t-15.5 2h-3q-9 5 -20 5q-22 0 -41.5 -37t-38.5 -108t-38.5 -173.5l-42.5 -234.5q3 -12 8 -22.5t12 -17.5l17 -17l2 6l57 -19h27q6 8 14 20v-1q10 13 13.5 20t5.5 27l3.5 15.5l9 40.5l13 57l15.5 67l16.5 69.5l15.5 64.5q2 18 5 26.5t5 16.5l3 9
q2 6 3.5 11.5t3.5 10.5v2h1q5 17 10.5 39t8.5 39q0 23 -12 42.5t-32 30.5q5 -2 9.5 -2.5t6.5 -0.5h5zM15 15h2l-3 -3h-2z" />
    <glyph glyph-name="iacute" unicode="&#xed;" horiz-adv-x="222" 
d="M74 -37h27q6 8 14 20v-1q10 13 13.5 20t5.5 27l3.5 15.5l9 40.5l13 57l15.5 67l16.5 69.5l15.5 64.5q2 18 5 26.5t5 16.5l3 9q2 6 3.5 11.5t3.5 10.5v2h1q5 17 10.5 39t8.5 39q0 29 -19 51.5t-47 29.5q4 4 8 8.5l9 10.5q1 1 6 5l13 10h-1q3 2 11 8q15 10 25 18.5t17.5 18
t13.5 21.5t12 30v4q0 1 0.5 1.5t0.5 1.5v-3q1 5 1 16q0 29 -14 41.5t-38 12.5q-13 0 -28 -5.5t-31 -15.5q-11 -7 -23.5 -20t-24 -28t-22 -31.5t-17.5 -30.5q-12 -23 -12 -37q0 -18 6 -26.5t20 -15.5q-17 -19 -33 -64t-32.5 -113.5t-33.5 -159.5l-36 -202q3 -12 8 -22.5
t12 -17.5l17 -17l2 6zM15 15h2l-3 -3h-2z" />
    <glyph glyph-name="icircumflex" unicode="&#xee;" horiz-adv-x="222" 
d="M296 658q-2 3 -4 9q-1 1 -1 3v11h-7q-7 11 -14.5 16.5t-16.5 10.5q-15 17 -40 33t-55 16h-3q-21 0 -34.5 -11.5t-19.5 -40.5q-1 2 -5 0.5t-8 -3.5q-1 -1 -2 -1l-1 -1l3 1q-15 -8 -25 -18l1 2q-10 -10 -17 -25.5t-7 -35.5q0 -19 7 -32l-1 1q17 -36 50 -36h6
q-31 -51 -60 -184.5t-64 -339.5q3 -12 8 -22.5t12 -17.5l17 -17l2 6l57 -19h27q6 8 14 20v-1q10 13 13.5 20t5.5 27l3.5 15.5l9 40.5l13 57l15.5 67l16.5 69.5l15.5 64.5q2 18 5 26.5t5 16.5l3 9q2 6 3.5 11.5t3.5 10.5v2h1q5 17 10.5 39t8.5 39q0 17 -7 32t-18.5 26.5
t-27 18.5t-32.5 7h-3q-8 4 -12 4l16 17v-1l4 4q8 -2 16 -7l21 -13q1 -1 1 -2l1 -1l-1 1q7 -5 16 -9t20 -4q7 0 15 2t17 10q12 9 18 23t6 31q0 10 -3 21zM15 15h2l-3 -3h-2z" />
    <glyph glyph-name="idieresis" unicode="&#xef;" horiz-adv-x="222" 
d="M351 631q-2 30 -27.5 49.5t-65.5 19.5h-4q-56 0 -79 -28q-12 13 -31 20.5t-45 7.5h-1q-42 0 -67.5 -19.5t-25.5 -51.5q5 -28 29.5 -45.5t63.5 -18.5h10q-33 -45 -63 -180.5t-67 -351.5q3 -12 8 -22.5t12 -17.5l17 -17l2 6l57 -19h27q6 8 14 20v-1q10 13 13.5 20t5.5 27
l3.5 15.5l9 40.5l13 57l15.5 67l16.5 69.5l15.5 64.5q2 18 5 26.5t5 16.5l3 9q2 6 3.5 11.5t3.5 10.5v2h1q5 17 10.5 39t8.5 39q0 16 -6.5 31t-18 26.5t-26.5 18.5t-31 8q8 4 15 11q12 -12 30.5 -19.5t43.5 -7.5q42 0 69.5 17.5t27.5 47.5v1zM15 15h2l-3 -3h-2z" />
    <glyph glyph-name="eth" unicode="&#xf0;" horiz-adv-x="568" 
d="M-65 237q11 -15 29.5 -20.5t43.5 -6.5q-7 -36 -12.5 -75t-10.5 -82v-19q5 -30 32 -53l83 -27q21 0 40.5 1.5t34.5 3.5h-3q82 7 154 43.5t125.5 89t84.5 114.5t31 122q0 42 -15.5 80t-49 69t-86 53t-127.5 31q-26 6 -54 7t-63 1l-66 -10q-20 -51 -29.5 -78.5t-11.5 -36.5
v-8q-3 -4 -3.5 -8t-0.5 -6l1 4l-6 -21.5l-6 -21.5l-9 -34q-16 -1 -29.5 -1.5t-23.5 -1.5v2q-17 -3 -30 -6.5t-22 -9t-14 -14t-5 -23.5q2 -20 5.5 -34t12.5 -25v1zM387 408q26 -20 35 -37t11 -32v-2q-3 -29 -23 -61.5t-53 -65t-76.5 -62t-91.5 -51.5q-4 -2 -15 -6l-25 -9
q4 26 11.5 60l16.5 72q26 1 47 2t28 3h11q23 0 35.5 1.5t23.5 8.5q18 7 21.5 16t3.5 26q0 1 -0.5 3.5t-0.5 3.5l-10 19.5t-13 17.5q-1 0 -1 1h-1q-22 19 -49.5 26t-59.5 9l13.5 43.5l11.5 36.5q61 -1 97.5 -6t52.5 -17z" />
    <glyph glyph-name="ntilde" unicode="&#xf1;" horiz-adv-x="534" 
d="M493 575q-20 -3 -34.5 -13.5t-24 -24t-15 -30t-8.5 -31.5l-5.5 -24.5l-14 -61l-19 -80t-21.5 -82.5q-17 45 -28 86.5t-19 89.5q-2 5 -2.5 12t-0.5 16v12q0 18 -1.5 36.5t-7.5 34t-19 26t-36 12.5q-51 -3 -80 -12.5t-45 -24.5t-23 -36t-12 -49q-5 -19 -10.5 -37.5
t-9.5 -35.5l-22 -86l-18 -70l-23.5 -91.5t-12.5 -51.5t-5 -25.5t-1 -13.5v-6q0 -17 7.5 -31t19 -23.5t26 -15t29.5 -5.5q25 0 44.5 13t23.5 47v5l12 41t17 60.5l18.5 70t17.5 70.5q29 -88 58 -146.5t48 -77.5q43 -50 86 -50q27 0 46.5 17t28.5 45l9.5 31.5l8.5 26.5v-1
q4 11 7 20.5t5 17.5q3 10 6 17.5t5 13.5l-1 -1l9 28t5 20q3 20 10.5 47l12.5 44h1q2 5 7 19.5t10.5 34.5t10.5 42.5t7 43.5q6 15 11.5 34t5.5 38q0 14 -5.5 28.5t-17.5 26.5zM493 639v4q0 20 -19 34.5t-40 14.5q-13 0 -26 -6t-22 -18l-19.5 30t-13.5 21v-33q-11 3 -23 3
q-15 0 -34.5 -7.5t-37 -19.5t-30.5 -27t-14 -30v-4q0 -20 16.5 -36t43.5 -16q16 0 26 6.5t19 14.5q10 -9 25 -16.5t41 -7.5q48 0 75.5 19t32.5 74zM376 641v3q0 2 1 3v-3q0 -1 -0.5 -1.5t-0.5 -1.5z" />
    <glyph glyph-name="ograve" unicode="&#xf2;" horiz-adv-x="589" 
d="M363 561q-58 -7 -100 -16.5t-68 -25.5l-35 -20.5t-21 -13.5q-37 -27 -67 -63t-51.5 -76t-33 -81.5t-11.5 -80.5v-12q0 -6 1 -9h-1q3 -20 9 -41.5t25 -53.5v1q5 -9 8.5 -14.5t7.5 -10.5q1 -3 4 -6q29 -35 70 -53.5t101 -28.5h-1q17 -4 34.5 -5t38.5 -1q57 0 104 12t82 39
q39 34 67.5 73.5t47 81.5t27.5 85t9 83v17q0 8 -0.5 12.5t-1.5 9.5q-2 15 -6 31.5t-13 35.5q-31 57 -68.5 85.5t-71.5 39.5q12 6 18 14.5t6 25.5q0 14 -12 37q-9 19 -24.5 41t-32.5 41h9l-14 9t-13 8q-4 3 -7.5 6t-6.5 5l-1 -2q-40 23 -56 23q-24 0 -38 -12.5t-14 -42.5
q0 -11 0.5 -14t1.5 -6v1q6 -18 12 -30t13.5 -21.5t17 -18t23.5 -18.5q-1 1 0 1q14 -10 23 -17.5t14 -13.5q3 -4 9 -10h-14zM390 443q19 0 32 -9q14 -11 22 -34.5t13 -47.5v-13q0 -2 0.5 -4t0.5 -4q0 -40 -13 -86.5t-40.5 -86.5t-69 -67t-98.5 -29q-7 0 -18.5 4.5t-24.5 11.5
q-23 6 -36 26.5t-16 46.5q3 36 19.5 81t44.5 87t66 75t83 44q18 5 35 5zM331 601l2 -1q-1 0 -1.5 0.5z" />
    <glyph glyph-name="oacute" unicode="&#xf3;" horiz-adv-x="589" 
d="M363 561q-5 -1 -9 -1.5t-8 -0.5q2 2 4 4.5t4 5.5q2 2 6.5 5.5t11.5 8.5q3 2 6 4.5t7 5.5l24.5 19.5t18 17.5t13.5 19.5t11 26.5l2 10t1 15q0 30 -14 42.5t-38 12.5q-14 0 -28.5 -6t-30.5 -15q-11 -7 -24 -20.5t-25 -29.5t-23 -33.5t-18 -32.5v-2q-1 -1 -1 -2v0
q-4 -8 -6 -13.5t-2 -13.5q0 -19 5.5 -27.5t19.5 -14.5q-47 -11 -75 -27l-35 -20.5t-21 -13.5q-37 -27 -67 -63t-51.5 -76t-33 -81.5t-11.5 -80.5v-12q0 -6 1 -9h-1q3 -20 9 -41.5t25 -53.5v1q5 -9 8.5 -14.5t7.5 -10.5q1 -3 4 -6q29 -35 70 -53.5t101 -28.5h-1
q17 -4 34.5 -5t38.5 -1q57 0 104 12t82 39q39 34 67.5 73.5t47 81.5t27.5 85t9 83v17q0 8 -0.5 12.5t-1.5 9.5q-2 15 -6 31.5t-13 35.5q-18 35 -39.5 59t-44 39t-44 22.5t-39.5 10.5h-59zM390 443q19 0 32 -9q14 -11 22 -34.5t13 -47.5v-13q0 -2 0.5 -4t0.5 -4
q0 -40 -13 -86.5t-40.5 -86.5t-69 -67t-98.5 -29q-7 0 -18.5 4.5t-24.5 11.5q-23 6 -36 26.5t-16 46.5q3 36 19.5 81t44.5 87t66 75t83 44q18 5 35 5z" />
    <glyph glyph-name="ocircumflex" unicode="&#xf4;" horiz-adv-x="589" 
d="M507 642l-6 12v11h-7q-8 12 -15.5 19t-17.5 12l-10 -15q-2 1 -6 5l-22 17.5l-22.5 18t-19.5 14t-13 5.5h-2q-23 0 -35.5 -11.5t-18.5 -40.5q-1 2 -5 0.5t-8 -3.5q-1 -1 -2 -1l-1 -1l3 1q-17 -8 -23 -16q-11 -11 -18.5 -26.5t-7.5 -34.5t7 -32l-1 1q8 -19 23 -29
q-26 -6 -47 -13t-37 -16l-35 -20.5t-21 -13.5q-37 -27 -67 -63t-51.5 -76t-33 -81.5t-11.5 -80.5v-12q0 -6 1 -9h-1q3 -20 9 -41.5t25 -53.5v1q5 -9 8.5 -14.5t7.5 -10.5q1 -3 4 -6q29 -35 70 -53.5t101 -28.5h-1q17 -4 34.5 -5t38.5 -1q57 0 104 12t82 39q39 34 67.5 73.5
t47 81.5t27.5 85t9 83v17q0 8 -0.5 12.5t-1.5 9.5q-2 15 -6 31.5t-13 35.5q-30 56 -66.5 84.5t-70.5 39.5q16 0 31 12q14 9 19 23t5 31q0 10 -3 21zM390 443q19 0 32 -9q14 -11 22 -34.5t13 -47.5v-13q0 -2 0.5 -4t0.5 -4q0 -40 -13 -86.5t-40.5 -86.5t-69 -67t-98.5 -29
q-7 0 -18.5 4.5t-24.5 11.5q-23 6 -36 26.5t-16 46.5q3 36 19.5 81t44.5 87t66 75t83 44q18 5 35 5zM363 561q-4 -1 -8 -1q-3 0 -7 -1l6 6t10 11v-1l4 4q1 2 5 6l4 4q8 -2 17 -8t24 -17q2 -2 6 -4q-1 0 -1.5 0.5l-0.5 0.5h-59zM462 672q0 -1 -1 0h1z" />
    <glyph glyph-name="otilde" unicode="&#xf5;" horiz-adv-x="589" 
d="M484 638v3q0 20 -18.5 34.5t-39.5 14.5q-14 0 -26.5 -5.5t-23.5 -19.5q-9 9 -21.5 15.5t-32.5 6.5q-17 0 -36.5 -7.5t-37 -19.5t-30 -27t-13.5 -30v-3q0 -21 16.5 -37t43.5 -16q16 0 26 6.5t20 15.5q3 -4 7 -7t9 -6q-90 -12 -132 -37l-35 -20.5t-21 -13.5
q-37 -27 -67 -63t-51.5 -76t-33 -81.5t-11.5 -80.5v-12q0 -6 1 -9h-1q3 -20 9 -41.5t25 -53.5v1q5 -9 8.5 -14.5t7.5 -10.5q1 -3 4 -6q29 -35 70 -53.5t101 -28.5h-1q17 -4 34.5 -5t38.5 -1q57 0 104 12t82 39q39 34 67.5 73.5t47 81.5t27.5 85t9 83v17q0 8 -0.5 12.5
t-1.5 9.5q-2 15 -6 31.5t-13 35.5q-32 61 -72.5 89.5t-74.5 37.5q17 10 28 29.5t14 51.5zM390 443q19 0 32 -9q14 -11 22 -34.5t13 -47.5v-13q0 -2 0.5 -4t0.5 -4q0 -40 -13 -86.5t-40.5 -86.5t-69 -67t-98.5 -29q-7 0 -18.5 4.5t-24.5 11.5q-23 6 -36 26.5t-16 46.5
q3 36 19.5 81t44.5 87t66 75t83 44q18 5 35 5zM388 654q2 0 3 -2.5t1 -4.5q-2 2 -2 3z" />
    <glyph glyph-name="odieresis" unicode="&#xf6;" horiz-adv-x="589" 
d="M525 605q-2 29 -28 48.5t-66 19.5h-4q-54 0 -77 -28q-13 13 -32 20.5t-45 7.5h-2q-42 0 -67.5 -19.5t-25.5 -51.5q5 -23 23 -39.5t48 -21.5q-17 -5 -30 -10.5t-24 -11.5l-35 -20.5t-21 -13.5q-37 -27 -67 -63t-51.5 -76t-33 -81.5t-11.5 -80.5v-12q0 -6 1 -9h-1
q3 -20 9 -41.5t25 -53.5v1q5 -9 8.5 -14.5t7.5 -10.5q1 -3 4 -6q29 -35 70 -53.5t101 -28.5h-1q17 -4 34.5 -5t38.5 -1q57 0 104 12t82 39q39 34 67.5 73.5t47 81.5t27.5 85t9 83v17q0 8 -0.5 12.5t-1.5 9.5q-2 15 -6 31.5t-13 35.5q-25 48 -55.5 74.5t-59.5 40.5
q23 8 37 23t14 36v1zM390 443q19 0 32 -9q14 -11 22 -34.5t13 -47.5v-13q0 -2 0.5 -4t0.5 -4q0 -40 -13 -86.5t-40.5 -86.5t-69 -67t-98.5 -29q-7 0 -18.5 4.5t-24.5 11.5q-23 6 -36 26.5t-16 46.5q3 36 19.5 81t44.5 87t66 75t83 44q18 5 35 5zM344 559q2 2 4.5 3.5
t4.5 3.5l6 -6q-4 0 -7.5 -0.5t-7.5 -0.5z" />
    <glyph glyph-name="divide" unicode="&#xf7;" horiz-adv-x="537" 
d="M33 264q11 -16 34 -21.5t55 -5.5h24q7 0 14 0.5t15 0.5q4 0 8.5 0.5t8.5 0.5q9 1 18 1.5t18 0.5h2q6 0 32 0.5t57 1.5t58.5 2.5t35.5 3.5h17q26 0 40 1.5t26 9.5q15 7 19 14.5t4 23.5l-5 10h1q-5 11 -9.5 19.5t-12.5 13.5h1q-29 27 -71.5 34t-90.5 7h-43q-5 0 -11.5 -0.5
t-11.5 -0.5q-5 -1 -10 -1h-8q-23 0 -51 -0.5t-54 -1.5t-46.5 -2.5t-29.5 -2.5v1q-26 -5 -40 -11.5t-14 -31.5v-4q0 -6 1 -9v-4q0 -3 0.5 -5.5t2.5 -7.5l-1 3q3 -9 6.5 -21t11.5 -21zM187 479v-10q0 -14 4.5 -25t11.5 -20q23 -17 43.5 -23.5t31.5 -6.5q16 0 31 4t26 10
q22 12 37 31t16 42q0 46 -46 64l1 -1q-11 6 -24 10t-26 4q-14 0 -19 -1h1q-2 -1 -6 -1q-32 -6 -55 -27t-27 -50zM137 154v-10q0 -14 4.5 -25t11.5 -20q23 -17 43.5 -23.5t31.5 -6.5q16 0 31 4t26 10q22 12 37 31t16 42q0 46 -46 64l1 -1q-11 6 -24 10t-26 4q-14 0 -19 -1h1
q-2 -1 -6 -1q-32 -6 -55 -27t-27 -50z" />
    <glyph glyph-name="oslash" unicode="&#xf8;" horiz-adv-x="589" 
d="M631 546q-5 31 -26.5 43t-48.5 12q-16 0 -32 -4.5t-29 -12.5q-27 -19 -42 -34l-8.5 3.5t-5.5 2.5q-3 1 -5.5 2t-5.5 2h-6l-1 1h-58q-58 -7 -100 -16.5t-68 -25.5l-35 -20.5t-21 -13.5q-37 -27 -67 -63t-51.5 -76t-33 -81.5t-11.5 -80.5v-12q0 -6 1 -9h-1q3 -20 9 -41.5
t25 -53.5v1q3 -6 6 -10l6 -8q0 -1 2 -3q0 -2 2 -3.5t4 -4.5q0 -1 2 -3l-4 -4q-2 -2 -1 -2t-1 -2q-13 -16 -18.5 -30.5t-5.5 -26.5q0 -31 20.5 -48.5t52.5 -17.5q20 0 43 10t40 33q3 4 6 7.5t5 6.5q4 -1 7.5 -2t8.5 -2l15 -3q17 -4 34.5 -5t38.5 -1q57 0 104 12t82 39
q39 34 67.5 73.5t47 81.5t27.5 85t9 83v17q0 8 -0.5 12.5t-1.5 9.5q-2 15 -6 31.5t-13 35.5q17 17 29.5 40t12.5 55v21zM250 63l101.5 121.5l105.5 119.5q-4 -38 -18.5 -78.5t-40 -75t-62.5 -59t-86 -28.5zM310 378q-7 -7 -15 -16.5t-16 -17.5v1q-2 -2 -4 -4.5t-4 -4.5
t-4.5 -5.5t-4.5 -4.5l1 1l-26.5 -28.5t-22.5 -27.5v1q-20 -23 -35.5 -43l-29.5 -37q9 36 27.5 75t45 74t60.5 61t73 36q2 0 8 2l-23.5 -30t-29.5 -32zM466 549q18 -9 22.5 -11.5t1 -1.5t-12.5 4.5t-18 7.5zM381 467l11 -12l-11 10l-3 -5q0 4 3 7z" />
    <glyph glyph-name="ugrave" unicode="&#xf9;" horiz-adv-x="507" 
d="M361 429q-2 -6 -2 -9q-1 -4 -1 -8q-1 -2 -1 -6q-3 -19 -8 -43.5t-14 -61.5q-6 -26 -13.5 -53.5t-15 -52t-15 -44t-14.5 -28.5l-30 -39l2 1q-7 -5 -16.5 -7.5t-19 -4t-17 -2t-11.5 -0.5h-4q-4 0 -11 2t-13.5 6t-11.5 10t-5 14q0 3 1 6q0 18 5 41t13 52l24.5 82.5l18 58.5
l12.5 39l8 24q1 2 1.5 4t1.5 4q5 16 6 21.5t2 17.5q1 10 3 33v3q0 13 -9 26t-22 23t-28 17.5t-27 10.5q-24 0 -43.5 -13t-45.5 -52v-10q-5 -10 -9.5 -25.5t-9.5 -35.5l-4 -14l-2 -6l-2 -6h1l-19.5 -68.5t-12 -44.5l-8.5 -37.5t-9 -46.5q-2 -15 -3.5 -30.5t-1.5 -32.5
q0 -35 11 -69.5t43 -60.5l7 -3q42 -32 74.5 -44.5t70.5 -12.5q4 1 6 1h14q2 0 4.5 -0.5t4.5 -0.5h35v2q57 3 96.5 35t66.5 79.5t44.5 105.5t31.5 114h-1q14 49 25.5 103t16.5 103q0 19 -0.5 31.5t-5.5 32.5q-6 9 -16.5 16.5t-22.5 12.5t-24 7.5t-20 2.5t-16.5 -4t-15.5 -9
t-12.5 -10t-7.5 -7zM336 536q27 10 39.5 20t12.5 32q0 14 -12 37q-7 14 -17 30t-22 31t-25 28t-25 21q-15 9 -29.5 15t-27.5 6q-23 0 -37.5 -12.5t-14.5 -42.5q0 -17 4 -25q5 -16 11 -27t13.5 -20t17.5 -17.5t24 -18.5l-2 1l2 -2q1 -1 2 -1.5t2 -1.5l7 7l-6 -7q4 -3 7 -5.5
t6 -4.5q4 -3 7.5 -6t6.5 -6l-1 2q17 -23 33 -28t21 -5h3zM248 86l-2 -2h1z" />
    <glyph glyph-name="uacute" unicode="&#xfa;" horiz-adv-x="507" 
d="M361 429q-2 -6 -2 -9q-1 -4 -1 -8q-1 -2 -1 -6q-3 -19 -8 -43.5t-14 -61.5q-6 -26 -13.5 -53.5t-15 -52t-15 -44t-14.5 -28.5l-30 -39l2 1q-7 -5 -16.5 -7.5t-19 -4t-17 -2t-11.5 -0.5h-4q-4 0 -11 2t-13.5 6t-11.5 10t-5 14q0 3 1 6q0 18 5 41t13 52l24.5 82.5l18 58.5
l12.5 39l8 24q1 2 1.5 4t1.5 4q5 16 6 21.5t2 17.5q1 10 3 33v3q0 13 -9 26t-22 23t-28 17.5t-27 10.5q-24 0 -43.5 -13t-45.5 -52v-10q-5 -10 -9.5 -25.5t-9.5 -35.5l-4 -14l-2 -6l-2 -6h1l-19.5 -68.5t-12 -44.5l-8.5 -37.5t-9 -46.5q-2 -15 -3.5 -30.5t-1.5 -32.5
q0 -35 11 -69.5t43 -60.5l7 -3q42 -32 74.5 -44.5t70.5 -12.5q4 1 6 1h14q2 0 4.5 -0.5t4.5 -0.5h35v2q57 3 96.5 35t66.5 79.5t44.5 105.5t31.5 114h-1q14 49 25.5 103t16.5 103q0 19 -0.5 31.5t-5.5 32.5q-6 9 -16.5 16.5t-22.5 12.5t-24 7.5t-20 2.5t-16.5 -4t-15.5 -9
t-12.5 -10t-7.5 -7zM270 538h4q11 0 22 4.5t30 27.5q2 2 9.5 8l17.5 14q1 1 1 0l1 1l2 2q15 11 25.5 19.5t18 17.5t13.5 20.5t11 28.5v1q1 3 1.5 6.5t0.5 14.5q0 29 -14 41.5t-38 12.5q-13 0 -27.5 -5.5t-29.5 -13.5q-12 -9 -25 -23t-25.5 -30t-23.5 -32.5t-18 -30.5
q0 -1 -0.5 -2.5t-0.5 -2.5q-5 -10 -6.5 -17t-1.5 -11q0 -23 10.5 -31.5t33.5 -16.5zM248 86l-2 -2h1z" />
    <glyph glyph-name="ucircumflex" unicode="&#xfb;" horiz-adv-x="507" 
d="M421 664q-6 13 -15 20.5t-23 14.5q-15 17 -39.5 32.5t-54.5 15.5h-3q-23 0 -35.5 -11.5t-17.5 -38.5q-1 2 -4.5 0.5t-7.5 -3.5q-8 -5 -15 -10.5t-12 -10.5l1 2q-10 -10 -17 -25.5t-7 -35.5q0 -8 1 -16t5 -16q17 -35 50 -35q11 0 20.5 4.5t20.5 12.5l21 21q1 2 5 6l4 4
q8 -2 17 -8t24 -17q8 -5 15 -7.5t18 -2.5q5 0 8.5 1t8.5 3l-28 -135q-2 -6 -2 -9q-1 -4 -1 -8q-1 -2 -1 -6q-3 -19 -8 -43.5t-14 -61.5q-6 -26 -13.5 -53.5t-15 -52t-15 -44t-14.5 -28.5l-30 -39l2 1q-7 -5 -16.5 -7.5t-19 -4t-17 -2t-11.5 -0.5h-4q-4 0 -11 2t-13.5 6
t-11.5 10t-5 14q0 3 1 6q0 18 5 41t13 52l24.5 82.5l18 58.5l12.5 39l8 24q1 2 1.5 4t1.5 4q5 16 6 21.5t2 17.5q1 10 3 33v3q0 13 -9 26t-22 23t-28 17.5t-27 10.5q-24 0 -43.5 -13t-45.5 -52v-10q-5 -10 -9.5 -25.5t-9.5 -35.5l-4 -14l-2 -6l-2 -6h1l-19.5 -68.5
t-12 -44.5l-8.5 -37.5t-9 -46.5q-2 -15 -3.5 -30.5t-1.5 -32.5q0 -35 11 -69.5t43 -60.5l8 -3q40 -32 73 -44.5t71 -12.5q4 1 6 1h14q2 0 4.5 -0.5t4.5 -0.5h35v2q57 3 96.5 35t66.5 79.5t44.5 105.5t31.5 114h-1q14 49 25.5 103t16.5 103q0 19 -0.5 31.5t-5.5 32.5
q-6 9 -16.5 16.5t-22.5 12.5t-24 7.5t-20 2.5q-6 0 -12.5 -2.5t-12.5 -5.5q11 17 11 35q0 14 -6 31q-1 0 -1 2v5zM248 86l-2 -2h1z" />
    <glyph glyph-name="udieresis" unicode="&#xfc;" horiz-adv-x="507" 
d="M467 636q-3 29 -29 48t-65 19h-4q-53 0 -78 -28q-12 13 -31.5 20.5t-45.5 7.5h-1q-42 0 -67.5 -19.5t-25.5 -51.5q5 -28 29.5 -45.5t63.5 -18.5q55 0 82 27q12 -12 31 -19.5t44 -7.5h10t10 1l-29 -140q-2 -6 -2 -9q-1 -4 -1 -8q-1 -2 -1 -6q-3 -19 -8 -43.5t-14 -61.5
q-6 -26 -13.5 -53.5t-15 -52t-15 -44t-14.5 -28.5l-30 -39l2 1q-7 -5 -16.5 -7.5t-19 -4t-17 -2t-11.5 -0.5h-4q-4 0 -11 2t-13.5 6t-11.5 10t-5 14q0 3 1 6q0 18 5 41t13 52l24.5 82.5l18 58.5l12.5 39l8 24q1 2 1.5 4t1.5 4q5 16 6 21.5t2 17.5q1 10 3 33v3q0 13 -9 26
t-22 23t-28 17.5t-27 10.5q-24 0 -43.5 -13t-45.5 -52v-10q-5 -10 -9.5 -25.5t-9.5 -35.5l-4 -14l-2 -6l-2 -6h1l-19.5 -68.5t-12 -44.5l-8.5 -37.5t-9 -46.5q-2 -15 -3.5 -30.5t-1.5 -32.5q0 -35 11 -69.5t43 -60.5l8 -3q40 -32 73 -44.5t71 -12.5q4 1 6 1h14q2 0 4.5 -0.5
t4.5 -0.5h35v2q57 3 96.5 35t66.5 79.5t44.5 105.5t31.5 114h-1q14 49 25.5 103t16.5 103q0 19 -0.5 31.5t-5.5 32.5q-10 16 -32 25.5t-40 12.5q14 14 14 35v3zM248 86l-2 -2h1z" />
    <glyph glyph-name="yacute" unicode="&#xfd;" horiz-adv-x="461" 
d="M487 562l-2 -1q-10 13 -27 20t-36 7q-34 0 -57 -26l-92.5 -101t-83.5 -99l-6 16.5l-6 17.5l-2 -1l1 1v1v2q-18 45 -38.5 87t-49.5 64q-17 5 -39 5q-16 0 -31.5 -3t-26.5 -11h1q-13 -8 -18 -21t-5 -29v-4q0 -17 5 -31.5t12 -26.5q11 -18 23 -45.5t22.5 -57.5t19 -58.5
t12.5 -47.5l-32 -188q1 -31 29 -51l10 -10q49 -18 70 -18q19 0 31 6t19.5 19.5t12 34.5t9.5 51l11 56.5t17 73.5q4 22 8 34t16 27q29 44 75 96t117 118q4 1 8 5l-2 -1q10 8 23.5 22t13.5 33v11zM199 514h4q9 0 21 4.5t31 27.5q2 2 9.5 8l17.5 14q1 1 1 0l1 1l2 2
q15 11 25.5 19.5t18 17.5t13.5 20.5t11 28.5v1q1 3 1.5 6.5t0.5 14.5q0 29 -14 41.5t-38 12.5q-13 0 -27.5 -5.5t-29.5 -13.5q-12 -8 -24.5 -21.5t-24.5 -29t-22.5 -31.5t-17.5 -29q-12 -23 -12 -38q0 -23 10.5 -31.5t33.5 -16.5z" />
    <glyph glyph-name="thorn" unicode="&#xfe;" horiz-adv-x="448" 
d="M315 89q84 38 132 83.5t48 110.5q-5 48 -29.5 80t-77.5 57q-26 11 -66.5 21t-83.5 16l6 24l3 16q0 17 -7 32t-18.5 26.5t-27 18.5t-32.5 7h-3q-9 5 -20 5q-22 0 -41.5 -37t-38 -107.5t-38.5 -173t-42 -233.5q6 -21 12 -32q1 -17 16 -19q1 0 1.5 -0.5t1.5 -0.5q3 -2 9 -2
l55 -18h27q6 8 14 20v-1q10 13 13.5 20t5.5 27v2q0 8 1 12h3q61 8 100.5 18.5t76.5 27.5zM326 313q4 -8 14 -10q1 0 1 -1h1q11 -13 11 -20q0 -13 -14.5 -26t-38.5 -26.5t-56 -27.5t-67 -27l-9 -2l9 44l10 49t9.5 43.5t6.5 26.5q26 -1 61.5 -6t61.5 -17z" />
    <glyph glyph-name="ydieresis" unicode="&#xff;" horiz-adv-x="461" 
d="M411 610q-3 29 -29 48t-65 19h-4q-53 0 -78 -28q-12 13 -31.5 20.5t-45.5 7.5h-1q-42 0 -67.5 -19t-25.5 -51q6 -28 29.5 -46t63.5 -18q27 0 48.5 7t33.5 21q12 -13 31 -20.5t44 -7.5q21 0 37 4l-85.5 -94t-76.5 -91l-6 16.5l-6 17.5l-2 -1l1 1v1v2q-18 45 -38.5 87
t-49.5 64q-17 5 -39 5q-16 0 -31.5 -3t-26.5 -11h1q-13 -8 -18 -21t-5 -29v-4q0 -17 5 -31.5t12 -26.5q11 -18 23 -45.5t22.5 -57.5t19 -58.5t12.5 -47.5l-32 -188q1 -31 29 -51l10 -10q49 -18 70 -18q19 0 31 6t19.5 19.5t12 34.5t9.5 51l11 56.5t17 73.5q4 22 8 34t16 27
q29 44 75 96t117 118q4 1 8 5l-2 -1q10 8 23.5 22t13.5 33v11l-12 23l-2 -1q-10 13 -27 20t-36 7q-5 0 -8.5 -0.5t-7.5 -1.5q5 12 5 22v2z" />
    <glyph glyph-name="dotlessi" unicode="&#x131;" horiz-adv-x="232" 
d="M183 229h-1l11.5 40l12.5 45t15 58l19 80q0 -2 1 -1v2q1 2 1 10q0 26 -19 38.5t-43 12.5q-29 0 -56 -14.5t-32 -40.5l1 1l-15.5 -57.5l-14.5 -54.5l-12 -51t-14 -54q-9 -31 -15 -56.5l-11.5 -49t-10 -48t-8.5 -52.5q0 3 -1 2v-14q0 -30 18 -40t41 -10q27 0 42 4.5
t24 15.5t14 28t11 43l8.5 36.5t9.5 36.5z" />
    <glyph glyph-name="Lslash" unicode="&#x141;" horiz-adv-x="499" 
d="M326 357h-14q9 15 9 34q0 22 -13.5 41.5t-36.5 26.5l6 15v-1q14 35 25.5 67t11.5 60q0 29 -16.5 48t-61.5 19q-18 0 -37 -3h1q-42 -3 -63 -15.5t-28 -46.5v-1q-8 -12 -10 -25.5t-2 -28.5l-15.5 -60.5l-12 -50l-10.5 -46.5l-10 -48q-22 -14 -32.5 -23t-13.5 -12l2 1
q-18 -13 -26 -29t-8 -33q0 -22 12.5 -40.5t32.5 -26.5v-1q-2 -11 -4 -20.5t-5 -21.5l-2.5 -13t-3.5 -15l-8 -41.5t-4 -41.5q2 -20 5.5 -33t13.5 -23v-6q27 -15 44.5 -19t35.5 -4q50 8 90 12.5l75 8.5q13 2 25 2.5t24 2.5q48 5 96 12.5t105 22.5q8 13 10.5 21.5t2.5 19.5
q0 27 -17 43t-37 16q-6 0 -10 -1q-26 -2 -42 -3q-27 -2 -43 -3t-38 -5h2q-5 -1 -10 -1t-10 -1l-34 -3.5t-29.5 -3t-35.5 -3t-52 -2.5h-2v1v4l4 18v4l52 175z" />
    <glyph glyph-name="lslash" unicode="&#x142;" horiz-adv-x="399" 
d="M301 309h-33q2 8 2 14q0 18 -9.5 35t-26.5 27q12 28 21 55t9 50q0 29 -15.5 48t-59.5 19q-15 0 -33 -3q-38 -2 -56.5 -14.5t-25.5 -43.5q-7 -12 -8 -24.5t-1 -23.5l-12.5 -46.5t-10 -39t-8 -36l-7.5 -36.5l-23 -16.5t-10 -7.5l3 1q-18 -13 -25.5 -28.5t-7.5 -31.5
q0 -20 10 -36t25 -26q-1 -4 -2 -7.5t-2 -7.5v1l-3 -12q0 -1 -2 -7q-2 -8 -2 -14v-2q-1 -4 -1.5 -8t-1.5 -7q-2 -13 -4.5 -24.5t-2.5 -27.5q3 -18 5.5 -28.5t9.5 -19.5v-8q28 -15 45 -19.5t34 -4.5q30 5 57 8t50 5q4 1 7 1t7 1q13 2 25.5 3t24.5 3h-1q45 5 86 11t83 16
q8 16 11.5 25.5t3.5 21.5q0 27 -18 43.5t-38 16.5q-7 0 -12 -1q-4 0 -7.5 -0.5t-6.5 -0.5q-14 0 -19 -1l-39 -3t-28 -4l-1 -1h-3h-9t-7 -1h2q-5 -1 -10 -1q-4 0 -8 -1h1l-33.5 -4t-47.5 -3l1 5l40 136l52 39q5 2 7 3.5t4 3.5l-3 -1z" />
    <glyph glyph-name="OE" unicode="&#x152;" horiz-adv-x="1184" 
d="M566 -30q20 -16 39 -28.5t35 -12.5q24 0 42.5 2.5t40.5 6.5q5 1 11 2l12 2h3l309 44q24 2 35 6t15 8q8 8 11.5 16t3.5 23q0 4 -0.5 10t-2.5 24h-13q-12 8 -29 12t-34 6q-5 0 -9 1q-15 0 -27.5 -1t-23.5 -3q-12 -2 -23.5 -3t-22.5 -1h-7q-2 0 -3.5 0.5t-3.5 0.5h-7t-12 -1
h1q-14 -1 -31 -2.5t-28 -1.5q-9 -1 -19 -1q-9 0 -19 -1q-27 -2 -54 -3.5t-52 -4.5l-2 1q2 14 6.5 38t10.5 50l11.5 49t9.5 35h14q7 -1 13 -1h12h21q16 0 33 0.5t38.5 2t50.5 4t71 6.5q5 0 15.5 0.5t21.5 1.5q10 1 18 1.5t11 0.5q18 2 28.5 8t15.5 14.5t6.5 18t1.5 18.5v23
q-3 14 -12.5 22t-22.5 12t-29 5t-33 1h-112h-70t-59 3l-1 2q2 9 6.5 26.5l10 37.5l11.5 40l11 36q7 1 11 1q5 0 9 1q7 1 13 1.5t17 0.5h40l189 8h37q8 0 12 0.5t8 3.5h-3q2 0 4 1l-1 -1l1 1q28 8 37.5 20.5t9.5 26.5v13q-6 13 -13.5 21t-18 12.5t-26.5 7t-39 4.5
q-14 1 -30 1.5t-33 1.5q-25 1 -51.5 2.5t-51.5 2.5t-47.5 1.5t-38.5 0.5h-78h-19q-10 0 -21 1q-41 0 -60 -6.5t-30 -29.5q-29 23 -58 34t-55 15h-69q-70 -8 -120.5 -20t-82.5 -30l-40.5 -24t-25.5 -15q-1 -1 -2 -1.5t-2 -1.5l2 1q-45 -33 -82 -76.5t-62.5 -91.5t-39.5 -98.5
t-14 -97.5v-15q0 -11 1 -16v1q2 -20 10 -44.5t31 -61.5h-1l10 -15.5l10 -14.5q2 -3 4 -5.5t4 -5.5v2q34 -39 82 -60.5t117 -32.5h-2q22 -5 43 -6.5t46 -1.5q60 0 110.5 11.5t90.5 34.5q11 -8 14 -10zM488 558q27 0 50 -16l-1 1q22 -16 33.5 -47.5t16.5 -63.5v1q1 -8 1.5 -16
t0.5 -16q0 -3 -0.5 -6t-0.5 -6v-10l-12 -72v2q-12 -47 -34.5 -92.5t-57.5 -82t-82 -60t-107 -25.5q-10 0 -26 6.5t-33 14.5q-35 11 -53.5 38t-20.5 62h-1q1 31 11 68.5t28 77t42.5 77.5t55.5 70t67 55.5t76 32.5q10 3 21.5 5t25.5 2z" />
    <glyph glyph-name="oe" unicode="&#x153;" horiz-adv-x="947" 
d="M445 -25q17 -14 34.5 -24.5t32.5 -10.5q19 0 32 2l27 4q3 1 6 1q4 0 7 1h-2l18 3h1l247 35q23 2 33.5 6.5t14.5 8.5q8 8 11.5 17t3.5 23v40h-21q-11 7 -24.5 9.5t-25.5 4.5l-1 -15v15q-2 0 -3 0.5t-3 0.5q-1 0 -3 1q-12 0 -24 -0.5t-21 -2.5q-10 -2 -19 -3t-16 -1h-9h-1
q0 1 -1 1h-6t-10 -1q-2 -1 -6 -1h-5q-10 -1 -19 -1.5t-15 -0.5q-3 0 -5.5 -0.5t-5.5 -0.5h-12q-20 -2 -40 -3t-39 -3q2 12 5 27l6 30.5t6.5 29.5t6.5 24h39q14 0 27.5 0.5t31.5 1.5t41.5 3l56.5 5q4 0 9.5 0.5t12.5 1.5h6q8 1 15 1h9q18 3 29 9t16 14.5t6.5 18t1.5 18.5v20
q-9 30 -34 37t-57 7h-89h-47t-41 1q4 18 11 43.5l13 45.5q6 0 12 2h-1q5 1 8 1h12h32l151 6h30q7 0 12 0.5t10 3.5q26 8 35.5 22t9.5 29v12q-7 15 -14 23t-17 12.5t-24 7t-34 4.5q-21 1 -48.5 2.5t-56 2.5l-54.5 2t-44 1h-62h-14t-16 1q-32 0 -50 -4.5t-29 -18.5
q-22 16 -43.5 23.5t-40.5 10.5h-58q-58 -7 -100 -16.5t-68 -25.5l-35 -20.5t-21 -13.5q-37 -27 -67 -63t-51.5 -76t-33 -81.5t-11.5 -80.5v-12q0 -6 1 -9h-1q3 -20 9 -41.5t25 -53.5v1q5 -9 8.5 -14.5t7.5 -10.5q1 -3 4 -6q29 -35 70 -53.5t101 -28.5h-1q17 -4 34.5 -5
t38.5 -1q92 0 159 35q3 -2 6 -4.5t7 -5.5zM390 443q19 0 32 -9q14 -11 22 -34.5t13 -47.5v-15q0 -2 0.5 -3t0.5 -3t-0.5 -3t-0.5 -3v-9l-9 -58v2q-9 -36 -26 -70.5t-43.5 -62.5t-61.5 -46t-80 -19q-7 0 -18.5 4.5t-24.5 11.5q-23 6 -36 26.5t-16 46.5q3 36 19.5 81t44.5 87
t66 75t83 44q18 5 35 5z" />
    <glyph glyph-name="Scaron" unicode="&#x160;" horiz-adv-x="649" 
d="M308 619l1 1q-60 -28 -105.5 -66.5t-65.5 -76.5q-17 -32 -28 -58.5t-11 -52.5q1 -27 13.5 -52t32 -47.5t43.5 -40t48 -29.5q8 -4 14 -6.5t10 -5.5q18 -9 35 -13.5t35 -8.5q29 -7 56 -14.5t33 -15.5q14 -7 18.5 -11t5.5 -7v-4q0 -7 -5 -13t-12 -10.5t-14.5 -7.5t-12.5 -4
q-3 -2 -15 -3.5t-26 -2l-27.5 -1t-19.5 -0.5q-11 0 -21.5 1t-22.5 3t-27 5.5l-35 8.5l3 -2q-26 14 -48.5 31.5t-39.5 42.5q-7 11 -15 21t-22 19v12q-11 -2 -20.5 -4t-10.5 -2q-14 -1 -28 -3.5t-25 -12.5q-23 -29 -23 -55q0 -24 16 -47t43 -44.5t62.5 -39.5t74.5 -31.5
t78 -21t74 -7.5q9 0 17.5 0.5t16.5 1.5q23 0 41.5 4.5t35.5 9.5q5 2 10 3t10 3q41 15 71 35t53 46q21 24 30 48t9 27q0 1 -0.5 4t-0.5 5q-2 16 -5 27q-16 35 -52.5 65t-98.5 42l2 -1l-29 10l-30 10h1l-35.5 11.5t-42.5 16.5q-4 2 -7.5 2.5t-6.5 0.5q-21 1 -33 19.5t-12 41.5
q0 21 11 38q20 33 54.5 61.5t76.5 42.5h3q14 0 31.5 -1.5t35 -5.5t34 -11.5t29.5 -20.5q25 -20 41.5 -30.5t27.5 -12.5h8q35 0 48 17.5t13 44.5q0 8 -1 17t-4 16v-1q-8 22 -24.5 33.5t-51.5 30.5q-40 21 -76.5 37t-84.5 21q-10 0 -14 -1q-25 -1 -49.5 -6.5t-47.5 -14.5z
M272 717q4 -6 16 -17t29 -22t38.5 -19t45.5 -8h3q20 0 32.5 11.5t18.5 39.5q0 2 6 5t14 8q8 4 16 9t13 11q11 11 19.5 28t8.5 38q0 8 -1 16.5t-6 16.5q-17 34 -47 34q-19 0 -42 -19l-17 -17q-4 -4 -7 -7.5t-6 -6.5t-5.5 -6t-6.5 -6q-16 2 -29 9.5t-36 25.5q-7 4 -14 7.5
t-18 3.5q-15 0 -30 -12q-12 -9 -18 -23t-6 -31q0 -14 3 -25.5t7 -22.5h1q9 -14 18 -21z" />
    <glyph glyph-name="scaron" unicode="&#x161;" horiz-adv-x="519" 
d="M207 574q5 -7 21.5 -20.5t39.5 -23.5q-3 -1 -7 -3l-20 -10l1 1q-50 -23 -88 -55.5t-55 -64.5q-14 -26 -23.5 -48.5t-9.5 -47.5q1 -23 12 -45t27.5 -41t37 -34.5t41.5 -25.5q8 -3 12.5 -5t6.5 -4q17 -8 30.5 -12.5t27.5 -7.5q21 -5 41 -10.5t25 -11.5q12 -6 14 -4v-2
q0 -5 -10.5 -9t-17.5 -6q-2 -2 -10.5 -3t-19 -1.5l-20.5 -1t-14 -0.5q-19 0 -35 2.5t-42 9.5q-20 10 -37.5 23t-28.5 31q-7 8 -13 16.5t-14 16.5v20q-14 -5 -25.5 -7.5t-14.5 -2.5q-12 -1 -26.5 -4.5t-31.5 -20.5v-4q-13 -20 -13 -41q0 -30 29 -60t73 -53.5t94.5 -38
t94.5 -14.5q9 0 16.5 0.5t13.5 1.5q20 1 33.5 3.5t27.5 7.5q3 2 5 2q3 0 6 1q39 14 65.5 32t45.5 39q9 10 16 21.5t11 21.5t6 17t2 9q0 6 -1 15t-2 14q-16 33 -49 60.5t-88 38.5q-2 1 1 1.5t2 1.5t-10.5 3.5t-36.5 8.5q-12 3 -25.5 7.5t-26.5 9.5q-5 5 -10.5 6t-10.5 1
q-11 1 -17 11.5t-6 24.5q0 15 6 24q14 23 40 44t58 33q21 0 48 -5.5t47 -23.5q42 -34 61 -37h9q35 0 48.5 17.5t13.5 45.5q0 5 -1 13t-4 16l-2 4l-2 4v1q-8 17 -22.5 26.5t-40.5 23.5q-29 16 -56.5 28t-62.5 18q5 9 10 27q0 -3 3 -1.5l7 3.5h2l1 1l6 3q5 3 9.5 5t9.5 10
q9 10 16.5 25.5t7.5 35.5q0 15 -7 32q-11 19 -22 26.5t-28 7.5q-11 0 -20 -4t-20 -12l-17 -17q-3 -3 -5 -6l-4 -4l-6 -6q-8 3 -17 9t-24 18h-1q-13 10 -30 10q-8 0 -16.5 -4t-15.5 -9q-25 -18 -25 -53q0 -18 7 -35l3 -6q2 -2 3.5 -6t0.5 -3l-2 3q8 -13 17 -20z" />
    <glyph glyph-name="Ydieresis" unicode="&#x178;" horiz-adv-x="576" 
d="M598 674q-8 15 -28 23.5t-42 8.5q-35 0 -60 -27l-122.5 -135.5t-111.5 -132.5q-14 28 -30 72q-21 53 -45.5 102t-56.5 74q-11 3 -22 4.5t-19 1.5q-17 0 -34 -2.5t-28 -11.5h1q-14 -9 -18 -21.5t-4 -28.5v-5q0 -18 7 -36t16 -35q14 -21 28.5 -55.5t28 -72t23.5 -73.5
t15 -60l-41 -238q1 -31 33 -52l10 -10q51 -19 77 -19q19 0 30.5 7t19 22t12.5 38.5t11 56.5l14 71.5t22 92.5q3 15 5.5 26t6.5 20.5t10 19.5t16 23q36 53 92.5 117t145.5 147q4 2 5.5 3.5l3.5 3.5l-2 -1q11 9 26 23t15 32v19q-1 0 -1 -9zM497 749q-3 29 -30.5 49t-70.5 20
h-5q-38 0 -63.5 -13.5t-31.5 -36.5q-10 22 -34.5 36t-63.5 14h-2q-45 0 -72.5 -18.5t-27.5 -50.5q7 -29 32.5 -47.5t67.5 -19.5q40 0 67.5 13t34.5 36q9 -22 33 -35t61 -14q45 0 75 17.5t30 47.5v2z" />
    <glyph glyph-name="Zcaron" unicode="&#x17d;" horiz-adv-x="713" 
d="M616 447l43.5 40t43.5 44.5t33.5 45.5t13.5 43q0 25 -22 42.5t-77 22.5q-22 0 -52 -3q-6 0 -22.5 -0.5t-34.5 -1.5q-19 -1 -34.5 -1.5t-20.5 -0.5h-56q-13 0 -33 -1t-59 -5q-96 -6 -154.5 -13t-91 -15.5t-43.5 -19.5t-11 -25q0 -5 0.5 -9.5t2.5 -8.5v-6q0 -16 3.5 -34
t21.5 -26q17 -13 30.5 -17t30.5 -4q9 0 21.5 1t26.5 3q9 0 31 2t49.5 5t58 7t56.5 8l-2 -2q2 0 11.5 1.5t20.5 3.5t20.5 3.5t11.5 1.5q16 3 29 3q5 0 13 -2l-401 -367q-14 -13 -27.5 -27.5t-25 -30.5t-18.5 -33t-7 -35v-2q-2 -8 -3.5 -15t-1.5 -18q0 -10 11 -30
q15 -16 40.5 -22.5t60.5 -6.5q60 2 108.5 4.5t85.5 5.5l46.5 3.5t34.5 1.5h12q20 -1 50.5 -1.5t58.5 -0.5h32q8 0 13.5 0.5t10.5 1.5q52 2 72.5 16t20.5 35q0 8 -4 18t-9 19q-7 58 -97 58h-71q-13 0 -24 0.5t-30 2.5q-9 0 -21 -0.5t-31.5 -1.5l-47.5 -2.5t-69 -4.5zM266 755
q4 -6 16 -17t29 -22t38.5 -19t45.5 -8h3q20 0 32.5 11.5t18.5 39.5q0 2 6 5t14 8q8 4 16 9t13 11q11 11 19.5 28t8.5 38q0 8 -1 16.5t-6 16.5q-17 34 -47 34q-19 0 -42 -19l-17 -17q-4 -4 -7 -7.5t-6 -6.5t-5.5 -6t-6.5 -7q-16 3 -29 10.5t-36 25.5q-7 4 -14 7.5t-18 3.5
q-15 0 -30 -12q-12 -9 -18 -23t-6 -31q0 -14 3 -25.5t7 -22.5h1q9 -14 18 -21z" />
    <glyph glyph-name="zcaron" unicode="&#x17e;" horiz-adv-x="570" 
d="M502 358q1 1 2.5 1.5t3.5 2.5l-3 -2q2 2 4 3.5t4 3.5h-1l34 32.5t33 35.5t24.5 36t9.5 35q0 25 -19.5 42.5t-70.5 22.5q-7 0 -17.5 -0.5t-20.5 -1.5h-5q-4 0 -14.5 -0.5t-22.5 -1.5h-9q-15 -1 -27.5 -1.5t-16.5 -0.5h-32q10 13 14 34q0 -2 4.5 0t9.5 5l1 1q1 0 2 1l-2 -1
q5 3 12 8.5t9 6.5q11 11 18.5 26.5t7.5 34.5q0 8 -1 16t-6 16q-18 35 -49 35q-11 0 -21 -5t-24 -16l-13 -13q-3 -3 -5 -6l-9 -9q-8 3 -18 9t-26 19h-3q-6 3 -12 5.5t-14 2.5t-16 -2.5t-17 -10.5l1 1q-14 -9 -19 -23t-5 -31q0 -11 3 -22.5t7 -22.5q4 -9 8 -13.5t11 -8.5
q8 -8 22.5 -20t34.5 -22q-78 -5 -126 -11.5t-74.5 -15t-35.5 -19.5t-9 -25q0 -7 3 -16v-3q0 -15 3 -32.5t22 -27.5q15 -11 28 -14.5t28 -3.5q17 0 40 3q10 0 34.5 2.5t54 6t57.5 7.5t45 7h12l-295 -269q-23 -22 -44 -49t-22 -59q-2 -7 -3 -13t-1 -17q0 -7 1.5 -14.5
t6.5 -14.5q17 -18 40 -24.5t54 -6.5q49 1 89 3.5t69 4.5q5 0 9 0.5t9 0.5q14 1 24.5 2t19.5 1h10q16 -1 40.5 -1.5t46.5 -0.5h26q8 0 13 0.5t9 1.5q46 2 65 17t19 36q0 7 -3 15.5t-7 16.5q-8 57 -91 57h-56q-9 0 -18 0.5t-24 2.5q-11 0 -34 -1t-66 -4zM407 619h1l1 1
q0 1 -1 0z" />
    <glyph glyph-name="florin" unicode="&#x192;" horiz-adv-x="818" 
d="M790 101q10 20 15.5 41.5t5.5 44.5q0 44 -24 80q14 15 25 36.5t11 49.5v5q0 25 -9 43.5t-25 31t-36.5 18.5t-42.5 6h-11q-5 0 -10 -1q-44 -1 -91 -17t-86 -58q5 7 8.5 14t8.5 14l47 81t33 63v3q1 3 2 6.5t2 6.5l-1 -1q8 22 8 39q0 25 -13.5 42.5t-45.5 17.5
q-21 0 -35.5 -4.5t-24 -12t-15.5 -17t-9 -19.5q-10 -16 -25.5 -43l-34.5 -60.5l-40 -71.5l-42 -77q-2 1 -3.5 1.5t-3.5 1.5h1q-9 5 -23 7l-29 4q12 11 24.5 24l26.5 28q16 18 30.5 41t26 46.5t18.5 45.5t7 39v8q-4 53 -57 61q-4 0 -10 2q-7 0 -11 2l2 -1q-3 3 -4 6
q-3 1 -5 6q-3 4 -6.5 7.5t-11.5 7.5l-1 2q-25 11 -47 11q-25 0 -56 -13.5t-67 -42.5h1q-15 -11 -38.5 -35t-45.5 -50.5t-37.5 -51t-15.5 -37.5v-7q5 -16 16 -27.5t37 -21.5l-1 -2q2 -1 4 -1q3 0 6 -1q8 -2 17.5 -5t21.5 -5l-12 12q12 2 22.5 8.5t15.5 16.5q28 38 43.5 55.5
t22.5 24.5q10 6 13 13q14 14 30 26t30 14q-3 -12 -6.5 -20t-8.5 -17t-13 -20t-21 -27q-29 -35 -57 -63t-67 -56l-20 -8.5t-13 -5.5h1q-10 -3 -13 -5t-5 -3h1q-4 0 -6 -1l1 1q-12 -3 -24 -7t-23 -21v-2l-6 -12t-3 -14v-5q0 -6 1 -12.5t6 -11.5q18 -37 61 -37q3 0 7.5 0.5
t9.5 2.5q22 5 35.5 7.5t25 4t23.5 2.5t32 3q5 0 10 0.5t10 0.5q18 3 33 4t29 1h15l-41.5 -81t-26.5 -56l1 1q-22 -45 -22 -75t15.5 -44.5t51.5 -14.5q16 0 28.5 7t21.5 17.5t15.5 22.5l11.5 22l-1 -1q2 3 3.5 6t1.5 5l-1 -2l7.5 18t4.5 10q8 20 23.5 48.5l34.5 62.5l41 71
l44 73q7 -25 20.5 -44t39.5 -20q-4 -2 -7 -5t-7 -6q-5 -14 -5.5 -22t-0.5 -14q0 -29 15.5 -46.5t41.5 -17.5q8 0 12.5 1t10.5 3q11 4 23 6.5t24 2.5q2 0 3.5 0.5t3.5 0.5q10 0 15.5 -6.5t5.5 -16.5v3q-7 -26 -32.5 -43.5t-53.5 -17.5q-18 0 -31 7q-8 3 -16.5 11l-16.5 16
l-2 3l1 -2q-12 15 -23.5 25.5t-30.5 10.5q-10 -1 -22 -8v2q-8 -5 -17.5 -13t-17.5 -18t-13.5 -22.5t-5.5 -27.5q0 -12 3 -16q18 -38 42 -53t60 -27q19 -6 37.5 -8.5t35.5 -2.5q32 0 64 8.5t60 23.5t49 36t31 47zM678 340q6 0 10 -1q-3 -4 -12 -13q-11 -5 -24.5 -8t-27.5 -5
h2q-1 0 -1.5 -0.5t-1.5 -0.5h-5q-4 -1 -8 -1.5t-8 -2.5q18 12 38 22t38 10z" />
    <glyph glyph-name="circumflex" unicode="&#x2c6;" horiz-adv-x="341" 
d="M313 703q-6 12 -11.5 17.5t-13.5 10.5l-7 -26q-2 4 -12 19t-25.5 30.5t-36 28t-43.5 12.5h-3q-20 0 -32.5 -11.5t-18.5 -39.5q0 -2 -6 -5.5t-14 -7.5l-17 -9.5t-13 -11.5q-11 -11 -19 -28t-8 -37q0 -8 1 -16.5t6 -16.5q17 -34 47 -34q19 0 42 19l17 17q4 4 7 7.5t6 6.5
l5 5t6 7q16 -3 29.5 -10.5t36.5 -24.5q7 -5 14 -8t18 -3q15 0 30 12q12 9 18 23t6 31q0 10 -3.5 20.5t-6.5 22.5h1z" />
    <glyph glyph-name="caron" unicode="&#x2c7;" horiz-adv-x="341" 
d="M61 643q4 -6 16 -17t29 -22t38.5 -19t45.5 -8h3q20 0 32.5 11.5t18.5 39.5q0 2 6 5t14 8q8 4 16 9t13 11q11 11 19.5 28t8.5 38q0 8 -1 16.5t-6 16.5q-17 34 -47 34q-19 0 -42 -19l-17 -17q-4 -4 -7 -7.5t-6 -6.5t-5.5 -6t-6.5 -7q-16 3 -29 10.5t-36 25.5q-7 4 -14 7.5
t-18 3.5q-15 0 -30 -12q-12 -9 -18 -23t-6 -31q0 -14 3 -25.5t7 -22.5h1q9 -14 18 -21z" />
    <glyph glyph-name="dotaccent" unicode="&#x2d9;" horiz-adv-x="158" 
d="M32 666v-10q0 -14 4.5 -25t11.5 -20q23 -17 43.5 -23.5t31.5 -6.5q16 0 31 4t26 10q22 12 37 31t16 42q0 46 -46 64l1 -1q-11 6 -24 10t-26 4q-14 0 -19 -1h1q-2 -1 -6 -1q-32 -6 -55 -27t-27 -50z" />
    <glyph glyph-name="ring" unicode="&#x2da;" horiz-adv-x="457" 
d="M367 717v8q0 2 0.5 3t0.5 3q0 37 -21.5 65t-66.5 28q-34 0 -61.5 -14.5t-46.5 -36.5t-30 -48t-12 -50v-5q0 -36 20.5 -63.5t70.5 -27.5q27 0 52.5 11t46 30t33 44t14.5 53zM261 706q-4 -9 -10 -13q3 8 10 13z" />
    <glyph glyph-name="tilde" unicode="&#x2dc;" horiz-adv-x="446" 
d="M389 674v3q0 18 -18.5 31.5t-38.5 13.5q-16 0 -30 -7t-22 -22q-4 -6 -4 -12q-1 -2 -1 -4v1q0 -1 -1 -1v0l-0.5 0.5t-0.5 1.5h-1v1l-11.5 16l-14.5 20v-10q-8 5 -19 8.5t-25 3.5q-18 0 -40 -8t-41.5 -20.5t-33 -29t-14.5 -32.5v-3q0 -20 16 -34.5t42 -14.5q18 0 29 8
t22 19l7 7l2 -2q11 -12 28.5 -24t50.5 -12q53 0 83.5 21t35.5 81z" />
    <glyph glyph-name="mu" unicode="&#x3bc;" horiz-adv-x="476" 
d="M383 -30q34 0 59.5 15.5t25.5 53.5q0 13 -4 26l22 310q6 28 6 47q0 35 -16 49t-43 14h-8q-38 -4 -57 -24.5t-29 -68.5l-17 -242q-21 -15 -52 -28t-56 -15h-2q-14 0 -14 28v4l20 229h1q1 5 1 13v17q0 31 -15.5 52t-48.5 22h-5q-21 0 -36 -7.5t-25.5 -19.5t-15.5 -27
t-5 -30q0 -8 1 -12l-10 -145l-6.5 -88.5t-3 -47t-0.5 -19.5v-3l-9 -159q0 -2 -0.5 -2.5t-0.5 -2.5v-3q-1 -6 -1 -13v-13q0 -29 11.5 -47.5t50.5 -23.5h11q24 0 38 8.5t21.5 22t10.5 31l6 36.5v2l3 55q18 1 31.5 2.5t27.5 5t31 9.5t42 16q8 -16 24 -21.5t36 -5.5z" />
    <glyph glyph-name="uni2000" unicode="&#x2000;" horiz-adv-x="477" 
 />
    <glyph glyph-name="uni2001" unicode="&#x2001;" horiz-adv-x="955" 
 />
    <glyph glyph-name="uni2002" unicode="&#x2002;" horiz-adv-x="477" 
 />
    <glyph glyph-name="uni2003" unicode="&#x2003;" horiz-adv-x="955" 
 />
    <glyph glyph-name="uni2004" unicode="&#x2004;" horiz-adv-x="318" 
 />
    <glyph glyph-name="uni2005" unicode="&#x2005;" horiz-adv-x="238" 
 />
    <glyph glyph-name="uni2006" unicode="&#x2006;" horiz-adv-x="159" 
 />
    <glyph glyph-name="uni2007" unicode="&#x2007;" horiz-adv-x="159" 
 />
    <glyph glyph-name="uni2008" unicode="&#x2008;" horiz-adv-x="119" 
 />
    <glyph glyph-name="uni2009" unicode="&#x2009;" horiz-adv-x="191" 
 />
    <glyph glyph-name="uni200A" unicode="&#x200a;" horiz-adv-x="53" 
 />
    <glyph glyph-name="uni2010" unicode="&#x2010;" horiz-adv-x="537" 
d="M33 212q11 -16 34 -21.5t55 -5.5h24q7 0 14 0.5t15 0.5q4 0 8.5 0.5t8.5 0.5q9 1 18 1.5t18 0.5h2q6 0 32 0.5t57 1.5t58.5 2.5t35.5 3.5h17q26 0 40 1.5t26 9.5q15 7 19 14.5t4 23.5l-5 10h1q-5 11 -9.5 19.5t-12.5 13.5h1q-29 27 -71.5 34t-90.5 7h-43q-5 0 -11.5 -0.5
t-11.5 -0.5q-5 -1 -10 -1h-8q-23 0 -51 -0.5t-54 -1.5t-46.5 -2.5t-29.5 -2.5v1q-26 -5 -40 -11.5t-14 -31.5v-4q0 -6 1 -9v-4q0 -3 0.5 -5.5t2.5 -7.5l-1 3q3 -9 6.5 -21t11.5 -21z" />
    <glyph glyph-name="uni2011" unicode="&#x2011;" horiz-adv-x="537" 
d="M33 212q11 -16 34 -21.5t55 -5.5h24q7 0 14 0.5t15 0.5q4 0 8.5 0.5t8.5 0.5q9 1 18 1.5t18 0.5h2q6 0 32 0.5t57 1.5t58.5 2.5t35.5 3.5h17q26 0 40 1.5t26 9.5q15 7 19 14.5t4 23.5l-5 10h1q-5 11 -9.5 19.5t-12.5 13.5h1q-29 27 -71.5 34t-90.5 7h-43q-5 0 -11.5 -0.5
t-11.5 -0.5q-5 -1 -10 -1h-8q-23 0 -51 -0.5t-54 -1.5t-46.5 -2.5t-29.5 -2.5v1q-26 -5 -40 -11.5t-14 -31.5v-4q0 -6 1 -9v-4q0 -3 0.5 -5.5t2.5 -7.5l-1 3q3 -9 6.5 -21t11.5 -21z" />
    <glyph glyph-name="figuredash" unicode="&#x2012;" horiz-adv-x="537" 
d="M33 212q11 -16 34 -21.5t55 -5.5h24q7 0 14 0.5t15 0.5q4 0 8.5 0.5t8.5 0.5q9 1 18 1.5t18 0.5h2q6 0 32 0.5t57 1.5t58.5 2.5t35.5 3.5h17q26 0 40 1.5t26 9.5q15 7 19 14.5t4 23.5l-5 10h1q-5 11 -9.5 19.5t-12.5 13.5h1q-29 27 -71.5 34t-90.5 7h-43q-5 0 -11.5 -0.5
t-11.5 -0.5q-5 -1 -10 -1h-8q-23 0 -51 -0.5t-54 -1.5t-46.5 -2.5t-29.5 -2.5v1q-26 -5 -40 -11.5t-14 -31.5v-4q0 -6 1 -9v-4q0 -3 0.5 -5.5t2.5 -7.5l-1 3q3 -9 6.5 -21t11.5 -21z" />
    <glyph glyph-name="endash" unicode="&#x2013;" horiz-adv-x="575" 
d="M595 375q0 16 -10 30t-25 24.5t-32.5 16.5t-32.5 6q-20 0 -51 -2t-64.5 -5t-63.5 -6t-48 -5q-8 -2 -23 -2.5t-33 -1.5q-14 -1 -28 -1.5t-27 -1.5q-15 0 -26.5 -0.5t-17.5 -1.5q-19 -2 -37.5 -7.5t-33.5 -16t-24 -26t-9 -37.5q0 -45 45 -78q9 -3 22 -5t22 -2h7h5t8 2
q18 6 42 9.5t48 6.5l21 3q14 1 29 3.5t26 5.5h-1q14 3 35 4t46 3l33 2t33 3q26 1 48.5 2t36.5 3q18 3 38.5 10.5t31.5 27.5h-1q5 9 8 17.5t3 19.5z" />
    <glyph glyph-name="emdash" unicode="&#x2014;" horiz-adv-x="758" 
d="M774 385q0 16 -10.5 30t-25.5 24.5t-33 16.5t-33 6q-13 0 -35.5 -1t-50 -2.5l-57.5 -3t-57.5 -3.5t-49.5 -4t-34 -3q-8 -1 -33.5 -3t-58.5 -4l-68.5 -4t-63.5 -3h-6q-8 -1 -13.5 -1.5t-10.5 -0.5h-19q-19 -2 -38 -8t-34 -16.5t-24 -26t-9 -37.5q0 -43 45 -79q9 -3 22 -5
t23 -2h7q2 0 12 2h-1q22 5 63 10l86 10q12 2 24 2.5t23 2.5q7 1 12 1q6 0 11 1l32.5 3.5t30.5 4.5q10 2 29 3.5t42.5 3t50.5 3t54 2.5q16 1 30 1.5t28 1.5q18 1 33 1t24 2q17 2 38 9.5t33 27.5v1q5 8 8.5 16t3.5 21z" />
    <glyph glyph-name="quoteleft" unicode="&#x2018;" horiz-adv-x="268" 
d="M255 452q-2 2 -3.5 4t-3.5 4q-5 7 -9.5 15t-10.5 16v-9q-8 22 -13.5 44.5t-8.5 45.5q-1 2 -1 6v49q0 16 -2.5 32t-8.5 31h6l-7 8.5t-6 6.5q-2 2 -3.5 5t-3.5 5l-1 -2q-23 20 -41 20q-10 0 -21.5 -3t-22.5 -7.5t-20 -10t-14 -10.5h1q-19 -17 -26 -39t-7 -48q0 -22 5 -45
t12 -45.5t15 -43t15 -36.5q2 -5 3 -7l3 -6l1.5 -3l1.5 -3q0 -2 2 -4l-1 1q1 0 1 -2l2 -2q2 -3 2.5 -6t2.5 -5l-1 1l16.5 -33.5t19.5 -30.5v1q24 -31 52 -31q15 0 27.5 7.5t26.5 18.5q11 11 21.5 33t10.5 42q0 13 -13 35zM86 422l2 -5l-2 4v1zM233 469h-1v1q1 0 3 -2
q-1 0 -1.5 0.5z" />
    <glyph glyph-name="quoteright" unicode="&#x2019;" horiz-adv-x="261" 
d="M271 684q0 16 -12 29t-28.5 22.5t-33 14.5t-26.5 5q-38 0 -64 -26.5t-43.5 -63t-28 -75.5t-16.5 -64q-1 -4 -1 -10q0 -1 -0.5 -1.5t-0.5 -1.5v2q-1 -4 -1.5 -8t-1.5 -8q-3 -16 -5.5 -31t-2.5 -31q0 -48 20.5 -61.5t58.5 -13.5q11 0 25.5 6t28 16.5t23 23.5t9.5 27
q0 7 -2.5 13.5t-5.5 12.5q7 24 17 48.5t24 49.5v-1q6 9 10.5 15t9.5 11q19 20 33 42.5t14 57.5zM158 467l-2 2v0q1 0 2 -2z" />
    <glyph glyph-name="quotesinglbase" unicode="&#x201a;" horiz-adv-x="261" 
d="M271 148q0 16 -12 29t-28.5 22.5t-33 14.5t-26.5 5q-38 0 -64 -26.5t-43.5 -63t-28 -75.5t-16.5 -64q-1 -4 -1 -10q0 -1 -1 -1v-1v1q-1 -4 -1.5 -8t-1.5 -8q-3 -16 -5.5 -31t-2.5 -31q0 -48 20.5 -61.5t58.5 -13.5q11 0 25.5 6t28 16.5t23 23.5t9.5 27q0 7 -2.5 13.5
t-5.5 12.5q7 25 17 49.5t24 48.5v-1q6 9 10.5 15t9.5 11q19 20 33 42.5t14 57.5zM158 -69l-2 2v0q1 0 2 -2z" />
    <glyph glyph-name="quotedblleft" unicode="&#x201c;" horiz-adv-x="452" 
d="M450 362q5 11 5.5 17.5t0.5 13.5q0 15 -4 35t-10 42t-13 44l-13 41l1 -1q-1 3 -2 6.5t-2 5.5l1 -2q-8 35 -13 48.5l-8 21.5q-3 6 -3.5 8t-1.5 4l1 -2q0 15 -0.5 27.5t-4.5 25.5t-13 28t-25 35v-1q-22 28 -51 28q-28 0 -51 -23h1q-17 -15 -24.5 -38.5t-7.5 -52.5
q0 -47 18 -103.5t45 -105.5t59 -82t60 -33zM217 612q0 10 -3.5 31.5t-11.5 43t-21 38t-31 16.5q-11 0 -23.5 -3t-24.5 -8t-21.5 -10.5t-14.5 -10.5l1 1q-20 -17 -28 -39.5t-8 -49.5q0 -23 5.5 -47.5t14 -47.5t17.5 -44t17 -37l2 -4.5t5 -9.5q0 -2 2 -4l-1 1q1 -1 1 -2l2 -2
l3 -6l18 -36.5t23 -32.5q24 -30 55 -30q28 0 47 15t26 53l-52 219q1 2 1 6zM94 427l2 -5l-2 4v1z" />
    <glyph glyph-name="quotedblright" unicode="&#x201d;" horiz-adv-x="453" 
d="M445 654q0 42 -17.5 56t-55.5 14q-26 0 -47 -6.5t-38 -23.5q-1 16 -14 29t-29.5 22t-34 14t-27.5 5q-39 0 -66.5 -27t-46.5 -64.5t-30.5 -77t-17.5 -64.5q0 -2 -0.5 -5t-0.5 -4v-4q-6 -20 -9.5 -39.5t-3.5 -36.5q0 -48 21.5 -61.5t62.5 -13.5q16 0 37.5 10.5t36.5 27.5
q0 -13 4 -21.5t9 -15.5l2 -2l3 -3l1 -2t3 -7q24 -16 36.5 -22.5t27.5 -6.5h23q13 0 27.5 2t29.5 15l2 2q9 12 21.5 31t12.5 35q0 12 -3 18t-8 11q1 2 1 3q0 2 1 4l-1 -1l8.5 30.5t12.5 29.5q9 14 17 23q2 2 4.5 6t4.5 6v-1l16.5 21t13 22.5t8.5 29.5t3 42z" />
    <glyph glyph-name="quotedblbase" unicode="&#x201e;" horiz-adv-x="453" 
d="M445 131q0 42 -17.5 56t-55.5 14q-26 0 -47 -6.5t-38 -23.5q-1 16 -14 29t-29.5 22t-34 14t-27.5 5q-39 0 -66.5 -27t-46.5 -64.5t-30.5 -77t-17.5 -64.5q0 -2 -0.5 -5t-0.5 -4v-4q-6 -20 -9.5 -39.5t-3.5 -36.5q0 -48 21.5 -61.5t62.5 -13.5q16 0 37.5 10.5t36.5 27.5
q0 -12 4 -21t9 -15q1 -2 5 -6l1 -2t3 -7q24 -16 36.5 -22.5t27.5 -6.5h23q13 0 27.5 2t29.5 15l2 2q9 12 21.5 31t12.5 35q0 13 -3 19t-8 11l1 3l9.5 33.5t11.5 28.5q9 14 17 23q2 2 4.5 6t4.5 6v-1l16.5 21t13 22.5t8.5 29.5t3 42z" />
    <glyph glyph-name="dagger" unicode="&#x2020;" horiz-adv-x="463" 
d="M420 384h2q20 0 36 8t27.5 20.5t17.5 28.5t6 32q0 29 -18 51t-56 22q-17 0 -24 -1t-15 -7h-65l2 22v-3l2 8v3q2 8 3 17t1 22q0 27 -12 46.5t-49 19.5q-30 0 -48 -6t-27.5 -18.5t-12.5 -31t-3 -42.5l-4 -37h-52q-10 5 -20 6t-17 1q-20 0 -34.5 -8t-24.5 -21t-15 -29
t-5 -32q0 -29 17 -52.5t52 -23.5q8 0 18.5 2t22.5 8h45l-36 -412v-9l30 -1v6l-29 4q-2 -9 -2.5 -17.5t-0.5 -17.5q0 -30 14.5 -50.5t52.5 -24.5h10q22 0 34.5 5.5t19.5 16t10.5 25t6.5 32.5l-20 2h20q0 2 0.5 3t0.5 3t1 4v4l37 427h72q10 -4 16 -4.5t13 -0.5z" />
    <glyph glyph-name="daggerdbl" unicode="&#x2021;" horiz-adv-x="465" 
d="M395 29h2q20 0 36 8t27.5 21t17.5 29t6 31q0 29 -18 51.5t-56 22.5q-18 0 -25 -1t-15 -8h-69l18 206h73q10 -4 16.5 -4.5t12.5 -0.5h2q20 0 36.5 8t28 20.5t17.5 28.5t6 32q0 29 -18.5 51t-56.5 22q-17 0 -23.5 -1t-15.5 -7h-64l2 21l1 8v1q2 8 3 17t1 22q0 27 -12 46.5
t-49 19.5q-30 0 -48 -6t-27.5 -18.5t-12.5 -31t-3 -42.5l-4 -37h-54q-10 5 -19 6t-17 1q-20 0 -34.5 -8t-24.5 -21t-15 -29t-5 -32q0 -29 17 -52.5t52 -23.5q8 0 19 2t23 8h45l-18 -206h-48q-10 5 -20 6t-17 1q-20 0 -35 -8t-24.5 -20.5t-14.5 -28.5t-5 -32q0 -30 17 -53.5
t52 -23.5q8 0 18.5 2.5t21.5 8.5h42l-5 -59q-2 -8 -2.5 -16t-0.5 -18q0 -30 14.5 -50.5t53.5 -24.5h10q22 0 34.5 5.5t19.5 16t10.5 25t6.5 32.5l-20 2h20q0 2 0.5 3t0.5 3t1 4v4l6 73h78q10 -5 16 -5.5t12 -0.5z" />
    <glyph glyph-name="bullet" unicode="&#x2022;" horiz-adv-x="276" 
d="M295 387q0 61 -34 92t-91 31q-40 0 -69 -17t-47.5 -44t-27 -60.5t-8.5 -65.5q0 -26 9.5 -47t25.5 -36t37 -23t44 -8q36 0 65.5 15t51 40t33 57t11.5 66z" />
    <glyph glyph-name="ellipsis" unicode="&#x2026;" horiz-adv-x="669" 
d="M-31 74v-10q0 -14 4.5 -25t11.5 -20q23 -17 43.5 -23.5t31.5 -6.5q16 0 31 4t26 10q22 12 37 31t16 42q0 46 -46 64l1 -1q-11 6 -24 10t-26 4q-14 0 -19 -1h1q-2 -1 -6 -1q-32 -6 -55 -27t-27 -50zM205 71v-10q0 -14 4.5 -25t11.5 -20q23 -17 43.5 -23.5t31.5 -6.5
q16 0 31 4t26 10q22 12 37 31t16 42q0 46 -46 64l1 -1q-11 6 -24 10t-26 4q-14 0 -19 -1h1q-2 -1 -6 -1q-32 -6 -55 -27t-27 -50zM442 69v-10q0 -14 4.5 -25t11.5 -20q23 -17 43.5 -23.5t31.5 -6.5q16 0 31 4t26 10q22 12 37 31t16 42q0 46 -46 64l1 -1q-11 6 -24 10t-26 4
q-14 0 -19 -1h1q-2 -1 -6 -1q-32 -6 -55 -27t-27 -50z" />
    <glyph glyph-name="uni202F" unicode="&#x202f;" horiz-adv-x="191" 
 />
    <glyph glyph-name="perthousand" unicode="&#x2030;" horiz-adv-x="1499" 
d="M856 716q-4 30 -26 43t-51 13q-17 0 -34.5 -4.5t-31.5 -14.5l1 1q-46 -31 -77 -67t-60 -74l-8 -10.5l-8 -10.5q-2 -4 -8 -11t-4 -5l-22 -29t-25 -30q-4 -4 -8 -8.5t-9 -9.5q6 25 6 52q0 35 -7 63l-2 1q-8 29 -25 48t-39 32t-47 21l-47 15q-21 6 -36.5 7.5t-29.5 1.5
q-46 0 -83.5 -16t-67 -42t-52 -58t-39.5 -63q-15 -32 -15 -62q0 -35 16 -67.5t42 -53.5l-1 1q27 -23 61 -32.5t72 -9.5q28 0 54 3q45 8 76.5 22l60.5 28l4 2q-5 -5 -9.5 -11l-9.5 -13v1l-66 -80.5l-51.5 -65l-45 -59.5l-46.5 -63l-16.5 -22l-17.5 -22q-21 -30 -21 -56
q0 -31 21 -48.5t54 -17.5q22 0 46.5 11.5t44.5 34.5l114 140.5l114 137.5q-10 -14 -18 -29t-14 -32q-5 -21 -8.5 -37.5t-4.5 -44.5q0 -47 26 -85t80 -54h-1q25 -9 51 -13t52 -4q69 0 128 24.5t99 62.5q23 21 44.5 49t34.5 63q-1 -6 -1.5 -13.5t-0.5 -15.5q0 -47 26 -85
t80 -54h-1q25 -9 51 -13t52 -4q69 0 128 24.5t99 62.5q16 15 32.5 33.5t29.5 41t21 48.5t8 56q0 21 -3 39.5t-11 34.5q-11 25 -28 41.5t-39 26.5t-48.5 14t-55.5 4q-32 0 -61 -3t-56 -7q-33 -5 -65 -19.5t-60 -38t-50.5 -53.5t-35.5 -66q1 4 1 13q0 21 -3 39.5t-11 34.5
q-11 25 -28 41.5t-39 26.5t-48.5 14t-55.5 4q-32 0 -61 -3t-56 -7q-38 -5 -74 -24t-67 -48l100 113l104 113q6 7 14.5 13.5l16.5 12.5q2 2 2 1l2 2l-2 -1q15 11 30 23.5t27.5 28.5t20 36.5t7.5 46.5v10q0 9 -1 13zM786 222q2 -8 2 -10q0 -23 -12.5 -44t-34.5 -30
q-11 -5 -26 -9.5t-35 -4.5q-5 0 -11.5 1l-13.5 2t-12 2.5t-5 3.5q-8 10 -10.5 18t-2.5 15q0 22 16 41.5t36 26.5q8 3 24 4t33 1h38q9 0 14 -17zM1298 236q2 -8 2 -10q0 -23 -12.5 -44t-34.5 -30q-11 -5 -26 -9.5t-35 -4.5q-5 0 -11.5 1l-13.5 2t-12 2.5t-5 3.5
q-8 10 -10.5 18t-2.5 15q0 22 16 41.5t36 26.5q8 3 24 4t33 1h38q9 0 14 -17zM314 548q-7 -13 -20.5 -21.5t-30 -14t-33 -8t-28.5 -2.5t-13 4q0 2 -0.5 3t-0.5 3q0 27 17 41.5t34 23.5q2 2 6 3.5t6 3.5h5q8 0 18 -3t19 -7.5t15 -11.5t6 -14zM551 579l-1 -1q-1 -1 -1 -2
q0 1 2 3zM499 262q0 -1 -2 -3q2 2 2 3z" />
    <glyph glyph-name="guilsinglleft" unicode="&#x2039;" horiz-adv-x="235" 
d="M238 465h-5q-19 0 -41 -14v1l-119 -78q-18 -8 -33 -23.5t-19 -36.5q0 -3 -0.5 -7t-0.5 -6q0 -19 6.5 -28t15.5 -15h1l94 -113l5 -6l1 -1q9 -13 20 -20l4 -3v1q4 -2 15 -4h12q15 0 28 10t25 39h-1q2 3 3 6.5t2 5.5q0 1 0.5 2.5t0.5 2.5v6q0 12 -6 25t-23 28l2 -1l-52 62
l62 41h-1q27 14 38.5 33.5t12.5 30.5q0 1 0.5 2.5t0.5 3.5q0 9 -4 14q-6 23 -15 31.5t-29 10.5z" />
    <glyph glyph-name="guilsinglright" unicode="&#x203a;" horiz-adv-x="235" 
d="M52 111h5q20 0 41 14v-1l118 77q19 8 34 23.5t19 37.5q0 3 0.5 7t0.5 6q0 18 -6.5 27t-16.5 15l-94 114l-5 5q-5 7 -10 12t-12 9l-3 4v-2q-4 2 -7.5 2.5t-7.5 2.5h-12q-15 0 -28 -10t-25 -39q-4 -10 -4 -12q0 -1 -0.5 -2.5t-0.5 -2.5v-6q0 -12 6 -25t23 -28l-2 1l52 -63
l-62 -40h1q-27 -14 -38.5 -33.5t-12.5 -30.5q0 -1 -0.5 -2.5t-0.5 -3.5q0 -8 3 -15q6 -23 15.5 -31t29.5 -10z" />
    <glyph glyph-name="uni205F" unicode="&#x205f;" horiz-adv-x="238" 
 />
    <glyph glyph-name="currency" unicode="&#x20ac;" horiz-adv-x="625" 
d="M36 330q0 -1 1 -2l-11 -32.5t-9 -30.5h-3q-13 -2 -23 -4.5t-17 -7t-10.5 -12.5t-3.5 -21q3 -23 7.5 -39t12.5 -27q11 -14 27 -20q3 -18 7.5 -33t13.5 -31l23 -27l-1 1q19 -26 43.5 -43.5t51.5 -29t56.5 -19t58.5 -11.5l32.5 -4t36.5 -2q39 0 73 6.5t65.5 19.5t62 32
t62.5 43q20 17 28.5 27t14.5 20q0 69 -61 69q-1 0 -10.5 -2t-23 -6.5t-28.5 -11.5t-25 -16q-25 -13 -55.5 -26.5t-80.5 -27.5q-3 -1 -10.5 -1.5t-21.5 -0.5t-37 4.5t-65 21.5q-11 10 -20 21t-17 25h22q22 0 47.5 0.5t48.5 1t40 1.5t23 2q19 0 32.5 1t22.5 2.5t15.5 4
t11.5 6.5q15 7 19 14.5t4 23.5l-5 10h1q-5 11 -9.5 19.5t-12.5 13.5h1q-29 27 -71.5 34t-90.5 7q-29 0 -45 -0.5t-25 -1.5h-20l10 20q3 10 4 11v1t1 3q7 0 13.5 0.5t13.5 0.5h2q6 0 32 0.5t57 1.5t58.5 2.5t35.5 3.5h17q26 0 40 1.5t26 9.5q15 7 19 14.5t4 23.5l-5 10h1
q-5 11 -9.5 19.5t-12.5 13.5h1q-29 27 -71.5 34t-90.5 7h-38l16 17.5l16 16.5q26 28 55.5 47t61.5 20l86 -62q19 -11 30 -16.5t16.5 -8t8.5 -3t6 -0.5q29 13 45.5 33t16.5 36q0 2 -0.5 5t-2.5 8l2 -4q-7 37 -31.5 59t-61.5 41q-28 15 -49 24.5t-37.5 15t-31 8t-29.5 2.5
q-16 0 -39.5 -4t-55.5 -14q-70 -43 -127.5 -101t-99.5 -127h-6h-8t-8 -2v1q-13 -2 -23 -4.5t-17 -7t-10.5 -12.5t-3.5 -21q3 -23 7.5 -39t12.5 -27v1z" />
    <glyph glyph-name="trademark" unicode="&#x2122;" horiz-adv-x="729" 
d="M394 590q1 0 1.5 0.5t2.5 0.5l-43 -101t-40 -111l1 -1q-2 -6 -2 -9q0 -1 -0.5 -3t-0.5 -4t-0.5 -2.5t-0.5 -2.5v-5q0 -23 11.5 -43t44.5 -24q8 -2 13 -2h9q25 0 42.5 11.5t32.5 28.5q7 16 12 32q0 -2 0.5 -3.5t0.5 -3.5q15 -27 33 -36.5t39 -9.5q18 0 35 6t27 14
q2 2 4.5 3.5t4.5 3.5v0q0 1 1 1q7 7 11.5 15t9.5 18q1 -5 1.5 -9t1.5 -8q5 -32 24 -45t42 -13q15 0 32 6q49 19 54 66v6q0 1 0.5 1.5t0.5 2.5q0 10 -3 19v9q-2 10 -3.5 19.5t-2.5 21t-1.5 27t-0.5 38.5q0 7 -0.5 13.5t-0.5 12.5v55l-1 -1q0 20 3 56q0 4 1 6v-2q2 6 2 13
q1 3 1.5 5.5t1.5 5.5v14q0 5 -0.5 9t-1.5 8q-7 29 -32 43t-53 14q-27 0 -53 -14q-20 -18 -27.5 -33t-11.5 -29q-1 -3 -3 -7q-2 -6 -3 -8l-5.5 -9.5t-4.5 -9.5q1 2 1 5t1 5q1 5 1 12q0 6 -1 10.5t-2 9.5h-1q-7 22 -30 37t-49 15q-17 0 -35 -7t-32 -23q-6 16 -28 35
q-13 2 -25 2.5t-24 0.5q-30 0 -64.5 -4.5t-69.5 -11.5t-69 -16l-62 -17l-9 -5l2 2q-12 -7 -20 -12.5t-13 -12t-8.5 -16.5t-4.5 -26q0 -6 3 -19.5t11 -28t21 -25t34 -10.5h4q1 0 3.5 0.5t4.5 0.5q7 2 13 3t14 3l-2 -22v1q-5 -35 -7.5 -75.5t-4.5 -82.5q-1 -7 -1 -16
q0 -8 -1 -15q7 -34 24.5 -48.5t46.5 -14.5h6q35 3 51 26t24 51q-1 6 -1 11v12q0 14 1.5 29t3.5 32q3 35 9 74t11 68h12q14 0 26.5 1t28.5 6h1z" />
    <glyph glyph-name="fraction" unicode="&#x2215;" horiz-adv-x="972" 
d="M856 716q-4 30 -26 43t-51 13q-17 0 -34.5 -4.5t-31.5 -14.5l1 1q-46 -31 -77 -67t-60 -74l-8 -10.5l-8 -10.5q-2 -4 -8 -11t-4 -5l-22 -29t-25 -30q-4 -4 -8 -8.5t-9 -9.5l-2 -2l-14 -14.5t-9 -9.5q-8 -9 -10 -11.5t-4 -4.5q-6 -7 -12.5 -13.5t-12.5 -13.5l-26 -28.5
t-28 -33.5v1l-66 -80.5l-51.5 -65l-45 -59.5l-46.5 -63l-16.5 -22l-17.5 -22q-21 -30 -21 -56q0 -31 21 -48.5t54 -17.5q22 0 46.5 11.5t44.5 34.5l229 279.5t241 269.5q6 7 14.5 13.5l16.5 12.5q2 2 2 1l2 2l-2 -1q15 11 30 23.5t27.5 28.5t20 36.5t7.5 46.5v10q0 9 -1 13z
M551 579l-1 -1q-1 -1 -1 -2q0 1 2 3z" />
    <glyph glyph-name="uniE000" unicode="&#xe000;" horiz-adv-x="590" 
d="M0 590h590v-590h-590v590z" />
    </font>
</defs>
</svg>
