<?xml version="1.0" standalone="no"?>
<!DOCTYPE svg PUBLIC "-//W3C//DTD SVG 1.1//EN" "http://www.w3.org/Graphics/SVG/1.1/DTD/svg11.dtd" >
<svg>
<metadata>
Created by FontForge 20090622 at Thu Aug 10 14:19:47 2017
 By deploy user
&#194;&#169; 1999-2001, WolfBainX &#38; Apostrophic Labs. All rights reserved. Email info@apostrophiclab.com or visit www.apostrophiclab.com for more information.
</metadata>
<defs>
<font id="KomikaDisplayKaps" horiz-adv-x="736" >
  <font-face 
    font-family="Komika Display Kaps"
    font-weight="400"
    font-stretch="normal"
    units-per-em="1000"
    panose-1="2 0 5 6 8 0 0 2 0 4"
    ascent="800"
    descent="-200"
    x-height="546"
    cap-height="689"
    bbox="-73 -241 1475 940"
    underline-thickness="57"
    underline-position="-76"
    unicode-range="U+000D-U+E000"
  />
<missing-glyph horiz-adv-x="500" 
 />
    <glyph glyph-name=".notdef" horiz-adv-x="500" 
 />
    <glyph glyph-name=".null" horiz-adv-x="0" 
 />
    <glyph glyph-name="nonmarkingreturn" horiz-adv-x="1000" 
 />
    <glyph glyph-name="uni000D" unicode="&#xd;" horiz-adv-x="500" 
 />
    <glyph glyph-name="space" unicode=" " horiz-adv-x="349" 
 />
    <glyph glyph-name="exclam" unicode="!" horiz-adv-x="439" 
d="M115 236l81 -35q13 5 25.5 15.5t22.5 22.5t16.5 24.5t7.5 21.5q1 4 13.5 38l29.5 82.5l37.5 104.5l38 105l30.5 83.5t16 39.5q7 8 7 18q0 8 -4.5 16.5t-10.5 14.5l-3 2q-19 20 -37.5 27t-37.5 7q-5 0 -13 -1t-18 -3q-25 -5 -41 -17t-26 -28.5t-16 -36.5t-11 -40
q-22 -91 -50 -175t-54 -172l-3 -12.5l-4.5 -19t-4 -22t-1.5 -21.5q0 -26 10 -39zM58 4q21 -6 46 -6q16 0 28 1t20 2q13 3 26.5 10.5t24 18t18.5 22t11 22.5q1 4 1.5 8.5t0.5 11.5q0 28 -25 47l-55 33q1 -1 -5.5 -2t-15 -2.5t-15 -2.5t-5.5 -2q-34 -7 -58 -25t-34 -46
q-8 -10 -8 -25q0 -9 5 -19q3 -11 13.5 -24.5t23.5 -21.5h3z" />
    <glyph glyph-name="quotedbl" unicode="&#x22;" horiz-adv-x="336" 
d="M149 530l40 116q1 2 1 5q0 4 1 6l4 24.5t-1 23t-12.5 17.5t-28.5 7q-33 0 -51 -23t-26 -54q-2 -3 -1.5 -6t-1.5 -7l-28 -105q-3 -6 -4 -8.5t-4 -12.5q-2 -9 -3.5 -20t1 -21t9 -17.5t20.5 -9.5h7q23 0 45.5 24.5t32.5 60.5zM340 645l4 14q2 5 2.5 9.5t2.5 8.5
q3 10 3.5 19.5t-3.5 17t-13 11.5t-25 4q-21 0 -34.5 -7.5t-22 -20t-13.5 -28t-9 -31.5l-31 -111l-2 -13q-4 -15 -6 -27.5t0 -22.5t9.5 -16t21.5 -7h4q29 0 50 27t31 65l-1 1z" />
    <glyph glyph-name="numbersign" unicode="#" horiz-adv-x="577" 
d="M620 456q0 20 -17 46q-20 29 -46 29h-66q1 4 1.5 10.5t2.5 13.5q2 11 2.5 21t0.5 15q0 71 -64 71q-29 0 -44 -22q-16 -25 -17 -73q-1 -20 -3 -32.5t-4 -17.5q0 1 -17 1h-71v54q0 21 -0.5 32t-0.5 13q-12 61 -58 61q-48 0 -55 -55q-1 -5 -1.5 -10.5t-0.5 -11.5
q-1 -2 -1 -12v-13q-2 -23 -3 -40t-1 -31q-8 -3 -18 -3q-5 0 -15.5 1t-23.5 3q-17 4 -39 4q-58 0 -58 -58q0 -14 5 -26t13 -24q5 -8 15 -15t22.5 -12t25 -8.5t22.5 -3.5h10q11 0 18 1.5t12 1.5q-3 -5 -3 -26v-5h-12q-3 1 -8 1h-15q-5 1 -9 1.5t-12 0.5q-25 0 -44 -12h1
q-28 -18 -28 -50q0 -25 20 -48q18 -23 44 -26q15 -1 29 -1.5t24 -1.5h1q4 -18 6.5 -33l4.5 -27q5 -24 23 -42q23 -23 42 -23q36 0 50 45l-1 -1q8 26 8 48q0 5 -0.5 10t-1.5 10l-2 9q25 7 97 7q10 0 10 -8q0 -2 -0.5 -5.5t-0.5 -7.5v-11q0 -8 1 -17.5t5 -23.5
q3 -14 6.5 -21.5t5.5 -12.5q3 -5 10.5 -11.5t16 -12.5t16.5 -10t12 -4q9 0 19 6t18.5 15t14 20t5.5 20v72q0 1 -0.5 5t-0.5 7q-1 1 -1 5h32q12 2 23.5 10t25.5 22q12 15 19 28.5t7 27.5q0 7 -4 16.5t-10.5 18t-15 14t-17.5 5.5h-71q-3 0 -3 8q0 6 3 18v3q20 5 39.5 7l39.5 4
q11 2 20.5 7.5t17.5 19.5q17 23 17 40zM360 374v-9q0 -10 -5 -27h-65q-2 0 -4.5 -0.5t-4.5 -0.5q-1 -1 -5 -1v34h-1q15 7 54 7q24 0 32 -3h-1z" />
    <glyph glyph-name="dollar" unicode="$" horiz-adv-x="503" 
d="M490 385q0 51 -22 85v-1q-17 33 -26 39h1q-45 40 -138 60l-42 2t-42 3q-44 2 -44 7q0 7 17 21q19 19 33 20q93 15 116 15h7q28 0 45 5q12 4 25 34q10 21 10 34q0 27 -23 41t-47 14h-10q-9 0 -11 -1q-4 -1 -8 -1q-3 -1 -12 -1h-40v7q0 4 0.5 7.5t0.5 7.5q0 15 -1.5 32.5
t-8 32t-19 24.5t-34.5 10q-15 0 -33 -13t-21 -28v2q-2 -5 -2.5 -22.5t-0.5 -35.5v-23q0 -31 -9 -41q-17 -12 -29 -21.5t-21 -14.5q-75 -69 -75 -121q0 -47 33 -80q27 -31 119 -45q17 -3 35 -5.5t35 -4.5q16 -2 32 -4.5t34 -4.5q53 -14 53 -33q0 -3 -7 -13q-21 -28 -41 -36
q-31 -16 -54 -16t-39.5 3t-27.5 3q-2 0 -4 -0.5t-4 -0.5h-5q-11 0 -24.5 6.5t-28 15.5l-29.5 18t-28 15q-4 2 -8 2q-10 0 -20 -9t-21 -21q-23 -29 -23 -50q0 -46 42 -76q11 -8 28 -16.5t42 -19.5q16 -7 24.5 -12t10.5 -7v-1h1q4 -9 4 -14v-82q0 -18 20 -44q19 -27 42 -27
q22 0 42 29l-1 -1q17 26 17 44v94q0 -2 34 11l43.5 15l14.5 5q116 71 118 160q0 -1 0.5 1.5l1.5 7.5l-1 -1q1 4 2.5 9.5z" />
    <glyph glyph-name="percent" unicode="%" horiz-adv-x="972" 
d="M950 294q-19 45 -61 61t-96 16q-30 0 -59 -3t-56 -7q-31 -4 -61 -17.5t-56.5 -34.5t-47 -48.5t-32.5 -60.5q-6 -23 -9 -40.5t-5 -43.5q0 -42 23.5 -76.5t71.5 -48.5q45 -16 98 -16q66 0 122.5 23.5t94.5 59.5q15 14 30.5 32t28 39t20 45.5t7.5 51.5q0 39 -13 68zM841 714
q-3 23 -21 33t-41 10q-15 0 -30.5 -4t-26.5 -12q-50 -34 -83 -74.5l-66 -83.5l-37 -49t-42 -48v1l-18 -19.5l-19 -20.5l-41.5 -44.5t-37.5 -44.5l1 1l-66 -80.5l-51.5 -64.5l-45 -59l-46.5 -63l-16.5 -22l-17.5 -22q-18 -26 -18 -47q0 -24 17 -37.5t43 -13.5q19 0 40.5 10
t38.5 31l226.5 276.5t244.5 272.5q10 11 18 17l17 13q14 10 28 22t25.5 26.5t18.5 33t7 41.5v10q0 9 -1 11zM469 607q-6 27 -22 45t-37 30t-44.5 20l-45.5 15q-18 5 -33 6.5t-29 1.5q-43 0 -78 -15.5t-63 -39.5t-49.5 -54.5t-37.5 -60.5q-14 -31 -14 -56q0 -32 14.5 -61
t37.5 -48q24 -20 56 -29t67 -9q26 0 52 3q45 9 77 23t61 28l11 5.5t11 4.5h-1q42 19 58 56t16 79q0 29 -6 55zM800 227q3 -9 3 -15q0 -26 -15 -51.5t-41 -36.5q-12 -5 -28 -10t-39 -5q-6 0 -15 1.5t-17.5 4t-15 5t-7.5 5.5q-8 11 -11.5 21.5t-3.5 19.5q0 13 5.5 26t14 24.5
t19.5 19.5t23 12q10 4 27.5 5t34.5 1h38q9 0 16 -6t12 -21zM325 537q-7 -14 -22 -23.5t-33 -15.5t-36.5 -8.5t-31.5 -2.5q-11 0 -18.5 3t-9.5 12q0 2 -0.5 4.5t-0.5 5.5q0 19 7.5 32t18 23t23 17l22.5 13q3 2 12 2q10 0 22.5 -4t23.5 -11t19 -16.5t8 -19.5q0 -6 -3 -10z" />
    <glyph glyph-name="ampersand" unicode="&#x26;" horiz-adv-x="764" 
d="M767 418q0 49 -17 71.5t-53 22.5q-17 0 -30.5 -2.5t-31.5 -4.5q-1 -1 -5 -1t-6 -1q-11 -1 -20 -1.5t-18 -0.5q-12 0 -23.5 0.5t-25.5 0.5q-55 0 -74 -43q-6 -18 -9 -29t-5 -19q0 -4 -4 -17l-25 -63t-15 -34l-28 -37.5t-24 -29.5q-2 -3 -3 -3q-44 -63 -144 -63
q-19 0 -31 8.5t-12 23.5q0 21 15 54q28 46 46 64l33 30.5t20 20.5q17 16 53 36q2 1 2.5 1.5t2.5 1.5q4 1 12 5.5l17.5 9.5l19.5 10.5t17 8.5q15 11 21 21.5t6 22.5q0 91 -83 91q-17 0 -62 -22l1 1q-16 -6 -25 -9t-12 -5q1 1 1 3q0 6 -2.5 16t-2.5 22q0 16 8.5 32.5
t37.5 30.5q23 11 45 13.5t41 2.5h26q16 0 40 -27q47 -47 72 -47q20 0 37.5 13t17.5 37q0 45 -41 92q-55 49 -89 55q-7 1 -17 3.5l-21 5t-21.5 4.5t-18.5 2q-28 0 -54.5 -8t-51 -21t-46.5 -29.5t-41 -32.5q-70 -61 -70 -155q0 -29 4 -53t17 -49q0 -11 -8.5 -20.5t-18.5 -18.5
l-19 -17.5t-10 -16.5q-54 -81 -54 -163q0 -87 54 -144q58 -60 150 -60q156 0 238 76l-2 -1q15 12 30.5 28.5t32.5 36.5q17 22 28.5 38.5l19.5 27.5l27 65t17 46q0 2 -0.5 2.5t-0.5 1.5q0 8 9 9.5t22 1.5q5 0 10.5 0.5t11.5 1.5q58 0 85 20.5t27 55.5z" />
    <glyph glyph-name="quotesingle" unicode="'" horiz-adv-x="187" 
d="M149 530l40 116q1 2 1 5q0 4 1 6l4 24.5t-1 23t-12.5 17.5t-28.5 7q-33 0 -51 -23t-26 -54q-2 -3 -1.5 -6t-1.5 -7l-28 -105q-3 -6 -4 -8.5t-4 -12.5q-2 -9 -3.5 -20t1 -21t9 -17.5t20.5 -9.5h7q23 0 45.5 24.5t32.5 60.5z" />
    <glyph glyph-name="parenleft" unicode="(" horiz-adv-x="383" 
d="M372 831q0 67 -68 67q-17 0 -36 -9.5t-36 -23t-30.5 -29.5t-20.5 -29q-41 -38 -73 -99q-35 -62 -45 -114q-2 -9 -5 -18.5t-5 -18.5q-7 -22 -14.5 -49.5t-13.5 -55.5t-10.5 -54.5t-5.5 -46.5q3 -40 9.5 -77.5t18.5 -73t31 -68.5t47 -65q3 -3 6.5 -6t6.5 -6q14 -16 22 -21
q28 -21 61 -21q57 0 57 56q0 31 -34 74l-32 44t-19 29q-13 26 -20 54t-7 57q0 83 41 220l-1 -1q2 2 3 8q8 14 11 25q5 12 9.5 21.5t10.5 17.5q19 32 48 68t69 72h-1q12 16 19 34.5t7 38.5z" />
    <glyph glyph-name="parenright" unicode=")" horiz-adv-x="390" 
d="M341 708q-8 16 -24 41.5t-34 51t-36 48t-30 33.5q-11 11 -23.5 15t-25.5 4q-56 0 -56 -57q0 -29 14 -49t29 -37q2 -4 8 -10l15 -24t17 -30q8 -33 16.5 -49.5t8.5 -34.5q2 -9 2.5 -17t0.5 -19q0 -21 -6.5 -55.5t-17.5 -85.5q-4 -6 -5.5 -15.5t-2.5 -18.5t-2 -17t-4 -11
q-13 -35 -22 -56.5t-15 -34t-10.5 -19.5l-8.5 -13q-3 -11 -22 -32l-41 -46t-39.5 -49t-17.5 -39q0 -34 15.5 -50t50.5 -16q13 0 24 4t19 9q6 5 16 17t19 20l13.5 12t12.5 11l32.5 43l23.5 30l17 22.5t13 20.5q7 11 12.5 29t17.5 38q17 30 29.5 69t21 84t14 94.5t8.5 99.5z
" />
    <glyph glyph-name="asterisk" unicode="*" horiz-adv-x="450" 
d="M437 630q0 55 -58 55q-5 0 -15.5 -1l-21.5 -2l-21.5 -2t-16.5 -1q-28 0 -39 14q-3 9 -5.5 23.5t-3.5 36.5q-1 24 -3.5 39t-5.5 23q-12 30 -46 30q-22 -2 -35.5 -18.5t-13.5 -37.5v-8q0 -9 1.5 -20l3.5 -25q-2 -8 -9 -8l-19 20.5l-19 20.5q-24 21 -50 21q-15 0 -26 -11
t-11 -27q0 -18 27 -54q11 -13 20.5 -25.5t20.5 -25.5q-11 -11 -34 -11h-2q-18 0 -19 -1q-14 -3 -25 -13.5t-11 -23.5q0 -33 25 -55q28 -24 59 -24q5 0 16 2t17 2q20 0 27 -10q5 -8 5 -31q0 -8 -0.5 -19.5t-0.5 -19.5q0 -48 42 -73q4 -4 22 -4q28 0 35 43q6 53 18 68
q4 -2 15 -6.5t30 -13.5q34 -17 38 -17q16 0 26.5 13t10.5 28q0 20 -28 41q-31 22 -37 35q20 5 39 8.5t38 8.5q40 12 40 56z" />
    <glyph glyph-name="plus" unicode="+" horiz-adv-x="534" 
d="M525 418q0 46 -45 57q-60 8 -91 9q-45 3 -49 7q-16 13 -16 41q0 7 1.5 18.5t3 24.5t3 24.5t1.5 18.5q0 73 -62 73q-42 0 -55 -48q-2 -11 -4 -31.5t-4 -49.5l-3.5 -39t-3.5 -27q-4 -28 -76 -28q-29 0 -49 -1.5t-31 -3.5q-45 -12 -45 -54q0 -20 11 -44q18 -31 75 -31
q6 0 19.5 1t21.5 1q37 0 37 -28q0 -17 -3 -47q-3 -32 -3 -47q0 -89 61 -89q25 0 36 12q4 5 9.5 19t12.5 37q10 37 15 60q6 35 25 60q22 30 54 30h90q28 0 48 24q16 19 16 51z" />
    <glyph glyph-name="comma" unicode="," horiz-adv-x="225" 
d="M-27 -8q0 -23 16 -37.5t40 -14.5q9 0 21 4.5t22 15.5l-1 -2q3 3 13 16.5l22 30.5l24.5 34l20.5 28h4q2 13 2.5 18t0.5 10q0 14 -7.5 25t-20.5 21q-12 4 -18 5t-11 1h-5q-7 0 -13 -0.5t-16 -4.5v-1q-9 -7 -25 -30t-31 -48t-26.5 -46t-11.5 -25z" />
    <glyph glyph-name="hyphen" unicode="-" horiz-adv-x="537" 
d="M45 220q8 -12 28 -16t49 -4q12 0 25 0.5t28 0.5l26 2t27 1h2q6 0 32 0.5t56 1.5t57 2.5t35 3.5h20q26 0 38 1.5t22 8.5q9 4 11.5 8.5t2.5 12.5l-10 21t-10 14q-26 24 -66 30.5t-86 6.5h-43q-10 0 -20.5 -1t-20.5 -1q-25 0 -54 -0.5t-55 -1.5t-45.5 -2t-24.5 -2h1
q-20 -4 -31 -8.5t-11 -19.5v-4q0 -4 1 -6v-7l5.5 -21t10.5 -21z" />
    <glyph glyph-name="period" unicode="." horiz-adv-x="158" 
d="M-16 72v-8q0 -11 3.5 -19t8.5 -15q20 -15 37.5 -20.5t26.5 -5.5q14 0 27 3.5t23 8.5q19 10 31.5 26t13.5 35q0 34 -37 49q-10 5 -21 8.5t-22 3.5q-7 0 -11 -0.5t-10 -1.5q-27 -5 -47 -23t-23 -41z" />
    <glyph glyph-name="slash" unicode="/" horiz-adv-x="732" 
d="M670 748q-3 0 -5.5 0.5t-5.5 0.5q-27 0 -52 -10.5t-47.5 -27t-42.5 -36t-36 -37.5l-438 -466l-20.5 -21t-24 -28t-20 -30.5t-8.5 -28.5q0 -8 2.5 -14t6.5 -13q24 -34 70 -34q23 0 44 12q20 14 36 33t27 30q3 5 7.5 8.5t6.5 7.5l-1 -3l513 538q6 5 14 16v-2q15 14 25.5 25
t10.5 29q0 5 -0.5 10t-4.5 11v-1q-11 16 -21.5 21.5t-29.5 9.5h-6z" />
    <glyph glyph-name="zero" unicode="0" horiz-adv-x="517" 
d="M503 258q26 66 26 113q0 28 -14 67q-14 31 -30 45t-38 28h1q-2 2 -4.5 2.5t-4.5 2.5q-33 21 -66 33t-68 12q-64 0 -131 -40q-75 -45 -113.5 -105.5t-52.5 -145.5q-6 -32 -6 -64q0 -49 15 -87.5t53 -69.5q48 -45 116 -45q71 0 150 47q65 36 103.5 85.5t63.5 122.5v-1z
M411 270q-5 -14 -11.5 -25t-15 -20.5t-18.5 -18.5l-22 -19q-29 -26 -55 -37.5t-58 -11.5h-11q-29 2 -46 9.5t-34 27.5q-31 34 -31 81q0 28 16 71q12 27 30 48t39.5 35.5t46 22t49.5 7.5q5 0 11 -0.5t11 -1.5q23 -3 43 -13t34.5 -25.5t23 -36t8.5 -43.5q0 -24 -10 -49v-1z
" />
    <glyph glyph-name="one" unicode="1" horiz-adv-x="230" 
d="M240 496q0 29 -16.5 45.5t-36.5 16.5q-18 0 -37 -13q-15 -14 -27 -22l-23 -15q-2 -2 -4 -2.5t-4 -2.5l-9 -6q-18 -12 -35.5 -25t-37.5 -34q-4 -7 -5 -13t-1 -13q0 -20 10.5 -38t22.5 -25q2 -3 15 -3q11 0 19.5 4.5t16.5 10.5q3 2 5.5 4t4.5 4q-1 -13 -4.5 -29.5
t-7.5 -32.5t-5 -26v1q-6 -39 -13.5 -69t-15.5 -58q-8 -27 -14.5 -55t-13.5 -69v-7q0 -26 13.5 -32.5t33.5 -6.5h22q18 8 28.5 16t15.5 18t7 23.5t4 34.5q1 10 5 30.5l9 45.5q2 12 5 24t5 23q4 22 7.5 38.5l6.5 30t6 25.5t7 26q6 22 13.5 53.5l19.5 82.5v2q8 24 8 38z" />
    <glyph glyph-name="two" unicode="2" horiz-adv-x="526" 
d="M541 411q7 20 7 37q0 31 -14 53.5t-38 36.5v-1q-8 5 -14.5 6.5t-11.5 2.5q-3 0 -5 1q-13 5 -32 5q-22 0 -50 -5.5t-55.5 -13t-50.5 -15.5t-35 -14v2q-20 -2 -50 -18.5t-57.5 -39.5t-47 -47.5t-19.5 -42.5q0 -6 4 -15t11 -17t15 -13.5t17 -5.5q1 0 1.5 -0.5t2.5 -0.5h-1
q3 -1 6 -1h7q17 0 25.5 8.5t16.5 19.5q1 1 1.5 2t1.5 2q5 7 15 12q4 2 5.5 3.5t5.5 3.5q7 5 14 9.5t11 6.5q2 2 3.5 3t3.5 3l-2 -1q23 15 46.5 27.5t50.5 14.5q2 1 6 1q5 0 8 1q2 0 3 0.5t3 0.5q10 2 19.5 3t17.5 1q10 0 17.5 -2t9.5 -9v-1v-3q0 -16 -20 -26.5t-43 -18.5
q-4 -2 -7 -3t-7 -3l-12.5 -5t-11.5 -5q-10 -5 -16.5 -7.5t-14.5 -6.5q-8 -3 -14.5 -6.5l-12.5 -6.5q-25 -11 -44.5 -21.5t-45.5 -27.5q-7 -4 -13 -7t-10 -7h2l-26 -17t-23.5 -17.5t-23.5 -21.5t-27 -29q-35 -43 -35 -79q0 -8 0.5 -15t3.5 -15h-1q8 -24 21 -42.5t37 -18.5
q5 0 8.5 0.5t6.5 1.5q39 11 67.5 14.5t54.5 3.5q24 0 51 -3q6 -1 12 -1q7 0 13 -1q7 -1 13 -1q7 0 15 -1q7 0 13 -0.5t14 -1.5q7 -1 14 -2.5l17 -3.5l-1 1q18 -7 33 -7q27 0 46 26q10 14 16.5 30.5t6.5 31.5q0 28 -25 38q-43 15 -85 20.5t-82 5.5q-23 0 -45 -1.5t-41 -3.5
l15 15q2 2 6 4q31 23 65 39t67 30t63.5 28.5t56.5 34t46 45.5t32 64h-1z" />
    <glyph glyph-name="three" unicode="3" horiz-adv-x="501" 
d="M479 115q28 57 28 110q0 15 -3 31t-10 31l-14 25t-14 20q20 17 39 47t19 69q0 8 -1 17t-6 21q-10 32 -29 49.5t-54 22.5h1q-14 3 -30.5 4t-35.5 1q-31 0 -64.5 -5.5t-66 -18.5t-62 -35t-53.5 -54q5 -26 19 -47t40 -21h4l4.5 1.5l10.5 3.5q3 2 6.5 4l3.5 2q3 2 4.5 2.5
t4.5 2.5q30 20 64.5 38t66.5 18q9 0 20.5 -3.5t27.5 -12.5q-1 -8 -9 -18.5t-16 -18.5q-21 -15 -39 -19.5l-35 -8.5l-12 -3q-30 -6 -57 -14.5t-47 -25.5q-3 -11 -4 -19.5t-1 -16.5q0 -29 14.5 -45.5t39.5 -16.5h8v-1q23 8 45.5 13.5t41.5 5.5q20 0 35.5 -6t21.5 -23
q5 -15 5 -26q0 -15 -6.5 -29.5t-20.5 -25.5q-29 -20 -55 -30.5t-58 -10.5q-11 0 -23.5 1t-29.5 6q-17 4 -30.5 17t-24.5 27q-14 17 -25.5 28.5t-27.5 11.5q-12 0 -15 -3l-19.5 -14.5t-22 -19t-17.5 -22t-7 -24.5v-6q0 -5 2 -8q11 -26 23.5 -42.5t27.5 -27.5t33 -19t41 -17
q43 -13 91 -13q40 0 80 10t74.5 29t60.5 44.5t38 57.5z" />
    <glyph glyph-name="four" unicode="4" horiz-adv-x="506" 
d="M542 255q0 28 -11 37t-30 9q-6 0 -10.5 -0.5t-9.5 -1.5h2q-2 0 -5.5 -0.5t-5.5 -0.5q-8 -2 -16 -3t-16 -1q4 24 7 38l6 27l4 22.5t6 30.5q1 8 6 13q8 11 13.5 21.5t5.5 21.5v9q-5 21 -19.5 31.5t-34.5 10.5q-11 0 -31 -9t-44 -23h15q-8 -11 -11 -23.5t-5 -23.5
q-2 -12 -3 -16q-8 -20 -11.5 -36.5t-6.5 -32.5l1 1q-1 -2 -1.5 -5t-1.5 -5q-2 -5 -3 -9t-2 -11q-4 -14 -6 -25t-7 -21q-18 -4 -40.5 -7t-46.5 -5.5t-48 -4t-44 -1.5q5 13 11.5 24.5t14.5 23.5q5 8 11.5 17.5t11.5 17.5q7 16 18 30q5 5 7 8.5t4 7.5q1 1 3 5v-1q10 14 19.5 30
t19.5 42q10 18 10 31q0 20 -10 34t-27 21q-3 0 -4 1h1q-4 1 -16 1q-43 0 -68 -67q-6 -19 -11 -29t-11 -19q-2 -3 -3 -4t-3 -5l1 1l-5 -7.5l-5 -7.5t-3.5 -5.5t-3.5 -5.5l-1 1q-16 -30 -27 -44q-22 -33 -39.5 -65t-30.5 -76h4q0 -11 4.5 -25t10.5 -28t13.5 -27t13.5 -21
q13 -9 26 -9q10 0 21 3q2 1 7.5 2t8.5 2q9 3 20 6t21 5q28 2 64 3t62 1h17q-4 -17 -9.5 -37.5l-10.5 -40.5h1l-3 -9q-1 -2 -1.5 -4t-1.5 -4q-1 -3 -1.5 -5t-0.5 -7q0 -1 -0.5 -1.5t-0.5 -1.5v3q-3 -11 -5 -21t-2 -21q0 -16 6 -25t26 -9h18q2 0 3 -0.5t3 -0.5h5q19 0 31.5 8
t26.5 34q10 21 14.5 46.5t7.5 49.5v-1q2 18 5 34t7 27q10 3 21 3h12q1 0 2 -0.5t3 -0.5q8 0 17.5 2t20.5 10q12 7 22 14t17 16.5t10.5 23.5t3.5 35v4z" />
    <glyph glyph-name="five" unicode="5" horiz-adv-x="460" 
d="M463 166q11 39 11 67q0 39 -15 71.5t-40 53.5q-31 26 -66 35t-70 9q-26 0 -47.5 -3.5l-40.5 -6.5q2 9 6.5 17.5t9.5 16.5q18 1 38 3.5t43 7.5q5 1 9 1t9 1l18 3h-1q1 0 2 0.5t2 0.5q4 1 7 1h49q17 0 31.5 2t29.5 9q18 8 29 29t11 40q0 20 -13 31q-18 25 -53 25
q-15 0 -28.5 -3t-28.5 -6q-2 -1 -7.5 -2t-7.5 -2v1q-34 -10 -60 -14q-8 -1 -14 -1.5t-12 -0.5q-4 0 -8 -0.5t-7 -0.5q-30 -2 -58 -7.5t-61 -22.5q-7 -38 -16.5 -58.5t-20.5 -37.5q-11 -19 -21.5 -40t-15.5 -62q16 -45 27.5 -60t28.5 -15q6 0 11.5 0.5t12.5 3.5q1 0 2.5 0.5
t2.5 0.5q23 7 53 12.5t62 8.5h10q39 0 68.5 -15t29.5 -44q0 -6 -2 -13t-5 -15q-7 -17 -19 -28t-29 -23q-6 -2 -9 -7q-26 -19 -51.5 -26.5t-49.5 -7.5q-12 0 -24.5 2t-26.5 5q-9 2 -13.5 8.5t-7.5 14.5v-1q-6 17 -14.5 29.5t-34.5 12.5h-8t-8 -1q-33 -7 -45 -25t-12 -43
q0 -17 6 -35t12 -34q15 -29 53.5 -42.5t87.5 -13.5q34 0 64 6h-1q51 7 92.5 25t81.5 65q22 22 35.5 44t25.5 54h1z" />
    <glyph glyph-name="six" unicode="6" horiz-adv-x="503" 
d="M499 169q24 46 24 88q0 36 -14 61q-18 34 -41 46.5t-61 14.5h-10q-62 0 -120.5 -21t-111.5 -50q6 8 14 17t17 18l5 5q4 3 12 11q29 30 58.5 44.5t63.5 22.5q12 3 24 9t23 14.5t19.5 19t11.5 21.5l7 -6q-1 5 -2 9l-2 8v3q0 4 -1 8t-2 6l-2 -2q-8 21 -21 30t-28 9
q-7 0 -15 -1t-18 -4l-36.5 -10.5t-29 -10.5t-27.5 -14l-32 -19q-35 -24 -62.5 -50t-48.5 -55.5t-36.5 -64t-26.5 -75.5q-7 -25 -10.5 -47t-3.5 -45q0 -19 2.5 -34.5t6.5 -31.5q15 -54 51.5 -84.5t102.5 -30.5q37 0 77 10q42 10 76 23t63 33.5t54.5 50t49.5 73.5v1zM415 227
v-5q-1 -8 -9.5 -18.5t-21 -21.5t-27.5 -22t-30 -20q-32 -20 -64 -28t-49 -8q-9 0 -20.5 1t-22 3.5t-17.5 7t-7 12.5q0 4 1.5 9.5t6.5 13.5q28 24 61 47t78 32q4 0 7 1q1 0 2 0.5t2 0.5q20 5 40 7.5t38 2.5q14 0 23 -3t9 -12z" />
    <glyph glyph-name="seven" unicode="7" horiz-adv-x="429" 
d="M473 501q-8 23 -18.5 32t-36.5 9h-9h-5t-8 -2l2 1q-67 -9 -117.5 -14t-98.5 -5h-16h-7q-3 0 -7 1h1q-11 3 -24 3q-32 0 -57 -21.5t-25 -60.5v-8q0 -2 0.5 -4.5t0.5 -4.5q4 -19 12 -30t34 -11q7 0 15 0.5t16 2.5q23 7 45 8.5t44 1.5q16 0 31 -1.5t30 -3.5
q-16 -26 -32.5 -49l-33.5 -46l-11.5 -15.5l-11.5 -15.5l-43 -60t-45 -67v1q-6 -10 -14 -17.5l-16 -14.5l-9 -9q-15 -15 -25 -30t-10 -43v-9q11 -25 29.5 -38.5t36.5 -13.5q8 0 15.5 2.5t14.5 8.5q20 26 38 55l35 58h1l25 44h-1l50 74t49 65.5t53 63l63 67.5q16 16 29.5 37.5
t13.5 41.5q0 8 -3 17z" />
    <glyph glyph-name="eight" unicode="8" horiz-adv-x="543" 
d="M559 176q3 12 3 26q0 17 -4 29.5t-11.5 22.5t-17 17.5l-19.5 15.5q-2 2 -9 8q12 13 25 29t23 34t16.5 37.5t6.5 40.5q0 24 -11 49q-23 50 -64.5 67.5t-97.5 17.5h-29q-34 -2 -66.5 -8.5t-62 -21t-56 -38.5t-48.5 -60q-30 -49 -30 -96q0 -26 11 -50l-36.5 -20.5
t-29.5 -21.5t-24 -28t-20 -38q-10 -20 -14 -39t-4 -36q0 -19 4 -36.5t14 -34.5v1q11 -22 27 -35.5t35.5 -22t42.5 -12.5t49 -7q2 -1 8 -1q2 0 4 -1q1 0 2.5 -0.5t3.5 -0.5q15 -2 29.5 -3.5t29.5 -1.5q77 0 148 29.5t131 94.5q11 11 18.5 24.5t12 27t7 25t3.5 17.5zM398 124
q-35 -19 -68 -26.5t-65 -7.5q-53 0 -99 17q-21 8 -36 20t-17 27q2 24 20 33t40 16q2 1 4.5 1.5t4.5 1.5q12 3 26 9v-11l15 15q6 0 9 1q5 1 11 1t11 1q17 2 35 3t37 1q15 0 30.5 -1.5t29.5 -6.5l18 -4h-1q15 -4 28 -9.5t13 -16.5v-2q-1 -20 -14 -36t-32 -26zM456 415
q-1 -15 -11.5 -25.5t-25.5 -18t-33 -11.5t-33 -7t-26.5 -5t-19.5 -2q-33 0 -57.5 8.5t-29.5 21.5q4 20 20.5 32.5t39.5 20t50 11.5t51 6h3q2 0 3 0.5t3 0.5q24 0 44 -10t22 -22z" />
    <glyph glyph-name="nine" unicode="9" horiz-adv-x="523" 
d="M549 312q5 17 6.5 34.5t1.5 35.5q0 20 -4 40t-14 42q-12 30 -25.5 48t-40.5 38q-21 14 -43.5 19t-46.5 5q-34 0 -67.5 -8.5t-57.5 -16.5q-66 -22 -110 -61.5t-71 -101.5q-9 -19 -13 -37.5t-4 -35.5q0 -23 7.5 -41.5t25.5 -36.5q15 -16 29 -25t28.5 -14t30.5 -7t34 -3
q3 -1 10 -1h7q7 -1 15 -1.5t16 -0.5q33 0 64.5 5.5t58.5 14.5q-7 -12 -10.5 -15.5t-9.5 -8.5q-45 -43 -91 -57t-101 -14q-8 0 -17.5 5l-18.5 10l1 -2q-2 0 -2 1q-13 8 -25 14t-26 6q-23 0 -47 -20t-35 -51v-6q0 -28 9 -44.5t23.5 -25.5t32.5 -11.5t36 -3.5q2 0 3 -1h-1
q4 -1 8 -1h9q12 -3 24.5 -4t25.5 -1q20 0 39.5 2.5t42.5 9.5q22 6 41 12t36 15t34.5 21t37.5 29q32 28 55 54t39.5 55.5t28 63.5t21.5 78v-1zM297 316q-32 0 -60.5 6t-45.5 16q-15 7 -15 13q0 8 8.5 17.5t19.5 17.5q28 23 72 37.5t84 14.5q15 0 27 -3q26 -5 39.5 -27.5
t16.5 -51.5q-23 -21 -63.5 -30.5t-82.5 -9.5z" />
    <glyph glyph-name="colon" unicode=":" horiz-adv-x="159" 
d="M204 433q0 45 -20.5 67.5t-54.5 22.5q-24 0 -40.5 -12t-27 -31.5t-15.5 -43t-5 -45.5q0 -38 21 -61t50 -23q20 0 37 11t29 28.5t19 40t7 46.5zM184 125q0 45 -21 68t-55 23q-23 0 -39.5 -12t-27 -31t-15.5 -42.5t-5 -45.5q0 -38 20.5 -61.5t49.5 -23.5q20 0 37 11
t29.5 28.5t19.5 40t7 45.5z" />
    <glyph glyph-name="semicolon" unicode=";" horiz-adv-x="236" 
d="M222 174q0 17 -7 33.5t-18.5 29t-25.5 20.5t-28 8q-12 0 -25 -7.5t-23.5 -20t-17.5 -28t-7 -31.5q0 -26 -1.5 -49.5t-9.5 -44.5q-2 -4 -4 -9t-5 -10q-6 -2 -7 -9q-1 -1 -1 -5q-3 -8 -8 -11q-11 -12 -18.5 -26.5t-7.5 -49.5q0 -23 7 -36.5t17.5 -20.5t23.5 -9t25 -2
q49 0 75 53q24 51 45 105.5t21 119.5zM233 444q0 46 -21.5 69.5t-56.5 23.5q-25 0 -43 -12.5t-29.5 -32t-17 -43.5t-5.5 -47q0 -40 22 -64t53 -24q22 0 40 11t31 29.5t20 42t7 47.5z" />
    <glyph glyph-name="less" unicode="&#x3c;" horiz-adv-x="417" 
d="M403 705q0 15 -6 28.5t-15.5 24t-21.5 16.5t-25 6q-29 0 -96 -69q-11 -11 -20 -21.5t-20 -20.5l-20.5 -21l-19.5 -20q-20 -17 -36 -29t-28 -20l-11 -8l-7 -5q-74 -56 -74 -101q0 -36 13 -62q8 -14 21 -34t33 -47q15 -20 26 -36l19 -28q3 -5 5.5 -7.5t4.5 -6.5
q34 -63 84 -120l9 -9l8 -8t8 -7l37 -48q33 -35 60 -35q53 0 53 71q0 24 -24 59l1 -1q-5 9 -11 14.5t-14 15.5q-9 11 -22 24.5t-29 33.5q-23 26 -39.5 47.5t-24.5 38.5q-3 4 -5.5 8t-4.5 6h1q-2 2 -3.5 4l-4.5 6l1 -2q-53 77 -53 84q0 14 84 89q14 13 29 25t29 25v-1l28 26
l29 26q52 52 52 89z" />
    <glyph glyph-name="equal" unicode="=" horiz-adv-x="447" 
d="M422 437v13q-1 1 -1 8q0 39 -47 60q-32 13 -67 13q-42 0 -93.5 -4.5t-114.5 -14.5q-5 -1 -9 -1.5t-8 -1.5q-8 -1 -12 -2t-9 -3q-17 -6 -28 -14h1q-24 -14 -24 -38q3 -26 17 -49t29 -33q13 -7 48 -7h11q9 0 12 1l183 10q4 1 15 3q4 1 7.5 1.5t8.5 1.5q21 3 29 3
q31 0 41.5 11t10.5 43zM409 254q0 29 -9.5 46.5t-28.5 28.5q-31 14 -79 14q-2 0 -13.5 -0.5t-30.5 -2.5l-23.5 -2t-22.5 -1q-12 -1 -25.5 -1.5t-26.5 -2.5q-30 -4 -49 -6q-29 -3 -38 -6h2q-17 -4 -29 -21t-12 -35q0 -42 36 -69q31 -25 72 -25q4 0 51 3q45 2 83.5 5t70.5 6
l16.5 1.5t8.5 0.5h6q21 4 33 32v-1q8 18 8 36z" />
    <glyph glyph-name="greater" unicode="&#x3e;" horiz-adv-x="417" 
d="M399 439q0 52 -70 95q-17 11 -37 26t-44 38q-13 13 -25 26.5t-25 26.5v-1l-25 26q-66 68 -92 68q-13 0 -25 -6.5t-21.5 -16.5t-15 -23t-5.5 -26q0 -26 20 -55l30.5 -35.5t19.5 -20.5v1q35 -38 61.5 -63.5t44.5 -40.5l21.5 -16l21.5 -16l-2 1q24 -24 24 -26
q0 -5 -12.5 -24l-35.5 -53v1q-7 -8 -12 -14.5t-7 -11.5q-18 -36 -59 -83q-34 -35 -51 -56l-22 -27q-28 -34 -28 -57q0 -24 13 -43q8 -14 18.5 -20t22.5 -6q27 0 60 36q5 5 10.5 12l9.5 12l-1 -1q5 6 11 12.5t11 13.5q11 17 21.5 30l19.5 25l15 20.5t12 17.5v-1q8 10 14 19.5
t13 17.5l36.5 48.5l29.5 38.5l14 22l8 13l5.5 9t6.5 12v-1q21 34 21 76z" />
    <glyph glyph-name="question" unicode="?" 
d="M711 620h-1q4 11 5 20t1 17q0 41 -28 78q-40 50 -96 61q-20 4 -47.5 6t-64.5 2q-64 0 -93 -7h1q-99 -13 -131 -24q-158 -45 -179 -113q-1 -3 -1.5 -5.5t-0.5 -7.5q0 -8 0.5 -19.5t3 -21.5t7.5 -17t14 -7q12 -13 28 -13q14 0 32.5 8.5t42.5 22.5q22 14 34 23.5t14 10.5
q17 6 28 11.5l20.5 10t20 7.5t25.5 5q34 5 59.5 7.5t43.5 2.5h2q130 0 130 -45q0 -4 -2 -12q-20 -59 -150 -102l-26 -8.5t-22 -5.5l-41 -7t-53 -11q-6 -2 -12 -3t-13 -3q-10 -2 -18.5 -4l-16.5 -4q-7 -2 -11.5 -3t-8.5 -2q-23 -5 -40.5 -25t-24.5 -41q-2 -5 -3.5 -14
t-2.5 -26q-1 -7 -1.5 -13t-0.5 -12v-21q0 -18 -2 -34.5t-2 -29.5q0 -15 5.5 -23.5t22.5 -10.5q8 -1 15 -1h14q35 0 44.5 10.5t9.5 36.5q0 11 1.5 24l3.5 29l7 15q5 4 10.5 7.5t13.5 5.5l9 1.5t19 3.5q35 5 74.5 17.5t84.5 31.5q49 20 86 41t63 42q30 26 57 64q2 2 2.5 4
t2.5 4l21.5 36t14.5 30zM256 102l-1 -1q2 5 2.5 9t0.5 9q0 22 -19 40q-22 19 -53 19q-59 0 -81 -33q-19 -19 -20 -27v1q-4 -15 -6.5 -28t-2.5 -25q0 -55 58 -55q36 0 73 28q38 28 49 63z" />
    <glyph glyph-name="at" unicode="@" horiz-adv-x="935" 
d="M915 535v43t-1 15q0 48 -24 87q-2 2 -3 4.5t-3 5.5q-7 14 -12 22.5t-8 12.5q-23 37 -59 66.5t-88 52.5q-90 39 -185 39q-73 0 -159 -26q-97 -27 -147 -71q-21 -17 -42.5 -40.5t-42.5 -52.5q-126 -174 -126 -371q0 -43 6 -77t21 -60q6 -11 17 -25t26 -35l30 -34.5
t24 -21.5q54 -33 120 -48.5t147 -15.5q22 0 39.5 8.5t30 23t19 33.5t6.5 40q0 30 -27 47q-22 13 -49 13q-7 0 -15.5 -0.5t-17.5 -1.5q-8 -1 -17 -1.5t-14 -0.5q-40 0 -101 19q-52 16 -80 80q-19 44 -19 88q0 21 4 34q70 334 343 337h39q19 0 35 -2t27 -5q59 -12 82 -27
q46 -26 60 -43t20 -43q7 -22 7 -59q0 -13 -6 -50q-5 -49 -41 -97q-20 -24 -39 -37t-40 -13q-26 0 -26 56q0 47 9 95q1 5 3.5 15.5t7.5 25.5q8 19 10 30t2 16q0 39 -51 62q-17 8 -34.5 11.5t-37.5 3.5q-17 0 -39.5 -4t-47.5 -14h1q-26 -8 -46.5 -17.5t-34.5 -20.5h1
q-25 -16 -46.5 -41t-38.5 -57q-23 -38 -36 -75.5t-8 -72.5q9 -57 31.5 -90t49.5 -49t54 -20t45 -4q30 0 72 12q50 14 59 14q4 0 7.5 -1.5l8.5 -3.5l9 -3h-1q12 -6 24.5 -10.5t26.5 -4.5q51 -1 79.5 6.5t50.5 21.5q74 46 120 133q20 40 29 83.5t10 89.5zM497 436
q-5 -27 -7.5 -44t-4.5 -23l-11 -4.5l-16 -6.5v1q-18 -5 -27 -8l-9 -3q-17 0 -28.5 15t-11.5 32q0 35 45 76q46 42 78 42h1q0 -17 -9 -77z" />
    <glyph glyph-name="A" unicode="A" horiz-adv-x="628" 
d="M468 96l10 -51q4 -21 10 -33.5t15 -19.5t21 -10t29 -6q6 0 13.5 2t18.5 7q17 7 24.5 22.5t7.5 32.5q0 14 -5 26l-1 2q-83 595 -117 608l-14.5 3.5t-17.5 1.5h-3v1q-47 -7 -75 -18t-45 -26t-27.5 -35l-22.5 -44l-22.5 -45t-28.5 -48l-55.5 -90.5l-60.5 -101.5l-57 -102
t-46 -91q-7 -17 -10.5 -31t-3.5 -31v-13q0 -11 5.5 -20.5t14.5 -16t19.5 -10t20.5 -3.5q26 0 47 10.5t35 41.5q11 23 18.5 40.5t14 31t13.5 24.5t17 21l4 1h11q2 0 3 0.5t3 0.5q24 1 54 3l85 4t68 2h11l7 -3h1l4 -4l2 -3zM431 233l-4 -2h-157l-3 1l-6 11v4l129 215l7 3
l10 -2l5 -5l26 -214l-2 -4l-7 -7h2z" />
    <glyph glyph-name="B" unicode="B" horiz-adv-x="674" 
d="M644 404q16 14 24.5 30.5t10.5 30.5q3 12 3 25q0 31 -19 57.5t-50.5 46.5t-71 33t-79.5 18q-32 5 -70.5 8t-80.5 3q-16 0 -32.5 -1t-31.5 -3h-2q-50 -2 -79 -52q-12 -20 -16.5 -31t-4.5 -17l-49 -189.5l-33 -129.5l-20.5 -82.5t-11 -47t-4 -23t-0.5 -11.5q0 -11 1 -13v-2
q1 -20 5 -35t12 -19l12 -13l6 -1q26 -21 52.5 -27.5t51.5 -6.5h10q47 0 109 10.5t124.5 31.5t117.5 53.5t88 76.5q20 26 20 52q0 27 -21 51q-42 60 -110 83l-1 2l-1 11l2 3q38 16 74.5 34t64.5 44zM212 232l9 4q76 18 139 18q82 0 126 -29q8 -4 11.5 -10.5t5.5 -11.5v-5
q-6 -25 -34.5 -48.5t-66.5 -44t-78.5 -36t-70.5 -24.5q-9 -4 -23.5 -6.5t-33.5 -2.5q-7 0 -14 0.5t-15 1.5l4 37zM251 353l-3 8l16.5 69t12.5 42.5t12 28t15 24.5l11 11q52 16 122 16q65 -5 92 -21t27 -37q0 -23 -28 -49.5t-71 -48.5t-95 -36.5t-100 -14.5l-6 3z" />
    <glyph glyph-name="C" unicode="C" horiz-adv-x="610" 
d="M526 499q2 -1 12 -6.5l22.5 -12t13.5 -6.5q23 11 37 26.5t14 27.5q0 4 -1 6v8q-6 26 -28.5 45.5t-56.5 36.5q-27 14 -47 23t-35.5 14.5t-29 8t-28.5 2.5q-16 0 -38 -3.5t-48 -11.5q-62 -38 -115 -88.5t-93.5 -111.5t-66.5 -130t-34 -143v-13q0 -8 1 -11q2 -27 6.5 -45.5
t13.5 -35.5l22 -26q36 -48 90 -68.5t110 -28.5l32.5 -4t34.5 -2q75 0 133.5 25.5t120.5 72.5q17 14 24.5 23t12.5 19v-2q0 49 -42 49h-4q-1 0 -9.5 -2t-20.5 -6t-25.5 -10t-23.5 -14h2q-26 -14 -58 -28.5t-83 -28.5q-9 -3 -37 -3q-16 0 -40 5t-69 23q-19 18 -35.5 40
t-21.5 50v12q0 12 1 15q6 56 32 110q28 54 61 105.5t72 87.5q28 30 61 50.5t68 20.5h3z" />
    <glyph glyph-name="D" unicode="D" horiz-adv-x="666" 
d="M131 -39q23 0 44 2.5t35 5.5l2 -2l7 5q94 7 177.5 48t146 102t99 133.5t36.5 142.5q0 46 -18 88.5t-56.5 77t-99 59t-146.5 35.5h-2q-26 7 -60 8.5t-76 1.5l-65 -11q-37 -97 -42 -122q0 -5 -0.5 -7t-2.5 -7l-32.5 -122t-26.5 -113t-21.5 -113.5t-17.5 -122.5v-14l1 -1
q3 -27 22 -42zM283 557q88 0 141 -8t79 -26q39 -29 53.5 -54.5t16.5 -45.5l1 -7q-1 -41 -27 -86.5t-69.5 -90t-101.5 -85.5t-122 -71q-6 -4 -31.5 -13t-54.5 -17l-6 3l-6 5l-3 6q3 33 11.5 78t20 93.5t25 98l25.5 92l22 75t15 47.5h-1l4 3z" />
    <glyph glyph-name="E" unicode="E" horiz-adv-x="649" 
d="M11 23q12 -8 25.5 -18.5l26.5 -20t24.5 -16t20.5 -6.5q28 0 50.5 4t54.5 9h2l309 44q21 2 30 5t11 5q6 6 8.5 11.5t2.5 16.5v8q0 5 -1 11h-5q-10 11 -32 14t-39 5q-22 0 -46 -4t-47 -4q-4 0 -7 0.5t-7 0.5q-2 0 -11 -1t-21 -1.5t-24 -1.5t-20 -1l-74.5 -4t-73.5 -7l-4 1
l-9 9l-1 4q1 13 6.5 41t12 57.5t13 55t9.5 33.5l2 1h1l6 2h19q7 -1 12 -1h11h21q16 0 32.5 0.5t38 2t50.5 4t71 6.5q4 0 13.5 0.5t20 1.5t19.5 1.5t12 0.5q27 4 33 17t6 27v19q-5 20 -29 24.5t-53 4.5h-112q-38 0 -76 0.5t-61 3.5l-7 10l-1 4q2 9 7.5 31l12 46.5l12.5 46
t9 29.5h-1l3 2l5 2q11 1 17 1.5l11.5 1l11.5 1t16 0.5h40l188 8h38q9 0 10 1q3 3 4 3q23 5 31 14.5t8 18.5v8q-5 10 -11 16t-15 9.5t-23 5.5t-34 4q-26 1 -60 3t-69 3.5t-67.5 2.5t-54.5 1h-78h-19q-10 0 -21 1q-27 0 -43 -3t-25.5 -13t-15 -28.5t-12.5 -49.5z" />
    <glyph glyph-name="F" unicode="F" horiz-adv-x="551" 
d="M481 274q0 2 0.5 3.5t0.5 3.5q0 19 -30.5 23t-109.5 4h-148l-1 1q1 1 1 6v1q0 1 1 2l14 69.5t16 72.5t14.5 57.5t8.5 24.5l8 8q23 6 58.5 9.5t96.5 3.5h44t52 -1q16 -1 29.5 -1.5t24.5 -0.5q26 0 37.5 7t11.5 29l-2 42v4q-9 9 -26 11.5t-38 2.5q-13 0 -26.5 -0.5
t-26.5 -0.5h-125h-71t-36 -0.5t-20 -0.5t-22.5 -0.5t-44.5 -0.5q-5 1 -15 1q-19 0 -30 -9t-18 -23.5t-11 -32.5l-8 -37l-44 -217.5l-29.5 -147l-18 -91t-9.5 -49t-3.5 -21t-0.5 -7.5v-9q2 -11 7.5 -21t25.5 -24q8 -5 18.5 -7.5t33.5 -2.5q13 4 23.5 20.5t18.5 40t14 50
l12 51.5t12 45t13 29q0 2 0.5 3t0.5 2l6 5l8 3h186q11 0 21 -0.5t19 -0.5q21 0 37.5 4.5t27.5 21.5z" />
    <glyph glyph-name="G" unicode="G" horiz-adv-x="665" 
d="M642 498l-6 38q-1 1 -1 5q-3 14 -19.5 38t-42 47.5t-57 41.5t-64.5 20h-24q-21 0 -44.5 -1.5t-30.5 -6.5q-58 -16 -106.5 -50.5t-88.5 -80t-70 -98t-50 -104.5t-30.5 -100.5t-10.5 -84.5q0 -23 5 -43l12 -41q11 -34 32.5 -52.5t65.5 -35.5v1q2 -1 7.5 -3t12 -4t12 -4
t7.5 -3h1l4 -2q26 -8 52.5 -11t52.5 -3q52 0 96.5 11t72.5 25q34 13 73.5 38t73.5 54.5t56 60t22 55.5l-1 4q-1 5 -1 9v9q0 14 -4 27t-22 24q-15 8 -42.5 9.5t-57.5 1.5h-37q-30 0 -63 -2t-63 -5t-55.5 -7t-41.5 -8l1 3q-23 -10 -34 -23.5t-11 -25.5q0 -9 5.5 -15.5
t17.5 -7.5q14 -10 35 -13.5t46 -3.5q88 18 130 18q28 0 40 -6t12 -16q0 -12 -16 -28t-41.5 -31t-57.5 -28t-64 -19q-23 -8 -50.5 -11.5t-48.5 -3.5q-14 0 -23.5 1.5t-8.5 4.5l-1 1h-4q-6 4 -15 9.5t-17 12t-14.5 14t-7.5 15.5q-11 3 -15 19t-4 37q0 24 5 48t13 37
q41 91 77 151t72.5 96t75.5 51.5t85 16.5h3q22 0 43 -15t39.5 -33.5t35 -33.5t29.5 -15h2z" />
    <glyph glyph-name="H" unicode="H" horiz-adv-x="695" 
d="M431 5q9 -14 26 -24.5t34 -10.5q12 0 20 7q17 0 29 10t20 24.5t12 31t6 29.5h1l1 4v10l84 447q4 10 7.5 20t7 24t6.5 33.5t6 49.5q-4 41 -60 43h-7q-59 0 -64 -32q-16 -45 -39 -143.5l-57 -240.5l-2 -3l-4 -2l-8 -3h2l-242 -4l-9 10l-1 4q4 22 12.5 55t19 68.5t23 69
t25.5 57.5q14 20 14 34q0 15 -10 29.5t-27 19.5q-15 6 -46 6q-12 0 -22 -3l-1 3l-9 -5q-33 -6 -43.5 -31t-17.5 -62l-51 -243.5l-32 -156t-16.5 -89t-4.5 -42.5q0 -12 2.5 -17.5t6.5 -8.5q13 -11 30 -16.5t35 -5.5h3q1 0 2 0.5t2 0.5q6 1 14 2.5t15 6t12.5 14t7.5 27.5
l16.5 74.5l16.5 74.5q2 6 3.5 13t6.5 19l2 1l7 3q25 1 58 2.5t66.5 2.5t64 1.5t50.5 0.5l4 -2h-2l8 -8l1 -4q-3 -16 -4 -24t-1.5 -14t-1 -13l-1.5 -21z" />
    <glyph glyph-name="I" unicode="I" horiz-adv-x="278" 
d="M99 -27h12l11 15.5t6.5 10.5t4 11t3.5 17q0 1 4 20.5t11.5 51.5l16.5 73l19.5 85l20.5 88l19 81q5 28 14 52t15 47q6 19 11.5 43l10.5 47q0 27 -22.5 47t-52.5 20h-14q-7 7 -15 7q-19 0 -37.5 -44t-38.5 -128.5t-43 -207l-50 -279.5q3 -17 15 -29l1 -1h-2q1 0 7 -4z" />
    <glyph glyph-name="J" unicode="J" horiz-adv-x="548" 
d="M444 676q-17 -3 -28 -21t-23.5 -69.5t-28.5 -146l-42 -250.5v-6q0 -18 -7.5 -39.5t-21 -40t-31.5 -31.5t-39 -13q-23 0 -44 17q-14 9 -30.5 23t-33.5 26.5t-35 22t-35 9.5q-18 0 -32 -13.5t-22 -46.5v-2q0 -24 17.5 -46.5t46.5 -28.5q54 -29 104.5 -44t95.5 -15
q87 0 145.5 56.5t69.5 173.5q10 49 17 87l13 68q6 42 13 75.5t14.5 65.5l15.5 65.5t16 76.5q0 27 -8 32q-17 10 -34 15.5t-32 5.5q-8 0 -13 -0.5t-10 -1.5z" />
    <glyph glyph-name="K" unicode="K" horiz-adv-x="631" 
d="M225 411q1 3 3 11.5t4 18t3.5 17.5t1.5 9q1 13 5 28.5t9 32.5q6 20 11 40t5 41v5q0 11 -6.5 21t-17 18t-23.5 12.5t-25 4.5q-2 0 -4.5 -0.5t-4.5 -0.5h-6q-31 0 -51 -19.5t-20 -54.5v-10l-32 -145.5l-24.5 -112.5l-22.5 -103l-26 -117q-3 -17 -5 -27l-3.5 -18t-3 -17.5
t-2.5 -25.5v-10q3 -20 14 -31q16 -9 27.5 -11.5t22.5 -2.5h12q16 3 27 9.5t21.5 30t24 71t35.5 131.5l1 2l9 6l5 1q9 -4 28 -18.5t44 -39.5l21 -18l29.5 -26.5l27.5 -24.5q28 -23 48.5 -43.5t39 -37t37.5 -28.5t45 -18q41 18 41 49q0 17 -13 38t-36 46.5t-55 55l-70 63.5
l-45 40l-47 43q-11 1 -11 7q0 10 24 29.5t54.5 40.5t58.5 38.5l36 22.5l11 10.5t11 9.5l192 139q17 12 28.5 22t11.5 27q-2 22 -23 34.5t-41 12.5q-15 0 -30.5 -10t-41.5 -31q-9 -8 -18 -15t-19 -14l-36.5 -26.5t-20 -14l-17.5 -11l-28 -17.5z" />
    <glyph glyph-name="L" unicode="L" horiz-adv-x="499" 
d="M143 81v2l4 18v2l105 350l5 5l13 35.5l13.5 37t11 36.5t4.5 33q0 23 -13.5 37.5t-49.5 14.5q-16 0 -35 -3q-36 -2 -54 -12.5t-23 -37.5v-2q-8 -11 -10 -25t-2 -30v1l-17 -68l-13 -54.5t-11 -51l-12 -58.5l-16 -77l-22 -105l-5 -24t-5.5 -28t-4.5 -27.5t-2 -22.5
q2 -20 5.5 -32t13.5 -20v-3q20 -11 34 -14t29 -3q67 10 118 15.5l96 10.5q49 5 96.5 12t95.5 20q5 9 7 15t2 14q0 20 -12.5 32t-26.5 12q-5 0 -7 -1q-27 -2 -44 -3t-29.5 -2t-22.5 -2t-22 -3q-1 -1 -4 -1l-44 -5t-34 -3.5t-39 -2.5t-60 -3h2l-9 3l-4 4l-3 7v2q1 1 1 5z" />
    <glyph glyph-name="M" unicode="M" horiz-adv-x="833" 
d="M120 19v1l124 335l3 2l12 -2l4 -4q0 -45 0.5 -74.5t0.5 -50.5v-55q-1 -10 -1.5 -22.5t-0.5 -26.5q0 -20 2 -41t8 -38t17 -28t29 -11h4q10 0 29 8q17 7 30 15t14 9q11 17 28.5 49.5l37.5 72.5l36 69.5t37 65.5t33.5 51t25.5 26l5 1l14 -6l1 -2l-14.5 -68.5t-10.5 -56.5
t-6 -50.5t-2 -51.5q-1 -3 -1.5 -16t-0.5 -28v-20q0 -6 2 -14q3 -20 8 -35t16 -25l9 -9q23 -13 55 -13q7 0 19 3q27 2 31.5 11.5t5.5 23.5v21q0 75 9.5 143.5t28 137t45.5 138t61 145.5v5q0 18 -11.5 33.5t-29 27t-39.5 19.5t-43 11q-28 0 -51.5 -20.5t-43.5 -43.5v1
q-1 -1 -1.5 -2t-1.5 -2q-3 -3 -3 -5q-19 -21 -45.5 -54t-58 -76.5t-66 -97l-70.5 -114.5l-5 -3l-14 2l-3 5q1 49 2.5 82t3 57.5t4.5 45.5t7 46q3 7 6 18.5l6 23.5t4.5 23t1.5 17q-3 15 -15 24t-28 13.5t-33 6.5t-30 3h-12q-8 0 -10 -1q-39 -2 -59 -17.5t-34 -41.5l-14 -35
l-11.5 -27.5t-10 -24l-9.5 -24.5l-27 -65l-29 -74l-37.5 -100.5l-52.5 -145.5h1q-2 -5 -5.5 -14.5l-7.5 -21t-6.5 -23.5t-2.5 -21v-5q1 -26 15.5 -40t34.5 -14h23q17 0 24 4z" />
    <glyph glyph-name="N" unicode="N" horiz-adv-x="668" 
d="M616 675q-17 -3 -29 -13t-20.5 -23.5t-13.5 -30t-8 -32.5l-4 -19t-11 -49.5l-16.5 -70l-19.5 -80.5t-21 -81t-22 -72l-3 -2l-13 -1q-17 39 -30.5 75t-24 70.5t-18 68.5t-13.5 71q-3 6 -3.5 16.5t-0.5 24.5v16q0 17 -1 35t-6 33t-15 25t-27 11q-53 -3 -84 -12.5t-48 -25
t-24 -38t-13 -51.5l-13.5 -51l-12.5 -48l-41 -159.5l-28 -109.5l-17.5 -69.5t-9.5 -39.5t-4 -20t-1 -10v-8q0 -14 6.5 -25.5t16.5 -20t23 -13t25 -4.5q20 0 35.5 11t18.5 37v5q4 11 11.5 35.5t16.5 57l19.5 70.5t20 77t17.5 76t13 67l5 4l13 1l4 -3q19 -68 39.5 -125.5
t40.5 -101.5t37 -73t28 -39q23 -30 45 -43.5t42 -13.5q23 0 40 15t26 41l32 102l17 54l9 29t7 27q2 11 6.5 28.5l9.5 36l10 35.5l8 27q3 6 8.5 22.5t11.5 40t12 50t9 52.5q8 18 14 39.5t6 41.5q0 26 -13 39z" />
    <glyph glyph-name="O" unicode="O" 
d="M457 657q-69 -8 -118.5 -19.5t-79.5 -28.5l-42 -25l-24 -15q-44 -32 -79.5 -74t-60.5 -88.5t-38.5 -95.5t-13.5 -94v-15q0 -10 1 -13q3 -23 10.5 -47.5t27.5 -53.5v1q34 -56 85 -84t131 -41q22 -5 42 -6.5t43 -1.5q66 0 120 13.5t94 44.5q45 39 78.5 85.5t55 95.5
t32 99.5t10.5 97.5v22q0 5 -0.5 11t-1.5 11q-2 19 -6.5 38.5t-13.5 37.5q-21 39 -44.5 65t-48.5 43t-49 25.5t-45 11.5h-65zM488 573q29 0 58 -18q25 -18 38 -52.5t18 -68.5q1 -8 1.5 -16.5t0.5 -16.5q0 -55 -18.5 -118t-56 -117.5t-96 -91.5t-137.5 -40q-11 0 -29 6.5
t-36 15.5q-40 13 -61 42t-23 65q-1 1 -1 4q1 32 11.5 71.5t28.5 80.5t44 81t58 73.5t70 58t80 34.5q10 3 22.5 5t27.5 2z" />
    <glyph glyph-name="P" unicode="P" horiz-adv-x="608" 
d="M398 264q96 43 151 92t55 117q-5 51 -31.5 86t-83.5 61q-22 10 -55 19t-70.5 16.5t-76.5 12t-73 5.5h-3q-23 0 -39.5 -7t-29.5 -19q-26 -27 -35 -56t-17 -65q-4 -23 -9 -49l-10 -51l-30 -149.5l-30 -149.5q-6 -26 -11 -56t-7 -56v-6q0 -8 8.5 -17t21.5 -17t27.5 -13.5
t26.5 -5.5q9 0 13 2q14 3 22.5 7t13.5 10t7 15.5t4 23.5q0 26 7 51l26 133l-1 -1l1 2l9 8q38 5 68.5 10.5t56.5 12.5t49 15.5t45 18.5zM207 303l-3 1l-11 11l-1 3l6 35l6 34q7 42 13.5 76.5t13.5 59t15 38.5t19 14q19 0 44 -2t50.5 -6.5t50 -12t42.5 -18.5q0 -3 3 -3
q1 -1 4 -1q31 -30 31 -56q0 -24 -20.5 -45.5t-55 -42t-80 -40t-95.5 -38.5z" />
    <glyph glyph-name="Q" unicode="Q" horiz-adv-x="728" 
d="M719 379q0 5 -0.5 21t-4.5 38t-11.5 47.5t-21.5 49.5q-29 49 -68.5 77t-104.5 40q-20 2 -35.5 5.5t-37.5 3.5q-47 0 -96 -15.5t-94.5 -41.5t-84 -61.5t-63.5 -75.5q-48 -73 -67.5 -144t-19.5 -131q0 -6 0.5 -12t0.5 -11q2 -21 7 -42t16.5 -41.5t32 -40t53.5 -36.5
q54 -29 95.5 -39t80.5 -10q22 0 37 0.5t26.5 2t21.5 3.5t22 6l41 14q17 -6 32 -19t31 -24l17 -14t24.5 -18t29 -15.5t29.5 -6.5q18 0 31 14q2 5 5.5 16t3.5 25q1 4 1.5 7t0.5 6q0 15 -9.5 25t-23 17t-29 12t-27.5 10q-1 0 -2.5 3.5t-4.5 21.5q24 15 55 46h-2q57 57 85 134.5
t28 152.5zM445 105q-10 0 -23 6t-30 16q-1 1 -2 1v0l-2 2v-1q-22 11 -45 21t-43 10q-2 1 -7 1q-8 0 -18 -5t-18 -12.5t-13.5 -17t-5.5 -18.5q0 -17 17 -25q1 -1 2.5 -1.5l1.5 -0.5q10 -6 17 -8.5l13 -4.5t13 -7t18 -16q-16 -5 -35 -6t-28 -1q-34 0 -58.5 20t-40.5 48
t-23.5 59t-7.5 52q0 51 22 100t57.5 94t80.5 83t90 67q17 7 42.5 12.5t53.5 5.5q15 0 30 -3q39 -12 58 -48.5t23 -78.5q1 -8 1.5 -17t0.5 -19q0 -35 -6.5 -72.5t-19 -73.5t-31 -68t-42.5 -56z" />
    <glyph glyph-name="R" unicode="R" horiz-adv-x="631" 
d="M626 509q-4 28 -21.5 46t-52.5 43q-78 36 -146 47t-131 11q-17 -1 -35 -1.5t-35 -3.5t-32.5 -10.5t-26.5 -22.5v1q-5 -6 -10 -15.5t-9 -19.5t-7 -18.5l-4 -11.5l-47.5 -215l-32.5 -146.5l-20 -92l-10.5 -51.5t-4.5 -24.5t-1 -10.5v-8q2 -23 32 -43q5 -4 19.5 -12t22.5 -8
h2q16 0 26 12.5t10 31.5v2l2 4q4 8 13.5 33l21 56.5l23.5 63.5t22 54h3l50 -43l47 -40h-1l5 -5t11 -9q49 -47 95 -82t107 -61q18 6 30.5 13t12.5 27q20 4 20 16q0 14 -29 37l-69.5 52.5l-84 63.5t-72.5 70l-1 4l3 9l6 6q49 13 99.5 33.5t93.5 47t73 58t38 66.5zM454 407
l-2 -1q-26 -15 -49 -25t-46.5 -16t-49 -9t-55.5 -5q-16 -13 -26 -13q-14 0 -14 27q0 22 8 56t18 67t18.5 58.5t9.5 30.5q21 0 48 -1t54.5 -5t52.5 -11t43 -20h-1l2 -2q4 -5 11 -10.5t13.5 -12.5t11.5 -14t6 -14q0 -4 -4 -13.5l-9 -21.5z" />
    <glyph glyph-name="S" unicode="S" horiz-adv-x="649" 
d="M315 606q-57 -27 -101 -64t-63 -72q-16 -30 -26.5 -55t-10.5 -48q1 -24 13 -47.5t30 -44t40.5 -37t45.5 -27.5l15.5 -7t11.5 -7q14 -7 30 -11l33 -8q31 -7 60 -15t36 -18q17 -8 22.5 -15t6.5 -15v-4q0 -10 -6 -18.5t-14.5 -15t-17.5 -10.5t-15 -5q-3 -2 -16 -3.5
t-28 -2.5t-29.5 -1.5t-20.5 -0.5q-13 0 -24 1t-23.5 3t-27.5 5.5l-35 8.5q-27 14 -52 33.5t-42 45.5q-7 11 -15.5 21.5t-23.5 18.5v1q-14 -2 -31.5 -3.5t-28.5 -12.5l-1 -1q-16 -19 -16 -41t15.5 -43.5t41.5 -41t60 -36t71 -29t74.5 -19.5t70.5 -7q8 0 16.5 0.5t16.5 1.5
q31 0 52.5 7t41.5 12q38 14 66.5 33.5t50.5 43.5q19 21 27 42t8 23q-1 4 -2.5 14t-3.5 18q-14 31 -48 58t-91 38q-34 13 -69 23.5t-71 25.5q-1 1 -5 1q-28 2 -44 24.5t-16 51.5q0 26 13 46q23 35 60 66t83 45h4q15 0 33.5 -1.5t37 -6t36.5 -13t32 -21.5q23 -18 38 -28
t25 -12h5q26 0 36 13.5t10 33.5q0 7 -1 14.5t-3 12.5q-6 17 -21.5 28t-47.5 28q-38 20 -73.5 35.5t-82.5 20.5q-7 0 -8 -1q-24 0 -48.5 -5.5t-47.5 -14.5z" />
    <glyph glyph-name="T" unicode="T" horiz-adv-x="583" 
d="M610 566q17 6 24.5 18t7.5 26q0 22 -18.5 41t-51.5 19q-11 0 -24 -3q-15 0 -38.5 1t-49.5 1h-16h-8t-8 -1q-4 0 -25 -0.5t-47 -1.5t-50.5 -2.5t-35.5 -2.5h-79q-29 0 -46 0.5t-27 0.5h-17q-13 0 -32 -1.5t-58 -3.5q-15 -2 -21 -13.5t-6 -26.5t5 -31.5t12 -28.5
q21 -5 37.5 -7t38.5 -2h112l9 -11l-1 1l1 -5l-42.5 -211.5l-29 -143l-18 -88l-10 -47.5t-5 -20.5t-2.5 -6.5q0 -10 3.5 -17t17.5 -24v1q3 -6 15.5 -10t27.5 -4q21 0 40 9.5t19 32.5v7l47.5 213.5l30 140t18.5 85t12 48t11 28t16 26.5z" />
    <glyph glyph-name="U" unicode="U" horiz-adv-x="634" 
d="M482 518q-5 -32 -11.5 -68.5t-20.5 -93.5q-8 -33 -17.5 -68t-20 -67t-21 -58t-20.5 -40l-37 -49l-3 -4q-12 -9 -27 -14t-29.5 -7.5t-26 -3t-17.5 -0.5h-5q-8 0 -21.5 4t-27 13t-23.5 22.5t-10 31.5q0 6 1 10q0 23 6.5 54t17.5 69l43.5 145.5t26.5 82.5t13.5 40t5.5 19
t2.5 19.5t3.5 41.5v2q0 11 -9 21.5t-21.5 19t-27 15t-26.5 9.5q-18 0 -33.5 -11.5t-38.5 -47.5l-1 -6v1q-2 -4 -6.5 -20.5l-11.5 -43.5l-24 -79.5t-16.5 -56.5l-11.5 -41.5t-8.5 -34.5t-7 -36t-7.5 -46q-3 -18 -5 -36.5t-2 -37.5q0 -38 12 -74t45 -64l7 -3
q46 -37 81.5 -51.5t73.5 -14.5q5 1 15 1q9 0 19.5 -0.5t21.5 -0.5h8q1 1 4 1h4q67 0 113.5 36.5t78.5 94t53 127.5t38 138q16 59 30.5 125t21.5 128q0 18 -1 31t-6 33q-4 7 -13 12.5t-19.5 9.5t-21.5 6t-19 2q-10 0 -22 -10t-15 -13z" />
    <glyph glyph-name="V" unicode="V" horiz-adv-x="660" 
d="M67 64q3 -12 7 -26.5t10.5 -28t15.5 -25.5t21 -19q25 -5 53 -5q27 0 55 4.5t50.5 14t37 25t14.5 37.5v3l105 201t73 129.5t50 80l36 53.5q5 10 18 26.5l27.5 35.5t27 37.5t16.5 32.5q0 8 -3 17.5t-9 18t-14 14t-17 5.5q-1 2 -6.5 2.5t-13.5 0.5q-12 0 -24 -1.5t-16 -5.5
q-27 -20 -59 -61t-66 -92.5t-68 -109l-65 -111l-57 -98.5t-44 -71l-12 2l-3 5l-7 28t-6 31q-2 20 -3.5 39.5t-1.5 37.5v68q0 48 4 80t9 55q5 25 6.5 49t1.5 41q-4 26 -27.5 38.5t-47.5 12.5h-21q-8 0 -11 -1q-31 -7 -44.5 -33.5t-19.5 -69.5q-2 -18 -3.5 -46.5t-1.5 -64.5
q0 -42 2.5 -91t8.5 -109z" />
    <glyph glyph-name="W" unicode="W" horiz-adv-x="877" 
d="M67 -13v1q26 -17 46 -17q16 0 31 5h2q8 -2 13 -2q16 0 29 14t26 41t27.5 66l34.5 89l22.5 53t16.5 36.5t13 24l11 17.5l9 3l10 -2l5 -4l4 -46.5t2 -16.5l2 -10.5t4 -27.5l8 -45t9 -44q3 -19 9 -42t15.5 -45.5t23 -41t31.5 -27.5q16 -5 31 -7t26 -2q18 0 30 0.5t25 4.5
q12 4 19.5 8t12.5 10t8.5 15t8.5 24h1q13 30 23 55.5l21 54.5l26 65.5l37 87.5l54 121l78 166v1h1v-1q8 13 12 25t8 28l-1 1v1q0 2 -1 3h4q-15 23 -31 32.5t-35 9.5q-14 0 -34 -5q-21 0 -42 -22.5t-43.5 -63t-47 -96.5l-52.5 -122q-17 -42 -34.5 -81l-36.5 -81l-3 -2l-11 2
l-5 4q-4 35 -6.5 60t-3.5 43.5t-1 33.5v33v67v36t-0.5 15.5t-0.5 4.5q-1 10 -3.5 18t-10.5 13q-22 13 -47 18.5t-36 5.5q-37 -5 -66.5 -33.5t-52.5 -64.5l-23 -36t-19.5 -33l-20.5 -36.5l-26 -46.5l-5 -3l-13 4l-3 5q4 74 10 113.5t11 65.5v-1l3.5 21.5t3 20.5t2.5 25t2 35
q-3 25 -26 36.5t-48 11.5q-16 0 -27 -4q-21 -2 -32.5 -8t-17.5 -16.5t-9 -26t-6 -36.5v-2q-9 -57 -14.5 -130t-5.5 -155q1 -51 2.5 -106t6.5 -112q2 -14 8 -27.5t20 -21.5z" />
    <glyph glyph-name="X" unicode="X" horiz-adv-x="631" 
d="M199 629h-9q-9 0 -22 -1t-27 -3.5t-27 -5.5t-21 -7q-12 -5 -16 -15.5t-4 -21.5q0 -20 7 -36l4 -3l15.5 -30.5l26.5 -54.5t31.5 -71t31.5 -79l1 -3l-2 -8l-57 -71l-42.5 -52.5l-33 -41.5l-29 -38.5l-31 -42l-38.5 -53.5q2 -21 44 -29q5 -1 8 -1.5t5 -0.5h11q24 0 53 15
l53.5 61l41.5 49l27.5 32t21.5 25q10 10 16.5 18.5l11.5 15.5l4 2l11 -1l3 -3q13 -22 35 -54.5t46 -63.5t47 -54t38 -26v-1q16 -3 29 -3q21 0 36 7q18 2 26 9t8 15q-2 18 -14 35t-27 33t-28.5 32t-18.5 32l-20.5 31t-18.5 33.5t-18 41.5t-19 54h-1v1l2 8l-1 -1l2 4v-1
l50.5 57l25.5 30l9 9l1 1t1 3l3 3l10.5 12l14 15l21.5 22l33 34q28 30 47.5 49l34.5 32.5l28.5 25t29.5 26.5q5 7 5 13q0 10 -8.5 19.5t-20.5 17t-26 12t-25 4.5h-4q-10 0 -21.5 -4t-26 -15t-31.5 -29.5t-39 -48.5l-157 -161l-7 -3l-11 3h-1q-21 32 -35 61t-25 54t-22 45.5
t-26 35.5z" />
    <glyph glyph-name="Y" unicode="Y" horiz-adv-x="576" 
d="M585 667q-6 11 -22.5 17.5t-34.5 6.5q-28 0 -49 -22l-130 -143t-118 -143l1 1h-1q-8 14 -18.5 38.5t-22.5 55.5l-21 50.5t-22.5 48t-24.5 40.5t-27 29q-7 2 -16.5 3t-17.5 1q-15 0 -30 -2t-23 -9q-9 -6 -12 -15.5t-3 -22.5v-5q0 -16 7 -33t15 -33q14 -21 29 -56t28.5 -73
t23.5 -74.5t15 -60.5v-4l-41 -238q1 -22 29 -39l9 -9q44 -16 67 -16q21 0 31 14.5t17.5 47.5t16.5 86t29 129l5.5 26.5t6.5 21.5t11 21t18 25q36 53 94 118.5t148 149.5l11 8.5t13.5 11.5t11.5 13t5 15v4q0 1 -0.5 1.5t-0.5 1.5z" />
    <glyph glyph-name="Z" unicode="Z" horiz-adv-x="730" 
d="M606 458l42 38.5t42 42.5t32 42.5t13 38.5q0 19 -18.5 32t-66.5 18q-20 0 -50 -3q-5 0 -21.5 -0.5t-35 -1.5t-35 -1.5t-21.5 -0.5h-56q-12 0 -32 -1t-59 -5q-91 -6 -147 -11.5t-87 -12.5t-41.5 -15.5t-10.5 -18.5q0 -7 3 -14v-10q0 -14 2.5 -28t15.5 -19q15 -12 27 -15.5
t26 -3.5q8 0 20 1t26 3q9 0 40.5 3t69.5 7.5t75 10t57 9.5l-2 -2l25.5 3.5t22.5 1.5q20 0 37 -10v-5l-415 -380q-13 -12 -26 -25.5t-23.5 -28.5t-17 -30.5t-6.5 -30.5v-4q-2 -7 -3.5 -13.5t-1.5 -17.5q0 -7 8 -21q12 -13 34.5 -18t54.5 -5q103 2 170.5 8.5t104.5 6.5h13
q20 -1 50 -1.5t58 -0.5h32q6 0 11.5 0.5t10.5 1.5q45 1 62.5 10.5t17.5 25.5q0 6 -3.5 15t-8.5 17v2q-4 46 -83 46h-71q-13 0 -24 0.5t-30 2.5q-9 0 -21 -0.5t-32 -1.5t-50 -3l-74 -5l-16 10v3z" />
    <glyph glyph-name="bracketleft" unicode="[" horiz-adv-x="373" 
d="M355 76q0 16 -5 24q-14 19 -33 24q-12 4 -59 9q-42 3 -57 9q-5 3 -11.5 12.5t-6.5 15.5t1 17t2.5 23t3 22.5t1.5 15.5q6 96 6 202q0 25 -0.5 42.5t-1.5 27.5q-5 45 -9 76.5l-7 53.5q-1 5 -4.5 15.5t-8.5 27.5q-10 27 -10 38t15 19l27.5 3.5t19.5 1.5q12 2 24.5 3.5
t25.5 3.5q31 3 46 13q42 21 42 51q0 24 -19 39q-6 6 -41 6h-140q-3 -1 -8 -1h-40q-101 0 -101 -82q0 -12 3 -27.5t11 -36.5l11.5 -32.5l11.5 -32.5l12.5 -33t8.5 -23l8.5 -70t5.5 -50q2 -23 3 -36.5t1 -18.5q0 -8 -0.5 -29t-1.5 -57q-1 -3 -1 -9v-32q-1 -11 -5 -37t-10 -71
q-10 -64 -12 -107v-7q0 -34 31 -49q14 -5 32.5 -10t42.5 -9l38.5 -4l38.5 -4q17 -2 27 -2.5t13 -0.5q28 0 53 25q26 24 26 51z" />
    <glyph glyph-name="backslash" unicode="\" horiz-adv-x="596" 
d="M556 83q0 32 -235 420l-27.5 38.5l-19.5 26.5l-54.5 74.5l-39.5 53.5q-7 9 -19 29l-31 51q-15 25 -28.5 44t-25.5 32q-20 23 -28 23q-82 0 -82 -75q0 -25 12 -46l36.5 -55l28.5 -41l90 -127l65 -90q38 -54 60.5 -91.5t32.5 -55.5l49.5 -93.5t47.5 -79.5l27 -44t12 -21
q31 -57 50 -57q22 0 50 31q29 32 29 53z" />
    <glyph glyph-name="bracketright" unicode="]" horiz-adv-x="373" 
d="M365 788q0 23 -4.5 37.5t-14.5 22.5t-26.5 11t-40.5 3q-17 0 -46.5 2t-72.5 6l-74 9q-12 0 -19 0.5t-9 0.5q-12 0 -38 -20q0 -38 14 -62.5t46 -32.5q10 -4 62 -7q19 -1 33.5 -2.5t24.5 -5.5q15 -8 15 -19t-10 -38q-11 -32 -12 -43l-11 -86l-5 -49.5t-2 -31.5
q0 -109 2.5 -180t8.5 -108q3 -23 3 -25q0 -25 -29 -30q-35 -6 -61.5 -10t-44.5 -6q-11 -3 -24.5 -14.5t-13.5 -21.5q0 -33 23 -62q23 -26 57 -26q-2 0 17 3t61 8l66 9q49 8 58 17q21 21 21 33q0 15 -1 16q-9 72 -15 125.5t-11 89.5q-1 2 -1 10v26q-3 66 -3 91q0 48 5 90.5
t13 84.5q2 9 10.5 33t23.5 63q25 62 25 89z" />
    <glyph glyph-name="asciicircum" unicode="^" horiz-adv-x="430" 
d="M397 674q-6 12 -12.5 17t-14.5 10q-2 2 -6.5 4l-4.5 2q-14 11 -21.5 14.5t-17.5 6.5l-12.5 5t-22.5 11h1l-5 2q-17 10 -38 20.5t-40 12.5q-3 1 -6 1h-7q-20 0 -33 -11.5t-20 -38.5l-5 -4q-2 -2 -4.5 -3t-7.5 -5q-13 -11 -19.5 -14t-11.5 -6l-13 -6.5t-19 -14.5
q-14 -11 -24.5 -29t-10.5 -41q0 -19 8 -34q17 -33 51 -33q20 0 40 15l29 24.5l22 19.5q5 5 11.5 10t14.5 12q32 -3 52 -11.5t46 -25.5l-1 1q4 -2 8 -5.5t9 -5.5q10 -5 19 -9t19 -4q15 0 34 11q25 17 25 54q0 26 -12 49v-1z" />
    <glyph glyph-name="underscore" unicode="_" horiz-adv-x="529" 
d="M514 -48q0 52 -68 61q-3 1 -8 1h-14l-156 -13q-39 -3 -58.5 -4l-19.5 -1h-140q-9 0 -23 -14q-14 -17 -14 -25q0 -49 28 -76.5t77 -27.5h77q8 0 19.5 0.5t25.5 1.5l113.5 7.5t89.5 7.5q27 1 30 3q19 4 31 32q10 23 10 47z" />
    <glyph glyph-name="grave" unicode="`" horiz-adv-x="271" 
d="M207 596q19 7 27.5 13t8.5 20q0 9 -11 33q-8 16 -19.5 34t-25 35.5t-28 32t-27.5 23.5q-32 21 -55 21q-16 0 -25 -8.5t-9 -28.5q0 -9 0.5 -13t2.5 -9q5 -16 11 -27.5t14.5 -21t19.5 -18.5t27 -21q17 -12 28.5 -21t16.5 -16q15 -19 26.5 -23.5t15.5 -4.5h2z" />
    <glyph glyph-name="a" unicode="a" horiz-adv-x="502" 
d="M364 85l8 -41q4 -20 9.5 -31.5t13.5 -17.5t19 -8.5t26 -5.5q7 0 14 1.5t18 6.5q17 6 24.5 21t7.5 32q0 5 -2 12l-4 14q-68 479 -103 493q-2 0 -3 0.5t-3 0.5h1q-3 1 -2.5 1.5t-10.5 1.5v3q-42 -7 -67 -16t-40.5 -21t-24.5 -27t-18 -33q-1 -2 -2.5 -5.5t-2.5 -5.5v1
q-7 -15 -17 -34t-24 -39l-43.5 -71l-47 -80l-45 -81t-37.5 -73q-7 -18 -10.5 -31t-3.5 -27v-10q0 -23 19 -36.5t39 -13.5q24 0 42.5 9.5t32.5 37.5q5 10 8.5 18t6.5 16q8 20 14 32t17 23h9h1q0 1 2 1q8 0 17 0.5t20 1.5h6q10 1 20 1t20 1q25 2 46.5 2.5t35.5 0.5h7l3 -2z
M319 371h1l20 -164l-2 -2h-119z" />
    <glyph glyph-name="b" unicode="b" horiz-adv-x="539" 
d="M522 326q14 13 21.5 27.5t9.5 27.5l-1 -1q4 9 4 22q0 27 -16.5 50t-42.5 40t-59 28.5t-67 15.5h1q-53 9 -123 9q-28 0 -52 -3h-1q-45 -2 -72 -47q-10 -16 -13.5 -25t-4.5 -15l-39 -151.5l-26.5 -104.5l-16.5 -66.5t-8.5 -38t-3 -19.5t-0.5 -10v-12q1 -17 4.5 -31.5
t13.5 -19.5l11 -11l4 -1q23 -18 45 -23t44 -5h8q38 0 88.5 8.5t101.5 26t96.5 44t72.5 62.5q8 12 13 23.5t5 24.5q0 25 -19 47q-33 47 -86 66q30 13 58 27t50 35zM288 203q64 0 99 -23q4 -4 5 -7v-3q-4 -18 -25.5 -35t-50 -32t-59.5 -27t-54 -19q-16 -8 -46 -8h-11h-1l2 20
v-2l32 122q31 7 57.5 10.5t51.5 3.5zM251 424l5 5q42 13 93 13q47 -5 66.5 -14.5t19.5 -22.5q0 -17 -21 -36t-54 -35.5t-72.5 -27t-76.5 -10.5l-2 1l-1 1l1 -1l-1 2q8 33 13.5 53t10 33t9 21.5t10.5 17.5zM393 170l-1 3q0 -2 1 -3z" />
    <glyph glyph-name="c" unicode="c" horiz-adv-x="488" 
d="M418 399l21.5 -12t11.5 -5.5t6 -2t4 -0.5q23 10 36 26t13 27q0 5 -1 8v6q-5 23 -25 40t-49 32h1q-22 12 -38.5 19.5t-30 12t-25 6.5t-23.5 2q-31 0 -73 -12q-51 -31 -94 -72.5t-76 -91.5t-54.5 -106.5t-28.5 -117.5v-11q0 -8 1 -11q2 -23 6 -38.5t12 -31.5l18 -21v1
q15 -20 34 -34t41 -23.5t45.5 -15t46.5 -8.5h-1q12 -2 26 -3.5t29 -1.5q62 0 110 21t99 59q17 14 22.5 21.5t10.5 15.5l1 3q0 50 -44 50h-3q-1 0 -21 -7t-45 -22v2q-20 -11 -45.5 -22t-65.5 -23h1q-10 -2 -28 -2q-12 0 -30.5 3t-51.5 17q-14 14 -25.5 30t-15.5 36v8
q0 8 1 10q4 46 25 86q21 43 47.5 83t56.5 68q22 23 46.5 38.5t49.5 15.5z" />
    <glyph glyph-name="d" unicode="d" horiz-adv-x="533" 
d="M102 -31l77 10q76 6 144 40t119 83.5t80.5 109t29.5 116.5q0 39 -14.5 74.5t-46.5 64.5t-82.5 49.5t-121.5 29.5h1q-21 6 -49.5 7t-64.5 1l-57 -9q-17 -44 -26 -70t-11 -35q0 -5 -0.5 -7t-2.5 -8l-25.5 -96t-21 -89t-17 -90t-13.5 -99v-14q5 -27 24 -43zM396 420
q29 -22 39.5 -40.5t12.5 -34.5l1 -4q-2 -31 -22.5 -66.5t-54.5 -70t-79 -65.5t-96 -55q-4 -2 -21 -8.5t-40 -12.5l-3 2l-1 1q4 38 16 92t26 109t28.5 103l22.5 74l1 1l2 1q68 0 108 -6t60 -20z" />
    <glyph glyph-name="e" unicode="e" horiz-adv-x="519" 
d="M-2 24l13 -9l18 -13q15 -12 30.5 -22t26.5 -10q23 0 39.5 2.5t38.5 6.5q2 1 6 1h3l247 35q19 2 27.5 5t11.5 6q6 8 9 13.5t3 16.5v9t-2 16h-9q-9 7 -23.5 9.5t-28.5 4.5q-2 0 -4.5 0.5t-4.5 0.5q-38 -3 -63.5 -4.5t-42 -3t-25.5 -2t-15 -0.5t-12.5 -0.5t-12.5 -0.5
q-23 -1 -46 -2.5t-46 -4.5l-3 3q1 11 5 31l8.5 41t9 39.5t7.5 27.5l1 1l50 -1q13 0 26 0.5t30.5 1.5t41 3l56.5 5q5 0 13 0.5t17 1.5q8 1 14 1.5t8 0.5q28 5 34 18t6 27v17q-5 22 -27 26.5t-48 4.5h-90h-57t-47 2l-2 3q1 7 5 21l8.5 30.5l9 33.5t8.5 30q5 1 8.5 1.5t6.5 0.5
l210 8h30q10 0 13 2q1 1 2 1q22 6 30 16t8 20v10q-5 10 -11 16t-14.5 9.5t-20.5 5.5t-30 4q-14 1 -32 1.5t-38 1.5q-36 2 -72.5 3.5t-59.5 1.5h-62h-15q-7 0 -16 1q-25 0 -39.5 -2.5t-23 -11.5t-14 -25.5t-11.5 -44.5z" />
    <glyph glyph-name="f" unicode="f" horiz-adv-x="441" 
d="M395 226v6q0 1 0.5 1.5t0.5 1.5q0 22 -27 26.5t-95 4.5h-108l11 55.5l11.5 54.5t10 42t5.5 18l6 5q18 4 46 6.5t73 2.5h76q12 -1 24 -1.5t20 -0.5q26 0 37.5 8t11.5 31l-2 34v7q-11 11 -26.5 14t-34.5 3q-5 0 -10.5 -0.5t-10.5 -0.5h-21h-100h-57t-29 -0.5t-16 -0.5
q-8 0 -18 -0.5t-33 -0.5q-4 1 -14 1q-16 0 -26.5 -6t-17 -16.5t-10.5 -24t-7 -28.5q-1 -4 -1.5 -7t-1.5 -7l-35.5 -174l-23.5 -118l-14 -73.5l-7.5 -39.5t-3 -17t-0.5 -6v-10q2 -11 7 -19.5t23 -22.5q8 -6 17.5 -8t30.5 -2q13 4 22.5 17t16.5 30t12 37l10 40q5 23 10.5 42.5
t12.5 29.5v1l2 2h149q5 0 9 -0.5t9 -0.5h14q20 0 35 5.5t27 22.5zM165 258q0 -2 -0.5 -3l-0.5 -1q0 1 0.5 1.5t0.5 2.5z" />
    <glyph glyph-name="g" unicode="g" horiz-adv-x="532" 
d="M525 403l-6 40q-1 1 -1 2q-2 12 -16 32t-36 40t-49 35.5t-55 17.5h-20q-17 0 -37 -1.5t-28 -6.5l2 2q-47 -13 -87 -41.5t-72.5 -65.5t-57 -80t-41 -86t-25 -82t-8.5 -69q0 -25 4 -38l9 -33q10 -29 31 -46.5t68 -34.5q2 -1 4 -1t4 -1l-2 1q4 -2 9 -4t4 -1l3 -2
q21 -6 43 -8.5t44 -2.5q43 0 80 8.5t60 21.5h-1q28 11 61 31.5t60.5 45.5t46 51t18.5 47l-2 6l1 -1q-1 5 -1 13q0 13 -3.5 26t-21.5 23q-14 8 -37 9t-48 1h-30q-23 0 -46.5 -1t-46 -3.5t-42 -5t-33.5 -5.5q-28 -8 -42 -22t-14 -27q0 -11 6 -19.5t20 -9.5q13 -8 30.5 -10.5
t39.5 -2.5q35 7 60 10.5t42 3.5q31 0 31 -7q0 -8 -12 -19t-30.5 -21.5t-42 -20t-46.5 -13.5q-20 -8 -42 -10.5t-39 -2.5q-14 0 -13 5h-14q-4 2 -5 3q-9 6 -19.5 14.5t-12.5 21.5q-8 2 -11 12.5t-3 24.5q0 19 3.5 37t10.5 29q31 70 59 117t56 75t58 39.5t65 12.5h3
q17 0 33.5 -14t32.5 -30q14 -14 26.5 -24t24.5 -10h5z" />
    <glyph glyph-name="h" unicode="h" horiz-adv-x="556" 
d="M335 12q8 -14 25 -25t33 -11q11 0 19 6q15 1 26 9.5t17.5 20.5t10 26t5.5 25l70 371l-1 -2l6 17.5t6 20t5.5 28t5.5 40.5q-6 44 -58 44h-6q-57 0 -61 -34l1 2q-11 -32 -24 -84l-30 -124q-5 -23 -11 -47l-12 -50l-4 -2l-185 -3l-3 3q4 18 10.5 43.5t15 52.5t18 53t19.5 44
h-1q13 21 13 32q0 15 -9.5 29.5t-26.5 19.5h1q-7 3 -17 4t-24 1q-8 0 -13 -1l-17 -4q-30 -5 -39 -27t-16 -54l-41 -195l-25.5 -125t-13 -72t-3.5 -35q0 -14 2.5 -19t7.5 -10q11 -10 26.5 -14.5t32.5 -4.5h8v1h2q13 2 27 9.5t18 39.5v-1l6 29t7 30q3 15 6.5 30t7.5 30l-1 -2
q1 2 3 8q1 3 1 6q0 4 2 8l2 1q19 1 44 1.5t50.5 1.5t49 1.5t40.5 0.5l3 -3q-3 -12 -3 -20q0 -7 -1 -14q0 -4 -0.5 -8.5t-1.5 -12.5z" />
    <glyph glyph-name="i" unicode="i" horiz-adv-x="222" 
d="M76 -22h18l5.5 8l3.5 5q8 11 11 17t5 23q0 1 7.5 34l18.5 81.5l23.5 103l23.5 99.5q2 17 6 28.5l8 22.5q3 9 5.5 17.5t3.5 10.5v-1q4 14 8.5 33.5t8.5 39.5q0 13 -5.5 25t-15.5 21t-22.5 14.5t-26.5 5.5h-8q-6 5 -15 5q-18 0 -34.5 -36t-33.5 -104.5t-36 -168.5t-41 -228
q5 -20 15 -30l1 -1l5 -3q-2 0 -4 2q2 -3 7 -5z" />
    <glyph glyph-name="j" unicode="j" horiz-adv-x="438" 
d="M353 561q-16 -3 -26.5 -18t-21 -57t-23.5 -119l-34 -204v-7q0 -12 -5.5 -27.5t-15 -29t-22.5 -23t-27 -9.5q-16 0 -29 12l-14 10.5t-15 12.5q-19 16 -40.5 30t-43.5 14q-18 0 -31.5 -12.5t-21.5 -43.5v-4q0 -23 15.5 -43.5t41.5 -26.5q43 -23 84.5 -35t79.5 -12
q37 0 68 11.5t55 35.5t39 60.5t20 85.5v-1l6 32.5t6 29.5q4 18 7 33t5 29q5 38 11.5 68t13.5 59q5 22 11 46t11 53q0 29 -12 38q-14 8 -28.5 12.5t-28.5 4.5q-8 0 -12 -0.5t-7 -1.5h-1z" />
    <glyph glyph-name="k" unicode="k" horiz-adv-x="505" 
d="M200 384q0 10 3 21.5t7 23.5q1 2 1.5 5t1.5 5q4 15 7.5 29.5t3.5 28.5v4q0 10 -6.5 20t-16.5 18t-22 12.5t-23 4.5q-1 0 -2 -0.5t-2 -0.5h-8q-29 0 -48 -18.5t-19 -50.5v-6l-26.5 -119l-19.5 -92l-17.5 -80.5t-20.5 -90.5q-2 -10 -3 -16.5t-2 -11.5q-2 -9 -3.5 -17.5
t-2.5 -27.5v-10q2 -10 6 -17.5t9 -14.5q14 -8 24.5 -10t21.5 -2h12q16 3 26 9t19 25t19.5 57.5l28.5 106.5l3 2q8 -5 21 -15t30 -27l46 -41.5t17 -15.5q15 -12 26 -22.5l22 -20.5q23 -22 43.5 -37.5t50.5 -23.5q43 18 43 50q0 31 -39.5 72.5t-102.5 96.5q-8 8 -17 16l-18 16
q-10 8 -20.5 18l-21.5 20h-1q6 7 21 18.5t33.5 24l36.5 24t30 18.5v-1q4 2 7.5 4.5t5.5 3.5q10 12 16 16l154 111l-1 -1q4 4 6 5q14 9 22.5 18t8.5 27q-2 22 -22 34t-39 12q-14 0 -28 -8.5t-37 -27.5q-14 -12 -28 -22l-220 -151q2 8 3 14t1 8z" />
    <glyph glyph-name="l" unicode="l" horiz-adv-x="399" 
d="M128 88v1l83 278l3 3q2 7 5 15l6 16l16 46t8 43q0 23 -12.5 37.5t-47.5 14.5q-15 0 -30 -3h1q-34 -2 -50 -12t-21 -36q-8 -11 -8.5 -23t-0.5 -24v2l-15.5 -61.5l-12 -49t-11 -49.5t-12.5 -63q-5 -22 -10 -48l-12 -60l-3 -12.5t0 -3.5q-3 -17 -7 -36t-4 -32q2 -17 5 -27
t10 -18v-4q21 -11 34.5 -14.5t27.5 -3.5q35 5 64.5 8.5l55.5 6.5q27 3 51 6q41 4 80 10t80 16q5 11 7.5 17.5t2.5 15.5q0 20 -13 32.5t-28 12.5q-6 0 -9 -1q-10 -1 -18 -1t-15 -1q-44 -5 -69.5 -7.5l-45 -4.5t-38 -3.5t-46.5 -2.5l-5 1v1v3z" />
    <glyph glyph-name="m" unicode="m" horiz-adv-x="666" 
d="M106 22v3l94 254q0 -17 0.5 -31.5t0.5 -25.5v-74q-1 -8 -1 -18v-22q0 -18 2 -37t8 -34t16.5 -24.5t27.5 -9.5h4q5 0 12 2.5l15 5.5q14 6 26 13.5t13 8.5l19 34.5l25 46.5q0 2 2.5 5t4.5 7l28 55.5t29 52.5t26 41t19 21h1l-10.5 -52t-7.5 -43.5t-4.5 -40t-1.5 -41.5
q-2 -5 -2 -15v-20v-16q0 -5 0.5 -8t1.5 -6v1q3 -17 7 -30.5t15 -23.5l9 -9q19 -11 49 -11h6q4 0 7 1h-1q1 1 5 1q28 3 32.5 12.5t5.5 24.5v18q0 59 8 113.5t22.5 109t36 110t48.5 116.5v6q0 17 -10 31t-25.5 25t-34.5 18t-37 9q-27 0 -47 -17t-38 -37l1 -1v-1q-4 -3 -7 -7
q-32 -34 -83 -103.5t-107 -165.5q1 37 1.5 61.5t2 43.5t3.5 35t5 36q3 6 5.5 15.5t5 20t4 19.5t1.5 15q-3 15 -14 24t-25 13.5t-29 6t-27 2.5h-10q-7 0 -10 -1q-35 -2 -51.5 -15.5t-28.5 -34.5q-10 -26 -17 -42l-10 -23.5t-10 -27.5v1q-12 -27 -23 -54.5l-25 -63.5
l-31.5 -85l-42.5 -119h1q-5 -12 -9.5 -27.5t-4.5 -26.5v-4q1 -26 15.5 -39.5t34.5 -13.5h19q15 0 27 6z" />
    <glyph glyph-name="n" unicode="n" horiz-adv-x="534" 
d="M493 560q-16 -3 -27.5 -11.5t-19.5 -20.5t-12.5 -26.5t-7.5 -28.5l-7 -31l-17.5 -75l-23.5 -94.5t-25 -89.5q-26 59 -40.5 109.5t-23.5 108.5q-2 5 -2.5 12.5t-0.5 18.5v12q0 15 -1 31t-6 29.5t-14.5 22.5t-27.5 11q-46 -3 -72.5 -11t-41 -21.5t-20.5 -33t-11 -44.5v1
q-6 -21 -11 -41l-10 -39v1l-21.5 -84l-17.5 -68l-23.5 -91.5t-12.5 -51t-5 -24t-1 -11.5v-6q0 -27 21.5 -43.5t45.5 -16.5q20 0 35 10.5t18 36.5v5q5 15 15.5 51t22 79.5l22.5 89t17 80.5q15 -55 32 -101t33 -81t30 -58t23 -31l-1 2q20 -26 40 -38t38 -12q22 0 37.5 14.5
t23.5 37.5q11 32 18 55l12 39l9.5 29t5.5 18.5t4 14t4 15.5q1 10 5 24l8 28.5t8 27.5l6 20v-1q2 4 6.5 18t9.5 33t10 40.5t7 42.5q6 14 11 32t5 35q0 25 -16 41z" />
    <glyph glyph-name="o" unicode="o" horiz-adv-x="589" 
d="M365 546q-57 -7 -97.5 -16.5t-65.5 -23.5l-34 -20t-20 -13q-36 -26 -65 -60.5t-49.5 -73t-31.5 -78.5t-11 -77v-12v-6t2 -8l-1 2q2 -17 8 -36t23 -48q4 -7 7.5 -12.5t7.5 -10.5q1 -2 4 -5q27 -32 65.5 -50t95.5 -27q17 -4 33.5 -5t36.5 -1q54 0 99 11t78 37
q75 66 110 149.5t35 161.5v17q0 6 -0.5 10.5t-1.5 9.5q-2 15 -5.5 30.5t-11.5 32.5q-17 32 -37 54t-41 36.5t-41 21.5t-37 10h-55zM390 458q11 0 21 -2.5t20 -9.5q17 -13 26.5 -39t14.5 -52v-10q0 -3 0.5 -6.5t0.5 -7.5q0 -42 -14 -91t-43 -91.5t-73.5 -71t-105.5 -30.5
q-8 0 -21.5 5t-27.5 13q-29 8 -43.5 30t-16.5 49h-1q1 37 18 86t46.5 94.5t70.5 81t90 47.5q18 5 38 5z" />
    <glyph glyph-name="p" unicode="p" horiz-adv-x="486" 
d="M322 212q81 35 126 76.5t45 100.5q-5 45 -27 74.5t-71 51.5q-18 8 -45 15.5t-57.5 13.5t-62 9.5t-59.5 4.5h-2q-21 0 -36 -6t-26 -17q-9 -14 -19.5 -45t-21 -71t-20.5 -85l-19 -87l-16.5 -77.5l-11.5 -55.5q-5 -21 -9 -45t-6 -46v-6q0 -8 8 -17t20 -16.5t25.5 -13
t24.5 -5.5h5q3 0 8 2l-1 -1q27 6 34.5 16.5t11.5 37.5q0 9 1 18.5t3 18.5l21 107l2 2q60 8 99.5 18.5t75.5 27.5zM169 296l2 10.5l2 11.5q11 63 19.5 102.5t19.5 39.5q14 0 32.5 -1.5t37.5 -5t37 -9t33 -12.5q0 -6 11 -6q19 -19 19 -35q0 -17 -16 -33t-42.5 -31.5t-62 -30
l-74.5 -29.5l2 1l-22 -5l-3 2q2 8 2.5 15.5t2.5 15.5z" />
    <glyph glyph-name="q" unicode="q" horiz-adv-x="582" 
d="M585 313q0 4 -0.5 17.5t-3.5 32t-9.5 39.5t-17.5 41q-24 41 -57.5 64.5t-89.5 34.5q-6 1 -11.5 1.5t-10.5 1.5h1q-8 2 -17 3t-21 1q-38 0 -78.5 -12.5t-78 -34.5t-69 -51t-52.5 -62q-39 -60 -55.5 -118.5t-16.5 -106.5q0 -3 0.5 -5.5t0.5 -4.5v-10q1 -18 5.5 -36
t14.5 -35t27 -33.5t45 -31.5q45 -23 79 -31.5t67 -8.5q17 0 29.5 0.5t22 1.5t18 3.5l18.5 5.5l29 10q8 -3 15 -9t15 -12l8 -6l8 -6q-2 1 1.5 -1t5.5 -4l15 -12t19.5 -13t21.5 -10.5t23 -4.5q19 0 31 13q3 6 7 17t4 24v5q0 2 0.5 3t0.5 3q0 12 -6 20.5t-15 14.5t-20 10.5
l-21 8.5q-5 2 -9.5 3.5t-8.5 3.5q4 0 4 5q21 14 54 52q39 46 58.5 104.5t19.5 114.5zM322 119q-1 4 -7 4l-15 6q-14 8 -29 13t-30 6q-2 1 -7 1q-8 0 -17.5 -5t-17.5 -12.5t-13.5 -17t-5.5 -18.5q0 -19 22 -30q5 -2 10.5 -4.5t10.5 -4.5q3 -2 5.5 -3t6.5 -3q-9 -2 -17 -1.5
t-12 0.5q-24 0 -42 15t-29.5 36t-17 44t-5.5 39q0 39 17 77t44.5 72.5t62.5 64.5t70 52q12 5 31.5 9t40.5 4q5 0 11 -0.5t12 -1.5h-2q28 -9 41.5 -35.5t16.5 -57.5q1 -7 1.5 -13.5t0.5 -14.5q0 -27 -5 -56t-14.5 -57t-24 -52.5t-32.5 -43.5l-31 -27q-5 1 -12.5 5t-17.5 10z
" />
    <glyph glyph-name="r" unicode="r" horiz-adv-x="505" 
d="M511 418q-4 26 -19 41.5t-44 36.5q-66 31 -121.5 40t-106.5 9q-5 0 -9.5 -0.5t-9.5 -0.5q-19 -2 -38.5 -3.5t-35.5 -8.5q-3 -4 -5.5 -7t-5.5 -7q-2 -2 -3.5 -4t-2.5 -5q-12 -19 -19 -34.5t-8 -19.5l-38.5 -171.5l-25.5 -117.5l-16 -74l-9 -41.5t-3.5 -20t-0.5 -9.5v-7
q1 -21 30 -42q5 -4 18 -11t21 -7h2q17 0 28 13t11 33q3 6 9.5 23l14.5 39l17.5 48.5l17.5 45.5l15 -13l15 -13l24.5 -22l13.5 -12.5t7.5 -6.5l6.5 -5q39 -38 77.5 -66t90.5 -51q17 5 29 11.5t14 23.5q17 6 17 21t-23.5 34.5t-56.5 43.5l-67 49t-58 55h1l1 1q40 10 81 27.5
t76.5 39.5t60 49t31.5 57zM198 301q-14 -11 -17 -11q-1 0 -1 12q0 15 4 35t10 41.5l12 41t11 32.5q1 4 3 10q16 0 35.5 -1.5t39 -4.5t38 -8.5t32.5 -14.5q1 -1 2.5 -2t3.5 -3q7 -6 14.5 -14t10.5 -16q-1 -3 -3.5 -8.5t-6.5 -12.5q-32 -24 -56 -38.5t-45 -22t-42 -11
t-45 -4.5z" />
    <glyph glyph-name="s" unicode="s" horiz-adv-x="519" 
d="M248 504q-48 -23 -84 -53.5t-52 -59.5q-14 -25 -22.5 -46t-8.5 -42q1 -21 11 -41t25.5 -37.5t34.5 -31.5t38 -23q16 -7 22 -11q13 -7 25.5 -10.5t26.5 -6.5q23 -5 45 -11t27 -13q12 -5 16 -8.5t4 -7.5v-3q0 -6 -4 -11t-10 -8.5t-12 -6t-10 -3.5q-2 -2 -12 -3.5t-21.5 -2
l-22.5 -1t-15 -0.5q-19 0 -36 3t-47 11q-21 11 -40.5 25t-31.5 34q-6 9 -12.5 17.5t-17.5 15.5q-8 4 -14.5 3.5t-9.5 -0.5q-10 -1 -21.5 -3.5t-22.5 -13.5v-2q-13 -17 -13 -36q0 -28 27.5 -55t69 -48.5t90 -34.5t89.5 -13q8 0 15 0.5t13 1.5q19 0 32.5 3t25.5 7q5 2 15 4
q35 13 59 29.5t42 36.5q17 18 24 37t7 22q0 4 -1 12.5t-3 14.5q-14 28 -43 51.5t-77 33.5l2 -1q-12 5 -25 9.5t-26 8.5l-30.5 9.5t-26.5 9.5q-4 4 -11 4q-18 2 -28.5 17t-10.5 34q0 18 9 32q17 26 45 49t64 35q23 0 53.5 -6t52.5 -26q39 -31 54 -34h6q27 0 37 13.5t10 34.5
q0 6 -1 13t-3 12v-1q-7 18 -20 27.5t-40 23.5q-30 17 -59 29t-69 17q-8 0 -11 -1q-39 -2 -78 -17z" />
    <glyph glyph-name="t" unicode="t" horiz-adv-x="466" 
d="M488 453q19 6 27.5 18.5t8.5 26.5q0 21 -17.5 39.5t-48.5 18.5h-9t-8 -1h1q-2 -1 -4 -1h-26q-29 0 -59 -0.5t-56.5 -1t-48 -1.5t-33.5 -2h-62q-37 0 -59.5 -0.5t-37.5 -1t-26 -1t-24 -0.5q-16 -3 -22.5 -14.5t-6.5 -27.5q0 -14 5 -30t12 -27q19 -5 33.5 -7t34.5 -2h83
l2 -2q-5 -21 -8 -40.5t-7 -37.5l-27 -135l-18.5 -91l-11.5 -56.5t-6.5 -31t-3.5 -13.5t-2 -5q0 -10 2.5 -17t15.5 -23q1 -2 5 -6l14 -7q10 -3 24 -3q20 0 38.5 9t18.5 34v4l39.5 175.5t24.5 113.5q9 39 13.5 61t8.5 35t8 21t10 19z" />
    <glyph glyph-name="u" unicode="u" horiz-adv-x="507" 
d="M376 426q-1 -4 -1.5 -8t-1.5 -8l-8.5 -48.5t-14.5 -64.5q-6 -26 -13.5 -54t-15.5 -53t-16.5 -45.5t-15.5 -30.5l-30 -39l-2 -2q-9 -6 -20 -9.5t-21 -5t-18.5 -2t-12.5 -0.5h-4q-5 0 -14.5 3t-18.5 8.5t-16 14.5t-7 21q0 5 1 8q0 17 5 40.5t14 54.5l24.5 82.5l18 58.5
l12.5 39.5l8 24.5q3 10 5 15.5t3 9.5t1.5 8t0.5 11q1 5 1.5 13t1.5 21q0 10 -8 20.5t-19 18.5t-24.5 14t-23.5 9q-18 0 -33 -12t-37 -50h1q-8 -23 -12.5 -38l-7.5 -25t-5 -15.5t-3 -10.5l-19 -65t-11.5 -43t-8.5 -38t-9 -49q-2 -15 -3.5 -30t-1.5 -31q0 -32 10 -63t37 -54
l8 -3q38 -31 68 -43t64 -12q4 1 10 1h14q5 0 9.5 -0.5t9.5 -0.5h10v1h2q57 0 96 30t65.5 76.5t44 104t31.5 113.5v-1q13 47 24.5 100.5t16.5 104.5q0 17 -0.5 28t-4.5 28q-4 7 -12.5 12.5t-19 9.5t-20.5 6t-17 2q-11 0 -23 -10t-15 -13z" />
    <glyph glyph-name="v" unicode="v" horiz-adv-x="528" 
d="M44 58q2 -10 5.5 -22t9 -24t14 -22.5t20.5 -17.5q9 -2 20.5 -3t25.5 -1q23 0 47 4t43.5 13t32.5 23t13 34l77.5 149t56 99.5l39 63.5l27.5 42q2 4 5 7.5t5 7.5q3 7 10.5 16.5l15.5 20.5l28 37.5t18 33.5q0 8 -3 18t-9 18.5t-14 14.5t-18 6l9 -6q-3 6 -10 7t-15 1
q-11 0 -22 -1.5t-16 -5.5q-24 -17 -52 -53t-57 -80.5t-57.5 -94l-53.5 -93.5l-36 -62t-29 -47q-2 10 -4.5 20.5t-4.5 20.5q-2 17 -3 32t-1 29v54q0 37 3 62t8 44q4 20 5 40.5t1 34.5q-4 26 -25.5 38t-44.5 12h-17h-5t-7 -2l1 1q-28 -6 -40.5 -29.5t-18.5 -61.5
q-2 -14 -3 -37.5t-1 -52.5q0 -35 2 -74t7 -87z" />
    <glyph glyph-name="w" unicode="w" horiz-adv-x="702" 
d="M50 -9h-1q22 -14 41 -14q15 0 26 4q8 -2 11 -2q26 0 42.5 30.5t37.5 86.5q5 13 11 27t12 30q19 46 28.5 67t17.5 32l4 1q3 -30 4 -37.5t2 -11.5q1 -2 1.5 -7.5t2.5 -20.5q1 -3 1 -5t1 -5q2 -17 5 -33.5t7 -27.5v2q2 -16 7 -35.5t13 -38.5t19.5 -35t26.5 -23
q16 -6 29 -7.5t23 -1.5q17 0 27 0.5t20 3.5q12 3 18.5 6.5t11 9t8 14t8.5 22.5v-1q10 21 17 40l15 39l20.5 53l29.5 71l45 100.5l66 140.5q7 14 10 21.5t5 15.5q-10 29 -26 41t-34 12t-27 -4q-20 0 -38 -18.5t-37 -51.5t-39 -79l-43 -100l-20 -47l-21 -46q-3 -8 -6.5 -15
t-6.5 -15q-3 26 -5 45t-2.5 33t-0.5 26v25v48v29q0 11 -0.5 16t-0.5 7q-1 8 -4 16t-12 15q-19 11 -41 16t-32 5q-31 -5 -56 -28.5t-45 -54.5l-18 -28.5l-16 -25.5l-16.5 -28l-19.5 -35q3 53 7 83t9 50q1 4 1 8t1 7q2 13 3.5 27t3.5 44q-3 25 -24.5 36.5t-44.5 11.5
q-15 0 -25 -3h2q-20 -2 -30.5 -7.5t-16.5 -15t-8.5 -23t-5.5 -32.5v-2q-7 -46 -11.5 -104.5t-4.5 -124.5l2 -86t6 -90q2 -14 7.5 -26t19.5 -21z" />
    <glyph glyph-name="x" unicode="x" horiz-adv-x="505" 
d="M159 523h-7q-7 0 -17.5 -1t-22.5 -2.5t-23.5 -4.5t-18.5 -6q-13 -6 -17.5 -17t-4.5 -22q0 -8 2.5 -18.5t5.5 -17.5l2 -2l13.5 -26.5l21.5 -44l25 -55t24 -58.5l-24 -30l-52 -64.5l-36.5 -47l-33 -44l-40.5 -56.5q0 -28 43 -36h4q3 -2 8 -2h9q24 0 47 13l56.5 64l33.5 38
l18 21.5l11 13.5q8 8 12 13.5l8 10.5q10 -17 27 -41.5t35.5 -48t36.5 -42.5t32 -26v-2q14 -3 20.5 -3.5t12.5 -0.5q18 0 31 5q19 3 27 11.5t8 18.5q-2 18 -14.5 34.5t-25.5 31.5q-11 11 -19.5 22t-10.5 20q-17 25 -31 52t-31 75l24 27t17 19l21.5 25l14.5 17l11.5 13
t13.5 14l14 14.5l19 19.5q31 33 49.5 49.5l33.5 30.5l30 27q6 8 6 16q0 10 -8 19.5t-19 17t-24 12t-23 4.5h-3q-19 0 -42.5 -16.5t-60.5 -65.5l-123 -127l-4 1q-13 21 -23 42l-19 41l-20 40.5t-23 31.5zM303 246v-2v2z" />
    <glyph glyph-name="y" unicode="y" horiz-adv-x="461" 
d="M477 549v-1q-6 12 -22 18.5t-33 6.5q-27 0 -46 -21l-99.5 -109.5t-90.5 -107.5q-5 10 -10.5 23t-10.5 28v-1q-1 2 -2 5t-2 5q-17 43 -36.5 82.5t-44.5 59.5q-5 2 -13.5 2.5t-17.5 0.5q-14 0 -27.5 -2.5t-21.5 -8.5q-9 -6 -12.5 -16t-3.5 -22v-4q0 -15 4.5 -27t10.5 -23
q12 -18 24.5 -47t23.5 -60t19.5 -60.5t12.5 -48.5l-33 -191q1 -23 28 -40l-2 1l8 -8q40 -15 60 -15q15 0 23.5 5.5t14.5 17.5t10 30.5t9 45.5l11 57t17 74q2 12 4 20.5t5 16t8 15.5t14 19q29 43 75 94.5t118 118.5l1 1q1 0 3 2q8 7 19.5 18t11.5 25v8z" />
    <glyph glyph-name="z" unicode="z" horiz-adv-x="584" 
d="M492 369q2 2 5 4.5t5 4.5l32 30.5t31.5 33t23.5 33t9 31.5q0 19 -17 32t-60 18q-7 0 -17 -0.5t-24 -1.5q-56 -2 -89.5 -2.5t-55 -1.5t-35 -2t-29.5 -2q-76 -5 -122.5 -10.5t-72 -12t-34.5 -15t-9 -19.5q0 -7 3 -13v-6q0 -12 2 -26t16 -20q14 -11 24.5 -14t23.5 -3
q15 0 38 3q8 0 32.5 2.5t53.5 6t58 7.5t46 7q8 0 12.5 0.5t9.5 1.5t9 1.5t9 0.5q6 0 14 -3l-324 -296q-21 -20 -41 -45.5t-20 -53.5v-1q-2 -6 -3 -11.5t-1 -15.5q0 -11 7 -22q12 -14 32 -18.5t48 -4.5q49 1 88.5 3.5l68.5 4.5q20 2 35.5 3t27.5 1h11q16 -1 40 -1.5t46 -0.5
h26q6 0 10.5 0.5t8.5 1.5q40 1 56 11.5t16 26.5q0 6 -2.5 14t-6.5 15q-6 45 -77 45h-42t-26 0.5t-17 1t-14 1.5q-12 0 -36.5 -1t-77.5 -5q-6 -1 -13 -1q-6 0 -13 -1z" />
    <glyph glyph-name="braceleft" unicode="{" horiz-adv-x="462" 
d="M402 -54v7q0 19 -11.5 35t-31.5 16q-7 0 -12 -2l-12 -5q-23 -12 -38 -12q-12 0 -18 8t-6 22q0 2 0.5 4t0.5 4q2 13 3.5 26l3.5 30q4 26 8 59.5t8 76.5q1 8 1 15v16q0 30 -7.5 55.5t-28.5 50.5q21 18 34.5 41t22 51.5t13 63t8.5 75.5q2 19 5.5 40t10 39t17 29.5t27.5 11.5
h20q9 0 17 1.5t14 6.5t10.5 15t5.5 27v9q0 31 -13 39.5t-35 8.5q-44 0 -78.5 -19.5t-59 -51t-39 -72t-18.5 -82.5l-2 -29q-3 -32 -6 -56t-11.5 -40.5t-24.5 -25t-44 -8.5q-17 0 -31 -6.5t-23.5 -17t-14.5 -23.5t-5 -26q0 -21 13 -37.5t41 -16.5q40 0 53.5 -11.5t13.5 -38.5
q0 -8 -0.5 -15t-1.5 -17q-3 -32 -7.5 -62l-8.5 -58v1q-4 -21 -6.5 -40t-3.5 -33q-1 -8 -1.5 -16.5t-0.5 -16.5q0 -58 23.5 -88.5t79.5 -30.5q30 0 72 11q-2 -1 2.5 0.5l7.5 2.5l-1 -1q9 2 20 5.5t20.5 10t16 17t8.5 27.5z" />
    <glyph glyph-name="bar" unicode="|" horiz-adv-x="191" 
d="M152 -62l1 15q1 5 1.5 11.5t0.5 14.5l57 655q0 6 1 14.5t1 17.5q2 13 3 27t1 29q0 27 -8 46.5t-31 19.5q-2 0 -4.5 -0.5t-4.5 -0.5q-21 -6 -32 -13.5t-17 -20.5t-8.5 -33t-4.5 -49v1q-1 -5 -1 -11t-1 -13l-62 -709v2q-2 -7 -2 -12v-9q0 -18 6 -29.5t15 -18.5t19 -9.5
t19 -2.5q16 0 29.5 20t20.5 59z" />
    <glyph glyph-name="braceright" unicode="}" horiz-adv-x="462" 
d="M376 400l1 -1q-5 1 -9.5 3.5t-8 8t-5.5 16t-2 29.5q0 43 6.5 93.5t17.5 103.5l-1 -1q3 10 4 19t1 18q0 25 -7 48t-22 41t-37.5 28.5t-53.5 10.5q-28 0 -47 -1.5t-42 -7.5h1q-23 -5 -34 -22.5t-11 -37.5t12 -36t41 -16q-1 0 2 0.5t7.5 1t9.5 1t8 0.5l28 3q5 0 15 -2h-1
q8 -2 10.5 -6.5t2.5 -9.5v-6q0 -3 -1 -6q-12 -59 -19 -116.5t-7 -105.5q0 -75 32 -110q-36 -27 -52 -69.5t-20 -95.5l-8 -96q-1 -10 -2.5 -22t-6 -22.5t-12.5 -18.5t-21 -9q-38 -5 -58.5 -24.5t-23.5 -43.5v-8q0 -33 18.5 -45t38.5 -12q34 0 66 17.5t57 46t41 65.5t19 75
l8 95q1 12 4.5 30t12.5 35t24.5 29.5t41.5 12.5q35 0 53 20.5t18 42.5q0 19 -13.5 34t-41.5 16l-22 2q-3 1 -5.5 2t-6.5 3z" />
    <glyph glyph-name="asciitilde" unicode="~" horiz-adv-x="436" 
d="M430 593v3q0 14 -16.5 26t-35.5 12q-15 0 -28 -7t-21 -22q-3 -12 -4 -14q-2 -9 -5.5 -19.5t-12.5 -10.5q-8 0 -14.5 7l-14.5 16q-11 15 -27.5 29t-48.5 14q-20 0 -45.5 -8.5t-48 -23t-38.5 -32.5t-17 -36v-4q0 -17 15 -29.5t39 -12.5q16 0 28 9t23 21q8 8 16 15t15 7
q6 0 16 -15q13 -14 32.5 -28.5t56.5 -14.5q30 0 54 5.5t41 19t27.5 36t13.5 57.5z" />
    <glyph glyph-name="uni00A0" unicode="&#xa0;" horiz-adv-x="349" 
 />
    <glyph glyph-name="onesuperior" unicode="&#xa1;" horiz-adv-x="401" 
d="M337 397l-81 35q-13 -5 -25.5 -15.5t-22.5 -22.5t-16.5 -24.5t-7.5 -21.5q-2 -4 -14 -38l-29 -82.5l-37.5 -104.5l-38.5 -105l-30.5 -83.5t-15.5 -39.5q-7 -8 -7 -18q0 -8 4.5 -16.5t10.5 -14.5l3 -2q19 -20 37.5 -27t37.5 -7q5 0 13 1t18 3q25 5 41 17t26 28.5t16 36.5
t11 40q22 91 50 175t54 172l3 12.5l4.5 19t4 22t1.5 21.5q0 26 -10 39zM394 629q-21 6 -46 6q-16 0 -28 -1t-20 -2q-14 -3 -27 -10.5t-23.5 -18t-18.5 -22t-11 -22.5q-1 -4 -1.5 -8.5t-0.5 -11.5q0 -28 25 -47l55 -33q-1 1 5.5 2t15 2.5t15 2.5t5.5 2q34 7 58 25t34 46
q8 10 8 25q0 9 -5 19q-3 11 -13.5 24.5t-23.5 21.5h-3z" />
    <glyph glyph-name="cent" unicode="&#xa2;" horiz-adv-x="349" 
d="M255 571q1 2 2 4.5t6 6.5l9.5 16t10 19t8 19.5t3.5 17.5q0 2 -0.5 5t-0.5 4q-8 20 -22 26.5t-31 6.5q-24 0 -40 -10.5t-23 -27.5q-6 -11 -9.5 -18t-6.5 -15t-7 -21l-11 -35q-48 -18 -80 -51t-51.5 -70.5t-27.5 -74t-8 -62.5v-10q4 -39 19.5 -66.5t57.5 -40.5
q-2 -5 -3.5 -9.5t-1.5 -10.5q-17 -51 -17 -72v-7q5 -15 15 -25t30 -15h10q23 0 36.5 9.5t20.5 23.5q3 6 5 12.5t4 16.5t3.5 24.5l3.5 35.5v-1q0 3 1 6t1 5q37 10 63.5 24l40.5 21q2 3 6 5.5l4 2.5l-1 -1q45 34 45 60v5q-7 14 -15.5 21t-16.5 12q-8 2 -10 2h-6
q-11 0 -22 -4.5t-28 -15.5q-12 -8 -23.5 -13.5t-31.5 -11.5q-17 -8 -28 -11.5t-19 -3.5h-1q-7 2 -8.5 5.5t-2.5 12.5v4q0 15 6 38.5t16.5 47.5t24.5 44t29 29h3q2 0 22 -6l5.5 -2.5t7.5 -3.5v1q12 -7 20.5 -10.5t22.5 -3.5q11 0 26 5q16 8 22.5 15t6.5 20t-11 32
q-19 26 -58 48q1 3 2 7t3 9z" />
    <glyph glyph-name="sterling" unicode="&#xa3;" horiz-adv-x="510" 
d="M63 261q3 -7 5 -18t2 -15q6 -18 22.5 -24t39.5 -6h16q-6 -13 -19.5 -25.5t-29.5 -23t-31.5 -18.5t-25.5 -12l-12 -7.5l-7 -4.5q-20 -20 -20 -37q0 -8 2.5 -13.5t10.5 -13.5q23 -24 47.5 -32.5t64.5 -8.5h19q8 0 16 0.5t16 0.5q41 3 64.5 4.5l39.5 2.5t29.5 1.5t35.5 1.5
q19 1 42.5 4.5t45 10t39 16t24.5 22.5q2 2 3 2t1 -1h1q2 0 2.5 3.5t0.5 16.5q0 1 -0.5 1.5t-0.5 1.5q0 16 -9 27q-19 13 -35 13q-3 0 -8 -0.5t-10 -0.5q-3 -1 -14 -1t-15.5 -0.5t-16.5 -1.5q-15 -2 -35 -4t-41.5 -3.5l-43.5 -3t-40 -2.5h-5q9 8 14.5 14.5t10 14t8.5 16.5
t9 23q2 6 2.5 12.5t1.5 12.5q14 0 27 0.5t23 1.5q5 0 9.5 0.5t7.5 0.5q17 0 26.5 0.5t15.5 2t10.5 4.5t11.5 7q8 7 9.5 11t1.5 10q0 5 -2.5 13.5t-10.5 18.5l-6 8h11q7 0 11 1h-3q18 4 28 7t16 10t10.5 20.5t10.5 38.5l-2 -1l24 77q1 3 1 7t1 7q4 10 6 17.5t2 21.5
q0 17 -8 34.5t-27 33.5q-8 6 -30 17.5t-48.5 23.5t-53 21t-43.5 9h-8q-39 -6 -74.5 -28.5t-64 -51t-48.5 -58.5t-29 -51v-1q-3 -10 -5 -19t-2 -17v-7q0 -4 1 -7q2 -26 11 -48.5t20 -42.5h-4q-42 0 -42 -37zM308 306q-8 0 -15 -0.5t-16 -0.5h-27q-3 2 -5 3t-4 4
q-11 14 -19.5 28.5t-8.5 29.5v5q0 3 2 9v-1q6 25 22.5 48t37.5 41t43.5 31t40.5 19q3 0 5.5 0.5t7.5 0.5q3 0 11 -3v-5q0 -8 -2.5 -16.5t-4.5 -16.5q-4 -12 -4 -23l-16 -42q-1 -2 -1.5 -5t-0.5 -8l-6.5 -23t-3.5 -28q0 -31 21 -52q-12 3 -26.5 4t-30.5 1z" />
    <glyph glyph-name="twosuperior" unicode="&#xa4;" horiz-adv-x="355" 
d="M279 693q-19 8 -37 8q-22 0 -50.5 -12.5t-62.5 -40.5q-15 -11 -37 -33t-43 -47t-36 -47.5t-15 -34.5v-5q5 -16 13 -25.5t25 -13.5l-1 1q5 -1 10 -1.5t10 -0.5q12 0 24.5 5t17.5 17l-1 -3q31 42 48 61t24 25q7 4 7 8q17 17 39 32.5t42 15.5h7q2 -2 2 -5v-9
q-4 -15 -7.5 -25t-9 -19.5t-14 -21l-22.5 -29.5q-29 -37 -58.5 -66t-71.5 -58h1q-11 -6 -19.5 -10t-22.5 -8h1q-3 -1 -5 -1.5t-5 -1.5h1l-23.5 -6t-19.5 -14q-3 -5 -6 -11t-3 -12v-5q0 -10 5 -16q13 -30 48 -30q2 0 6 0.5t10 2.5h-4l38.5 8t27.5 4.5t29 2.5t44 3
q18 3 33.5 4t30.5 1h40q36 9 39 33q1 3 1 10q0 12 -7.5 20.5t-15.5 11.5q-13 6 -35.5 8.5t-43.5 2.5h-3l34.5 33t41.5 43q15 17 29 39t25 44t17.5 43t6.5 36v8q-3 40 -44 46q-4 0 -10 2q-11 0 -18 5q-3 3 -3.5 4l-1.5 3q-5 5 -8 10t-13 9z" />
    <glyph glyph-name="yen" unicode="&#xa5;" horiz-adv-x="576" 
d="M378 149q0 22 -9.5 34.5t-28.5 21.5q-15 5 -34 7.5t-43 2.5q2 5 3 10.5t3 11.5l10 1q2 1 6 1t9 1q4 1 7.5 1.5t8.5 0.5q11 2 18 2h11q31 0 41.5 8.5t10.5 31.5v10q-1 1 -1 6q0 29 -47 44q-5 2 -10 3l-10 2q36 51 91 111.5t138 138.5l11 8.5t13.5 11.5t11.5 13t5 15v4
q0 1 -0.5 1.5t-0.5 1.5l-7 13q-6 11 -22.5 17.5t-34.5 6.5q-28 0 -49 -22l-129.5 -142.5t-117.5 -142.5h-1q-8 14 -18.5 38.5t-22.5 55.5l-21 50.5t-22.5 48t-24.5 40.5t-27 29q-7 2 -16.5 3t-17.5 1q-15 0 -30 -2t-23 -9q-9 -6 -12 -15.5t-3 -22.5v-5q0 -16 7 -33t15 -33
q10 -15 20 -36.5t20 -46.5t19 -52l17 -52q-6 -1 -11.5 -1.5t-11.5 -1.5q-5 -1 -9 -1.5t-8 -0.5l-12 -1.5t-9 -2.5q-8 -2 -15.5 -5l-12.5 -5h1q-24 -11 -24 -28q3 -20 17 -37t29 -24q11 -5 48 -5h32l-4 -25q-10 -1 -18 -1.5t-13 -0.5q-14 -1 -23.5 -2t-14.5 -2h2
q-17 -3 -29 -15.5t-12 -26.5q0 -32 36 -51q23 -14 52 -17l-11 -65q1 -22 29 -39l9 -9q44 -16 67 -16q15 0 24 7.5t15 23.5t11 41.5l12 60.5q19 2 36 2.5t33 2.5q11 1 16 1h9h6q21 4 33 24v-1q8 14 8 27z" />
    <glyph glyph-name="brokenbar" unicode="&#xa6;" horiz-adv-x="190" 
d="M154 -80v14q1 6 1.5 12.5t1.5 13.5l14 164q0 6 0.5 14t1.5 18q2 13 3 27t1 28q0 27 -8 46.5t-32 19.5q-1 0 -3.5 -0.5t-4.5 -0.5q-21 -5 -32.5 -13t-17.5 -21t-8 -32.5t-4 -47.5q-1 -5 -1 -12q0 -6 -1 -12l-19 -217l1 2q-4 -12 -4 -22q0 -18 6 -29.5t15 -18t19 -9.5
t19 -3q17 0 30 20t21 60zM194 430l1 14q1 7 1.5 13t1.5 14l14 164q0 6 0.5 14t1.5 18q3 24 3 55q0 27 -7.5 46.5t-31.5 19.5q-1 0 -3.5 -0.5t-4.5 -0.5q-21 -5 -32.5 -13t-17.5 -21t-8.5 -32.5t-4.5 -48.5v-12q0 -6 -1 -12l-19 -217q-2 -6 -2.5 -10.5t-0.5 -8.5
q0 -18 6 -29.5t15 -18.5t19 -9.5t19 -2.5q17 0 30 19.5t21 58.5z" />
    <glyph glyph-name="section" unicode="&#xa7;" horiz-adv-x="423" 
d="M401 485q0 22 -8.5 29t-23.5 7q-6 0 -11.5 -0.5t-10.5 -1.5q-11 -4 -18 0q1 5 1.5 9t1.5 8q6 28 11.5 45t10 28t7 18.5t2.5 17.5q-5 17 -16 25t-26 8q-18 -2 -31 -15t-22 -31.5t-15 -40t-9.5 -40.5t-5 -32t-2.5 -14q-24 -5 -60 -8.5t-65 -3.5l24.5 39l30.5 47.5t25.5 42
t8.5 22.5q2 5 3 8.5t1 7.5q0 31 -29 42q-2 1 -5 1.5t-9 0.5q-35 0 -53 -50l-21.5 -40.5l-14 -25l-8.5 -14.5t-6 -9q-17 -25 -28.5 -48.5t-19.5 -58.5q2 -17 12 -39t19 -33q8 -6 21 -5.5t25 3.5t21 6t9 2q20 2 46 3t46 1h9l-4 -13.5t-4 -14.5q-6 -21 -9.5 -34.5l-5.5 -21.5
t-2.5 -12.5t-0.5 -8.5q0 -13 5 -20t22 -7q16 0 26 0.5t17 4t11.5 10t9.5 17.5q3 4 6.5 15.5t6 25t4.5 26.5l3 20t2 12.5t3 10.5q23 1 32.5 2.5t20.5 8.5q19 11 29.5 22.5t10.5 42.5v3z" />
    <glyph glyph-name="dieresis" unicode="&#xa8;" horiz-adv-x="410" 
d="M196 631q-3 23 -25.5 39t-62.5 16h-2q-38 0 -61.5 -14t-23.5 -37q5 -23 27 -38.5t58 -16.5q40 0 65 13.5t25 36.5v1zM392 631q-2 23 -25.5 39t-60.5 16h-5q-37 0 -59.5 -13.5t-22.5 -36.5q1 -23 23 -39t60 -17q38 0 64 13.5t26 36.5v1z" />
    <glyph glyph-name="copyright" unicode="&#xa9;" horiz-adv-x="809" 
d="M812 361q18 55 18 103q0 66 -28.5 121t-73.5 108q-19 22 -47 38t-60.5 27t-66.5 16.5t-64 5.5q-24 0 -48 -7t-47 -18.5t-45 -25.5l-42 -28q-55 -38 -98 -88t-74 -107.5t-50.5 -119.5t-26.5 -125q-1 -11 -1.5 -21t-0.5 -21q0 -52 14 -96t43 -75.5t72 -49t102 -17.5
q23 0 46.5 3.5t46.5 9.5q81 22 148 50.5t120.5 70.5t94 101.5t68.5 144.5zM722 438q-8 -69 -34 -122t-71 -99q-29 -29 -65 -52.5t-75 -40t-78.5 -25t-75.5 -8.5q-85 0 -131.5 40t-46.5 130v20t2 21q5 50 28.5 104t58 102t76.5 85t84 53q10 -7 23 -7q12 0 26 6l30 13.5
t34.5 14t39.5 6.5q39 0 71.5 -16.5t55.5 -45.5t36 -67.5t13 -82.5v-14t-1 -15zM593 297v4q0 15 -11 32t-24 17q-11 0 -23.5 -10l-21.5 -17l-30 -18.5t-33 -17t-34.5 -12.5t-33.5 -5q-31 0 -55.5 5t-24.5 28v3q2 18 9.5 32t18 26.5t23.5 24.5t26 26q8 9 24 23t34.5 26.5
t36 21.5t28.5 9t12 -10q2 -22 15.5 -30.5t27.5 -8.5t24 9.5t16.5 23t10 28.5t4.5 26q1 5 1 15q0 35 -21.5 53.5t-59.5 18.5q-37 0 -80.5 -24t-83 -59t-70.5 -74.5t-43 -70.5q-11 -24 -19.5 -49t-8.5 -50v-9q1 -23 7.5 -46.5t20.5 -42t35.5 -30.5t53.5 -12q6 0 12.5 0.5
t13.5 1.5q54 9 97 25.5t88 47.5q6 4 12.5 13t12 19.5t9.5 20.5t4 16z" />
    <glyph glyph-name="ordfeminine" unicode="&#xaa;" horiz-adv-x="342" 
d="M197 574q17 6 33 10.5t34 4.5h5q4 0 5 -2l-2 -23q-99 -7 -164 -39.5t-76 -99.5q0 -2 -0.5 -5.5t-0.5 -5.5q0 -15 6.5 -32t18 -31.5t26.5 -24t32 -9.5q41 0 79 14t64 25h1q0 -14 8 -22.5t34 -8.5q27 0 38 14.5t11 43.5l14 197v7q0 25 -7.5 41t-19 25t-26 12.5t-28.5 3.5
q-41 0 -86.5 -9.5t-83.5 -35.5h1l-6 -3q-9 -5 -18.5 -11.5t-11.5 -27.5v-5q0 -18 8.5 -24.5t22.5 -6.5t30 6.5l23 9.5q10 3 18.5 6zM310 210q28 0 42.5 11.5t14.5 27.5t-17.5 29t-55.5 13q-3 0 -6.5 0.5t-7.5 0.5q-5 0 -9 0.5t-9 0.5q-12 0 -21 -3h-124q-3 1 -13 1
q-5 0 -12.5 -0.5t-13.5 -1.5q-4 -1 -7 -1h-4q-29 0 -43.5 -12t-14.5 -26q0 -16 16 -29.5t48 -13.5l10 -2q5 -1 10.5 -1.5t11.5 -0.5q12 0 21 5l120 1zM140 397h-8q-14 3 -16 6t-2 17v2q1 12 15.5 22t36.5 18.5t49 15t54 11.5l2 -38q-1 -2 -15 -10.5t-33.5 -18.5t-42 -17.5
t-40.5 -7.5zM162 563l-1 -1v0q0 1 1 1z" />
    <glyph glyph-name="guillemotleft" unicode="&#xab;" horiz-adv-x="427" 
d="M420 430h-3q-17 0 -33 -11l-119 -78q-16 -7 -29 -20t-16 -30q-2 -20 3 -28t14 -13l96 -115l3 -3v1q7 -11 13.5 -17t19.5 -9h9q11 0 20 8t19 32v-1q2 4 2.5 6.5t1.5 5.5q2 11 -3 22t-21 26l-63 76l77 50q23 11 32.5 27t10.5 25q1 2 1 6t-3 7q-5 19 -11.5 25t-20.5 8z
M220 448h-3q-17 0 -33 -11l-119 -78q-16 -7 -29 -20t-16 -30q-2 -20 3 -28t14 -13l96 -115l3 -3v1q7 -11 13.5 -17t19.5 -9h9q11 0 20 8t19 32v-1q2 4 2.5 6.5t1.5 5.5q2 11 -3 22t-21 26l-63 76l77 50q23 11 32.5 27t10.5 25q1 2 1 6t-3 7q-5 19 -11.5 25t-20.5 8z" />
    <glyph glyph-name="logicalnot" unicode="&#xac;" horiz-adv-x="949" 
d="M860 173q28 17 46 32q20 17 32.5 37.5t4.5 44.5q-5 22 -16.5 37.5t-27.5 29.5q-17 15 -48 19t-66.5 1t-71 -12.5t-61.5 -21.5q-2 -31 -7 -67.5l-10.5 -73l-11 -71.5t-8.5 -64q-4 -18 0.5 -25.5t15.5 -19.5q13 -11 23.5 -18.5t26.5 -13.5q14 -9 25 -9.5t31 4.5
q16 4 35.5 11t38.5 15.5t36.5 18.5t29.5 22q17 14 25 29.5t3 36.5q-2 17 -15 33t-30 25zM503 78q2 -20 4 -36.5l4 -31.5q3 -14 8 -19.5t16 -8.5q12 -5 23 -5.5t24 -0.5q12 0 15.5 3.5t3.5 12.5q-3 42 -5.5 88.5t-4.5 90.5t-2.5 83.5t1.5 68.5q0 12 -4.5 18.5t-18.5 11.5
q-18 5 -39.5 9.5t-55.5 6.5q-20 2 -30.5 -4.5t-17.5 -17.5q-19 -30 -41 -70.5l-43.5 -83.5l-40.5 -84.5t-32 -74.5q-7 -21 -2 -27t16 -14q8 -4 15.5 -7t13.5 -6q12 -4 16.5 -2.5t9.5 10.5l15.5 32.5t18.5 35.5q27 8 62.5 12.5t70.5 9.5zM660 718q2 10 0 15.5t-14 12.5
q-25 16 -52 22q-14 3 -20.5 1.5t-9.5 -14.5q-10 -33 -19 -76t-20 -88q-17 -2 -35.5 -3t-38.5 -3q11 38 18.5 70t15.5 55q2 11 -0.5 16.5t-14.5 12.5q-13 8 -27.5 13.5t-27.5 9.5q-14 4 -21 2t-9 -15q-7 -33 -14 -75.5t-15 -86t-16.5 -85t-17.5 -74.5q-3 -14 1 -21t15 -12
q10 -6 23 -9.5l24 -6.5q13 -3 17 -0.5t6 10.5q6 24 11 53.5t14 62.5q19 3 38.5 5.5t38.5 5.5q-5 -27 -8 -49.5t-5 -40.5q-5 -18 6.5 -26.5t31.5 -14.5q20 -5 33.5 -7.5t13.5 11.5q7 40 17.5 85l21 89l21 84zM697 738l-54 -289q-2 -13 1.5 -22t11.5 -17q9 -9 17 -14.5
l16 -11.5q7 -5 17 -7.5t31 2.5q29 5 61 11.5l63 12.5q13 3 16 6.5t-2 13.5q-3 9 -6.5 17.5t-8.5 18.5q-5 8 -13 11.5t-22 1.5q-23 -2 -43.5 -3.5t-42.5 -6.5q5 14 7.5 27.5t7.5 27.5q27 6 56 10.5t57 9.5q13 3 16.5 6t-1.5 14q-3 9 -6.5 17.5t-8.5 17.5q-5 8 -12.5 11
t-20.5 2q-32 0 -55 -4q7 23 12.5 43.5t12.5 38.5q31 5 59 7.5t54 5.5q12 2 15 5t1 14q-2 9 -5 16.5t-8 17.5q-9 17 -32 17q-51 -2 -102 -10.5t-89 -17.5zM343 703q13 2 15 5t0 12q-10 23 -24 40q-5 5 -11 7.5t-20 2.5q-25 -1 -56.5 -3.5t-65 -5.5t-65.5 -7t-58 -8
q-8 -2 -10.5 -5t1.5 -12q5 -8 11.5 -21t16.5 -22q8 -8 15 -10t19 1q8 2 19.5 3.5t24.5 3.5l-15 -63.5t-14.5 -69.5t-12 -67.5t-7.5 -55.5q-5 -20 7.5 -28.5t31.5 -14.5q21 -6 34 -8.5t15 11.5q7 36 15.5 75l18 79l19.5 79.5l19 74.5q20 2 40 3.5t37 3.5zM235 6q15 3 16 6
t-1 14q-4 9 -7.5 18t-8.5 17q-8 9 -14.5 12t-19.5 2q-23 -2 -42.5 -4t-42.5 -5l17 65l18 67l18 63.5t18 55.5q3 10 0 15.5t-14 12.5q-26 14 -57 21q-13 4 -19 1.5t-11 -13.5q-10 -30 -21 -71t-20.5 -84t-17 -82.5t-11.5 -67.5q-2 -12 2 -20.5t12 -16.5l18 -14.5l15 -11.5
q7 -5 16 -8t31 3l61.5 12.5zM291 226q6 6 13 16t14 21.5t13 23.5t10 22q1 6 1.5 10t0.5 6q0 8 -7 16q-6 5 -13.5 10.5t-15.5 10.5q-11 7 -17.5 5.5t-11.5 -10.5l-14.5 -30l-17.5 -34l-17.5 -33l-14.5 -27q-7 -16 13 -20q8 -1 17 -2t16 1q9 0 16 3.5t15 10.5zM739 205
q5 23 10 42.5t12 37.5q38 16 63.5 17t30.5 -10q2 -7 -5 -18t-22 -23.5t-37.5 -24.5t-51.5 -21zM413 143l43 80t38 68q0 -33 1 -68t4 -71l-44 -4t-42 -5zM719 130q38 13 61.5 9.5t27.5 -13.5q4 -16 -25.5 -36.5t-81.5 -33.5q5 19 9 37t9 37z" />
    <glyph glyph-name="uni00AD" unicode="&#xad;" horiz-adv-x="537" 
d="M45 220q8 -12 28 -16t49 -4q12 0 25 0.5t28 0.5l26 2t27 1h2q6 0 32 0.5t56 1.5t57 2.5t35 3.5h20q26 0 38 1.5t22 8.5q9 4 11.5 8.5t2.5 12.5l-10 21t-10 14q-26 24 -66 30.5t-86 6.5h-43q-10 0 -20.5 -1t-20.5 -1q-25 0 -54 -0.5t-55 -1.5t-45.5 -2t-24.5 -2h1
q-20 -4 -31 -8.5t-11 -19.5v-4q0 -4 1 -6v-7l5.5 -21t10.5 -21z" />
    <glyph glyph-name="registered" unicode="&#xae;" horiz-adv-x="888" 
d="M872 361l14 58t8 47q1 8 1.5 15.5t0.5 15.5q0 69 -34 126q-37 64 -120 109q-119 63 -220 63q-102 0 -202 -58q-208 -121 -225 -359q-1 -12 -1.5 -23.5t-0.5 -22.5q0 -77 21 -131q30 -77 105 -132q86 -62 187 -62q103 0 231 68q99 55 152 118q28 33 48.5 74t34.5 94z
M785 414q-6 -54 -43 -115q-35 -60 -80 -96q-95 -76 -213 -76h-13q-6 0 -13 1q-104 8 -167 66q-64 61 -64 158q0 8 0.5 16.5t1.5 16.5q6 47 22 89q32 91 115 146q84 57 179 57q109 0 194 -76q82 -72 82 -165v-11q0 -5 -1 -11zM681 533q-35 71 -164 71q-72 0 -150 -21
q-37 -10 -42 -53v-7q0 -17 13 -29q0 -22 -5.5 -70t-16.5 -126q-1 -6 -3.5 -14l-5.5 -17l-5.5 -17t-2.5 -14v-6q0 -16 7 -27q26 -20 45 -20q14 0 34 9q21 9 26 53q0 5 0.5 12t1.5 15v23q5 1 9 1h8q20 0 36 -8q21 -11 51 -47q34 -36 55 -48q3 -1 15 -1q30 0 57 31q9 10 9 19v1
q0 9 -18 35q-37 39 -55 51q54 22 78 52q33 39 37 81v11q0 30 -14 60zM515 509q15 0 30 -2t31 -6q27 -8 27 -27v-4q-2 -22 -39 -41q-31 -14 -54 -20q-20 -5 -37.5 -7.5t-32.5 -2.5q-4 0 -7.5 0.5t-6.5 0.5q0 20 2.5 44.5t7.5 54.5q44 10 79 10z" />
    <glyph glyph-name="macron" unicode="&#xaf;" horiz-adv-x="244" 
d="M200 628q1 3 2 8t4 12q5 15 11.5 31t6.5 28q0 5 -2.5 10l-4.5 9q-14 16 -27.5 19.5t-38.5 3.5q-2 0 -19 -0.5t-38.5 -3t-41.5 -8.5t-27 -16v2q-10 -13 -10 -25q0 -13 10 -20q8 -15 20.5 -17.5t23.5 -2.5h8l-76 -274h-2q-8 -1 -13.5 -1.5t-9.5 -0.5t-8 -0.5t-9 -1.5h1
q-29 -11 -29 -36v-11q3 -25 35 -36q7 -2 11 -2.5t11 -0.5q10 0 25 1.5t32 3.5l33.5 4t29.5 4q5 1 9.5 1.5t6.5 0.5q4 0 12 2q20 7 26.5 15t6.5 19q0 2 -0.5 4t-0.5 3q-8 17 -19.5 24t-26.5 9z" />
    <glyph glyph-name="degree" unicode="&#xb0;" horiz-adv-x="215" 
d="M239 604q0 3 0.5 6t0.5 6q0 31 -18 54.5t-55 23.5q-31 0 -55.5 -13t-41.5 -32.5t-27 -43.5t-11 -45v-5q0 -30 17 -53t59 -23q24 0 47 10t41 27t29.5 39.5t13.5 47.5v1zM126 559q-4 0 -4 10q1 14 10.5 27.5t28.5 13.5q4 0 4 -7v-4q-1 -16 -12 -28t-27 -12z" />
    <glyph glyph-name="plusminus" unicode="&#xb1;" horiz-adv-x="461" 
d="M474 465q0 38 -37 47q-25 3 -43.5 4.5t-32.5 2.5q-35 3 -40 6q-13 10 -13 34q0 6 1 15.5t2.5 20t2.5 20t1 15.5q0 61 -51 61q-34 0 -46 -40q-2 -9 -3 -26t-3 -41q-2 -20 -3.5 -32.5t-3.5 -22.5q-3 -23 -62 -23q-25 0 -41.5 -1t-25.5 -3q-37 -10 -37 -44q0 -10 2.5 -19
t6.5 -18q14 -26 62 -26q5 0 16 1t18 1q31 0 31 -23q0 -8 -0.5 -17.5t-1.5 -22.5q-3 -24 -3 -39q0 -74 50 -74q21 0 30 11q7 7 19 46l7 28.5l5 21.5q6 30 20 49q20 26 45 26h75q24 0 40 19q13 16 13 43zM450 113q0 38 -37 47q-25 3 -43.5 5.5t-32.5 1.5q-39 -2 -69 -4t-55 -4
t-47.5 -3.5t-46.5 -1.5q-25 0 -41.5 -1t-25.5 -3q-37 -10 -37 -44q0 -10 2.5 -19t6.5 -18q14 -26 62 -26q5 0 16 1t18 1l277 6q24 0 40 19q13 16 13 43z" />
    <glyph glyph-name="threesuperior" unicode="&#xb3;" horiz-adv-x="419" 
d="M366 376q20 40 20 83t-29 78q14 14 27.5 35.5t13.5 49.5q1 25 -8.5 43t-26 29t-38.5 15t-44 1q-23 0 -48 -4.5t-49 -14.5t-45.5 -26.5t-39.5 -40.5q5 -20 15 -36.5t31 -16.5q5 1 14.5 5t17.5 9q20 14 44 26.5t47 12.5q8 0 16.5 -2t16.5 -7q-1 -6 -8 -14t-13 -14h2
q-15 -8 -31.5 -12.5t-34.5 -7.5q-2 0 -2.5 -0.5t-1.5 -0.5q-18 -5 -35.5 -11t-34.5 -20q-2 -7 -2.5 -13.5t-0.5 -12.5q0 -23 11.5 -36t30.5 -13q6 0 9.5 0.5t8.5 2.5q28 10 52 10q20 3 31.5 -8.5t11.5 -28.5q-5 -21 -20 -37t-35.5 -25.5t-42.5 -10.5t-41 9q-11 3 -21 13
t-18 19q-10 13 -19 21.5t-22 8.5q-10 -1 -12.5 -1.5t-3.5 -1.5h1q-7 -5 -15 -11.5t-15 -15t-12 -19t-5 -23.5q0 -5 1 -6q16 -36 38 -50t56 -26q17 -5 34 -7.5t34 -2.5q30 0 60 7.5t56 21.5t45.5 33.5t28.5 43.5z" />
    <glyph glyph-name="acute" unicode="&#xb4;" horiz-adv-x="248" 
d="M91 593h3q7 0 15 4t25 24q5 7 16.5 16t28.5 21q16 12 27 21t19.5 18.5t14.5 21t11 27.5q1 5 2 9t1 13q0 20 -9 28.5t-25 8.5q-11 0 -25.5 -5.5t-30.5 -15.5q-13 -9 -27 -23.5t-27.5 -32t-25 -35.5t-19.5 -34q-11 -24 -11 -33q0 -14 8 -19.5t25 -12.5z" />
    <glyph glyph-name="paragraph" unicode="&#xb6;" horiz-adv-x="468" 
d="M378 611q-53 0 -109.5 -20t-104.5 -58t-80.5 -93.5t-36.5 -126.5v1q-1 -6 -1 -13v-11q0 -72 34 -113t98 -41h16q9 0 17 1l-14 -226v-7q0 -31 13.5 -46t31.5 -15q8 0 13 2l-1 -1q17 4 28.5 12.5t18.5 23.5t11.5 37t7.5 55l42 528h6q1 0 2.5 0.5t3.5 0.5q3 0 6.5 -1.5
t7.5 -8.5l-48 -571v-9q0 -30 13.5 -45t32.5 -15h5t8 2l-1 -1q17 4 28.5 12t18.5 23t11 37.5t7 55.5l36 566v3q0 20 -13.5 32t-32.5 19t-40 9t-35 2z" />
    <glyph glyph-name="cedilla" unicode="&#xb7;" horiz-adv-x="158" 
d="M43 347v-8q0 -11 3.5 -19t8.5 -15q20 -15 37.5 -20.5t26.5 -5.5q14 0 27 3.5t23 8.5q19 10 31.5 26t13.5 35q0 34 -37 49q-10 5 -21 8.5t-22 3.5q-7 0 -11 -0.5t-10 -1.5q-27 -5 -47 -23t-23 -41z" />
    <glyph glyph-name="ordmasculine" unicode="&#xba;" horiz-adv-x="449" 
d="M469 549q-6 27 -22 45t-37 30t-44.5 20l-45.5 15q-18 5 -33 6.5t-29 1.5q-43 0 -78 -15.5t-63 -39.5t-49.5 -54.5t-37.5 -60.5q-14 -31 -14 -56q0 -32 14.5 -61t37.5 -48q24 -20 56 -29t67 -9q26 0 52 3q45 9 77 23t61 28l11 5.5t11 4.5h-1q42 19 58 56t16 79q0 29 -6 55
zM41 159q8 -12 28 -16t49 -4q12 0 25 0.5t28 0.5h3q15 0 40 0.5t50.5 1.5t46.5 2.5t28 3.5h20q26 0 38 1.5t22 8.5q9 4 11.5 8.5t2.5 12.5l-10 21t-10 14q-26 24 -66 30.5t-86 6.5h-43q-10 0 -20.5 -1t-20.5 -1q-50 0 -75.5 -0.5t-36.5 -2.5h1q-20 -4 -31 -8.5t-11 -19.5v-4
q0 -4 1 -6v-7l5.5 -21t10.5 -21zM325 479q-7 -14 -22 -23.5t-33 -15.5t-36.5 -8.5t-31.5 -2.5q-11 0 -18.5 3t-9.5 12q0 2 -0.5 4.5t-0.5 5.5q0 19 7.5 32t18 23t23 17l22.5 13q3 2 12 2q10 0 22.5 -4t23.5 -11t19 -16.5t8 -19.5q0 -6 -3 -10z" />
    <glyph glyph-name="guillemotright" unicode="&#xbb;" horiz-adv-x="427" 
d="M54 126h3q16 0 33 11l119 78q16 7 29 20t16 30q2 20 -3 28t-14 13l-96 115l-3 3v-1q-7 11 -13.5 17t-19.5 9h-9q-11 0 -20 -8t-19 -32v1q-2 -4 -2.5 -6.5t-1.5 -5.5q-2 -11 3 -22t21 -26l63 -76l-77 -50q-23 -11 -32.5 -27t-10.5 -25q-1 -2 -1 -6t3 -7q5 -19 11.5 -25
t20.5 -8zM254 108h3q16 0 33 11l119 78q16 7 29 20t16 30q2 20 -3 28t-14 13l-96 115l-3 3v-1q-7 11 -13.5 17t-19.5 9h-9q-11 0 -20 -8t-19 -32v1q-2 -4 -2.5 -6.5t-1.5 -5.5q-2 -11 3 -22t21 -26l63 -76l-77 -50q-23 -11 -32.5 -27t-10.5 -25q-1 -2 -1 -6t3 -7
q5 -19 11.5 -25t20.5 -8z" />
    <glyph glyph-name="onequarter" unicode="&#xbc;" horiz-adv-x="709" 
d="M725 218q0 22 -8.5 29t-23.5 7q-6 0 -11.5 -0.5t-10.5 -1.5q-11 -4 -18 0q1 5 1.5 9t1.5 8q6 28 11.5 45t10 28t7 18.5t2.5 17.5q-5 17 -16 25t-26 8q-18 -2 -31 -15t-22 -31.5t-15 -40t-9.5 -40.5t-5 -32t-2.5 -14q-24 -5 -60 -8.5t-65 -3.5l24.5 39l30.5 47.5t25.5 42
t8.5 22.5q2 5 3 8.5t1 7.5q0 31 -29 42q-2 1 -5 1.5t-9 0.5q-35 0 -53 -50l-21.5 -40.5l-14 -25l-8.5 -14.5t-6 -9q-17 -25 -28.5 -48.5t-19.5 -58.5q2 -17 12 -39t19 -33q8 -6 21 -5.5t25 3.5t21 6t9 2q20 2 46 3t46 1h9l-4 -13.5t-4 -14.5q-6 -21 -9.5 -34.5l-5.5 -21.5
t-2.5 -12.5t-0.5 -8.5q0 -13 5 -20t22 -7q16 0 26 0.5t17 4t11.5 10t9.5 17.5q3 4 6.5 15.5t6 25t4.5 26.5l3 20t2 12.5t3 10.5q23 1 32.5 2.5t20.5 8.5q19 11 29.5 22.5t10.5 42.5v3zM505 607q0 19 -10 32t-34 13q-35 0 -50 -14t-20 -31l-34.5 -58l-47 -83l-53.5 -97
l-53 -98.5l-45 -87.5t-31 -65q-20 -40 -20 -68q0 -23 12 -33.5t40 -10.5q13 0 23 6t17.5 15t13 19.5t9.5 19.5q1 3 3.5 8t4.5 11t4.5 11l3.5 7q9 22 25 51.5l35.5 64l41.5 71.5l44 73l65 111t45 83v3q3 11 7 23.5t4 23.5zM261 608l-2 -1q7 14 15.5 33t8.5 31v5q0 7 -6 13
q-11 16 -24.5 18.5t-36.5 2.5q-1 0 -16 -0.5t-34.5 -2.5t-38.5 -7t-27 -14q-6 -6 -8 -13t-2 -13q0 -7 2 -13q7 -15 23 -17.5t27 -2.5l-87 -244q-2 0 -3 -0.5t-3 -0.5q-7 -1 -12 -2l-15 -3l1 1q-20 -4 -27 -16.5t-7 -23.5q0 -29 36 -38q4 -4 16 -4q13 0 31 1.5t36 4t34 4.5
t25 3q5 2 6.5 2.5t7.5 0.5q18 8 23.5 16t5.5 17v7q-5 14 -16 20.5t-22 9.5l82 214q1 6 7 12z" />
    <glyph glyph-name="onehalf" unicode="&#xbd;" horiz-adv-x="709" 
d="M610 422q-19 8 -37 8q-22 0 -50.5 -12.5t-62.5 -40.5q-15 -11 -37 -33t-43 -47t-36 -47.5t-15 -34.5v-5q5 -16 13 -25.5t25 -13.5l-1 1q5 -1 10 -1.5t10 -0.5q12 0 24.5 5t17.5 17l-1 -3q31 42 48 61t24 25q7 4 7 8q17 17 39 32.5t42 15.5h7q2 -2 2 -5v-9
q-4 -15 -7.5 -25t-9 -19.5t-14 -21l-22.5 -29.5q-29 -37 -58.5 -66t-71.5 -58h1q-11 -6 -19.5 -10t-22.5 -8h1q-3 -1 -5 -1.5t-5 -1.5h1l-23.5 -6t-19.5 -14q-3 -5 -6 -11t-3 -12v-5q0 -4 0.5 -8t4.5 -8q13 -30 48 -30q2 0 6 0.5t10 2.5h-4l38.5 8t27.5 4.5t29 2.5t44 3
q18 3 33.5 4t30.5 1h40q36 9 39 33q1 3 1 10q0 12 -7.5 20.5t-15.5 11.5q-13 6 -35.5 8.5t-43.5 2.5h-3l34.5 33t41.5 43q15 17 29 39t25 44t17.5 43t6.5 36v8q-3 40 -44 46q-4 0 -10 2q-11 0 -18 5q-4 4 -5 7q-5 5 -8 10t-13 9zM505 607q0 19 -10 32t-34 13q-35 0 -50 -14
t-20 -31l-34.5 -58l-47 -83l-53.5 -97l-53 -98.5l-45 -87.5t-31 -65q-20 -40 -20 -68q0 -23 12 -33.5t40 -10.5q13 0 23 6t17.5 15t13 19.5t9.5 19.5q1 3 3.5 8t4.5 11t4.5 11l3.5 7q9 22 25 51.5l35.5 64l41.5 71.5l44 73l65 111t45 83v3q3 11 7 23.5t4 23.5zM261 608
l-2 -1q7 14 15.5 33t8.5 31v5q0 7 -6 13q-11 16 -24.5 18.5t-36.5 2.5q-1 0 -16 -0.5t-34.5 -2.5t-38.5 -7t-27 -14q-6 -6 -8 -13t-2 -13q0 -7 2 -13q7 -15 23 -17.5t27 -2.5l-87 -244q-2 0 -3 -0.5t-3 -0.5q-7 -1 -12 -2l-15 -3l1 1q-20 -4 -27 -16.5t-7 -23.5
q0 -29 36 -38q4 -4 16 -4q13 0 31 1.5t36 4t34 4.5t25 3q5 2 6.5 2.5t7.5 0.5q18 8 23.5 16t5.5 17v7q-5 14 -16 20.5t-22 9.5l82 214q1 6 7 12z" />
    <glyph glyph-name="threequarters" unicode="&#xbe;" horiz-adv-x="822" 
d="M338 380q20 40 20 83t-29 78q14 14 27.5 35.5t13.5 49.5q1 25 -8.5 43t-26 29t-38.5 15t-44 1q-23 0 -48 -4.5t-49 -14.5t-45.5 -26.5t-39.5 -40.5q5 -20 15 -36.5t31 -16.5q5 1 14.5 5t17.5 9q20 14 44 26.5t47 12.5q8 0 16.5 -2t16.5 -7q-1 -6 -8 -14t-13 -14h2
q-15 -8 -31.5 -12.5t-34.5 -7.5q-2 0 -2.5 -0.5t-1.5 -0.5q-18 -5 -35.5 -11t-34.5 -20q-2 -7 -2.5 -13.5t-0.5 -12.5q0 -23 11.5 -36t30.5 -13q6 0 9.5 0.5t8.5 2.5q28 10 52 10q20 3 31.5 -8.5t11.5 -28.5q-5 -21 -20 -37t-35.5 -25.5t-42.5 -10.5t-41 9q-11 3 -21 13
t-18 19q-10 13 -19 21.5t-22 8.5q-10 -1 -12.5 -1.5t-3.5 -1.5h1q-7 -5 -15 -11.5t-15 -15t-12 -19t-5 -23.5q0 -5 1 -6q16 -36 38 -50t56 -26q17 -5 34 -7.5t34 -2.5q30 0 60 7.5t56 21.5t45.5 33.5t28.5 43.5zM838 218q0 22 -8.5 29t-23.5 7q-6 0 -11.5 -0.5t-10.5 -1.5
q-11 -4 -18 0q1 5 1.5 9t1.5 8q6 28 11.5 45t10 28t7 18.5t2.5 17.5q-5 17 -16 25t-26 8q-18 -2 -31 -15t-22 -31.5t-15 -40t-9.5 -40.5t-5 -32t-2.5 -14q-24 -5 -60 -8.5t-65 -3.5l24.5 39l30.5 47.5t25.5 42t8.5 22.5q2 5 3 8.5t1 7.5q0 31 -29 42q-2 1 -5 1.5t-9 0.5
q-35 0 -53 -50l-21.5 -40.5l-14 -25l-8.5 -14.5t-6 -9q-17 -25 -28.5 -48.5t-19.5 -58.5q2 -17 12 -39t19 -33q8 -6 21 -5.5t25 3.5t21 6t9 2q20 2 46 3t46 1h9l-4 -13.5t-4 -14.5q-6 -21 -9.5 -34.5l-5.5 -21.5t-2.5 -12.5t-0.5 -8.5q0 -13 5 -20t22 -7q16 0 26 0.5t17 4
t11.5 10t9.5 17.5q3 4 6.5 15.5t6 25t4.5 26.5l3 20t2 12.5t3 10.5q23 1 32.5 2.5t20.5 8.5q19 11 29.5 22.5t10.5 42.5v3zM618 607q0 19 -10 32t-34 13q-35 0 -50 -14t-20 -31l-34.5 -58l-47 -83l-53.5 -97l-53 -98.5l-45 -87.5t-31 -65q-20 -40 -20 -68q0 -23 12 -33.5
t40 -10.5q13 0 23 6t17.5 15t13 19.5t9.5 19.5q1 3 3.5 8t4.5 11t4.5 11l3.5 7q9 22 25 51.5l35.5 64l41.5 71.5l44 73l65 111t45 83v3q3 11 7 23.5t4 23.5z" />
    <glyph glyph-name="questiondown" unicode="&#xbf;" horiz-adv-x="675" 
d="M20 -20h1q-4 -11 -5 -20t-1 -17q0 -41 28 -78q40 -50 96 -61q20 -4 47.5 -6t64.5 -2q64 0 93 7h-1q99 13 131 24q158 45 179 113q1 3 1.5 5.5t0.5 7.5q0 8 -0.5 19.5t-3 21.5t-7.5 17t-14 7q-12 13 -28 13q-14 0 -32.5 -8.5t-42.5 -22.5q-22 -14 -34 -23.5t-14 -10.5
q-17 -6 -28 -11.5l-20.5 -10t-20 -7.5t-25.5 -5q-34 -5 -59.5 -7.5t-43.5 -2.5h-2q-130 0 -130 45q0 4 2 12q19 58 150 102l26 8.5t22 5.5l41 7t53 11q6 2 12 3t13 3q10 2 18.5 4l16.5 4q7 2 11.5 3t8.5 2q23 5 40.5 25t24.5 41q2 5 3.5 14t2.5 26q1 7 1.5 13t0.5 12v21
q0 18 2 34.5t2 29.5q0 15 -5.5 23.5t-22.5 10.5q-8 1 -16 1h-13q-35 0 -44.5 -10.5t-9.5 -36.5q0 -11 -1.5 -24l-3.5 -29l-7 -15q-5 -4 -10.5 -7.5t-13.5 -5.5l-9 -1.5t-19 -3.5q-35 -5 -74.5 -17.5t-84.5 -31.5q-49 -20 -86 -41t-63 -42q-30 -26 -57 -64q-2 -2 -2.5 -4
t-2.5 -4l-21.5 -36t-14.5 -30zM475 498l1 1q-2 -5 -2.5 -9t-0.5 -9q0 -22 19 -40q22 -19 53 -19q58 0 81 33q17 17 20 26q4 15 6.5 28t2.5 25q0 55 -58 55q-36 0 -73 -28q-38 -28 -49 -63z" />
    <glyph glyph-name="Agrave" unicode="&#xc0;" horiz-adv-x="628" 
d="M468 96l10 -51q4 -21 10 -33.5t15 -19.5t21 -10t29 -6q6 0 13.5 2t18.5 7q17 7 24.5 22.5t7.5 32.5q0 14 -5 26l-1 2q-83 595 -117 608l-14.5 3.5t-17.5 1.5h-3v1q-47 -7 -75 -18t-45 -26t-27.5 -35l-22.5 -44l-22.5 -45t-28.5 -48l-55.5 -90.5l-60.5 -101.5l-57 -102
t-46 -91q-7 -17 -10.5 -31t-3.5 -31v-13q0 -11 5.5 -20.5t14.5 -16t19.5 -10t20.5 -3.5q26 0 47 10.5t35 41.5q11 23 18.5 40.5t14 31t13.5 24.5t17 21l4 1h11q2 0 3 0.5t3 0.5q24 1 54 3l85 4t68 2h11l7 -3h1l4 -4l2 -3zM431 233l-4 -2h-157l-3 1l-6 11v4l129 215l7 3
l10 -2l5 -5l26 -214l-2 -4l-7 -7h2zM497 709q19 7 27.5 13t8.5 20q0 9 -11 33q-8 16 -19.5 34t-25 35.5t-28 32t-27.5 23.5q-32 21 -55 21q-16 0 -25 -8.5t-9 -28.5q0 -9 0.5 -13t2.5 -9q5 -16 11 -27.5t14.5 -21t19.5 -18.5t27 -21q17 -12 28.5 -21t16.5 -16
q15 -19 26.5 -23.5t15.5 -4.5h2z" />
    <glyph glyph-name="Aacute" unicode="&#xc1;" horiz-adv-x="628" 
d="M468 96l10 -51q4 -21 10 -33.5t15 -19.5t21 -10t29 -6q6 0 13.5 2t18.5 7q17 7 24.5 22.5t7.5 32.5q0 14 -5 26l-1 2q-83 595 -117 608l-14.5 3.5t-17.5 1.5h-3v1q-47 -7 -75 -18t-45 -26t-27.5 -35l-22.5 -44l-22.5 -45t-28.5 -48l-55.5 -90.5l-60.5 -101.5l-57 -102
t-46 -91q-7 -17 -10.5 -31t-3.5 -31v-13q0 -11 5.5 -20.5t14.5 -16t19.5 -10t20.5 -3.5q26 0 47 10.5t35 41.5q11 23 18.5 40.5t14 31t13.5 24.5t17 21l4 1h11q2 0 3 0.5t3 0.5q24 1 54 3l85 4t68 2h11l7 -3h1l4 -4l2 -3zM431 233l-4 -2h-157l-3 1l-6 11v4l129 215l7 3
l10 -2l5 -5l26 -214l-2 -4l-7 -7h2zM392 703h3q7 0 15 4t25 24q5 7 16.5 16t28.5 21q16 12 27 21t19.5 18.5t14.5 21t11 27.5q1 5 2 9t1 13q0 20 -9 28.5t-25 8.5q-11 0 -25.5 -5.5t-30.5 -15.5q-13 -9 -27 -23.5t-27.5 -32t-25 -35.5t-19.5 -34q-11 -24 -11 -33
q0 -14 8 -19.5t25 -12.5z" />
    <glyph glyph-name="Acircumflex" unicode="&#xc2;" horiz-adv-x="628" 
d="M468 96l10 -51q4 -21 10 -33.5t15 -19.5t21 -10t29 -6q6 0 13.5 2t18.5 7q17 7 24.5 22.5t7.5 32.5q0 14 -5 26l-1 2q-83 595 -117 608l-14.5 3.5t-17.5 1.5h-3v1q-47 -7 -75 -18t-45 -26t-27.5 -35l-22.5 -44l-22.5 -45t-28.5 -48l-55.5 -90.5l-60.5 -101.5l-57 -102
t-46 -91q-7 -17 -10.5 -31t-3.5 -31v-13q0 -11 5.5 -20.5t14.5 -16t19.5 -10t20.5 -3.5q26 0 47 10.5t35 41.5q11 23 18.5 40.5t14 31t13.5 24.5t17 21l4 1h11q2 0 3 0.5t3 0.5q24 1 54 3l85 4t68 2h11l7 -3h1l4 -4l2 -3zM539 808q-5 10 -9 14t-9 7q3 -2 -5.5 7.5
t-24.5 21.5t-38.5 22.5t-48.5 10.5h-3q-14 0 -22.5 -9t-13.5 -30q0 -5 -7 -10t-16 -10l-18 -10.5t-13 -10.5q-9 -8 -16 -22.5t-7 -32.5q0 -16 5 -26q13 -26 34 -26q13 0 28 12l18 18.5l15 15.5l8 8t10 9q21 -2 35.5 -9.5t40.5 -27.5q6 -4 12 -7t14 -3q10 0 21 9q18 13 18 42
q0 11 -2.5 20t-5.5 18v-1zM431 233l-4 -2h-157l-3 1l-6 11v4l129 215l7 3l10 -2l5 -5l26 -214l-2 -4l-7 -7h2z" />
    <glyph glyph-name="Atilde" unicode="&#xc3;" horiz-adv-x="628" 
d="M468 96l10 -51q4 -21 10 -33.5t15 -19.5t21 -10t29 -6q6 0 13.5 2t18.5 7q17 7 24.5 22.5t7.5 32.5q0 14 -5 26l-1 2q-83 595 -117 608l-14.5 3.5t-17.5 1.5h-3v1q-47 -7 -75 -18t-45 -26t-27.5 -35l-22.5 -44l-22.5 -45t-28.5 -48l-55.5 -90.5l-60.5 -101.5l-57 -102
t-46 -91q-7 -17 -10.5 -31t-3.5 -31v-13q0 -11 5.5 -20.5t14.5 -16t19.5 -10t20.5 -3.5q26 0 47 10.5t35 41.5q11 23 18.5 40.5t14 31t13.5 24.5t17 21l4 1h11q2 0 3 0.5t3 0.5q24 1 54 3l85 4t68 2h11l7 -3h1l4 -4l2 -3zM566 789v2q0 12 -13.5 21t-28.5 9q-12 0 -23 -5.5
t-16 -17.5q-1 -2 -1.5 -5t-1.5 -5l-4 -12.5t-7 -6.5t-9 5l-9 11v-1q-9 11 -21.5 22t-37.5 11q-16 0 -35 -6.5t-36.5 -17.5t-29.5 -24.5t-13 -27.5v-2q0 -14 11.5 -24t31.5 -10q13 0 22 7t18 16q5 5 11 10t10 5l2.5 -3t6.5 -6q10 -11 25 -22t44 -11q46 0 72.5 18t31.5 70z
M431 233l-4 -2h-157l-3 1l-6 11v4l129 215l7 3l10 -2l5 -5l26 -214l-2 -4l-7 -7h2z" />
    <glyph glyph-name="Adieresis" unicode="&#xc4;" horiz-adv-x="628" 
d="M468 96l10 -51q4 -21 10 -33.5t15 -19.5t21 -10t29 -6q6 0 13.5 2t18.5 7q17 7 24.5 22.5t7.5 32.5q0 14 -5 26l-1 2q-83 595 -117 608l-14.5 3.5t-17.5 1.5h-3v1q-47 -7 -75 -18t-45 -26t-27.5 -35l-22.5 -44l-22.5 -45t-28.5 -48l-55.5 -90.5l-60.5 -101.5l-57 -102
t-46 -91q-7 -17 -10.5 -31t-3.5 -31v-13q0 -11 5.5 -20.5t14.5 -16t19.5 -10t20.5 -3.5q26 0 47 10.5t35 41.5q11 23 18.5 40.5t14 31t13.5 24.5t17 21l4 1h11q2 0 3 0.5t3 0.5q24 1 54 3l85 4t68 2h11l7 -3h1l4 -4l2 -3zM431 233l-4 -2h-157l-3 1l-6 11v4l129 215l7 3
l10 -2l5 -5l26 -214l-2 -4l-7 -7h2zM410 755q-3 23 -25.5 39t-62.5 16h-2q-38 0 -61.5 -14t-23.5 -37q5 -23 27 -38.5t58 -16.5q40 0 65 13.5t25 36.5v1zM606 755q-2 23 -25.5 39t-60.5 16h-5q-37 0 -59.5 -13.5t-22.5 -36.5q1 -23 23 -39t60 -17q38 0 64 13.5t26 36.5v1z
" />
    <glyph glyph-name="Aring" unicode="&#xc5;" horiz-adv-x="628" 
d="M468 96l10 -51q4 -21 10 -33.5t15 -19.5t21 -10t29 -6q6 0 13.5 2t18.5 7q17 7 24.5 22.5t7.5 32.5q0 14 -5 26l-1 2q-83 595 -117 608l-14.5 3.5t-17.5 1.5h-3v1q-47 -7 -75 -18t-45 -26t-27.5 -35l-22.5 -44l-22.5 -45t-28.5 -48l-55.5 -90.5l-60.5 -101.5l-57 -102
t-46 -91q-7 -17 -10.5 -31t-3.5 -31v-13q0 -11 5.5 -20.5t14.5 -16t19.5 -10t20.5 -3.5q26 0 47 10.5t35 41.5q11 23 18.5 40.5t14 31t13.5 24.5t17 21l4 1h11q2 0 3 0.5t3 0.5q24 1 54 3l85 4t68 2h11l7 -3h1l4 -4l2 -3zM534 826q0 3 0.5 6t0.5 6q0 31 -18 54.5t-55 23.5
q-31 0 -55.5 -13t-41.5 -32.5t-27 -43.5t-11 -45v-5q0 -30 17 -53t59 -23q24 0 47 10t41 27t29.5 39.5t13.5 47.5v1zM431 233l-4 -2h-157l-3 1l-6 11v4l129 215l7 3l10 -2l5 -5l26 -214l-2 -4l-7 -7h2zM421 781q-4 0 -4 10q1 14 10.5 27.5t28.5 13.5q4 0 4 -7v-4
q-1 -16 -12 -28t-27 -12z" />
    <glyph glyph-name="AE" unicode="&#xc6;" horiz-adv-x="1045" 
d="M468 96l10 -51q4 -21 10 -33.5t15 -19.5t21 -10t29 -6q12 0 29 8q5 -2 9 -3t7 -1q28 0 49 4t52 9h2l294 44q21 2 29 5t9 5q5 6 5.5 11.5t-3.5 16.5q-2 9 -8 19h-5q-13 11 -35.5 14t-40.5 5q-22 0 -45 -4t-46 -4q-4 0 -7.5 0.5t-7.5 0.5q-2 0 -10.5 -1t-20 -1.5t-23 -1.5
t-19.5 -1l-73 -4t-71 -7l-4 1l-13 8l-9.5 72.5t-9.5 66.5q-2 18 -3 32.5t-1 20.5l2 1h1l6 2h19q7 -1 12 -1h11h21q16 0 32.5 0.5t37.5 2t49.5 4t68.5 6.5q4 0 13.5 0.5t19.5 1.5t19 1.5t12 0.5q25 4 27 17t-3 27l-7 19q-11 20 -36 24.5t-54 4.5h-112q-38 0 -76 0.5t-63 3.5
l-10 10l-2 4q-1 9 -3 31t-3.5 46.5t-2 46t-0.5 29.5h-1l2 2l5 2q11 1 17 1.5t10.5 1t10 1t15.5 0.5h40l187 8h38q9 0 10 1l1 3q23 5 28 14.5t2 18.5l-3 8q-8 10 -16 16t-18.5 9.5t-25 5.5t-35.5 4q-42 0 -101.5 3.5t-121.5 5.5t-118.5 0.5t-91.5 -10.5q-26 -8 -42 -19
t-27.5 -24.5t-20 -30l-17.5 -35.5l-22.5 -45t-28.5 -48l-55.5 -90.5l-60.5 -101.5l-57 -102t-46 -91q-7 -17 -10.5 -31t-3.5 -31v-13q0 -11 5.5 -20.5t14.5 -16t19.5 -10t20.5 -3.5q26 0 47 10.5t35 41.5q11 23 18.5 40.5t14 31t13.5 24.5t17 21l4 1h11q2 0 3 0.5t3 0.5
q24 1 54 3l85 4t68 2h11l7 -3h1l4 -4l2 -3zM431 233l-4 -2h-157l-3 1l-6 11v4l129 215l7 3l10 -2l5 -5l26 -214l-2 -4l-7 -7h2z" />
    <glyph glyph-name="Ccedilla" unicode="&#xc7;" horiz-adv-x="610" 
d="M165 -97q-11 -7 -15 -10t-4 -14q0 -1 25 -1h59h19t9 -1q-33 -9 -55.5 -21t-37 -24t-20.5 -23t-6 -17q0 -17 25 -25t62 -8q32 0 68.5 5.5t67 15.5t50.5 24t20 31v11q0 20 -13 35t-31 27q-17 8 -33 14t-36 8l26 21q63 5 115 30t108 67q17 14 24.5 23t12.5 19q-2 47 -42 47
h-4q-1 0 -9.5 -2t-20.5 -6t-25.5 -10t-23.5 -14h2q-26 -14 -58 -28.5t-83 -28.5q-9 -3 -37 -3q-16 0 -40 5t-69 23q-19 18 -35.5 40t-21.5 50v12q0 12 1 15q6 56 32 110q28 54 61 105.5t72 87.5q28 30 61 50.5t68 20.5h3l90 -65q2 -1 12 -6.5l22.5 -12t13.5 -6.5
q23 11 37 26.5t14 27.5q0 4 -1 6v8q-6 26 -28.5 45.5t-56.5 36.5q-27 14 -47 23t-35.5 14.5t-29 8t-28.5 2.5q-16 0 -38 -3.5t-48 -11.5q-62 -38 -115 -88.5t-93.5 -111.5t-66.5 -130t-34 -143v-13q0 -8 1 -11q2 -27 6.5 -45.5t13.5 -35.5l22 -26q35 -46 85.5 -66.5
t104.5 -29.5z" />
    <glyph glyph-name="Egrave" unicode="&#xc8;" horiz-adv-x="649" 
d="M11 23q12 -8 25.5 -18.5l26.5 -20t24.5 -16t20.5 -6.5q28 0 50.5 4t54.5 9h2l309 44q21 2 30 5t11 5q6 6 8.5 11.5t2.5 16.5v8q0 5 -1 11h-5q-10 11 -32 14t-39 5q-22 0 -46 -4t-47 -4q-4 0 -7 0.5t-7 0.5q-2 0 -11 -1t-21 -1.5t-24 -1.5t-20 -1l-74.5 -4t-73.5 -7l-4 1
l-9 9l-1 4q1 13 6.5 41t12 57.5t13 55t9.5 33.5l2 1h1l6 2h19q7 -1 12 -1h11h21q16 0 32.5 0.5t38 2t50.5 4t71 6.5q4 0 13.5 0.5t20 1.5t19.5 1.5t12 0.5q27 4 33 17t6 27v19q-5 20 -29 24.5t-53 4.5h-112q-38 0 -76 0.5t-61 3.5l-7 10l-1 4q2 9 7.5 31l12 46.5l12.5 46
t9 29.5h-1l3 2l5 2q11 1 17 1.5l11.5 1l11.5 1t16 0.5h40l188 8h38q9 0 10 1q3 3 4 3q23 5 31 14.5t8 18.5v8q-5 10 -11 16t-15 9.5t-23 5.5t-34 4q-26 1 -60 3t-69 3.5t-67.5 2.5t-54.5 1h-78h-19q-10 0 -21 1q-27 0 -43 -3t-25.5 -13t-15 -28.5t-12.5 -49.5zM437 705
q19 7 27.5 13t8.5 20q0 9 -11 33q-8 16 -19.5 34t-25 35.5t-28 32t-27.5 23.5q-32 21 -55 21q-16 0 -25 -8.5t-9 -28.5q0 -9 0.5 -13t2.5 -9q5 -16 11 -27.5t14.5 -21t19.5 -18.5t27 -21q17 -12 28.5 -21t16.5 -16q15 -19 26.5 -23.5t15.5 -4.5h2z" />
    <glyph glyph-name="Eacute" unicode="&#xc9;" horiz-adv-x="649" 
d="M11 23q12 -8 25.5 -18.5l26.5 -20t24.5 -16t20.5 -6.5q28 0 50.5 4t54.5 9h2l309 44q21 2 30 5t11 5q6 6 8.5 11.5t2.5 16.5v8q0 5 -1 11h-5q-10 11 -32 14t-39 5q-22 0 -46 -4t-47 -4q-4 0 -7 0.5t-7 0.5q-2 0 -11 -1t-21 -1.5t-24 -1.5t-20 -1l-74.5 -4t-73.5 -7l-4 1
l-9 9l-1 4q1 13 6.5 41t12 57.5t13 55t9.5 33.5l2 1h1l6 2h19q7 -1 12 -1h11h21q16 0 32.5 0.5t38 2t50.5 4t71 6.5q4 0 13.5 0.5t20 1.5t19.5 1.5t12 0.5q27 4 33 17t6 27v19q-5 20 -29 24.5t-53 4.5h-112q-38 0 -76 0.5t-61 3.5l-7 10l-1 4q2 9 7.5 31l12 46.5l12.5 46
t9 29.5h-1l3 2l5 2q11 1 17 1.5l11.5 1l11.5 1t16 0.5h40l188 8h38q9 0 10 1q3 3 4 3q23 5 31 14.5t8 18.5v8q-5 10 -11 16t-15 9.5t-23 5.5t-34 4q-26 1 -60 3t-69 3.5t-67.5 2.5t-54.5 1h-78h-19q-10 0 -21 1q-27 0 -43 -3t-25.5 -13t-15 -28.5t-12.5 -49.5zM338 697h3
q7 0 15 4t25 24q5 7 16.5 16t28.5 21q16 12 27 21t19.5 18.5t14.5 21t11 27.5q1 5 2 9t1 13q0 20 -9 28.5t-25 8.5q-11 0 -25.5 -5.5t-30.5 -15.5q-13 -9 -27 -23.5t-27.5 -32t-25 -35.5t-19.5 -34q-11 -24 -11 -33q0 -14 8 -19.5t25 -12.5z" />
    <glyph glyph-name="Ecircumflex" unicode="&#xca;" horiz-adv-x="649" 
d="M11 23q12 -8 25.5 -18.5l26.5 -20t24.5 -16t20.5 -6.5q28 0 50.5 4t54.5 9h2l309 44q21 2 30 5t11 5q6 6 8.5 11.5t2.5 16.5v8q0 5 -1 11h-5q-10 11 -32 14t-39 5q-22 0 -46 -4t-47 -4q-4 0 -7 0.5t-7 0.5q-2 0 -11 -1t-21 -1.5t-24 -1.5t-20 -1l-74.5 -4t-73.5 -7l-4 1
l-9 9l-1 4q1 13 6.5 41t12 57.5t13 55t9.5 33.5l2 1h1l6 2h19q7 -1 12 -1h11h21q16 0 32.5 0.5t38 2t50.5 4t71 6.5q4 0 13.5 0.5t20 1.5t19.5 1.5t12 0.5q27 4 33 17t6 27v19q-5 20 -29 24.5t-53 4.5h-112q-38 0 -76 0.5t-61 3.5l-7 10l-1 4q2 9 7.5 31l12 46.5l12.5 46
t9 29.5h-1l3 2l5 2q11 1 17 1.5l11.5 1l11.5 1t16 0.5h40l188 8h38q9 0 10 1q3 3 4 3q23 5 31 14.5t8 18.5v8q-5 10 -11 16t-15 9.5t-23 5.5t-34 4q-26 1 -60 3t-69 3.5t-67.5 2.5t-54.5 1h-78h-19q-10 0 -21 1q-27 0 -43 -3t-25.5 -13t-15 -28.5t-12.5 -49.5zM505 814
q-5 10 -9 14t-9 7q3 -2 -5.5 7.5t-24.5 21.5t-38.5 22.5t-48.5 10.5h-3q-14 0 -22.5 -9t-13.5 -30q0 -5 -7 -10t-16 -10l-18 -10.5t-13 -10.5q-9 -8 -16 -22.5t-7 -32.5q0 -16 5 -26q13 -26 34 -26q13 0 28 12l18 18.5l15 15.5l8 8t10 9q21 -2 35.5 -9.5t40.5 -27.5
q6 -4 12 -7t14 -3q10 0 21 9q18 13 18 42q0 11 -2.5 20t-5.5 18v-1z" />
    <glyph glyph-name="Edieresis" unicode="&#xcb;" horiz-adv-x="649" 
d="M11 23q12 -8 25.5 -18.5l26.5 -20t24.5 -16t20.5 -6.5q28 0 50.5 4t54.5 9h2l309 44q21 2 30 5t11 5q6 6 8.5 11.5t2.5 16.5v8q0 5 -1 11h-5q-10 11 -32 14t-39 5q-22 0 -46 -4t-47 -4q-4 0 -7 0.5t-7 0.5q-2 0 -11 -1t-21 -1.5t-24 -1.5t-20 -1l-74.5 -4t-73.5 -7l-4 1
l-9 9l-1 4q1 13 6.5 41t12 57.5t13 55t9.5 33.5l2 1h1l6 2h19q7 -1 12 -1h11h21q16 0 32.5 0.5t38 2t50.5 4t71 6.5q4 0 13.5 0.5t20 1.5t19.5 1.5t12 0.5q27 4 33 17t6 27v19q-5 20 -29 24.5t-53 4.5h-112q-38 0 -76 0.5t-61 3.5l-7 10l-1 4q2 9 7.5 31l12 46.5l12.5 46
t9 29.5h-1l3 2l5 2q11 1 17 1.5l11.5 1l11.5 1t16 0.5h40l188 8h38q9 0 10 1q3 3 4 3q23 5 31 14.5t8 18.5v8q-5 10 -11 16t-15 9.5t-23 5.5t-34 4q-26 1 -60 3t-69 3.5t-67.5 2.5t-54.5 1h-78h-19q-10 0 -21 1q-27 0 -43 -3t-25.5 -13t-15 -28.5t-12.5 -49.5zM387 768
q-3 23 -25.5 39t-62.5 16h-2q-38 0 -61.5 -14t-23.5 -37q5 -23 27 -38.5t58 -16.5q40 0 65 13.5t25 36.5v1zM583 768q-2 23 -25.5 39t-60.5 16h-5q-37 0 -59.5 -13.5t-22.5 -36.5q1 -23 23 -39t60 -17q38 0 64 13.5t26 36.5v1z" />
    <glyph glyph-name="Igrave" unicode="&#xcc;" horiz-adv-x="278" 
d="M99 -27h12l11 15.5t6.5 10.5t4 11t3.5 17q0 1 4 20.5t11.5 51.5l16.5 73l19.5 85l20.5 88l19 81q5 28 14 52t15 47q6 19 11.5 43l10.5 47q0 27 -22.5 47t-52.5 20h-14q-7 7 -15 7q-19 0 -37.5 -44t-38.5 -128.5t-43 -207l-50 -279.5q3 -17 15 -29l1 -1h-2q1 0 7 -4z
M276 728q19 7 27.5 13t8.5 20q0 9 -11 33q-8 16 -19.5 34t-25 35.5t-28 32t-27.5 23.5q-32 21 -55 21q-16 0 -25 -8.5t-9 -28.5q0 -9 0.5 -13t2.5 -9q5 -16 11 -27.5t14.5 -21t19.5 -18.5t27 -21q17 -12 28.5 -21t16.5 -16q15 -19 26.5 -23.5t15.5 -4.5h2z" />
    <glyph glyph-name="Iacute" unicode="&#xcd;" horiz-adv-x="278" 
d="M99 -27h12l11 15.5t6.5 10.5t4 11t3.5 17q0 1 4 20.5t11.5 51.5l16.5 73l19.5 85l20.5 88l19 81q5 28 14 52t15 47q6 19 11.5 43l10.5 47q0 27 -22.5 47t-52.5 20h-14q-7 7 -15 7q-19 0 -37.5 -44t-38.5 -128.5t-43 -207l-50 -279.5q3 -17 15 -29l1 -1h-2q1 0 7 -4z
M177 722h3q7 0 15 4t25 24q5 7 16.5 16t28.5 21q16 12 27 21t19.5 18.5t14.5 21t11 27.5q1 5 2 9t1 13q0 20 -9 28.5t-25 8.5q-11 0 -25.5 -5.5t-30.5 -15.5q-13 -9 -27 -23.5t-27.5 -32t-25 -35.5t-19.5 -34q-11 -24 -11 -33q0 -14 8 -19.5t25 -12.5z" />
    <glyph glyph-name="Icircumflex" unicode="&#xce;" horiz-adv-x="278" 
d="M99 -27h12l11 15.5t6.5 10.5t4 11t3.5 17q0 1 4 20.5t11.5 51.5l16.5 73l19.5 85l20.5 88l19 81q5 28 14 52t15 47q6 19 11.5 43l10.5 47q0 27 -22.5 47t-52.5 20h-14q-7 7 -15 7q-19 0 -37.5 -44t-38.5 -128.5t-43 -207l-50 -279.5q3 -17 15 -29l1 -1h-2q1 0 7 -4z
M332 819q-5 10 -9 14t-9 7q3 -2 -5.5 7.5t-24.5 21.5t-38.5 22.5t-48.5 10.5h-3q-14 0 -22.5 -9t-13.5 -30q0 -5 -7 -10t-16 -10l-18 -10.5t-13 -10.5q-9 -8 -16 -22.5t-7 -32.5q0 -16 5 -26q13 -26 34 -26q13 0 28 12l18 18.5l15 15.5l8 8t10 9q21 -2 35.5 -9.5t40.5 -27.5
q6 -4 12 -7t14 -3q10 0 21 9q18 13 18 42q0 11 -2.5 20t-5.5 18v-1z" />
    <glyph glyph-name="Idieresis" unicode="&#xcf;" horiz-adv-x="278" 
d="M99 -27h12l11 15.5t6.5 10.5t4 11t3.5 17q0 1 4 20.5t11.5 51.5l16.5 73l19.5 85l20.5 88l19 81q5 28 14 52t15 47q6 19 11.5 43l10.5 47q0 27 -22.5 47t-52.5 20h-14q-7 7 -15 7q-19 0 -37.5 -44t-38.5 -128.5t-43 -207l-50 -279.5q3 -17 15 -29l1 -1h-2q1 0 7 -4z
M212 776q-3 23 -25.5 39t-62.5 16h-2q-38 0 -61.5 -14t-23.5 -37q5 -23 27 -38.5t58 -16.5q40 0 65 13.5t25 36.5v1zM408 776q-2 23 -25.5 39t-60.5 16h-5q-37 0 -59.5 -13.5t-22.5 -36.5q1 -23 23 -39t60 -17q38 0 64 13.5t26 36.5v1z" />
    <glyph glyph-name="Eth" unicode="&#xd0;" horiz-adv-x="710" 
d="M-56 301q8 -12 28 -16t49 -4h29q-12 -55 -21 -111t-17 -120v-14l1 -1q3 -27 22 -42l96 -32q23 0 44 2t37 4q96 9 181 51t148.5 103t100 134t36.5 143q0 46 -18 88.5t-56.5 77t-99 59t-146.5 35.5h-2q-26 7 -60 8.5t-76 1.5l-65 -11q-37 -97 -42 -122q0 -5 -0.5 -7
t-2.5 -7q-10 -35 -18 -66l-16 -62q-38 -1 -69 -2t-39 -3h1q-20 -4 -31 -8.5t-11 -19.5q3 -21 6.5 -36t10.5 -23zM283 557q88 0 141 -8t79 -26q39 -29 53.5 -54.5t16.5 -45.5l1 -7q-1 -41 -27 -86.5t-69.5 -90t-101.5 -85.5t-122 -71q-6 -4 -31.5 -13t-54.5 -17l-15 14
q4 42 16 100t27 119q17 1 35 1.5t34 1.5t27.5 2t16.5 2h20q26 0 38 1.5t22 8.5q9 4 11.5 8.5t2.5 12.5l-10 21t-10 14q-26 24 -66 30.5t-86 6.5h-6q15 54 28 95.5l19 59.5h-1l4 3z" />
    <glyph glyph-name="Ntilde" unicode="&#xd1;" horiz-adv-x="668" 
d="M616 675q-17 -3 -29 -13t-20.5 -23.5t-13.5 -30t-8 -32.5l-4 -19t-11 -49.5l-16.5 -70l-19.5 -80.5t-21 -81t-22 -72l-3 -2l-13 -1q-17 39 -30.5 75t-24 70.5t-18 68.5t-13.5 71q-3 6 -3.5 16.5t-0.5 24.5v16q0 17 -1 35t-6 33t-15 25t-27 11q-53 -3 -84 -12.5t-48 -25
t-24 -38t-13 -51.5l-13.5 -51l-12.5 -48l-41 -159.5l-28 -109.5l-17.5 -69.5t-9.5 -39.5t-4 -20t-1 -10v-8q0 -14 6.5 -25.5t16.5 -20t23 -13t25 -4.5q20 0 35.5 11t18.5 37v5q4 11 11.5 35.5t16.5 57l19.5 70.5t20 77t17.5 76t13 67l5 4l13 1l4 -3q19 -68 39.5 -125.5
t40.5 -101.5t37 -73t28 -39q23 -30 45 -43.5t42 -13.5q23 0 40 15t26 41l32 102l17 54l9 29t7 27q2 11 6.5 28.5l9.5 36l10 35.5l8 27q3 6 8.5 22.5t11.5 40t12 50t9 52.5q8 18 14 39.5t6 41.5q0 26 -13 39zM585 789v2q0 12 -13.5 21t-28.5 9q-12 0 -23 -5.5t-16 -17.5
q-1 -2 -1.5 -5t-1.5 -5l-4 -12.5t-7 -6.5t-9 5l-9 11v-1q-9 11 -21.5 22t-37.5 11q-16 0 -35 -6.5t-36.5 -17.5t-29.5 -24.5t-13 -27.5v-2q0 -14 11.5 -24t31.5 -10q13 0 22 7t18 16q5 5 11 10t10 5l2.5 -3t6.5 -6q10 -11 25 -22t44 -11q46 0 72.5 18t31.5 70z" />
    <glyph glyph-name="Ograve" unicode="&#xd2;" 
d="M457 657q-69 -8 -118.5 -19.5t-79.5 -28.5l-42 -25l-24 -15q-44 -32 -79.5 -74t-60.5 -88.5t-38.5 -95.5t-13.5 -94v-15q0 -10 1 -13q3 -23 10.5 -47.5t27.5 -53.5v1q34 -56 85 -84t131 -41q22 -5 42 -6.5t43 -1.5q66 0 120 13.5t94 44.5q45 39 78.5 85.5t55 95.5
t32 99.5t10.5 97.5v22q0 5 -0.5 11t-1.5 11q-2 19 -6.5 38.5t-13.5 37.5q-21 39 -44.5 65t-48.5 43t-49 25.5t-45 11.5h-65zM488 573q29 0 58 -18q25 -18 38 -52.5t18 -68.5q1 -8 1.5 -16.5t0.5 -16.5q0 -55 -18.5 -118t-56 -117.5t-96 -91.5t-137.5 -40q-11 0 -29 6.5
t-36 15.5q-40 13 -61 42t-23 65q-1 1 -1 4q1 32 11.5 71.5t28.5 80.5t44 81t58 73.5t70 58t80 34.5q10 3 22.5 5t27.5 2zM524 698q19 7 27.5 13t8.5 20q0 9 -11 33q-8 16 -19.5 34t-25 35.5t-28 32t-27.5 23.5q-32 21 -55 21q-16 0 -25 -8.5t-9 -28.5q0 -9 0.5 -13t2.5 -9
q5 -16 11 -27.5t14.5 -21t19.5 -18.5t27 -21q17 -12 28.5 -21t16.5 -16q15 -19 26.5 -23.5t15.5 -4.5h2z" />
    <glyph glyph-name="Oacute" unicode="&#xd3;" 
d="M457 657q-69 -8 -118.5 -19.5t-79.5 -28.5l-42 -25l-24 -15q-44 -32 -79.5 -74t-60.5 -88.5t-38.5 -95.5t-13.5 -94v-15q0 -10 1 -13q3 -23 10.5 -47.5t27.5 -53.5v1q34 -56 85 -84t131 -41q22 -5 42 -6.5t43 -1.5q66 0 120 13.5t94 44.5q45 39 78.5 85.5t55 95.5
t32 99.5t10.5 97.5v22q0 5 -0.5 11t-1.5 11q-2 19 -6.5 38.5t-13.5 37.5q-21 39 -44.5 65t-48.5 43t-49 25.5t-45 11.5h-65zM488 573q29 0 58 -18q25 -18 38 -52.5t18 -68.5q1 -8 1.5 -16.5t0.5 -16.5q0 -55 -18.5 -118t-56 -117.5t-96 -91.5t-137.5 -40q-11 0 -29 6.5
t-36 15.5q-40 13 -61 42t-23 65q-1 1 -1 4q1 32 11.5 71.5t28.5 80.5t44 81t58 73.5t70 58t80 34.5q10 3 22.5 5t27.5 2zM375 689h3q7 0 15 4t25 24q5 7 16.5 16t28.5 21q16 12 27 21t19.5 18.5t14.5 21t11 27.5q1 5 2 9t1 13q0 20 -9 28.5t-25 8.5q-11 0 -25.5 -5.5
t-30.5 -15.5q-13 -9 -27 -23.5t-27.5 -32t-25 -35.5t-19.5 -34q-11 -24 -11 -33q0 -14 8 -19.5t25 -12.5z" />
    <glyph glyph-name="Ocircumflex" unicode="&#xd4;" 
d="M457 657q-69 -8 -118.5 -19.5t-79.5 -28.5l-42 -25l-24 -15q-44 -32 -79.5 -74t-60.5 -88.5t-38.5 -95.5t-13.5 -94v-15q0 -10 1 -13q3 -23 10.5 -47.5t27.5 -53.5v1q34 -56 85 -84t131 -41q22 -5 42 -6.5t43 -1.5q66 0 120 13.5t94 44.5q45 39 78.5 85.5t55 95.5
t32 99.5t10.5 97.5v22q0 5 -0.5 11t-1.5 11q-2 19 -6.5 38.5t-13.5 37.5q-21 39 -44.5 65t-48.5 43t-49 25.5t-45 11.5h-65zM488 573q29 0 58 -18q25 -18 38 -52.5t18 -68.5q1 -8 1.5 -16.5t0.5 -16.5q0 -55 -18.5 -118t-56 -117.5t-96 -91.5t-137.5 -40q-11 0 -29 6.5
t-36 15.5q-40 13 -61 42t-23 65q-1 1 -1 4q1 32 11.5 71.5t28.5 80.5t44 81t58 73.5t70 58t80 34.5q10 3 22.5 5t27.5 2zM595 799q-5 10 -9 14t-9 7q3 -2 -5.5 7.5t-24.5 21.5t-38.5 22.5t-48.5 10.5h-3q-14 0 -22.5 -9t-13.5 -30q0 -5 -7 -10t-16 -10l-18 -10.5t-13 -10.5
q-9 -8 -16 -22.5t-7 -32.5q0 -16 5 -26q13 -26 34 -26q13 0 28 12l18 18.5l15 15.5l8 8t10 9q21 -2 35.5 -9.5t40.5 -27.5q6 -4 12 -7t14 -3q10 0 21 9q18 13 18 42q0 11 -2.5 20t-5.5 18v-1z" />
    <glyph glyph-name="Otilde" unicode="&#xd5;" 
d="M457 657q-69 -8 -118.5 -19.5t-79.5 -28.5l-42 -25l-24 -15q-44 -32 -79.5 -74t-60.5 -88.5t-38.5 -95.5t-13.5 -94v-15q0 -10 1 -13q3 -23 10.5 -47.5t27.5 -53.5v1q34 -56 85 -84t131 -41q22 -5 42 -6.5t43 -1.5q66 0 120 13.5t94 44.5q45 39 78.5 85.5t55 95.5
t32 99.5t10.5 97.5v22q0 5 -0.5 11t-1.5 11q-2 19 -6.5 38.5t-13.5 37.5q-21 39 -44.5 65t-48.5 43t-49 25.5t-45 11.5h-65zM488 573q29 0 58 -18q25 -18 38 -52.5t18 -68.5q1 -8 1.5 -16.5t0.5 -16.5q0 -55 -18.5 -118t-56 -117.5t-96 -91.5t-137.5 -40q-11 0 -29 6.5
t-36 15.5q-40 13 -61 42t-23 65q-1 1 -1 4q1 32 11.5 71.5t28.5 80.5t44 81t58 73.5t70 58t80 34.5q10 3 22.5 5t27.5 2zM574 787v2q0 12 -13.5 21t-28.5 9q-12 0 -23 -5.5t-16 -17.5q-1 -2 -1.5 -5t-1.5 -5l-4 -12.5t-7 -6.5t-9 5l-9 11v-1q-9 11 -21.5 22t-37.5 11
q-16 0 -35 -6.5t-36.5 -17.5t-29.5 -24.5t-13 -27.5v-2q0 -14 11.5 -24t31.5 -10q13 0 22 7t18 16q5 5 11 10t10 5l2.5 -3t6.5 -6q10 -11 25 -22t44 -11q46 0 72.5 18t31.5 70z" />
    <glyph glyph-name="Odieresis" unicode="&#xd6;" 
d="M457 657q-69 -8 -118.5 -19.5t-79.5 -28.5l-42 -25l-24 -15q-44 -32 -79.5 -74t-60.5 -88.5t-38.5 -95.5t-13.5 -94v-15q0 -10 1 -13q3 -23 10.5 -47.5t27.5 -53.5v1q34 -56 85 -84t131 -41q22 -5 42 -6.5t43 -1.5q66 0 120 13.5t94 44.5q45 39 78.5 85.5t55 95.5
t32 99.5t10.5 97.5v22q0 5 -0.5 11t-1.5 11q-2 19 -6.5 38.5t-13.5 37.5q-21 39 -44.5 65t-48.5 43t-49 25.5t-45 11.5h-65zM488 573q29 0 58 -18q25 -18 38 -52.5t18 -68.5q1 -8 1.5 -16.5t0.5 -16.5q0 -55 -18.5 -118t-56 -117.5t-96 -91.5t-137.5 -40q-11 0 -29 6.5
t-36 15.5q-40 13 -61 42t-23 65q-1 1 -1 4q1 32 11.5 71.5t28.5 80.5t44 81t58 73.5t70 58t80 34.5q10 3 22.5 5t27.5 2zM429 743q-3 23 -25.5 39t-62.5 16h-2q-38 0 -61.5 -14t-23.5 -37q5 -23 27 -38.5t58 -16.5q40 0 65 13.5t25 36.5v1zM625 743q-2 23 -25.5 39t-60.5 16
h-5q-37 0 -59.5 -13.5t-22.5 -36.5q1 -23 23 -39t60 -17q38 0 64 13.5t26 36.5v1z" />
    <glyph glyph-name="multiply" unicode="&#xd7;" horiz-adv-x="490" 
d="M455 229q33 33 9 72l-33 41.5t-25 29.5q-30 34 -30 40q-3 19 18 40q4 5 13.5 12.5l19.5 15l19.5 14.5t14.5 12q51 52 7 96q-28 29 -72 5q-10 -7 -25.5 -19.5t-37.5 -32.5l-30 -25t-22 -17q-23 -17 -73 34q-21 21 -36 34t-25 19q-40 24 -70 -6q-14 -16 -23 -39
q-9 -35 31 -75q5 -5 15 -13.5l16 -13.5q25 -27 6 -46q-13 -13 -35 -32q-13 -10 -22 -18t-14 -13q-63 -63 -20 -106q18 -17 34 -17q7 2 20.5 7.5t35.5 16.5l30 18l23 14q28 20 60 25q37 5 59 -17l64 -64q20 -20 51 -17q25 3 47 25z" />
    <glyph glyph-name="Oslash" unicode="&#xd8;" 
d="M757 665q-3 23 -21 33t-41 10q-15 0 -30.5 -4t-26.5 -12q-18 -12 -32.5 -24.5t-28.5 -26.5q-15 7 -28.5 10.5t-26.5 5.5h-65q-69 -8 -118.5 -19.5t-79.5 -28.5l-42 -25l-24 -15q-44 -32 -79.5 -74t-60.5 -88.5t-38.5 -95.5t-13.5 -94v-15q0 -10 1 -13q3 -23 10.5 -47.5
t27.5 -53.5v1q9 -16 19.5 -29t21.5 -24l-14 -18l-15 -19q-18 -26 -18 -47q0 -24 17 -37.5t43 -13.5q19 0 40.5 10t38.5 31l13.5 17.5t13.5 16.5q25 -7 56 -12q22 -5 42 -6.5t43 -1.5q66 0 120 13.5t94 44.5q45 39 78.5 85.5t55 95.5t32 99.5t10.5 97.5v22q0 5 -0.5 11
t-1.5 11q-2 19 -6.5 38.5t-13.5 37.5q-3 5 -6 11t-7 11q24 19 43 44.5t19 65.5v10q0 9 -1 11zM602 434q1 -8 1.5 -16.5t0.5 -16.5q0 -55 -18.5 -118t-56 -117.5t-96 -91.5t-137.5 -40q-8 0 -18.5 2.5t-22.5 7.5l167 201.5l178 199.5q1 -3 1 -6t1 -5zM488 573q7 0 13.5 -1
t13.5 -3q-7 -9 -13 -18t-13 -17l-37 -49t-42 -48v1l-18 -19.5l-19 -20.5l-41.5 -44.5t-37.5 -44.5l1 1l-44 -53.5l-37.5 -46l-32.5 -40.5l-29 -38q-5 17 -5 31q-1 1 -1 4q1 32 11.5 71.5t28.5 80.5t44 81t58 73.5t70 58t80 34.5q10 3 22.5 5t27.5 2z" />
    <glyph glyph-name="Ugrave" unicode="&#xd9;" horiz-adv-x="634" 
d="M482 518q-5 -32 -11.5 -68.5t-20.5 -93.5q-8 -33 -17.5 -68t-20 -67t-21 -58t-20.5 -40l-37 -49l-3 -4q-12 -9 -27 -14t-29.5 -7.5t-26 -3t-17.5 -0.5h-5q-8 0 -21.5 4t-27 13t-23.5 22.5t-10 31.5q0 6 1 10q0 23 6.5 54t17.5 69l43.5 145.5t26.5 82.5t13.5 40t5.5 19
t2.5 19.5t3.5 41.5v2q0 11 -9 21.5t-21.5 19t-27 15t-26.5 9.5q-18 0 -33.5 -11.5t-38.5 -47.5l-1 -6v1q-2 -4 -6.5 -20.5l-11.5 -43.5l-24 -79.5t-16.5 -56.5l-11.5 -41.5t-8.5 -34.5t-7 -36t-7.5 -46q-3 -18 -5 -36.5t-2 -37.5q0 -38 12 -74t45 -64l7 -3
q46 -37 81.5 -51.5t73.5 -14.5q5 1 15 1q9 0 19.5 -0.5t21.5 -0.5h8q1 1 4 1h4q67 0 113.5 36.5t78.5 94t53 127.5t38 138q16 59 30.5 125t21.5 128q0 18 -1 31t-6 33q-4 7 -13 12.5t-19.5 9.5t-21.5 6t-19 2q-10 0 -22 -10t-15 -13zM418 689q19 7 27.5 13t8.5 20
q0 9 -11 33q-8 16 -19.5 34t-25 35.5t-28 32t-27.5 23.5q-32 21 -55 21q-16 0 -25 -8.5t-9 -28.5q0 -9 0.5 -13t2.5 -9q5 -16 11 -27.5t14.5 -21t19.5 -18.5t27 -21q17 -12 28.5 -21t16.5 -16q15 -19 26.5 -23.5t15.5 -4.5h2z" />
    <glyph glyph-name="Uacute" unicode="&#xda;" horiz-adv-x="634" 
d="M482 518q-5 -32 -11.5 -68.5t-20.5 -93.5q-8 -33 -17.5 -68t-20 -67t-21 -58t-20.5 -40l-37 -49l-3 -4q-12 -9 -27 -14t-29.5 -7.5t-26 -3t-17.5 -0.5h-5q-8 0 -21.5 4t-27 13t-23.5 22.5t-10 31.5q0 6 1 10q0 23 6.5 54t17.5 69l43.5 145.5t26.5 82.5t13.5 40t5.5 19
t2.5 19.5t3.5 41.5v2q0 11 -9 21.5t-21.5 19t-27 15t-26.5 9.5q-18 0 -33.5 -11.5t-38.5 -47.5l-1 -6v1q-2 -4 -6.5 -20.5l-11.5 -43.5l-24 -79.5t-16.5 -56.5l-11.5 -41.5t-8.5 -34.5t-7 -36t-7.5 -46q-3 -18 -5 -36.5t-2 -37.5q0 -38 12 -74t45 -64l7 -3
q46 -37 81.5 -51.5t73.5 -14.5q5 1 15 1q9 0 19.5 -0.5t21.5 -0.5h8q1 1 4 1h4q67 0 113.5 36.5t78.5 94t53 127.5t38 138q16 59 30.5 125t21.5 128q0 18 -1 31t-6 33q-4 7 -13 12.5t-19.5 9.5t-21.5 6t-19 2q-10 0 -22 -10t-15 -13zM340 691h3q7 0 15 4t25 24q5 7 16.5 16
t28.5 21q16 12 27 21t19.5 18.5t14.5 21t11 27.5q1 5 2 9t1 13q0 20 -9 28.5t-25 8.5q-11 0 -25.5 -5.5t-30.5 -15.5q-13 -9 -27 -23.5t-27.5 -32t-25 -35.5t-19.5 -34q-11 -24 -11 -33q0 -14 8 -19.5t25 -12.5z" />
    <glyph glyph-name="Ucircumflex" unicode="&#xdb;" horiz-adv-x="634" 
d="M482 518q-5 -32 -11.5 -68.5t-20.5 -93.5q-8 -33 -17.5 -68t-20 -67t-21 -58t-20.5 -40l-37 -49l-3 -4q-12 -9 -27 -14t-29.5 -7.5t-26 -3t-17.5 -0.5h-5q-8 0 -21.5 4t-27 13t-23.5 22.5t-10 31.5q0 6 1 10q0 23 6.5 54t17.5 69l43.5 145.5t26.5 82.5t13.5 40t5.5 19
t2.5 19.5t3.5 41.5v2q0 11 -9 21.5t-21.5 19t-27 15t-26.5 9.5q-18 0 -33.5 -11.5t-38.5 -47.5l-1 -6v1q-2 -4 -6.5 -20.5l-11.5 -43.5l-24 -79.5t-16.5 -56.5l-11.5 -41.5t-8.5 -34.5t-7 -36t-7.5 -46q-3 -18 -5 -36.5t-2 -37.5q0 -38 12 -74t45 -64l7 -3
q46 -37 81.5 -51.5t73.5 -14.5q5 1 15 1q9 0 19.5 -0.5t21.5 -0.5h8q1 1 4 1h4q67 0 113.5 36.5t78.5 94t53 127.5t38 138q16 59 30.5 125t21.5 128q0 18 -1 31t-6 33q-4 7 -13 12.5t-19.5 9.5t-21.5 6t-19 2q-10 0 -22 -10t-15 -13zM496 807q-5 10 -9 14t-9 7
q3 -2 -5.5 7.5t-24.5 21.5t-38.5 22.5t-48.5 10.5h-3q-14 0 -22.5 -9t-13.5 -30q0 -5 -7 -10t-16 -10l-18 -10.5t-13 -10.5q-9 -8 -16 -22.5t-7 -32.5q0 -16 5 -26q13 -26 34 -26q13 0 28 12l18 18.5l15 15.5l8 8t10 9q21 -2 35.5 -9.5t40.5 -27.5q6 -4 12 -7t14 -3
q10 0 21 9q18 13 18 42q0 11 -2.5 20t-5.5 18v-1z" />
    <glyph glyph-name="Udieresis" unicode="&#xdc;" horiz-adv-x="634" 
d="M482 518q-5 -32 -11.5 -68.5t-20.5 -93.5q-8 -33 -17.5 -68t-20 -67t-21 -58t-20.5 -40l-37 -49l-3 -4q-12 -9 -27 -14t-29.5 -7.5t-26 -3t-17.5 -0.5h-5q-8 0 -21.5 4t-27 13t-23.5 22.5t-10 31.5q0 6 1 10q0 23 6.5 54t17.5 69l43.5 145.5t26.5 82.5t13.5 40t5.5 19
t2.5 19.5t3.5 41.5v2q0 11 -9 21.5t-21.5 19t-27 15t-26.5 9.5q-18 0 -33.5 -11.5t-38.5 -47.5l-1 -6v1q-2 -4 -6.5 -20.5l-11.5 -43.5l-24 -79.5t-16.5 -56.5l-11.5 -41.5t-8.5 -34.5t-7 -36t-7.5 -46q-3 -18 -5 -36.5t-2 -37.5q0 -38 12 -74t45 -64l7 -3
q46 -37 81.5 -51.5t73.5 -14.5q5 1 15 1q9 0 19.5 -0.5t21.5 -0.5h8q1 1 4 1h4q67 0 113.5 36.5t78.5 94t53 127.5t38 138q16 59 30.5 125t21.5 128q0 18 -1 31t-6 33q-4 7 -13 12.5t-19.5 9.5t-21.5 6t-19 2q-10 0 -22 -10t-15 -13zM356 780q-3 23 -25.5 39t-62.5 16h-2
q-38 0 -61.5 -14t-23.5 -37q5 -23 27 -38.5t58 -16.5q40 0 65 13.5t25 36.5v1zM552 780q-2 23 -25.5 39t-60.5 16h-5q-37 0 -59.5 -13.5t-22.5 -36.5q1 -23 23 -39t60 -17q38 0 64 13.5t26 36.5v1z" />
    <glyph glyph-name="Yacute" unicode="&#xdd;" horiz-adv-x="576" 
d="M585 667q-6 11 -22.5 17.5t-34.5 6.5q-28 0 -49 -22l-129.5 -142.5t-117.5 -142.5h-1q-8 14 -18.5 38.5t-22.5 55.5l-21 50.5t-22.5 48t-24.5 40.5t-27 29q-7 2 -16.5 3t-17.5 1q-15 0 -30 -2t-23 -9q-9 -6 -12 -15.5t-3 -22.5v-5q0 -16 7 -33t15 -33q14 -21 29 -56
t28.5 -73t23.5 -74.5t15 -60.5v-4l-41 -238q1 -22 29 -39l9 -9q44 -16 67 -16q21 0 31 14.5t17.5 47.5t16.5 86t29 129l5.5 26.5t6.5 21.5t11 21t18 25q36 53 94 118.5t148 149.5l11 8.5t13.5 11.5t11.5 13t5 15v4q0 1 -0.5 1.5t-0.5 1.5zM251 661h3q7 0 15 4t25 24
q5 7 16.5 16t28.5 21q16 12 27 21t19.5 18.5t14.5 21t11 27.5q1 5 2 9t1 13q0 20 -9 28.5t-25 8.5q-11 0 -25.5 -5.5t-30.5 -15.5q-13 -9 -27 -23.5t-27.5 -32t-25 -35.5t-19.5 -34q-11 -24 -11 -33q0 -14 8 -19.5t25 -12.5z" />
    <glyph glyph-name="Thorn" unicode="&#xde;" horiz-adv-x="560" 
d="M381 128q96 43 151 92t55 117q-5 51 -31.5 86t-83.5 61q-18 8 -42 15.5t-52.5 13.5t-59 11t-60.5 8q5 18 10 40l10 43q0 27 -22.5 47t-52.5 20h-14q-7 7 -15 7q-19 0 -37.5 -44t-38.5 -128.5t-43 -207l-50 -279.5q3 -17 15 -29l1 -1h-1l6 -4l73 -23h12l11 15.5t6.5 10.5
t4 11t3.5 17q0 4 9 45h24q36 5 65.5 10.5t55 12t47.5 15t44 18.5zM190 167l-3 1l-11 11l-1 3q3 18 10 52l14.5 70l14 67.5t10.5 44.5q11 23 24 23q19 0 44 -2t50.5 -6.5t50 -12t42.5 -18.5q0 -3 3 -3q1 -1 4 -1q31 -30 31 -56q0 -24 -20.5 -45.5t-55 -42t-80 -40
t-95.5 -38.5z" />
    <glyph glyph-name="germandbls" unicode="&#xdf;" horiz-adv-x="974" 
d="M703 508q-48 -23 -84 -53.5t-52 -59.5q-14 -25 -22.5 -46t-8.5 -42q1 -21 11 -41t25.5 -37.5t34.5 -31.5t38 -23q16 -7 22 -11q13 -7 25.5 -10.5t26.5 -6.5q23 -5 45 -11t27 -13q12 -5 16 -8.5t4 -7.5v-3q0 -6 -4 -11t-10 -8.5t-12 -6t-10 -3.5q-2 -2 -12 -3.5t-21.5 -2
l-22.5 -1t-15 -0.5q-19 0 -36 3t-47 11q-21 11 -40.5 25t-31.5 34q-6 9 -12.5 17.5t-17.5 15.5q-8 4 -14.5 3.5t-9.5 -0.5q-7 -1 -15 -2t-16 -5q-17 17 -40.5 30t-55.5 20l2 -1q-12 5 -25 9.5t-26 8.5l-30.5 9.5t-26.5 9.5q-4 4 -11 4q-18 2 -28.5 17t-10.5 34q0 18 9 32
q17 26 45 49t64 35q23 0 53.5 -6t52.5 -26q39 -31 54 -34h6q27 0 37 13.5t10 34.5q0 6 -1 13t-3 12v-1q-7 18 -20 27.5t-40 23.5q-30 17 -59 29t-69 17q-8 0 -11 -1q-39 -2 -78 -17l-14 -7q-48 -23 -84 -53.5t-52 -59.5q-14 -25 -22.5 -46t-8.5 -42q1 -21 11 -41t25.5 -37.5
t34.5 -31.5t38 -23q16 -7 22 -11q13 -7 25.5 -10.5t26.5 -6.5q23 -5 45 -11t27 -13q12 -5 16 -8.5t4 -7.5v-3q0 -6 -4 -11t-10 -8.5t-12 -6t-10 -3.5q-2 -2 -12 -3.5t-21.5 -2l-22.5 -1t-15 -0.5q-19 0 -36 3t-47 11q-21 11 -40.5 25t-31.5 34q-6 9 -12.5 17.5t-17.5 15.5
q-8 4 -14.5 3.5t-9.5 -0.5q-10 -1 -21.5 -3.5t-22.5 -13.5v-2q-13 -17 -13 -36q0 -28 27.5 -55t69 -48.5t90 -34.5t89.5 -13q8 0 15 0.5t13 1.5q19 0 32.5 3t25.5 7q5 2 15 4q35 13 59 29.5t42 36.5q3 3 5.5 6t4.5 6q20 -19 49.5 -35.5t62.5 -28.5t67 -19t64 -7q8 0 15 0.5
t13 1.5q19 0 32.5 3t25.5 7q5 2 15 4q35 13 59 29.5t42 36.5q17 18 24 37t7 22q0 4 -1 12.5t-3 14.5q-14 28 -43 51.5t-77 33.5l2 -1q-12 5 -25 9.5t-26 8.5l-30.5 9.5t-26.5 9.5q-4 4 -11 4q-18 2 -28.5 17t-10.5 34q0 18 9 32q17 26 45 49t64 35q23 0 53.5 -6t52.5 -26
q39 -31 54 -34h6q27 0 37 13.5t10 34.5q0 6 -1 13t-3 12v-1q-7 18 -20 27.5t-40 23.5q-30 17 -59 29t-69 17q-8 0 -11 -1q-39 -2 -78 -17z" />
    <glyph glyph-name="agrave" unicode="&#xe0;" horiz-adv-x="502" 
d="M364 85l8 -41q4 -20 9.5 -31.5t13.5 -17.5t19 -8.5t26 -5.5q7 0 14 1.5t18 6.5q17 6 24.5 21t7.5 32q0 5 -2 12l-4 14q-68 479 -103 493q-2 0 -3 0.5t-3 0.5h1q-3 1 -2.5 1.5t-10.5 1.5v3q-42 -7 -67 -16t-40.5 -21t-24.5 -27t-18 -33q-1 -2 -2.5 -5.5t-2.5 -5.5v1
q-7 -15 -17 -34t-24 -39l-43.5 -71l-47 -80l-45 -81t-37.5 -73q-7 -18 -10.5 -31t-3.5 -27v-10q0 -23 19 -36.5t39 -13.5q24 0 42.5 9.5t32.5 37.5q5 10 8.5 18t6.5 16q8 20 14 32t17 23h9h1q0 1 2 1q8 0 17 0.5t20 1.5h6q10 1 20 1t20 1q25 2 46.5 2.5t35.5 0.5h7l3 -2z
M398 567q20 7 29 14t9 23q0 9 -9 30q-6 13 -16 28.5t-21 29.5t-23.5 26.5t-23.5 19.5q-14 8 -26.5 13.5t-22.5 5.5q-17 0 -27.5 -9t-10.5 -31q0 -14 4 -21l-1 1q4 -14 9.5 -23.5t12.5 -18t16.5 -16.5t22.5 -18q2 -2 5 -3.5t5 -3.5q20 -13 24 -20q14 -18 26 -22.5t16 -4.5h2z
M319 371h1l20 -164l-2 -2h-119z" />
    <glyph glyph-name="aacute" unicode="&#xe1;" horiz-adv-x="502" 
d="M364 85l8 -41q4 -20 9.5 -31.5t13.5 -17.5t19 -8.5t26 -5.5q7 0 14 1.5t18 6.5q17 6 24.5 21t7.5 32q0 5 -2 12l-4 14q-68 479 -103 493q-2 0 -3 0.5t-3 0.5h1q-3 1 -2.5 1.5t-10.5 1.5v3q-42 -7 -67 -16t-40.5 -21t-24.5 -27t-18 -33q-1 -2 -2.5 -5.5t-2.5 -5.5v1
q-7 -15 -17 -34t-24 -39l-43.5 -71l-47 -80l-45 -81t-37.5 -73q-7 -18 -10.5 -31t-3.5 -27v-10q0 -23 19 -36.5t39 -13.5q24 0 42.5 9.5t32.5 37.5q5 10 8.5 18t6.5 16q8 20 14 32t17 23h9h1q0 1 2 1q8 0 17 0.5t20 1.5h6q10 1 20 1t20 1q25 2 46.5 2.5t35.5 0.5h7l3 -2z
M312 562h4q8 0 16 3.5t24 23.5q3 5 12 11.5l22 15.5q13 10 22.5 18t16 16t12 18.5t11.5 26.5q0 2 0.5 2.5t0.5 2.5q1 5 1 12q0 22 -10 31t-27 9q-21 0 -51 -19q-11 -7 -22.5 -19t-22.5 -26.5t-20.5 -30t-16.5 -28.5q-10 -19 -10 -30q0 -16 8.5 -22t27.5 -14zM319 371h1
l20 -164l-2 -2h-119z" />
    <glyph glyph-name="acircumflex" unicode="&#xe2;" horiz-adv-x="502" 
d="M364 85l8 -41q4 -20 9.5 -31.5t13.5 -17.5t19 -8.5t26 -5.5q7 0 14 1.5t18 6.5q17 6 24.5 21t7.5 32q0 5 -2 12l-4 14q-68 479 -103 493q-4 0 -5 1q-3 1 -2.5 1.5t-10.5 1.5v3q-42 -7 -67 -16t-40.5 -21t-24.5 -27t-18 -33q-1 -2 -2.5 -5.5t-2.5 -5.5v1q-7 -15 -17 -34
t-24 -39l-43.5 -71l-47 -80l-45 -81t-37.5 -73q-7 -18 -10.5 -31t-3.5 -27v-10q0 -23 19 -36.5t39 -13.5q24 0 42.5 9.5t32.5 37.5q5 10 8.5 18t6.5 16q8 20 14 32t17 23h9h1q0 1 2 1q8 0 17 0.5t20 1.5h6q10 1 20 1t20 1q25 2 46.5 2.5t35.5 0.5h7l3 -2zM440 660
q-5 11 -9.5 15.5t-9.5 7.5l-11 -17q-3 2 -16 12.5l-28 22.5l-28 22t-15 10h-2q-15 0 -24.5 -9t-14.5 -30q0 -2 -5.5 -5.5t-12.5 -7.5q-7 -5 -14 -9t-9 -7l1 1q-9 -8 -15.5 -21t-6.5 -30q0 -7 1 -14t4 -12q8 -13 16 -19.5t21 -6.5q16 0 29 12l11 11.5l6 6.5q2 2 4 4.5t5 5.5
q2 2 5 4.5t7 5.5q13 -2 23 -7.5t28 -19.5q5 -4 11.5 -7t14.5 -3q5 0 11.5 2t11.5 7q19 13 19 42q0 7 -2 13t-4 13l-0.5 0.5t-0.5 1.5l1 -2l-0.5 0.5t-0.5 1.5v2h-16zM319 371h1l20 -164l-2 -2h-119z" />
    <glyph glyph-name="atilde" unicode="&#xe3;" horiz-adv-x="502" 
d="M463 640v3q0 14 -14 24t-30 10q-28 0 -40 -25q-2 -3 -2.5 -6.5t-0.5 -5.5t-1 -2l1 2q0 -1 -1 -1v-1q-1 1 -1.5 2t-1.5 2l-5 4q-8 10 -19 19t-33 9q-14 0 -31 -6.5t-32.5 -16.5t-26 -22.5t-11.5 -25.5v-2q0 -14 12 -25.5t32 -11.5q14 0 22.5 6.5t16.5 14.5l7 7q2 -2 4 -3
q7 -8 16.5 -15.5t26.5 -10.5q-33 -7 -53.5 -16t-33.5 -20.5t-21 -25t-16 -30.5q-1 -2 -2.5 -5.5t-2.5 -5.5v1q-7 -15 -17 -34t-24 -39l-43.5 -71l-47 -80l-45 -81t-37.5 -73q-7 -18 -10.5 -31t-3.5 -27v-10q0 -23 19 -36.5t39 -13.5q24 0 42.5 9.5t32.5 37.5q5 10 8.5 18
t6.5 16q8 20 14 32t17 23h9h1q0 1 2 1q8 0 17 0.5t20 1.5h6q10 1 20 1t20 1q25 2 46.5 2.5t35.5 0.5h7l3 -2l4 -22l8 -41q4 -20 9.5 -31.5t13.5 -17.5t19 -8.5t26 -5.5q7 0 14 1.5t18 6.5q17 6 24.5 21t7.5 32q0 5 -2 12l-4 14q-68 479 -103 493q-3 0 -5 1h1q31 3 49.5 20
t22.5 58zM319 371h1l20 -164l-2 -2h-119z" />
    <glyph glyph-name="adieresis" unicode="&#xe4;" horiz-adv-x="502" 
d="M364 85l8 -41q4 -20 9.5 -31.5t13.5 -17.5t19 -8.5t26 -5.5q7 0 14 1.5t18 6.5q17 6 24.5 21t7.5 32q0 5 -2 12l-4 14q-68 479 -103 493q-4 0 -5 1q-3 1 -2.5 1.5t-10.5 1.5v3q-42 -7 -67 -16t-40.5 -21t-24.5 -27t-18 -33q-1 -2 -2.5 -5.5t-2.5 -5.5v1q-7 -15 -17 -34
t-24 -39l-43.5 -71l-47 -80l-45 -81t-37.5 -73q-7 -18 -10.5 -31t-3.5 -27v-10q0 -23 19 -36.5t39 -13.5q24 0 42.5 9.5t32.5 37.5q5 10 8.5 18t6.5 16q8 20 14 32t17 23h9h1q0 1 2 1q8 0 17 0.5t20 1.5h6q10 1 20 1t20 1q25 2 46.5 2.5t35.5 0.5h7l3 -2zM495 615
q-2 23 -24 38t-55 15h-4q-32 0 -52.5 -12t-23.5 -32q-5 20 -25.5 32t-52.5 12h-2q-35 0 -56.5 -14.5t-21.5 -38.5q5 -23 25.5 -37t52.5 -15q33 0 55.5 11.5t25.5 31.5q5 -19 25 -30.5t51 -12.5q35 0 58.5 13.5t23.5 36.5v2zM319 371h1l20 -164l-2 -2h-119z" />
    <glyph glyph-name="aring" unicode="&#xe5;" horiz-adv-x="502" 
d="M364 85l8 -41q4 -20 9.5 -31.5t13.5 -17.5t19 -8.5t26 -5.5q7 0 14 1.5t18 6.5q17 6 24.5 21t7.5 32q0 5 -2 12l-4 14q-68 479 -103 493q-4 0 -5 1h1q-2 0 -2.5 0.5l-1 1t-2.5 1t-8 0.5v3q-42 -7 -67 -16t-40.5 -21t-24.5 -27t-18 -33q-1 -2 -2.5 -5.5t-2.5 -5.5v1
q-7 -15 -17 -34t-24 -39l-43.5 -71l-47 -80l-45 -81t-37.5 -73q-7 -18 -10.5 -31t-3.5 -27v-10q0 -23 19 -36.5t39 -13.5q24 0 42.5 9.5t32.5 37.5q5 10 8.5 18t6.5 16q8 20 14 32t17 23h9h1q0 1 2 1q8 0 17 0.5t20 1.5h6q10 1 20 1t20 1q25 2 46.5 2.5t35.5 0.5h7l3 -2z
M437 669v6q0 1 0.5 2t0.5 3q0 29 -16.5 51t-51.5 22q-27 0 -48.5 -11.5t-36.5 -28.5t-23.5 -38t-9.5 -39v-4q0 -28 16 -49.5t54 -21.5q21 0 41.5 8.5t36.5 23.5t26 34.5t11 41.5zM319 371h1l20 -164l-2 -2h-119zM357 665q-2 -14 -13 -19q1 6 4 11.5t9 7.5z" />
    <glyph glyph-name="ae" unicode="&#xe6;" horiz-adv-x="836" 
d="M364 85l8 -41q4 -20 9.5 -31.5t13.5 -17.5t19 -8.5t26 -5.5q5 0 12 1t15 5h1v-1q8 -2 10 -2q17 0 30 2t28 4l10.5 2t12.5 2h4l235 36q27 3 35 11q7 7 7 18v4q0 3 -2 8v2l-2.5 7.5t-8.5 14.5h-6q-11 8 -26 10l-29 4q-2 0 -4.5 0.5t-4.5 0.5q-17 0 -23 -1t-15 -2
q-18 -3 -35 -3h-6q-2 0 -3 0.5t-3 0.5h-5t-9 -1q-11 -1 -24 -2t-21 -1q-10 -1 -20 -1q-9 0 -19 -1q-20 -1 -39 -2.5t-36 -4.5l-5 3q-5 29 -8 55l-6 51q-1 5 -1 9t-1 8q-1 5 -1 9t-1 8h12q5 -1 10 -1h9h17q13 0 26.5 0.5t30.5 1.5t39.5 3.5t54.5 5.5q5 0 12.5 0.5t16.5 1.5
q8 1 15 1h9q17 3 23.5 11t6.5 19t-4 19l-7 19q-10 18 -32 22t-48 4h-89h-59q-29 0 -49 2l-3 4q-1 6 -2.5 21.5t-2.5 33t-1.5 34t-0.5 25.5q6 0 10 0.5t7 1.5q5 1 20 1h32l149 6h31q5 0 7.5 0.5t6.5 2.5q17 5 23.5 13t6.5 18q0 6 -2 10l-4 8q-7 9 -14 14.5t-16 9t-22 5
l-31 3.5q-18 0 -41.5 1t-49.5 3q-35 2 -72.5 3.5t-72.5 1.5t-64.5 -2.5t-49.5 -7.5q-22 -7 -36.5 -16t-24 -20.5t-16.5 -25.5l-15 -31q-7 -15 -17 -34t-24 -39l-43.5 -71l-47 -80l-45 -81t-37.5 -73q-7 -18 -10.5 -31t-3.5 -27v-10q0 -23 19 -36.5t39 -13.5q24 0 42.5 9.5
t32.5 37.5q5 10 8.5 18t6.5 16q8 20 14 32t17 23h9h1q0 1 2 1q8 0 17 0.5t20 1.5h6q10 1 20 1t20 1q25 2 46.5 2.5t35.5 0.5h7l3 -2zM319 371h1l20 -164l-2 -2h-119z" />
    <glyph glyph-name="ccedilla" unicode="&#xe7;" horiz-adv-x="488" 
d="M126 -60q-1 -1 -2 -1t-3 -1l2 1q-10 -5 -13 -9t-3 -17q0 -8 8 -9.5t22 -1.5h16q-29 -16 -40.5 -33t-11.5 -25q0 -20 23 -28.5t57 -8.5q27 0 58 5t57 14.5t43 22.5t17 29v9q0 20 -12.5 33.5t-29.5 24.5q-19 11 -36 15l2 2q51 4 93 24.5t87 53.5q16 14 22.5 22t11.5 17
q-2 51 -44 51h-3q-1 0 -21 -7t-45 -22v2q-20 -11 -45.5 -22t-65.5 -23h1q-10 -2 -28 -2q-12 0 -30.5 3.5t-52.5 17.5l1 -1q-14 14 -25.5 30t-15.5 36v8q0 8 1 10q4 46 25 86q21 43 47.5 83t56.5 68q22 23 46.5 38.5t49.5 15.5l72 -52l21.5 -12t11.5 -5.5t6 -2t4 -0.5
q23 10 36 26t13 27q0 5 -1 8v6q-5 23 -25 40t-49 32h1q-22 12 -38.5 19.5t-30 12t-25 6.5t-23.5 2q-31 0 -73 -12q-51 -31 -94 -72.5t-76 -91.5t-54.5 -106.5t-28.5 -117.5v-11q0 -8 1 -11q2 -23 6 -38.5t12 -31.5l18 -21v1q25 -33 60.5 -50.5t74.5 -25.5z" />
    <glyph glyph-name="egrave" unicode="&#xe8;" horiz-adv-x="519" 
d="M-2 24l13 -9l18 -13q15 -12 30.5 -22t26.5 -10q23 0 39.5 2.5t38.5 6.5q2 1 6 1h3l247 35q19 2 27.5 5t11.5 6q6 8 9 13.5t3 16.5v9t-2 16h-9q-9 7 -23.5 9.5t-28.5 4.5q-2 0 -4.5 0.5t-4.5 0.5q-8 0 -18 -1t-19 -2q-20 -3 -37 -3h-11h-5t-9 -1q-11 -1 -25 -2t-22 -1
q-6 0 -12.5 -0.5t-12.5 -0.5q-23 -1 -46 -2.5t-46 -4.5l-3 3q1 11 5 31l8.5 41t9 39.5t7.5 27.5l1 1h13q6 -1 10 -1h10h17q13 0 26 0.5t30.5 1.5t41 3l56.5 5q5 0 13 0.5t17 1.5q8 1 14 1.5t8 0.5q28 5 34 18t6 27v17q-5 22 -27 26.5t-48 4.5h-90h-57t-47 2l-2 3q1 7 5 21
l8.5 30.5l9 33.5t8.5 30q5 1 8.5 1.5t6.5 0.5q7 1 11 1h16h32l151 7h30q10 0 13 2q1 1 2 1q22 6 30 16t8 20v10q-5 10 -11 16t-14.5 9.5t-20.5 5.5t-30 4q-14 1 -32 1.5t-38 1.5q-36 2 -72.5 3.5t-59.5 1.5h-62h-15q-7 0 -16 1q-25 0 -39.5 -2.5t-23 -11.5t-14 -25.5
t-11.5 -44.5zM350 564q20 7 29 14t9 22q0 11 -11 36q-6 12 -15.5 26t-20.5 28t-23 25.5t-23 19.5q-14 8 -26.5 13.5t-22.5 5.5q-17 0 -27.5 -9t-10.5 -31q0 -9 1 -13t3 -9l-1 1q4 -14 9.5 -23t12.5 -17.5t16.5 -16.5t22.5 -18q2 -2 4 -3t4 -3l17 -12t9 -10q14 -17 26 -21.5
t16 -4.5h2z" />
    <glyph glyph-name="eacute" unicode="&#xe9;" horiz-adv-x="519" 
d="M-2 24l13 -9l18 -13q15 -12 30.5 -22t26.5 -10q23 0 39.5 2.5t38.5 6.5q2 1 6 1h3l247 35q19 2 27.5 5t11.5 6q6 8 9 13.5t3 16.5v9t-2 16h-9q-9 7 -23.5 9.5t-28.5 4.5q-2 0 -4.5 0.5t-4.5 0.5q-8 0 -18 -1t-19 -2q-20 -3 -37 -3h-11h-5t-9 -1q-11 -1 -25 -2t-22 -1
q-6 0 -12.5 -0.5t-12.5 -0.5q-23 -1 -46 -2.5t-46 -4.5l-3 3q1 11 5 31l8.5 41t9 39.5t7.5 27.5l1 1h13q6 -1 10 -1h10h17q13 0 26 0.5t30.5 1.5t41 3l56.5 5q5 0 13 0.5t17 1.5q8 1 14 1.5t8 0.5q28 5 34 18t6 27v17q-5 22 -27 26.5t-48 4.5h-90h-57t-47 2l-2 3q1 7 5 21
l8.5 30.5l9 33.5t8.5 30q5 1 8.5 1.5t6.5 0.5q7 1 11 1h16h32l151 7h30q10 0 13 2q1 1 2 1q22 6 30 16t8 20v10q-5 10 -11 16t-14.5 9.5t-20.5 5.5t-30 4q-14 1 -32 1.5t-38 1.5q-36 2 -72.5 3.5t-59.5 1.5h-62h-15q-7 0 -16 1q-25 0 -39.5 -2.5t-23 -11.5t-14 -25.5
t-11.5 -44.5zM265 558h8q7 0 15.5 3t24.5 23q3 5 12 11.5l22 16.5q26 20 39.5 34t21.5 41q0 1 0.5 3.5t0.5 3.5l-1 -3q1 3 2 7.5t1 9.5q0 21 -10 30t-27 9q-21 0 -51 -19q-11 -7 -22.5 -19t-22.5 -26.5t-21 -30t-16 -28.5q-10 -19 -10 -30q0 -16 8.5 -22t25.5 -14z" />
    <glyph glyph-name="ecircumflex" unicode="&#xea;" horiz-adv-x="519" 
d="M-2 24l13 -9l18 -13q15 -12 30.5 -22t26.5 -10q23 0 39.5 2.5t38.5 6.5q2 1 6 1h3l247 35q19 2 27.5 5t11.5 6q6 8 9 13.5t3 16.5v9t-2 16h-9q-9 7 -23.5 9.5t-28.5 4.5q-2 0 -4.5 0.5t-4.5 0.5q-8 0 -18 -1t-19 -2q-20 -3 -37 -3h-11h-5t-9 -1q-11 -1 -25 -2t-22 -1
q-6 0 -12.5 -0.5t-12.5 -0.5q-23 -1 -46 -2.5t-46 -4.5l-3 3q1 11 5 31l8.5 41t9 39.5t7.5 27.5l1 1h13q6 -1 10 -1h10h17q13 0 26 0.5t30.5 1.5t41 3l56.5 5q5 0 13 0.5t17 1.5q8 1 14 1.5t8 0.5q28 5 34 18t6 27v17q-5 22 -27 26.5t-48 4.5h-90h-57t-47 2l-2 3q1 7 5 21
l8.5 30.5l9 33.5t8.5 30q5 1 8.5 1.5t6.5 0.5q7 1 11 1h16h32l151 7h30q10 0 13 2q1 1 2 1q22 6 30 16t8 20v10q-5 10 -11 16t-14.5 9.5t-20.5 5.5t-30 4q-14 1 -32 1.5t-38 1.5q-36 2 -72.5 3.5t-59.5 1.5h-62h-15q-7 0 -16 1q-25 0 -39.5 -2.5t-23 -11.5t-14 -25.5
t-11.5 -44.5zM413 665q-5 11 -9.5 15.5t-9.5 7.5l-11 -17q-3 2 -16 12.5l-28 22.5l-28 22t-15 10h-2q-17 0 -25.5 -9t-13.5 -31q0 -2 -5.5 -5l-11.5 -6l-14 -8.5t-10 -8.5q-9 -8 -15 -21t-6 -29t5 -25q13 -27 36 -27q17 0 30 12l11 11.5l6 6.5q2 2 4 4.5t5 5.5l4 4t6 5
q14 -2 24.5 -8t30.5 -20q13 -8 24 -8q13 0 23 9q10 7 14 17.5t4 24.5t-6 31l1 -3q0 1 -1 1v1h-16z" />
    <glyph glyph-name="edieresis" unicode="&#xeb;" horiz-adv-x="519" 
d="M-2 24l13 -9l18 -13q15 -12 30.5 -22t26.5 -10q23 0 39.5 2.5t38.5 6.5q2 1 6 1h3l247 35q19 2 27.5 5t11.5 6q6 8 9 13.5t3 16.5v9t-2 16h-9q-9 7 -23.5 9.5t-28.5 4.5q-2 0 -4.5 0.5t-4.5 0.5q-8 0 -18 -1t-19 -2q-20 -3 -37 -3h-11h-5t-9 -1q-11 -1 -25 -2t-22 -1
q-6 0 -12.5 -0.5t-12.5 -0.5q-23 -1 -46 -2.5t-46 -4.5l-3 3q1 11 5 31l8.5 41t9 39.5t7.5 27.5l1 1h13q6 -1 10 -1h10h17q13 0 26 0.5t30.5 1.5t41 3l56.5 5q5 0 13 0.5t17 1.5q8 1 14 1.5t8 0.5q28 5 34 18t6 27v17q-5 22 -27 26.5t-48 4.5h-90h-57t-47 2l-2 3q1 7 5 21
l8.5 30.5l9 33.5t8.5 30q5 1 8.5 1.5t6.5 0.5q7 1 11 1h16h32l151 7h30q10 0 13 2q1 1 2 1q22 6 30 16t8 20v10q-5 10 -11 16t-14.5 9.5t-20.5 5.5t-30 4q-14 1 -32 1.5t-38 1.5q-36 2 -72.5 3.5t-59.5 1.5h-62h-15q-7 0 -16 1q-25 0 -39.5 -2.5t-23 -11.5t-14 -25.5
t-11.5 -44.5zM476 625q-2 23 -23 38t-55 15h-4q-33 0 -53.5 -12t-22.5 -33q-6 20 -26 32.5t-53 12.5h-1q-35 0 -56.5 -14.5t-21.5 -37.5q5 -23 24.5 -37.5t53.5 -14.5q33 0 55.5 11.5t25.5 31.5q5 -18 24.5 -30.5t50.5 -12.5q35 0 58.5 13.5t23.5 36.5v1z" />
    <glyph glyph-name="igrave" unicode="&#xec;" horiz-adv-x="222" 
d="M76 -22h18l5.5 8l3.5 5q8 11 11 17t5 23q0 1 7.5 34l18.5 81.5l23.5 103l23.5 99.5q2 17 6 28.5l8 22.5q3 9 5.5 17.5t3.5 10.5v-1q4 14 8.5 33.5t8.5 39.5q0 13 -5.5 25t-15.5 21t-22.5 14.5t-26.5 5.5h-8q-6 5 -15 5q-18 0 -34.5 -36t-33.5 -104.5t-36 -168.5t-41 -228
q5 -20 15 -30l1 -1l5 12v-15q-2 0 -4 2q2 -3 7 -5zM222 582q20 8 29 14t9 23q0 5 -3 11.5t-6 15.5v1q-7 13 -17 29t-21 30.5t-23.5 27t-23.5 19.5h1q-29 19 -50 19q-17 0 -27 -9t-10 -31q0 -8 0.5 -11.5t2.5 -9.5l-1 1q4 -14 9.5 -24t12.5 -18t16.5 -16t23.5 -18
q12 -8 21.5 -15t12.5 -12q14 -18 25.5 -22.5t15.5 -4.5h3z" />
    <glyph glyph-name="iacute" unicode="&#xed;" horiz-adv-x="222" 
d="M76 -22h18l5.5 8l3.5 5q8 11 11 17t5 23q0 1 7.5 34l18.5 81.5l23.5 103l23.5 99.5q2 17 6 28.5l8 22.5q3 9 5.5 17.5t3.5 10.5v-1q4 14 8.5 33.5t8.5 39.5q0 13 -5.5 25t-15.5 21t-22.5 14.5t-26.5 5.5h-8q-6 5 -15 5q-18 0 -34.5 -36t-33.5 -104.5t-36 -168.5t-41 -228
q5 -20 15 -30l1 -1l5 12v-15q-2 0 -4 2q2 -3 7 -5zM136 578h8q7 0 15.5 3t24.5 23q3 5 12 11.5l22 16.5l22.5 17.5t16.5 16t12.5 19t10.5 25.5q0 2 0.5 2.5t0.5 2.5q1 5 1 13q0 21 -10 30t-27 9q-21 0 -51 -19q-11 -7 -22.5 -19t-22.5 -26.5t-20.5 -30t-16.5 -28.5
q-10 -19 -10 -30q0 -16 8.5 -22t25.5 -14z" />
    <glyph glyph-name="icircumflex" unicode="&#xee;" horiz-adv-x="222" 
d="M76 -22h18l5.5 8l3.5 5q8 11 11 17t5 23q0 1 7.5 34l18.5 81.5l23.5 103l23.5 99.5q2 17 6 28.5l8 22.5q3 9 5.5 17.5t3.5 10.5v-1q4 14 8.5 33.5t8.5 39.5q0 13 -5.5 25t-15.5 21t-22.5 14.5t-26.5 5.5h-8q-6 5 -15 5q-18 0 -34.5 -36t-33.5 -104.5t-36 -168.5t-41 -228
q5 -20 15 -30l1 -1l5 12v-15q-2 0 -4 2q2 -3 7 -5zM275 669q-5 11 -9.5 15t-10.5 7l-2 -6q-6 7 -15.5 17t-21.5 19t-27 15t-31 6h-3q-15 0 -24.5 -9t-14.5 -31q0 -2 -5.5 -5l-11.5 -6l-14 -8.5t-10 -8.5q-8 -8 -14 -21t-6 -29t5 -25q13 -27 36 -27q16 0 29 12l27 28l4 4t6 5
q14 -2 23.5 -7.5t28.5 -18.5q5 -4 12 -7t15 -3q13 0 23 9q18 13 18 42q0 14 -6 31l1 -3q0 1 -1 1v1h-16z" />
    <glyph glyph-name="idieresis" unicode="&#xef;" horiz-adv-x="222" 
d="M76 -22h18l5.5 8l3.5 5q8 11 11 17t5 23q0 1 7.5 34l18.5 81.5l23.5 103l23.5 99.5q2 17 6 28.5l8 22.5q3 9 5.5 17.5t3.5 10.5v-1q4 14 8.5 33.5t8.5 39.5q0 13 -5.5 25t-15.5 21t-22.5 14.5t-26.5 5.5h-8q-6 5 -15 5q-18 0 -34.5 -36t-33.5 -104.5t-36 -168.5t-41 -228
q5 -20 15 -30l1 -1l5 12v-15q-2 0 -4 2q2 -3 7 -5zM336 631q-2 23 -23 38.5t-55 15.5h-4q-33 0 -53.5 -12t-22.5 -33q-6 20 -26 32.5t-53 12.5h-1q-35 0 -56.5 -14.5t-21.5 -38.5q5 -23 25 -37t53 -15q33 0 55.5 11.5t25.5 31.5q5 -19 25 -30.5t50 -12.5q35 0 58.5 13.5
t23.5 36.5v1z" />
    <glyph glyph-name="eth" unicode="&#xf0;" horiz-adv-x="568" 
d="M-53 245q8 -12 26 -16t44 -4h10q-9 -41 -15.5 -83.5t-11.5 -90.5v-14q5 -27 24 -43l78 -25q20 0 36.5 1t28.5 3q1 1 4 1q79 7 148 41.5t121 85t82 110.5t30 117q0 39 -14.5 74.5t-46.5 64.5t-82.5 49.5t-121.5 29.5h1q-21 6 -49.5 7t-64.5 1l-57 -9q-17 -44 -26 -70
t-11 -35v-7t-1 -3t-1.5 -4t-1.5 -4q-6 -23 -12.5 -45t-11.5 -43q-26 -1 -47.5 -2t-31.5 -3v1q-20 -4 -30.5 -9t-10.5 -24q2 -18 5 -31t10 -21zM396 420q29 -22 39.5 -40.5t12.5 -34.5l1 -4q-2 -31 -22.5 -66.5t-54.5 -70t-79 -65.5t-96 -55q-4 -2 -21 -8t-40 -13l-4 4
q4 31 13 73.5t20 88.5q27 1 51.5 2t32.5 3h14q21 0 32 1.5t21 7.5q11 5 13.5 11t2.5 17l-9.5 20.5t-10.5 13.5l1 -1q-23 20 -53.5 26t-66.5 7l18 60l15 48l2 1q68 0 108 -6t60 -20z" />
    <glyph glyph-name="ntilde" unicode="&#xf1;" horiz-adv-x="534" 
d="M493 560q-16 -3 -27.5 -11.5t-19.5 -20.5t-12.5 -26.5t-7.5 -28.5l-7 -31l-17.5 -75l-23.5 -94.5t-25 -89.5q-26 59 -40.5 109.5t-23.5 108.5q-2 5 -2.5 12.5t-0.5 18.5v12q0 15 -1 31t-6 29.5t-14.5 22.5t-27.5 11q-46 -3 -72.5 -11t-41 -21.5t-20.5 -33t-11 -44.5v1
q-6 -21 -11 -41l-10 -39v1l-21.5 -84l-17.5 -68l-23.5 -91.5t-12.5 -51t-5 -24t-1 -11.5v-6q0 -27 21.5 -43.5t45.5 -16.5q20 0 35 10.5t18 36.5v5q5 15 15.5 51t22 79.5l22.5 89t17 80.5q15 -55 32 -101t33 -81t30 -58t23 -31l-1 2q20 -26 40 -38t38 -12q22 0 37.5 14.5
t23.5 37.5q11 32 18 55l12 39l9.5 29t5.5 18.5t4 14t4 15.5q1 10 5 24l8 28.5t8 27.5l6 20v-1q2 4 6.5 18t9.5 33t10 40.5t7 42.5q6 14 11 32t5 35q0 25 -16 41zM478 640v3q0 14 -14 24t-30 10q-11 0 -22.5 -6t-17.5 -18q-2 -3 -2 -9q0 -2 -0.5 -2.5t-0.5 -1.5t-0.5 -1.5
t-0.5 -1.5l1 3q0 -1 -0.5 -1.5l-0.5 -0.5q-3 5 -9.5 14t-12.5 19v-9q-15 12 -38 12q-14 0 -31 -6.5t-32 -16.5t-26 -22.5t-12 -24.5v-3q0 -14 12.5 -25.5t32.5 -11.5q12 0 20.5 5.5t16.5 13.5l3 3q2 2 3 3.5t2 2.5q1 -1 2 -1.5t2 -1.5q8 -9 22 -18.5t40 -9.5q42 0 65 16
t28 63z" />
    <glyph glyph-name="ograve" unicode="&#xf2;" horiz-adv-x="589" 
d="M365 546q-57 -7 -97.5 -16.5t-65.5 -23.5l-34 -20t-20 -13q-36 -26 -65 -60.5t-49.5 -73t-31.5 -78.5t-11 -77v-12v-6t2 -8l-1 2q2 -17 8 -36t23 -48q4 -7 7.5 -12.5t7.5 -10.5q1 -2 4 -5q27 -32 65.5 -50t95.5 -27q17 -4 33.5 -5t36.5 -1q54 0 99 11t78 37
q75 66 110 149.5t35 161.5v17q0 6 -0.5 10.5t-1.5 9.5q-2 15 -5.5 30.5t-11.5 32.5q-17 32 -37 54t-41 36.5t-41 21.5t-37 10h-55zM390 458q11 0 21 -2.5t20 -9.5q17 -13 26.5 -39t14.5 -52v-10q0 -3 0.5 -6.5t0.5 -7.5q0 -42 -14 -91t-43 -91.5t-73.5 -71t-105.5 -30.5
q-8 0 -21.5 5t-27.5 13q-29 8 -43.5 30t-16.5 49h-1q1 37 18 86t46.5 94.5t70.5 81t90 47.5q18 5 38 5zM420 558q20 8 29 14t9 23q0 11 -10 30q-6 13 -16 28.5t-21 29.5t-23.5 26.5t-23.5 19.5h1q-29 19 -50 19q-17 0 -27 -9t-10 -31q0 -8 0.5 -11t1.5 -6q6 -16 11.5 -26.5
t12 -18.5t16 -16t22.5 -18l22 -15.5t12 -11.5q14 -18 26 -22.5t16 -4.5h2z" />
    <glyph glyph-name="oacute" unicode="&#xf3;" horiz-adv-x="589" 
d="M365 546q-57 -7 -97.5 -16.5t-65.5 -23.5l-34 -20t-20 -13q-36 -26 -65 -60.5t-49.5 -73t-31.5 -78.5t-11 -77v-12v-6t2 -8l-1 2q2 -17 8 -36t23 -48q4 -7 7.5 -12.5t7.5 -10.5q1 -2 4 -5q27 -32 65.5 -50t95.5 -27q17 -4 33.5 -5t36.5 -1q54 0 99 11t78 37
q75 66 110 149.5t35 161.5v17q0 6 -0.5 10.5t-1.5 9.5q-2 15 -5.5 30.5t-11.5 32.5q-17 32 -37 54t-41 36.5t-41 21.5t-37 10h-55zM390 458q11 0 21 -2.5t20 -9.5q17 -13 26.5 -39t14.5 -52v-10q0 -3 0.5 -6.5t0.5 -7.5q0 -42 -14 -91t-43 -91.5t-73.5 -71t-105.5 -30.5
q-8 0 -21.5 5t-27.5 13q-29 8 -43.5 30t-16.5 49h-1q1 37 18 86t46.5 94.5t70.5 81t90 47.5q18 5 38 5zM300 551h2q8 0 16.5 3.5t23.5 23.5q4 5 21 17q3 2 6 4.5t7 5.5l23 18t17 16t12 18t10 24q1 3 1.5 7t0.5 13q0 22 -10 31t-27 9q-11 0 -24 -5.5t-27 -13.5
q-11 -7 -22.5 -19t-23 -27t-21 -31t-16.5 -29v-1q-4 -9 -6.5 -15.5t-2.5 -11.5q0 -16 8 -22t26 -13z" />
    <glyph glyph-name="ocircumflex" unicode="&#xf4;" horiz-adv-x="589" 
d="M365 546q-57 -7 -97.5 -16.5t-65.5 -23.5l-34 -20t-20 -13q-36 -26 -65 -60.5t-49.5 -73t-31.5 -78.5t-11 -77v-12v-6t2 -8l-1 2q2 -17 8 -36t23 -48q4 -7 7.5 -12.5t7.5 -10.5q1 -2 4 -5q27 -32 65.5 -50t95.5 -27q17 -4 33.5 -5t36.5 -1q54 0 99 11t78 37
q75 66 110 149.5t35 161.5v17q0 6 -0.5 10.5t-1.5 9.5q-2 15 -5.5 30.5t-11.5 32.5q-17 32 -37 54t-41 36.5t-41 21.5t-37 10h-55zM390 458q11 0 21 -2.5t20 -9.5q17 -13 26.5 -39t14.5 -52v-10q0 -3 0.5 -6.5t0.5 -7.5q0 -42 -14 -91t-43 -91.5t-73.5 -71t-105.5 -30.5
q-8 0 -21.5 5t-27.5 13q-29 8 -43.5 30t-16.5 49h-1q1 37 18 86t46.5 94.5t70.5 81t90 47.5q18 5 38 5zM485 653q-5 11 -9.5 15.5t-9.5 7.5l-11 -17q-3 2 -16 12.5l-28 22.5l-28 22t-15 10h-2q-17 0 -25.5 -9t-13.5 -31q0 -2 -5.5 -5l-11.5 -6l-14 -8.5t-10 -8.5
q-9 -8 -15 -21t-6 -29t5 -25q13 -27 36 -27q17 0 30 12l11 11.5l6 6.5q2 2 4 4.5t5 5.5l4 4t6 5q14 -2 24.5 -8t30.5 -20q13 -8 24 -8q13 0 23 9q10 7 14 17.5t4 24.5t-6 31l1 -3q0 1 -1 1v1h-16z" />
    <glyph glyph-name="otilde" unicode="&#xf5;" horiz-adv-x="589" 
d="M365 546q-57 -7 -97.5 -16.5t-65.5 -23.5l-34 -20t-20 -13q-36 -26 -65 -60.5t-49.5 -73t-31.5 -78.5t-11 -77v-12v-6t2 -8l-1 2q2 -17 8 -36t23 -48q4 -7 7.5 -12.5t7.5 -10.5q1 -2 4 -5q27 -32 65.5 -50t95.5 -27q17 -4 33.5 -5t36.5 -1q54 0 99 11t78 37
q75 66 110 149.5t35 161.5v17q0 6 -0.5 10.5t-1.5 9.5q-2 15 -5.5 30.5t-11.5 32.5q-17 32 -37 54t-41 36.5t-41 21.5t-37 10h-55zM390 458q11 0 21 -2.5t20 -9.5q17 -13 26.5 -39t14.5 -52v-10q0 -3 0.5 -6.5t0.5 -7.5q0 -42 -14 -91t-43 -91.5t-73.5 -71t-105.5 -30.5
q-8 0 -21.5 5t-27.5 13q-29 8 -43.5 30t-16.5 49h-1q1 37 18 86t46.5 94.5t70.5 81t90 47.5q18 5 38 5zM469 639v2q0 14 -13.5 24t-29.5 10q-12 0 -23.5 -6t-18.5 -20q0 -4 -2 -6v-2q-1 -2 -1 -5q-1 1 -2 3q-2 0 -2 3q-8 11 -20 20.5t-35 9.5q-14 0 -31.5 -6t-32.5 -16
t-26 -22.5t-12 -25.5v-2q0 -15 12.5 -26.5t32.5 -11.5q13 0 21.5 6.5t17.5 15.5l7 7q0 1 3 -2q8 -11 22 -20.5t40 -9.5q41 0 64.5 16.5t28.5 63.5z" />
    <glyph glyph-name="odieresis" unicode="&#xf6;" horiz-adv-x="589" 
d="M365 546q-57 -7 -97.5 -16.5t-65.5 -23.5l-34 -20t-20 -13q-36 -26 -65 -60.5t-49.5 -73t-31.5 -78.5t-11 -77v-12v-6t2 -8l-1 2q2 -17 8 -36t23 -48q4 -7 7.5 -12.5t7.5 -10.5q1 -2 4 -5q27 -32 65.5 -50t95.5 -27q17 -4 33.5 -5t36.5 -1q54 0 99 11t78 37
q75 66 110 149.5t35 161.5v17q0 6 -0.5 10.5t-1.5 9.5q-2 15 -5.5 30.5t-11.5 32.5q-17 32 -37 54t-41 36.5t-41 21.5t-37 10h-55zM390 458q11 0 21 -2.5t20 -9.5q17 -13 26.5 -39t14.5 -52v-10q0 -3 0.5 -6.5t0.5 -7.5q0 -42 -14 -91t-43 -91.5t-73.5 -71t-105.5 -30.5
q-8 0 -21.5 5t-27.5 13q-29 8 -43.5 30t-16.5 49h-1q1 37 18 86t46.5 94.5t70.5 81t90 47.5q18 5 38 5zM510 605q-2 23 -23.5 38t-55.5 15h-4q-33 0 -53 -12.5t-22 -34.5q-5 20 -25.5 33.5t-53.5 13.5h-2q-35 0 -56.5 -14.5t-21.5 -37.5q5 -22 25 -37t53 -15q35 0 57.5 12
t24.5 33q4 -19 23.5 -32t51.5 -13q35 0 58.5 13.5t23.5 36.5v1z" />
    <glyph glyph-name="divide" unicode="&#xf7;" horiz-adv-x="537" 
d="M45 272q8 -12 28 -16t49 -4q12 0 25 0.5t28 0.5l26 2t27 1h2q6 0 32 0.5t56 1.5t57 2.5t35 3.5h20q26 0 38 1.5t22 8.5q9 4 11.5 8.5t2.5 12.5l-10 21t-10 14q-26 24 -66 30.5t-86 6.5h-43q-10 0 -20.5 -1t-20.5 -1q-25 0 -54 -0.5t-55 -1.5t-45.5 -2t-24.5 -2h1
q-20 -4 -31 -8.5t-11 -19.5v-4q0 -4 1 -6v-7l5.5 -21t10.5 -21zM202 477v-8q0 -11 3.5 -19t8.5 -15q20 -15 37.5 -20.5t26.5 -5.5q14 0 27 3.5t23 8.5q19 10 31.5 26t13.5 35q0 34 -37 49q-10 5 -21 8.5t-22 3.5q-7 0 -11 -0.5t-10 -1.5q-27 -5 -47 -23t-23 -41zM152 152v-8
q0 -11 3.5 -19t8.5 -15q20 -15 37.5 -20.5t26.5 -5.5q14 0 27 3.5t23 8.5q19 10 31.5 26t13.5 35q0 34 -37 49q-10 5 -21 8.5t-22 3.5q-7 0 -11 -0.5t-10 -1.5q-27 -5 -47 -23t-23 -41z" />
    <glyph glyph-name="oslash" unicode="&#xf8;" horiz-adv-x="589" 
d="M616 544q-4 23 -21 32.5t-39 9.5q-14 0 -27.5 -3.5t-24.5 -10.5q-24 -17 -44 -37q-11 5 -19.5 6.5t-16.5 3.5q-1 0 -3 0.5t-3 0.5h-53q-57 -7 -97.5 -16.5t-65.5 -23.5l-34 -20t-20 -13q-36 -26 -65 -60.5t-49.5 -73t-31.5 -78.5t-11 -77v-12v-6t2 -8l-1 2q2 -17 8 -36
t23 -48q3 -6 6.5 -11t7.5 -10q2 -4 5 -7v1q6 -8 10 -11q-3 -3 -7 -9q-3 -4 -5.5 -7t-5.5 -7q-17 -21 -17 -43q0 -24 16 -37.5t42 -13.5q17 0 36.5 8.5t34.5 28.5q5 5 9 10.5l8 10.5q8 -2 18.5 -4l21.5 -4q17 -4 33.5 -5t36.5 -1q54 0 99 11t78 37q75 66 110 149.5t35 161.5
v17q0 6 -0.5 10.5t-1.5 9.5q-2 15 -5.5 30.5t-11.5 32.5l-3 6q-1 1 -3 5q18 15 32 36.5t14 53.5v19zM473 331q0 -42 -14 -91t-43 -91.5t-73.5 -71t-105.5 -30.5h-8t-9 2l122.5 147.5l129.5 146.5q0 -3 0.5 -6t0.5 -6zM390 458h3q0 -1 -0.5 -1.5l-0.5 -0.5l1 1l-5.5 -7.5
l-4.5 -6.5l-5.5 -7.5l-5.5 -7.5q-11 -16 -24 -31.5t-27 -29.5q-7 -7 -15 -16t-16 -17q-4 -5 -8 -8.5t-8 -8.5q-14 -14 -26 -27.5t-22 -27.5l-55 -67.5l-43 -54.5v4h-1q1 37 18 86t46.5 94.5t70.5 81t90 47.5q18 5 38 5z" />
    <glyph glyph-name="ugrave" unicode="&#xf9;" horiz-adv-x="507" 
d="M376 426q-1 -4 -1.5 -8t-1.5 -8l-8.5 -48.5t-14.5 -64.5q-6 -26 -13.5 -54t-15.5 -53t-16.5 -45.5t-15.5 -30.5l-30 -39l-2 -2q-9 -6 -20 -9.5t-21 -5t-18.5 -2t-12.5 -0.5h-4q-5 0 -14.5 3t-18.5 8.5t-16 14.5t-7 21q0 5 1 8q0 17 5 40.5t14 54.5l24.5 82.5l18 58.5
l12.5 39.5l8 24.5q3 10 5 15.5t3 9.5t1.5 8t0.5 11q2 11 3 32v2q0 10 -8 20.5t-19 18.5t-24.5 14t-23.5 9q-18 0 -33 -11t-37 -44v-7h1q-5 -11 -9 -23t-7 -25l1 1q-4 -11 -7 -21.5l-6 -20.5l-19 -65t-11.5 -43t-8.5 -38t-9 -49q-2 -15 -3.5 -30t-1.5 -31q0 -32 10 -63
t37 -54l11 -4l-3 1q38 -31 68 -43t64 -12q4 1 10 1h14q5 0 9.5 -0.5t9.5 -0.5h10v1h2q57 0 96 30t65.5 76.5t44 104t31.5 113.5v-1q13 47 24.5 100.5t16.5 104.5q0 17 -0.5 28t-4.5 28q-4 7 -12.5 12.5t-19 9.5t-20.5 6t-17 2q-11 0 -23 -10t-15 -13zM334 551q20 8 29.5 15
t9.5 22q0 11 -10 30q-6 13 -16 28.5t-21 29.5t-23.5 26.5t-23.5 19.5q-14 8 -26.5 13.5t-22.5 5.5q-17 0 -27 -9t-10 -31q0 -14 4 -21l-1 1q4 -14 9.5 -23.5t12.5 -18t16.5 -16.5t22.5 -18q1 -1 2.5 -2t3.5 -3l-1 1q11 -8 18.5 -14t10.5 -9q14 -18 26 -22.5t16 -4.5h1z" />
    <glyph glyph-name="uacute" unicode="&#xfa;" horiz-adv-x="507" 
d="M376 426q-1 -4 -1.5 -8t-1.5 -8l-8.5 -48.5t-14.5 -64.5q-6 -26 -13.5 -54t-15.5 -53t-16.5 -45.5t-15.5 -30.5l-30 -39l-2 -2q-9 -6 -20 -9.5t-21 -5t-18.5 -2t-12.5 -0.5h-4q-5 0 -14.5 3t-18.5 8.5t-16 14.5t-7 21q0 5 1 8q0 17 5 40.5t14 54.5l24.5 82.5l18 58.5
l12.5 39.5l8 24.5q3 10 5 15.5t3 9.5t1.5 8t0.5 11q2 11 3 32v2q0 10 -8 20.5t-19 18.5t-24.5 14t-23.5 9q-18 0 -33 -11t-37 -44v-7h1q-5 -11 -9 -23t-7 -25l1 1q-4 -11 -7 -21.5l-6 -20.5l-19 -65t-11.5 -43t-8.5 -38t-9 -49q-2 -15 -3.5 -30t-1.5 -31q0 -32 10 -63
t37 -54l11 -4l-3 1q38 -31 68 -43t64 -12q4 1 10 1h14q5 0 9.5 -0.5t9.5 -0.5h10v1h2q57 0 96 30t65.5 76.5t44 104t31.5 113.5v-1q13 47 24.5 100.5t16.5 104.5q0 17 -0.5 28t-4.5 28q-4 7 -12.5 12.5t-19 9.5t-20.5 6t-17 2q-11 0 -23 -10t-15 -13zM272 553h2
q8 0 16.5 3.5t23.5 22.5q3 4 10 9.5l16 12.5q2 2 4 3t4 3q14 10 24 18t17 16t12 17.5t9 23.5v3q1 3 1.5 6.5t0.5 11.5q0 21 -10 30t-27 9q-11 0 -23 -4t-24 -11q-12 -8 -24.5 -21.5t-24 -28.5t-21.5 -30t-17 -28q0 -1 -0.5 -3t-0.5 -3q-8 -19 -8 -24q0 -15 8 -21t26 -13z
" />
    <glyph glyph-name="ucircumflex" unicode="&#xfb;" horiz-adv-x="507" 
d="M376 426q-1 -4 -1.5 -8t-1.5 -8l-8.5 -48.5t-14.5 -64.5q-6 -26 -13.5 -54t-15.5 -53t-16.5 -45.5t-15.5 -30.5l-30 -39l-2 -2q-9 -6 -20 -9.5t-21 -5t-18.5 -2t-12.5 -0.5h-4q-5 0 -14.5 3t-18.5 8.5t-16 14.5t-7 21q0 5 1 8q0 17 5 40.5t14 54.5l24.5 82.5l18 58.5
l12.5 39.5l8 24.5q3 10 5 15.5t3 9.5t1.5 8t0.5 11q2 11 3 32v2q0 10 -8 20.5t-19 18.5t-24.5 14t-23.5 9q-18 0 -33 -11t-37 -44v-7h1q-5 -11 -9 -23t-7 -25l1 1q-4 -11 -7 -21.5l-6 -20.5l-19 -65t-11.5 -43t-8.5 -38t-9 -49q-2 -15 -3.5 -30t-1.5 -31q0 -32 10 -63
t37 -54l8 -3q38 -31 68 -43t64 -12q4 1 10 1h14q5 0 9.5 -0.5t9.5 -0.5h10v1h2q57 0 96 30t65.5 76.5t44 104t31.5 113.5v-1q13 47 24.5 100.5t16.5 104.5q0 17 -0.5 28t-4.5 28q-4 7 -12.5 12.5t-19 9.5t-20.5 6t-17 2q-11 0 -23 -10t-15 -13zM406 660q-5 10 -9.5 14
t-10.5 7l-2 -6q-6 7 -15.5 17t-21.5 19t-27 15t-31 6h-3q-16 0 -25 -9t-13 -30q0 -1 -6 -4.5l-13 -7.5l-14 -9t-9 -8q-8 -8 -14 -21t-6 -29q0 -14 5 -25q13 -27 36 -27q8 0 14.5 3.5t14.5 8.5l18 18q2 2 4 4.5t5 5.5l10 10q14 -2 24.5 -8.5t30.5 -20.5q13 -8 24 -8q8 0 22 9
q19 17 19 42q0 8 -2.5 16.5t-4.5 16.5v1z" />
    <glyph glyph-name="udieresis" unicode="&#xfc;" horiz-adv-x="507" 
d="M376 426q-1 -4 -1.5 -8t-1.5 -8l-8.5 -48.5t-14.5 -64.5q-6 -26 -13.5 -54t-15.5 -53t-16.5 -45.5t-15.5 -30.5l-30 -39l-2 -2q-9 -6 -20 -9.5t-21 -5t-18.5 -2t-12.5 -0.5h-4q-5 0 -14.5 3t-18.5 8.5t-16 14.5t-7 21q0 5 1 8q0 17 5 40.5t14 54.5l24.5 82.5l18 58.5
l12.5 39.5l8 24.5q3 10 5 15.5t3 9.5t1.5 8t0.5 11q2 11 3 32v2q0 10 -8 20.5t-19 18.5t-24.5 14t-23.5 9q-18 0 -33 -11t-37 -44v-7h1q-5 -11 -9 -23t-7 -25l1 1q-4 -11 -7 -21.5l-6 -20.5l-19 -65t-11.5 -43t-8.5 -38t-9 -49q-2 -15 -3.5 -30t-1.5 -31q0 -32 10 -63
t37 -54l8 -3q38 -31 68 -43t64 -12q4 1 10 1h14q5 0 9.5 -0.5t9.5 -0.5h10v1h2q57 0 96 30t65.5 76.5t44 104t31.5 113.5v-1q13 47 24.5 100.5t16.5 104.5q0 17 -0.5 28t-4.5 28q-4 7 -12.5 12.5t-19 9.5t-20.5 6t-17 2q-11 0 -23 -10t-15 -13zM452 635q-2 23 -24 38t-55 15
h-4q-32 0 -52.5 -12t-23.5 -32q-5 20 -25.5 32t-53.5 12h-1q-35 0 -56.5 -14.5t-21.5 -38.5q5 -23 25 -37t53 -15q33 0 55.5 11.5t25.5 31.5q5 -19 25 -30.5t51 -12.5q35 0 58.5 13.5t23.5 36.5v2z" />
    <glyph glyph-name="yacute" unicode="&#xfd;" horiz-adv-x="461" 
d="M477 549v-1q-6 12 -22 18.5t-33 6.5q-27 0 -46 -21l-100 -110t-90 -108l-10.5 24t-10.5 28v-1q-1 2 -2 5t-2 5q-17 43 -36.5 82.5t-44.5 59.5q-5 2 -13.5 2.5t-17.5 0.5q-14 0 -27.5 -2.5t-21.5 -8.5q-9 -6 -12.5 -16t-3.5 -22v-4q0 -15 4.5 -27t10.5 -23
q12 -18 24.5 -47t23.5 -60t19.5 -60.5t12.5 -48.5l-33 -191q1 -23 28 -40l-2 1l8 -8q40 -15 60 -15q15 0 23.5 5.5t14.5 17.5t10 30.5t9 45.5l11 57t17 74q2 12 4 20.5t5 16t8 15.5t14 19q29 43 75 94.5t118 118.5l1 1q1 0 3 2q8 7 19.5 18t11.5 25v8zM201 529h2q7 0 16 3.5
t24 22.5q3 4 10 9.5l16 12.5q2 2 4 3t4 3q14 10 24 18t17 16t12 17.5t9 23.5v3q1 3 1.5 6.5t0.5 11.5q0 21 -10 30t-27 9q-11 0 -23 -4t-24 -11q-11 -8 -23.5 -21t-24 -28t-21.5 -30t-17 -28q-10 -19 -10 -31q0 -15 8 -21t26 -13z" />
    <glyph glyph-name="thorn" unicode="&#xfe;" horiz-adv-x="448" 
d="M309 103q80 36 125.5 77.5t45.5 100.5q-5 44 -27.5 73t-70.5 52q-28 13 -72.5 23t-90.5 16l10 40l3 15q0 13 -5.5 25t-15.5 21t-22.5 14.5t-26.5 5.5h-8q-6 5 -15 5q-18 0 -34.5 -36t-33.5 -104.5t-36 -168.5t-41 -228q2 -8 4.5 -15t7.5 -12q0 -8 8 -8q2 -1 3.5 -1.5
t3.5 -1.5l55 -18h18l5.5 8l3.5 5q8 11 11 17t5 23q1 7 1.5 11t3.5 16h12q59 7 98 17.5t75 27.5zM189 340l-1 -1q6 12 10 12q14 0 32.5 -1.5t38 -5t38 -9t32.5 -12.5q1 -5 7 -5q1 -1 3 -1q19 -21 19 -35q0 -17 -16 -32.5t-42.5 -31t-61.5 -30.5t-74 -30l2 1l-23 -5l-3 3
l8.5 42l11 54.5t11 51.5t8.5 35z" />
    <glyph glyph-name="ydieresis" unicode="&#xff;" horiz-adv-x="461" 
d="M477 549v-1q-6 12 -22 18.5t-33 6.5q-27 0 -46 -21l-100 -110t-90 -108l-10.5 24t-10.5 28v-1q-1 2 -2 5t-2 5q-17 43 -36.5 82.5t-44.5 59.5q-5 2 -13.5 2.5t-17.5 0.5q-14 0 -27.5 -2.5t-21.5 -8.5q-9 -6 -12.5 -16t-3.5 -22v-4q0 -15 4.5 -27t10.5 -23
q12 -18 24.5 -47t23.5 -60t19.5 -60.5t12.5 -48.5l-33 -191q1 -23 28 -40l-2 1l8 -8q40 -15 60 -15q15 0 23.5 5.5t14.5 17.5t10 30.5t9 45.5l11 57t17 74q2 12 4 20.5t5 16t8 15.5t14 19q29 43 75 94.5t118 118.5l1 1q1 0 3 2q8 7 19.5 18t11.5 25v8zM396 609q-2 23 -24 38
t-55 15h-4q-32 0 -52.5 -12t-23.5 -32q-5 20 -25.5 32t-53.5 12h-1q-35 0 -56.5 -14.5t-21.5 -37.5q5 -23 24.5 -37.5t53.5 -14.5q33 0 55.5 11.5t25.5 31.5q5 -18 25 -30.5t51 -12.5q35 0 58.5 13.5t23.5 36.5v1z" />
    <glyph glyph-name="dotlessi" unicode="&#x131;" horiz-adv-x="232" 
d="M168 233l11.5 40l12 44.5l14.5 57.5l19 80q0 2 1 3q0 2 0.5 2.5t0.5 2.5q0 19 -14.5 27.5t-32.5 8.5q-24 0 -46.5 -11.5t-26.5 -31.5q-16 -58 -28 -108t-28 -109q-8 -29 -14 -53.5t-11 -48t-9.5 -48t-9.5 -54.5q0 -2 -0.5 -2.5t-0.5 -2.5v-5q0 -21 13.5 -28t30.5 -7
q30 0 43.5 7.5t20.5 25t12.5 47t18.5 73.5z" />
    <glyph glyph-name="Lslash" unicode="&#x141;" horiz-adv-x="499" 
d="M279 342h-1q14 9 21 22t7 27q0 21 -14.5 38.5t-40.5 17.5h-1l33 82t16 71q0 23 -13.5 37.5t-49.5 14.5q-16 0 -35 -3q-36 -2 -54 -12.5t-23 -37.5v-2q-8 -11 -10 -25t-2 -30v1l-15.5 -63l-12 -50.5l-10.5 -46l-11 -49.5q-21 -14 -32.5 -23.5t-16.5 -14.5
q-15 -11 -21.5 -23.5t-6.5 -26.5q0 -20 14 -36t34 -20l-6 -29t-7 -32l-5 -24t-5.5 -28t-4.5 -27.5t-2 -22.5q2 -20 5.5 -32t13.5 -20v-3q20 -11 34 -14t29 -3q67 10 118 15.5l96 10.5q49 5 96.5 12t95.5 20q5 9 7 15t2 14q0 20 -12.5 32t-26.5 12q-5 0 -7 -1q-27 -2 -44 -3
t-29.5 -2t-22.5 -2t-22 -3q-1 -1 -4 -1l-44 -5t-33.5 -3.5t-38.5 -2.5t-59 -3l-9 3l-4 4l-3 7v2q1 1 1 5v2l4 18v2l55 184z" />
    <glyph glyph-name="lslash" unicode="&#x142;" horiz-adv-x="399" 
d="M254 294h-7q8 14 8 29q0 17 -11 32.5t-30 20.5l3 6q12 29 22 57t10 51t-12.5 37.5t-47.5 14.5q-15 0 -30 -3h1q-34 -2 -50 -12t-21 -36q-8 -11 -8.5 -23t-0.5 -24v3q-8 -28 -13 -49l-9.5 -40l-8.5 -36.5t-8 -38.5q-14 -10 -23 -17t-13 -11q-14 -10 -20 -22.5t-6 -25.5
q0 -18 10.5 -32.5t25.5 -20.5v-1l-4 -18t-4 -20l-3 -12.5t0 -3.5q-3 -17 -7 -36t-4 -32q2 -17 5 -27t10 -18v-4q21 -11 34.5 -14.5t27.5 -3.5q35 5 64.5 8.5l55.5 6.5q27 3 51 6q41 4 80 10t80 16q5 11 7.5 17.5t2.5 15.5q0 20 -13 32.5t-28 12.5q-6 0 -9 -1q-10 -1 -18 -1
t-15 -1q-26 -2 -38 -3t-24 -3l-1 -1q-7 -1 -13 -1q-5 0 -10 -1q-14 -2 -24.5 -3t-22.5 -2t-28 -2t-41 -2h3l-5 1v1v3l4 15v1l43 145l57 42q3 1 7 5z" />
    <glyph glyph-name="OE" unicode="&#x152;" horiz-adv-x="1184" 
d="M543 5q12 -8 25.5 -18.5l26.5 -20t24.5 -16t20.5 -6.5q28 0 50.5 4t54.5 9h2l309 44q21 2 30 5t11 5q6 6 8.5 11.5t2.5 16.5v8q0 5 -1 11h-5q-10 11 -32 14t-39 5q-22 0 -46 -4t-47 -4q-4 0 -7 0.5t-7 0.5q-2 0 -11 -1t-21 -1.5t-24 -1.5t-20 -1l-74.5 -4t-73.5 -7l-4 1
l-9 9l-1 4q1 13 6.5 41t12 57.5t13 55t9.5 33.5l2 1h1l6 2h19q7 -1 12 -1h11h21q16 0 32.5 0.5t38 2t50.5 4t71 6.5q4 0 13.5 0.5t20 1.5t19.5 1.5t12 0.5q27 4 33 17t6 27v19q-5 20 -29 24.5t-53 4.5h-112q-38 0 -76 0.5t-61 3.5l-7 10l-1 4q2 9 7.5 31l12 46.5l12.5 46
t9 29.5h-1l3 2l5 2q11 1 17 1.5l11.5 1l11.5 1t16 0.5h40l188 8h38q9 0 10 1q3 3 4 3q23 5 31 14.5t8 18.5v8q-5 10 -11 16t-15 9.5t-23 5.5t-34 4q-26 1 -60 3t-69 3.5t-67.5 2.5t-54.5 1h-78h-19q-10 0 -21 1q-21 0 -35 -1.5t-23 -6.5t-15 -14t-11 -24q-31 29 -62.5 42
t-58.5 17h-65q-69 -8 -118.5 -19.5t-79.5 -28.5l-42 -25l-24 -15q-44 -32 -79.5 -74t-60.5 -88.5t-38.5 -95.5t-13.5 -94v-15q0 -10 1 -13q3 -23 10.5 -47.5t27.5 -53.5v1q34 -56 85 -84t131 -41q22 -5 42 -6.5t43 -1.5q61 0 112 11.5t90 37.5zM488 573q29 0 58 -18
q25 -18 38 -52.5t18 -68.5q1 -8 1.5 -16.5t0.5 -16.5q0 -6 -0.5 -12t-0.5 -12l-12 -72q-12 -48 -36 -95.5t-60.5 -86t-86 -63t-112.5 -26.5q-11 0 -29 6.5t-36 15.5q-40 13 -61 42t-23 65q-1 1 -1 4q1 32 11.5 71.5t28.5 80.5t44 81t58 73.5t70 58t80 34.5q10 3 22.5 5
t27.5 2z" />
    <glyph glyph-name="oe" unicode="&#x153;" horiz-adv-x="947" 
d="M454 -13q16 -12 31.5 -22t26.5 -10q20 0 35 2.5l33 5.5l18 3h1l247 35q19 2 27.5 5t11.5 6q6 6 8.5 12t2.5 17v25h-10q-9 7 -22 9.5t-26 4.5h1q-3 1 -6 1t-6 1q-22 0 -40 -3q-10 -2 -19.5 -3t-17.5 -1h-6q-2 0 -2.5 0.5t-2.5 0.5h-5t-9 -1q-11 -1 -25 -2t-22 -1
q-5 0 -11 -0.5t-11 -0.5q-25 -2 -49 -3.5t-46 -4.5l-2 3q1 11 5 30.5l8.5 40.5t9 40t7.5 28l2 1h48q13 0 26.5 0.5t31 1.5t41 3l56.5 5q5 0 12.5 0.5t16.5 1.5q8 1 14 1h9q28 5 34 18t6 27v19q-6 20 -27.5 25t-48.5 5h-89h-58q-28 0 -47 2l-1 2q1 7 4.5 21l8 31t9.5 34l9 30
q8 0 12 0.5t8 1.5q5 1 9 1h13h32l150 6h31q11 0 15 4q22 5 29.5 15t7.5 21v8q-5 11 -10.5 17t-14 10t-20.5 5.5t-30 3.5q-21 1 -48.5 2.5t-55.5 2.5l-54 2t-44 1h-62h-15q-7 0 -16 1q-34 0 -49 -5.5t-24 -25.5q-23 20 -47 29.5t-44 12.5h-54q-57 -7 -97.5 -16.5t-65.5 -23.5
l-34 -20t-20 -13q-36 -26 -65 -60.5t-49.5 -73t-31.5 -78.5t-11 -77v-12v-6t2 -8l-1 2q2 -17 8 -36t23 -48q4 -7 7.5 -12.5t7.5 -10.5q1 -2 4 -5q27 -32 65.5 -50t95.5 -27q17 -4 33.5 -5t36.5 -1q48 0 88 9t72 29l9.5 -7t11.5 -9zM390 458q11 0 21 -2.5t20 -9.5
q17 -13 26.5 -39t14.5 -52v-11q0 -3 0.5 -6.5t0.5 -6.5t-0.5 -5.5t-0.5 -4.5v-7l-9 -58q-9 -38 -27.5 -74.5t-46.5 -66t-66 -48.5t-86 -20q-8 0 -21.5 5t-27.5 13q-29 8 -43.5 30t-16.5 49h-1q1 37 18 86t46.5 94.5t70.5 81t90 47.5q18 5 38 5zM914 446h1h-1z" />
    <glyph glyph-name="Scaron" unicode="&#x160;" horiz-adv-x="649" 
d="M315 606q-57 -27 -101 -64t-63 -72q-16 -30 -26.5 -55t-10.5 -48q1 -24 13 -47.5t30 -44t40.5 -37t45.5 -27.5l15.5 -7t11.5 -7q14 -7 30 -11l33 -8q31 -7 60 -15t36 -18q17 -8 22.5 -15t6.5 -15v-4q0 -10 -6 -18.5t-14.5 -15t-17.5 -10.5t-15 -5q-3 -2 -16 -3.5
t-28 -2.5t-29.5 -1.5t-20.5 -0.5q-13 0 -24 1t-23.5 3t-27.5 5.5l-35 8.5q-27 14 -52 33.5t-42 45.5q-7 11 -15.5 21.5t-23.5 18.5v1q-14 -2 -31.5 -3.5t-28.5 -12.5l-1 -1q-16 -19 -16 -41t15.5 -43.5t41.5 -41t60 -36t71 -29t74.5 -19.5t70.5 -7q8 0 16.5 0.5t16.5 1.5
q31 0 52.5 7t41.5 12q38 14 66.5 33.5t50.5 43.5q19 21 27 42t8 23q-1 4 -2.5 14t-3.5 18q-14 31 -48 58t-91 38q-34 13 -69 23.5t-71 25.5q-1 1 -5 1q-28 2 -44 24.5t-16 51.5q0 26 13 46q23 35 60 66t83 45h4q15 0 33.5 -1.5t37 -6t36.5 -13t32 -21.5q23 -18 38 -28
t25 -12h5q26 0 36 13.5t10 33.5q0 7 -1 14.5t-3 12.5q-6 17 -21.5 28t-47.5 28q-38 20 -73.5 35.5t-82.5 20.5q-7 0 -8 -1q-24 0 -48.5 -5.5t-47.5 -14.5zM266 749q5 -10 8.5 -14t8.5 -7q1 -2 10.5 -12t25 -21t37 -20t45.5 -9h3q14 0 22.5 9t13.5 30q0 4 7 9.5t16 10.5
l18 10.5t13 10.5q9 8 16 22.5t7 32.5q0 16 -5 26q-13 26 -34 26q-13 0 -28 -12l-18 -18.5l-15 -15.5l-8 -8t-10 -9q-21 2 -35.5 9.5t-40.5 27.5q-6 4 -12 7t-14 3q-11 0 -21 -9q-18 -14 -18 -42q0 -11 2.5 -20t5.5 -18v1z" />
    <glyph glyph-name="scaron" unicode="&#x161;" horiz-adv-x="519" 
d="M248 504q-48 -23 -84 -53.5t-52 -59.5q-14 -25 -22.5 -46t-8.5 -42q1 -21 11 -41t25.5 -37.5t34.5 -31.5t38 -23q16 -7 22 -11q13 -7 25.5 -10.5t26.5 -6.5q23 -5 45 -11t27 -13q12 -5 16 -8.5t4 -7.5v-3q0 -6 -4 -11t-10 -8.5t-12 -6t-10 -3.5q-2 -2 -12 -3.5t-21.5 -2
l-22.5 -1t-15 -0.5q-19 0 -36 3t-47 11q-21 11 -40.5 25t-31.5 34q-6 9 -12.5 17.5t-17.5 15.5v8q-17 -5 -24 -5q-10 -1 -21.5 -3.5t-22.5 -13.5v-2q-13 -17 -13 -36q0 -28 27.5 -55t69 -48.5t90 -34.5t89.5 -13q8 0 15 0.5t13 1.5q19 0 32.5 3t25.5 7q5 2 15 4
q35 13 59 29.5t42 36.5q17 18 24 37t7 22q0 4 -1 12.5t-3 14.5q-14 28 -43 51.5t-77 33.5l2 -1q-12 5 -25 9.5t-26 8.5l-30.5 9.5t-26.5 9.5q-3 4 -12 4q-18 2 -28 17t-10 34q0 18 9 32q17 26 45 49t64 35q23 0 53.5 -6t52.5 -26q39 -31 54 -34h6q27 0 37 13.5t10 34.5
q0 6 -1 13t-3 12v-1q-7 18 -20 27.5t-40 23.5q-30 17 -59 29t-69 17q-8 0 -11 -1q-39 -2 -78 -17zM219 584q4 -5 13 -13.5t22.5 -16.5t30.5 -14.5t36 -6.5h2q15 0 24.5 9t14.5 30q0 2 5 4.5t12 6.5l13.5 8.5t10.5 8.5q8 8 14.5 21t6.5 30q0 12 -7 29q-12 22 -35 22
q-8 0 -14 -3t-14 -8l-18 -18q-3 -3 -5 -5.5t-4 -4.5q-3 -3 -5.5 -5l-7.5 -6q-12 2 -22.5 8t-27.5 20q-6 4 -12 7t-14 3q-11 0 -23 -10q-19 -13 -19 -41q0 -14 6 -29q1 -2 2 -5t2 -5q7 -11 13 -16z" />
    <glyph glyph-name="Ydieresis" unicode="&#x178;" horiz-adv-x="576" 
d="M585 667q-6 11 -22.5 17.5t-34.5 6.5q-28 0 -49 -22l-129.5 -142.5t-117.5 -142.5h-1q-8 14 -18.5 38.5t-22.5 55.5l-21 50.5t-22.5 48t-24.5 40.5t-27 29q-7 2 -16.5 3t-17.5 1q-15 0 -30 -2t-23 -9q-9 -6 -12 -15.5t-3 -22.5v-5q0 -16 7 -33t15 -33q14 -21 29 -56
t28.5 -73t23.5 -74.5t15 -60.5v-4l-41 -238q1 -22 29 -39l9 -9q44 -16 67 -16q21 0 31 14.5t17.5 47.5t16.5 86t29 129l5.5 26.5t6.5 21.5t11 21t18 25q36 53 94 118.5t148 149.5l11 8.5t13.5 11.5t11.5 13t5 15v4q0 1 -0.5 1.5t-0.5 1.5zM286 748q-3 23 -25.5 39t-62.5 16
h-2q-38 0 -61.5 -14t-23.5 -37q5 -23 27 -38.5t58 -16.5q40 0 65 13.5t25 36.5v1zM482 748q-2 23 -25.5 39t-60.5 16h-5q-37 0 -59.5 -13.5t-22.5 -36.5q1 -23 23 -39t60 -17q38 0 64 13.5t26 36.5v1z" />
    <glyph glyph-name="Zcaron" unicode="&#x17d;" horiz-adv-x="713" 
d="M606 458l42 38.5t42 42.5t32 42.5t13 38.5q0 19 -18.5 32t-66.5 18q-20 0 -50 -3q-5 0 -21.5 -0.5t-35 -1.5t-35 -1.5t-21.5 -0.5h-56q-12 0 -32 -1t-59 -5q-91 -6 -147 -11.5t-87 -12.5t-41.5 -15.5t-10.5 -18.5q0 -7 3 -14v-10q0 -14 2.5 -28t15.5 -19q15 -12 27 -15.5
t26 -3.5q8 0 20 1t26 3q9 0 40.5 3t69.5 7.5t75 10t57 9.5l-2 -2l25.5 3.5t22.5 1.5q20 0 37 -10v-5l-415 -380q-13 -12 -26 -25.5t-23.5 -28.5t-17 -30.5t-6.5 -30.5v-4q-2 -7 -3.5 -13.5t-1.5 -17.5q0 -7 8 -21q12 -13 34.5 -18t54.5 -5q103 2 170.5 8.5t104.5 6.5h13
q20 -1 50 -1.5t58 -0.5h32q6 0 11.5 0.5t10.5 1.5q45 1 62.5 10.5t17.5 25.5q0 6 -3.5 15t-8.5 17v2q-4 46 -83 46h-71q-13 0 -24 0.5t-30 2.5q-9 0 -21 -0.5t-32 -1.5t-50 -3l-74 -5l-16 10v3zM260 787q5 -10 8.5 -14t8.5 -7q1 -2 10.5 -12t25 -21t37 -20t45.5 -9h3
q14 0 22.5 9t13.5 30q0 4 7 9.5t16 10.5l18 10.5t13 10.5q9 8 16 22.5t7 32.5q0 16 -5 26q-13 26 -34 26q-13 0 -28 -12l-18 -18.5l-15 -15.5l-8 -8t-10 -9q-21 2 -35.5 9.5t-40.5 27.5q-6 4 -12 7t-14 3q-11 0 -21 -9q-18 -14 -18 -42q0 -11 2.5 -20t5.5 -18v1z" />
    <glyph glyph-name="zcaron" unicode="&#x17e;" horiz-adv-x="570" 
d="M492 369q2 2 5 4.5t5 4.5l32 30.5t31.5 33t23.5 33t9 31.5q0 19 -17 32t-60 18q-7 0 -16 -0.5t-19 -1.5h-6q-5 0 -17.5 -0.5t-27.5 -1.5t-28 -1.5t-17 -0.5h-45q-10 0 -26 -0.5t-48 -3.5q-76 -5 -122.5 -10.5t-72 -12t-34.5 -15t-9 -19.5q0 -7 3 -13v-6q0 -12 2 -26
t16 -20q14 -11 24.5 -14t23.5 -3q15 0 38 3q8 0 32.5 2.5t53.5 6t58 7.5t46 7q8 0 12.5 0.5t9.5 1.5t9 1.5t9 0.5q6 0 14 -3l-324 -296q-21 -20 -41 -45.5t-20 -53.5v-1q-2 -6 -3 -11.5t-1 -15.5q0 -11 7 -22q12 -14 32 -18.5t48 -4.5q49 1 88.5 3.5l68.5 4.5q20 2 35.5 3
t27.5 1h11q16 -1 40 -1.5t46 -0.5h26q6 0 10.5 0.5t8.5 1.5q40 1 56 11.5t16 26.5q0 6 -2.5 14t-6.5 15q-6 45 -77 45h-56q-10 0 -19 0.5t-24 2.5q-12 0 -36.5 -1t-77.5 -5q-6 -1 -13 -1q-6 0 -13 -1zM216 615q4 -6 13.5 -14.5t23 -17t29.5 -14.5t34 -6h2q17 0 25.5 9
t13.5 30q0 2 5.5 5.5t12.5 7.5l12.5 8t9.5 7q9 8 15.5 21t6.5 30q0 6 -1 12.5t-4 12.5q-14 27 -36 27q-14 0 -30 -13l-17 -17q-3 -3 -5 -5.5t-4 -4.5q-3 -3 -5.5 -5t-6.5 -6q-13 3 -23.5 9.5t-29.5 20.5h-1q-5 3 -10.5 5.5t-12.5 2.5q-13 0 -23 -9q-10 -7 -14 -17.5
t-4 -24.5q0 -8 2.5 -17.5t5.5 -18.5q4 -8 7.5 -12t8.5 -6z" />
    <glyph glyph-name="florin" unicode="&#x192;" horiz-adv-x="818" 
d="M296 689q-19 8 -37 8q-22 0 -50.5 -12.5t-62.5 -40.5q-15 -11 -37 -33t-43 -47t-36 -47.5t-15 -34.5v-5q5 -16 13 -25.5t25 -13.5l-1 1q5 -1 10 -1.5t10 -0.5q12 0 24 4.5t17 14.5q31 42 48 61t24 25q7 4 7 8q17 17 39 32.5t42 15.5h7q2 -2 2 -5v-9q-4 -15 -7.5 -25
t-9 -19.5t-14 -21l-22.5 -29.5q-29 -37 -58.5 -66t-70.5 -58l-26.5 -11l-14.5 -6t-6.5 -3t-2.5 -1l-23.5 -6t-19.5 -14q-3 -5 -6 -11t-3 -12v-5q0 -10 5 -16q13 -30 48 -30q2 0 5.5 0.5t6.5 2.5l38.5 8t27.5 4.5t29 2.5t44 3q18 3 33.5 4t30.5 1h40l-47 -91t-32 -67
q-20 -40 -20 -68q0 -23 12 -33.5t40 -10.5q13 0 23 6t17.5 15t13 19.5t9.5 19.5q1 3 3.5 8t4.5 11t4.5 11l3.5 7q9 22 25 51.5l35.5 64l41.5 71.5l44 73l65 111t45 83v3q3 11 7 23.5t4 23.5q0 19 -10 32t-34 13q-35 0 -50 -14t-20 -31q-11 -17 -27.5 -45.5l-37 -64.5
l-43 -77l-44.5 -82q-7 10 -16 13q-13 6 -35.5 8.5t-43.5 2.5h-3l34.5 33t41.5 43q15 17 29 39t25 44t17.5 43t6.5 36v8q-3 40 -44 46q-4 0 -10 2q-11 0 -18 5q-3 3 -3.5 4l-1.5 3q-5 5 -8 10t-13 9zM776 107q20 40 20 83t-29 78q14 14 27.5 35.5t13.5 49.5q1 25 -8.5 43
t-26 29t-38.5 15t-44 1q-23 0 -48 -4.5t-49 -14.5t-45.5 -26.5t-39.5 -40.5q5 -20 15 -36.5t31 -16.5q5 1 14.5 5t17.5 9q20 14 44 26.5t47 12.5q8 0 16.5 -2t16.5 -7q-1 -6 -8 -14t-13 -14h2q-15 -8 -31.5 -12.5t-34.5 -7.5q-2 0 -2.5 -0.5t-1.5 -0.5q-18 -5 -35.5 -11
t-34.5 -20q-2 -7 -2.5 -13.5t-0.5 -12.5q0 -23 11.5 -36t30.5 -13q6 0 9.5 0.5t8.5 2.5q28 10 52 10q20 3 31.5 -8.5t11.5 -28.5q-5 -21 -20 -37t-35.5 -25.5t-42.5 -10.5t-41 9q-11 3 -21 13t-18 19q-10 13 -19 21.5t-22 8.5q-10 -1 -12.5 -1.5t-3.5 -1.5h1
q-7 -5 -15 -11.5t-15 -15t-12 -19t-5 -23.5q0 -5 1 -6q16 -36 38 -50t56 -26q17 -5 34 -7.5t34 -2.5q30 0 60 7.5t56 21.5t45.5 33.5t28.5 43.5z" />
    <glyph glyph-name="circumflex" unicode="&#x2c6;" horiz-adv-x="341" 
d="M299 697q-5 10 -9 14t-9 7q3 -2 -5.5 7.5t-24.5 21.5t-38.5 22.5t-48.5 10.5h-3q-14 0 -22.5 -9t-13.5 -30q0 -5 -7 -10t-16 -10l-18 -10.5t-13 -10.5q-9 -8 -16 -22.5t-7 -32.5q0 -16 5 -26q13 -26 34 -26q13 0 28 12l18 18.5l15 15.5l8 8t10 9q21 -2 35.5 -9.5
t40.5 -27.5q6 -4 12 -7t14 -3q10 0 21 9q18 13 18 42q0 11 -2.5 20t-5.5 18v-1z" />
    <glyph glyph-name="caron" unicode="&#x2c7;" horiz-adv-x="341" 
d="M55 675q5 -10 8.5 -14t8.5 -7q1 -2 10.5 -12t25 -21t37 -20t45.5 -9h3q14 0 22.5 9t13.5 30q0 4 7 9.5t16 10.5l18 10.5t13 10.5q9 8 16 22.5t7 32.5q0 16 -5 26q-13 26 -34 26q-13 0 -28 -12l-18 -18.5l-15 -15.5l-8 -8t-10 -9q-21 2 -35.5 9.5t-40.5 27.5q-6 4 -12 7
t-14 3q-11 0 -21 -9q-18 -14 -18 -42q0 -11 2.5 -20t5.5 -18v1z" />
    <glyph glyph-name="dotaccent" unicode="&#x2d9;" horiz-adv-x="158" 
d="M47 664v-8q0 -11 3.5 -19t8.5 -15q20 -15 37.5 -20.5t26.5 -5.5q14 0 27 3.5t23 8.5q19 10 31.5 26t13.5 35q0 34 -37 49q-10 5 -21 8.5t-22 3.5q-7 0 -11 -0.5t-10 -1.5q-27 -5 -47 -23t-23 -41z" />
    <glyph glyph-name="ring" unicode="&#x2da;" horiz-adv-x="457" 
d="M352 719q0 3 0.5 6t0.5 6q0 31 -18 54.5t-55 23.5q-31 0 -55.5 -13t-41.5 -32.5t-27 -43.5t-11 -45v-5q0 -30 17 -53t59 -23q24 0 47 10t41 27t29.5 39.5t13.5 47.5v1zM239 674q-4 0 -4 10q1 14 10.5 27.5t28.5 13.5q4 0 4 -7v-4q-1 -16 -12 -28t-27 -12z" />
    <glyph glyph-name="tilde" unicode="&#x2dc;" horiz-adv-x="446" 
d="M374 675v2q0 12 -13.5 21t-28.5 9q-12 0 -23 -5.5t-16 -17.5q-1 -2 -1.5 -5t-1.5 -5l-4 -12.5t-7 -6.5t-9 5l-9 11v-1q-9 11 -21.5 22t-37.5 11q-16 0 -35 -6.5t-36.5 -17.5t-29.5 -24.5t-13 -27.5v-2q0 -14 11.5 -24t31.5 -10q13 0 22 7t18 16q5 5 11 10t10 5l2.5 -3
t6.5 -6q10 -11 25 -22t44 -11q46 0 72.5 18t31.5 70z" />
    <glyph glyph-name="mu" unicode="&#x3bc;" horiz-adv-x="476" 
d="M332 17q4 -20 18.5 -26t32.5 -6q28 0 49 12t21 42q0 12 -4 24l23 320v-3q2 12 3.5 22.5t1.5 19.5q0 27 -12 37.5t-32 10.5h-7q-31 -3 -47.5 -21.5t-24.5 -60.5l-17 -245q-11 -8 -26 -16.5t-31.5 -16t-33 -12.5t-31.5 -6h-3q-13 0 -21 10t-8 33v5l21 235v-3q1 5 1 12v14
q0 25 -11.5 41.5t-37.5 17.5h-5q-34 0 -50.5 -22.5t-16.5 -46.5q0 -8 1 -11l-10 -146l-6.5 -89t-3 -47t-0.5 -19v-4l-9 -158q0 -2 -0.5 -5t-0.5 -5q-1 -6 -1 -12v-12q0 -23 9 -37.5t40 -18.5h9q19 0 30 7t17 19t9 27.5t5 31.5v1l4 69q23 0 38 1.5t30.5 5t35 11z" />
    <glyph glyph-name="uni2000" unicode="&#x2000;" horiz-adv-x="470" 
 />
    <glyph glyph-name="uni2001" unicode="&#x2001;" horiz-adv-x="940" 
 />
    <glyph glyph-name="uni2002" unicode="&#x2002;" horiz-adv-x="470" 
 />
    <glyph glyph-name="uni2003" unicode="&#x2003;" horiz-adv-x="940" 
 />
    <glyph glyph-name="uni2004" unicode="&#x2004;" horiz-adv-x="313" 
 />
    <glyph glyph-name="uni2005" unicode="&#x2005;" horiz-adv-x="235" 
 />
    <glyph glyph-name="uni2006" unicode="&#x2006;" horiz-adv-x="156" 
 />
    <glyph glyph-name="uni2007" unicode="&#x2007;" horiz-adv-x="156" 
 />
    <glyph glyph-name="uni2008" unicode="&#x2008;" horiz-adv-x="117" 
 />
    <glyph glyph-name="uni2009" unicode="&#x2009;" horiz-adv-x="188" 
 />
    <glyph glyph-name="uni200A" unicode="&#x200a;" horiz-adv-x="52" 
 />
    <glyph glyph-name="uni2010" unicode="&#x2010;" horiz-adv-x="537" 
d="M45 220q8 -12 28 -16t49 -4q12 0 25 0.5t28 0.5l26 2t27 1h2q6 0 32 0.5t56 1.5t57 2.5t35 3.5h20q26 0 38 1.5t22 8.5q9 4 11.5 8.5t2.5 12.5l-10 21t-10 14q-26 24 -66 30.5t-86 6.5h-43q-10 0 -20.5 -1t-20.5 -1q-25 0 -54 -0.5t-55 -1.5t-45.5 -2t-24.5 -2h1
q-20 -4 -31 -8.5t-11 -19.5v-4q0 -4 1 -6v-7l5.5 -21t10.5 -21z" />
    <glyph glyph-name="uni2011" unicode="&#x2011;" horiz-adv-x="537" 
d="M45 220q8 -12 28 -16t49 -4q12 0 25 0.5t28 0.5l26 2t27 1h2q6 0 32 0.5t56 1.5t57 2.5t35 3.5h20q26 0 38 1.5t22 8.5q9 4 11.5 8.5t2.5 12.5l-10 21t-10 14q-26 24 -66 30.5t-86 6.5h-43q-10 0 -20.5 -1t-20.5 -1q-25 0 -54 -0.5t-55 -1.5t-45.5 -2t-24.5 -2h1
q-20 -4 -31 -8.5t-11 -19.5v-4q0 -4 1 -6v-7l5.5 -21t10.5 -21z" />
    <glyph glyph-name="figuredash" unicode="&#x2012;" horiz-adv-x="537" 
d="M45 220q8 -12 28 -16t49 -4q12 0 25 0.5t28 0.5l26 2t27 1h2q6 0 32 0.5t56 1.5t57 2.5t35 3.5h20q26 0 38 1.5t22 8.5q9 4 11.5 8.5t2.5 12.5l-10 21t-10 14q-26 24 -66 30.5t-86 6.5h-43q-10 0 -20.5 -1t-20.5 -1q-25 0 -54 -0.5t-55 -1.5t-45.5 -2t-24.5 -2h1
q-20 -4 -31 -8.5t-11 -19.5v-4q0 -4 1 -6v-7l5.5 -21t10.5 -21z" />
    <glyph glyph-name="endash" unicode="&#x2013;" horiz-adv-x="575" 
d="M580 375q0 13 -8.5 24.5t-21 19.5t-27.5 13t-28 5q-18 0 -48.5 -2t-63.5 -5l-63 -6t-48 -5q-6 -1 -19 -2t-29 -1.5t-33.5 -1.5t-32.5 -2q-14 0 -25.5 -0.5t-17.5 -1.5q-17 -2 -33.5 -6.5t-29 -13t-20.5 -21.5t-8 -31q0 -36 38 -65q6 -2 17 -3.5t19 -1.5h7q5 0 8 1
q25 8 55.5 12l58.5 8q12 1 26.5 3.5t26.5 5.5q10 2 27 3.5t37 3t42 2.5t43 3q26 1 48 2t36 3q15 2 32 8t25 20l-1 -1q11 16 11 33z" />
    <glyph glyph-name="emdash" unicode="&#x2014;" horiz-adv-x="758" 
d="M759 385q0 13 -9 24.5t-22 19.5t-28 13t-28 5q-18 0 -58 -2t-84 -4.5t-83 -5.5t-57 -5q-8 -1 -33.5 -3t-59 -4l-69 -4t-63.5 -3q-9 -1 -16.5 -1.5t-14.5 -0.5h-17q-17 -2 -33.5 -6.5t-29.5 -13.5t-21 -22t-8 -31q0 -36 38 -66q6 -2 17 -3.5t20 -1.5h7q2 0 8 2
q13 3 35.5 6l49.5 6.5t56.5 6.5t55.5 6q29 3 46 4.5t40 5.5q10 2 29 3.5t43 3t51 3t54 2.5q37 2 68 3t46 3t32.5 7.5t25.5 19.5q5 8 8.5 15t3.5 18z" />
    <glyph glyph-name="quoteleft" unicode="&#x2018;" horiz-adv-x="268" 
d="M243 443q-5 8 -8 9.5t-5 1.5h-3q-2 0 -3 1q-2 0 -2 1q-11 26 -19 55t-12 58q-1 2 -1 9v49q0 20 -4 40.5t-18 37.5h1q-5 7 -13.5 10t-17.5 3q-17 0 -38 -9.5t-29 -17.5q-16 -14 -22 -33.5t-6 -42.5q0 -24 6 -50t15 -50.5t18 -45.5l15 -36q2 -2 2.5 -4.5t2.5 -4.5l-1 3
l17 -37.5t22 -34.5q19 -25 40 -25q12 0 22.5 6t21.5 16q10 9 18.5 28t8.5 36t-8 28v-1z" />
    <glyph glyph-name="quoteright" unicode="&#x2019;" horiz-adv-x="261" 
d="M256 684q0 13 -10 23t-24 17.5t-28.5 11.5t-22.5 4q-33 0 -56 -25t-39 -60t-26 -72l-16 -61q-1 -5 -1.5 -6t-0.5 -4l-7.5 -39t-3.5 -36q0 -38 16.5 -49t47.5 -11q9 0 21 5t23.5 13t19 18.5t7.5 21.5q0 6 -2.5 10.5t-4.5 8.5q-1 0 -1.5 1l-0.5 1v2q8 28 18.5 55t25.5 53
q5 8 10.5 14.5l11.5 13.5q17 19 30 39.5t13 50.5z" />
    <glyph glyph-name="quotesinglbase" unicode="&#x201a;" horiz-adv-x="261" 
d="M256 148q0 13 -10 23t-24 17.5t-28.5 11.5t-22.5 4q-33 0 -56 -25t-39 -60t-26 -72l-16 -61q-1 -5 -1.5 -6t-0.5 -4l-7.5 -39t-3.5 -36q0 -38 16.5 -49t47.5 -11q9 0 21 5t23.5 13t19 18.5t7.5 21.5q0 6 -2.5 10.5t-4.5 8.5q-1 0 -1.5 1l-0.5 1v2q8 28 18.5 55t25.5 53
q5 8 10.5 14.5l11.5 13.5q17 19 30 39.5t13 50.5z" />
    <glyph glyph-name="quotedblleft" unicode="&#x201c;" horiz-adv-x="452" 
d="M439 375q2 5 2 18q0 16 -4.5 37.5t-10.5 44.5t-13.5 45.5l-13.5 40.5q-6 25 -10 38.5t-6.5 21t-4.5 11.5t-4 12q0 13 -0.5 24.5t-4.5 23.5t-12 26t-23 32q-18 22 -39 22t-40 -19q-14 -13 -20.5 -33.5t-6.5 -46.5q0 -45 16 -99t40.5 -100.5t53 -78t54.5 -31.5zM201 606
l0.5 2t0.5 4q0 9 -3 28t-9 38t-16 33.5t-24 14.5q-9 0 -20 -3t-21.5 -7t-19 -9t-12.5 -9q-17 -14 -24 -34t-7 -43q0 -24 6.5 -50t16 -51t19.5 -46l17 -36q2 -2 2.5 -4.5t2.5 -4.5l-1 3l19 -38.5t24 -35.5q19 -24 43 -24q22 0 37 11.5t20 41.5z" />
    <glyph glyph-name="quotedblright" unicode="&#x201d;" horiz-adv-x="453" 
d="M430 654q0 32 -14 43.5t-44 11.5q-32 0 -56.5 -13t-39.5 -45q-6 -14 -13.5 -26.5l-15.5 -26.5q-25 -45 -46 -92t-21 -101q0 -10 4 -17t9 -12q1 -2 2.5 -3.5t4.5 -9.5q19 -13 29 -18t22 -5h23q11 0 23.5 1.5t23.5 11.5q7 9 19 26t12 31q0 11 -3 14.5l-7 8.5l-2 2h-1
l10.5 40.5t15.5 37.5q7 11 13.5 19l13.5 16l15 19.5t12 21t8 27t3 38.5zM272 691q0 13 -10.5 24t-25.5 18.5t-30 11.5t-24 4q-35 0 -59.5 -25.5t-42 -61.5t-28 -73.5t-16.5 -61.5q0 -4 -0.5 -5t-1.5 -6l1 1q-5 -19 -9 -38.5t-4 -36.5q0 -38 18 -49t51 -11q10 0 23 5t24.5 13
t19.5 18.5t8 21.5q0 6 -2.5 10.5t-5.5 8.5l-1 2v2q8 28 19 55.5t27 53.5q5 9 11.5 15.5t12.5 13.5v-1q17 20 31 40.5t14 50.5z" />
    <glyph glyph-name="quotedblbase" unicode="&#x201e;" horiz-adv-x="453" 
d="M430 131q0 32 -14 43.5t-44 11.5q-32 0 -56.5 -13t-39.5 -45q-6 -14 -13.5 -26.5l-15.5 -26.5q-25 -45 -46 -92t-21 -101q0 -10 4 -17t9 -12q1 -2 2.5 -3.5t4.5 -9.5q19 -13 29 -18t22 -5h23q11 0 23.5 1.5t23.5 11.5q7 9 19 26t12 31q0 11 -3 14.5l-7 8.5l-2 2h-1
l10.5 40.5t15.5 37.5q7 11 13.5 19l13.5 16l15 19.5t12 21t8 27t3 38.5zM272 168q0 13 -10.5 24t-25.5 18.5t-30 11.5t-24 4q-35 0 -59.5 -25.5t-42 -61.5t-28 -73.5t-16.5 -61.5q0 -4 -0.5 -5t-1.5 -6l1 1q-5 -19 -9 -38.5t-4 -36.5q0 -38 18 -49t51 -11q10 0 23 5t24.5 13
t19.5 18.5t8 21.5q0 6 -2.5 10.5t-5.5 8.5l-1 2v2q8 28 19 55.5t27 53.5q5 9 11.5 15.5t12.5 13.5v-1q17 20 31 40.5t14 50.5z" />
    <glyph glyph-name="dagger" unicode="&#x2020;" horiz-adv-x="463" 
d="M267 -37l38 441h90q9 -4 14.5 -4.5t10.5 -0.5h2q17 0 30.5 6.5t22.5 17t14 24t5 26.5q0 23 -14.5 40.5t-44.5 17.5q-16 0 -21 -1t-12 -7h-87l3 38l2 8q2 9 3 18t1 20q0 21 -9 36t-37 15q-26 0 -41 -5.5t-22.5 -16t-10 -26t-2.5 -36.5l-5 -51h-71q-8 5 -17 6t-15 1
q-32 0 -48 -24t-16 -51q0 -23 13 -42t41 -19q16 0 37 10h66l-38 -437v2q-2 -6 -2 -12v-15q0 -24 11.5 -40.5t41.5 -19.5h9q17 0 27 5t15.5 13.5t8 21l5.5 27.5v-1q1 3 1 7q0 3 1 6v2z" />
    <glyph glyph-name="daggerdbl" unicode="&#x2021;" horiz-adv-x="465" 
d="M268 -37l7 87h95q9 -5 14.5 -5.5t10.5 -0.5h2q17 0 30.5 7t22.5 17.5t14 23.5t5 26q0 23 -14 41t-45 18q-16 0 -21 -1t-12 -8h-92l20 236h91q9 -4 14.5 -4.5t10.5 -0.5h2q17 0 30.5 6.5t23 17t14.5 24t5 26.5q0 23 -14.5 40.5t-45.5 17.5q-15 0 -20 -1t-13 -7h-87l4 38
l1 8q2 9 3 18t1 20q0 21 -9 36t-37 15q-26 0 -41 -5.5t-22.5 -16t-10 -26t-2.5 -36.5l-5 -51h-72q-8 5 -16.5 6t-15.5 1q-32 0 -48 -24t-16 -51q0 -23 13 -42t41 -19q7 0 17 2.5t21 7.5h66l-21 -236h-67q-8 5 -17 6t-15 1q-32 0 -48 -23.5t-16 -50.5q0 -24 13 -43t41 -19
q16 0 37 11h61l-6 -83v2q-3 -12 -3 -27q0 -24 11.5 -40.5t42.5 -19.5h9q17 0 27 5t15.5 13.5t8 21l5.5 27.5v-1q1 3 1 7q0 3 1 6v2z" />
    <glyph glyph-name="bullet" unicode="&#x2022;" horiz-adv-x="276" 
d="M280 387q0 54 -30 81t-80 27q-36 0 -62 -16t-42.5 -40.5t-24.5 -55t-8 -60.5q0 -45 30 -72t71 -27q33 0 59.5 14t46 37t30 52t10.5 60z" />
    <glyph glyph-name="ellipsis" unicode="&#x2026;" horiz-adv-x="669" 
d="M-16 72v-8q0 -11 3.5 -19t8.5 -15q20 -15 37.5 -20.5t26.5 -5.5q14 0 27 3.5t23 8.5q19 10 31.5 26t13.5 35q0 34 -37 49q-10 5 -21 8.5t-22 3.5q-7 0 -11 -0.5t-10 -1.5q-27 -5 -47 -23t-23 -41zM457 67v-8q0 -11 3.5 -19t8.5 -15q20 -15 37.5 -20.5t26.5 -5.5
q14 0 27 3.5t23 8.5q19 10 31.5 26t13.5 35q0 34 -37 49q-10 5 -21 8.5t-22 3.5q-7 0 -11 -0.5t-10 -1.5q-27 -5 -47 -23t-23 -41zM220 69v-8q0 -11 3.5 -19t8.5 -15q20 -15 37.5 -20.5t26.5 -5.5q14 0 27 3.5t23 8.5q19 10 31.5 26t13.5 35q0 34 -37 49q-10 5 -21 8.5
t-22 3.5q-7 0 -11 -0.5t-10 -1.5q-27 -5 -47 -23t-23 -41z" />
    <glyph glyph-name="uni202F" unicode="&#x202f;" horiz-adv-x="188" 
 />
    <glyph glyph-name="perthousand" unicode="&#x2030;" horiz-adv-x="1499" 
d="M950 294q-19 45 -61 61t-96 16q-30 0 -59 -3t-56 -7q-31 -4 -61 -17.5t-56.5 -34.5t-47 -48.5t-32.5 -60.5q-6 -23 -9 -40.5t-5 -43.5q0 -42 23.5 -76.5t71.5 -48.5q45 -16 98 -16q66 0 122.5 23.5t94.5 59.5q15 14 30.5 32t28 39t20 45.5t7.5 51.5q0 39 -13 68z
M1462 308q-19 45 -61 61t-96 16q-30 0 -59 -3t-56 -7q-31 -4 -61 -17.5t-56.5 -34.5t-47 -48.5t-32.5 -60.5q-6 -23 -9 -40.5t-5 -43.5q0 -42 23.5 -76.5t71.5 -48.5q45 -16 98 -16q66 0 122.5 23.5t94.5 59.5q15 14 30.5 32t28 39t20 45.5t7.5 51.5q0 39 -13 68zM841 714
q-3 23 -21 33t-41 10q-15 0 -30.5 -4t-26.5 -12q-50 -34 -83 -74.5l-66 -83.5l-37 -49t-42 -48v1l-18 -19.5l-19 -20.5l-41.5 -44.5t-37.5 -44.5l1 1l-66 -80.5l-51.5 -64.5l-45 -59l-46.5 -63l-16.5 -22l-17.5 -22q-18 -26 -18 -47q0 -24 17 -37.5t43 -13.5q19 0 40.5 10
t38.5 31l226.5 276.5t244.5 272.5q10 11 18 17l17 13q14 10 28 22t25.5 26.5t18.5 33t7 41.5v10q0 9 -1 11zM469 607q-6 27 -22 45t-37 30t-44.5 20l-45.5 15q-18 5 -33 6.5t-29 1.5q-43 0 -78 -15.5t-63 -39.5t-49.5 -54.5t-37.5 -60.5q-14 -31 -14 -56q0 -32 14.5 -61
t37.5 -48q24 -20 56 -29t67 -9q26 0 52 3q45 9 77 23t61 28l11 5.5t11 4.5h-1q42 19 58 56t16 79q0 29 -6 55zM800 227q3 -9 3 -15q0 -26 -15 -51.5t-41 -36.5q-12 -5 -28 -10t-39 -5q-6 0 -15 1.5t-17.5 4t-15 5t-7.5 5.5q-8 11 -11.5 21.5t-3.5 19.5q0 13 5.5 26t14 24.5
t19.5 19.5t23 12q10 4 27.5 5t34.5 1h38q9 0 16 -6t12 -21zM1312 241q3 -9 3 -15q0 -26 -15 -51.5t-41 -36.5q-12 -5 -28 -10t-39 -5q-6 0 -15 1.5t-17.5 4t-15 5t-7.5 5.5q-8 11 -11.5 21.5t-3.5 19.5q0 13 5.5 26t14 24.5t19.5 19.5t23 12q10 4 27.5 5t34.5 1h38
q9 0 16 -6t12 -21zM325 537q-7 -14 -22 -23.5t-33 -15.5t-36.5 -8.5t-31.5 -2.5q-11 0 -18.5 3t-9.5 12q0 2 -0.5 4.5t-0.5 5.5q0 19 7.5 32t18 23t23 17l22.5 13q3 2 12 2q10 0 22.5 -4t23.5 -11t19 -16.5t8 -19.5q0 -6 -3 -10z" />
    <glyph glyph-name="guilsinglleft" unicode="&#x2039;" horiz-adv-x="235" 
d="M236 450h-3q-17 0 -33 -11l-119 -78q-16 -7 -29 -20t-16 -30q-2 -20 3 -28t14 -13l96 -115l3 -3v1q7 -11 13.5 -17t19.5 -9h9q11 0 20 8t19 32v-1q2 4 2.5 6.5t1.5 5.5q2 11 -3 22t-21 26l-63 76l77 50q23 11 32.5 27t10.5 25q1 2 1 6t-3 7q-5 19 -11.5 25t-20.5 8z" />
    <glyph glyph-name="guilsinglright" unicode="&#x203a;" horiz-adv-x="235" 
d="M54 126h3q16 0 33 11l119 78q16 7 29 20t16 30q2 20 -3 28t-14 13l-96 115l-3 3v-1q-7 11 -13.5 17t-19.5 9h-9q-11 0 -20 -8t-19 -32v1q-2 -4 -2.5 -6.5t-1.5 -5.5q-2 -11 3 -22t21 -26l63 -76l-77 -50q-23 -11 -32.5 -27t-10.5 -25q-1 -2 -1 -6t3 -7q5 -19 11.5 -25
t20.5 -8z" />
    <glyph glyph-name="uni205F" unicode="&#x205f;" horiz-adv-x="235" 
 />
    <glyph glyph-name="currency" unicode="&#x20ac;" horiz-adv-x="625" 
d="M48 338q2 -3 6 -7q-15 -38 -24 -80q-5 0 -8 -0.5t-5 -0.5q-20 -4 -31 -8.5t-11 -19.5q3 -21 6.5 -36t10.5 -23q9 -12 29 -17q2 -21 6.5 -36.5t12.5 -30.5l22 -26q36 -48 90 -68.5t110 -28.5l32.5 -4t34.5 -2q75 0 133.5 25.5t120.5 72.5q17 14 24.5 23t12.5 17
q0 49 -46 49q-1 0 -9.5 -2t-20.5 -6t-25 -10t-22 -14q-26 -14 -58 -28.5t-83 -28.5q-9 -3 -37 -3q-16 0 -40 5t-69 23q-16 15 -30.5 33t-22.5 40q13 0 43 0.5l62 1t59.5 1.5t35.5 3q20 0 33.5 1t22 2.5t14 4t10.5 5.5q9 4 11.5 8.5t2.5 12.5l-10 21t-10 14q-26 24 -66 30.5
t-86 6.5q-42 0 -58 -1t-26 -1h-27q4 11 8.5 22t9.5 22q2 5 5 10t5 10q8 1 17 1.5t18 0.5h2q6 0 32 0.5t56 1.5t57 2.5t35 3.5h20q26 0 38 1.5t22 8.5q9 4 11.5 8.5t2.5 12.5l-10 21t-10 14q-26 24 -66 30.5t-86 6.5h-43q-7 0 -13.5 -0.5t-13.5 -1.5q27 36 54 62
q28 30 61 50.5t68 20.5h3l90 -65q2 -1 12 -6.5l22.5 -12t13.5 -6.5q23 11 37 26.5t14 27.5q0 4 -1 6q-6 32 -28.5 52.5t-56.5 37.5q-27 14 -47 23t-35.5 14.5t-29 8t-28.5 2.5q-16 0 -38 -3.5t-48 -11.5q-70 -43 -127.5 -101t-99.5 -129q-11 -1 -19 -1q-7 0 -10 -1h1
q-20 -4 -31 -8.5t-11 -19.5q3 -21 6.5 -36t10.5 -23z" />
    <glyph glyph-name="trademark" unicode="&#x2122;" horiz-adv-x="729" 
d="M739 308q40 15 44 54q0 2 0.5 4t0.5 4q0 7 -3 15v10q-2 10 -3.5 19.5t-2.5 21.5t-1.5 28t-0.5 40q0 13 -0.5 24t-0.5 20l-1 -1q0 23 0.5 42.5t2.5 51.5q1 5 2 9.5t1 9.5q1 3 3 11v11q0 4 -2 14q-5 23 -26 34t-44 11q-24 0 -44 -11q-20 -17 -25 -29.5t-9 -25.5
q-2 -4 -3 -8t-4 -9l-20.5 -43l-17.5 -36q0 8 -0.5 15t-0.5 14q0 24 3 51q1 3 1 9q0 4 -2 12v-1q-3 19 -23 32.5t-43 13.5t-45.5 -14.5t-29.5 -49.5l2 3l-15.5 -34.5t-14.5 -33.5l-46 -108t-40 -108l1 1q-2 -5 -2.5 -9.5t-1.5 -9.5q0 -2 -0.5 -5t-0.5 -5q0 -17 9.5 -33.5
t35.5 -18.5q6 -2 9 -2h9q20 0 35 9.5t27 23.5q6 15 9.5 25l6 17l4.5 12.5l4 10.5q2 11 5 20.5l4 12.5v1q3 -17 4.5 -36t3.5 -42q11 -20 25.5 -27.5t31.5 -7.5q16 0 30.5 5.5t22.5 11.5q12 10 19 21.5t14 29.5v-1q5 8 8 17t8 17q3 -34 9 -70q4 -25 18.5 -35t32.5 -10
q12 0 27 5zM392 605q21 7 31.5 26.5t14.5 34.5q2 6 2 9q0 7 1 10v5q0 10 -4 19.5t-18 20.5q-13 2 -23 2.5t-20 0.5q-30 0 -64 -4.5t-68.5 -11t-67 -15t-59.5 -16.5q-2 -1 -4 -2.5t-4 -2.5q-9 -5 -15.5 -9.5t-10.5 -9.5t-6.5 -13t-3.5 -21q0 -5 2.5 -16t8.5 -22.5t16.5 -20
t26.5 -8.5q2 0 4.5 0.5t4.5 0.5q12 2 22.5 4.5t21.5 6.5l1 0.5t2 0.5l-4 -44q-5 -42 -8 -88.5l-6 -97.5q5 -26 19 -37.5t37 -11.5h4q29 3 42 21.5t20 40.5q-1 6 -1 11v12q0 15 1.5 30.5t3.5 32.5q4 40 10.5 82.5t11.5 71.5q4 1 12 1h13q14 0 26.5 1t26.5 6h1z" />
    <glyph glyph-name="fraction" unicode="&#x2215;" horiz-adv-x="972" 
d="M841 714q-3 23 -21 33t-41 10q-15 0 -30.5 -4t-26.5 -12q-50 -34 -83 -74.5l-66 -83.5l-37 -49t-42 -48v1l-18 -19.5l-19 -20.5l-41.5 -44.5t-37.5 -44.5l1 1l-66 -80.5l-51.5 -64.5l-45 -59l-46.5 -63l-16.5 -22l-17.5 -22q-18 -26 -18 -47q0 -24 17 -37.5t43 -13.5
q19 0 40.5 10t38.5 31l226.5 276.5t244.5 272.5q10 11 18 17l17 13q14 10 28 22t25.5 26.5t18.5 33t7 41.5v10q0 9 -1 11z" />
    <glyph glyph-name="uniE000" unicode="&#xe000;" horiz-adv-x="575" 
d="M0 575h575v-575h-575v575z" />
    </font>
</defs>
</svg>
