<?xml version="1.0" standalone="no"?>
<!DOCTYPE svg PUBLIC "-//W3C//DTD SVG 1.1//EN" "http://www.w3.org/Graphics/SVG/1.1/DTD/svg11.dtd" >
<svg xmlns="http://www.w3.org/2000/svg">
<metadata></metadata>
<defs>
<font id="belwebold" horiz-adv-x="1099" >
<font-face units-per-em="2048" ascent="1638" descent="-410" />
<missing-glyph horiz-adv-x="548" />
<glyph horiz-adv-x="2048" />
<glyph horiz-adv-x="2048" />
<glyph unicode="&#xd;" horiz-adv-x="548" />
<glyph unicode=" "  horiz-adv-x="548" />
<glyph unicode="&#x09;" horiz-adv-x="548" />
<glyph unicode="&#xa0;" horiz-adv-x="548" />
<glyph unicode="0" d="M682 195q109 0 109 161q0 176 -101 400q-117 266 -270 266q-109 0 -109 -162q0 -176 101 -399q116 -266 270 -266zM1040 608q0 -258 -112 -434q-131 -205 -377 -205t-377 205q-113 176 -113 434t113 434q131 205 377 205t377 -205q112 -176 112 -434z" />
<glyph unicode="1" d="M866 0h-579v123h94v795l-113 -44v130q80 31 197 94q139 76 180 119h137v-1094h84v-123z" />
<glyph unicode="2" d="M860 0h-686l-29 168q487 315 488 651q0 94 -49 168q-55 84 -144 84q-41 0 -68.5 -29.5t-27.5 -70.5q0 -106 176 -187l-184 -315q-262 115 -262 324q0 207 162 335q150 119 360 119q166 0 291 -96q137 -104 137 -264q0 -164 -164 -348q-92 -104 -295 -267l4 -2h187 q115 0 131 97h117l-25 -414h-117z" />
<glyph unicode="3" d="M303 545l-74 84l314 317h-90q-168 0 -242 -90l-115 43l154 391l115 -39l-13 -34h525l63 -148l-256 -258q133 -20 216 -113.5t83 -226.5q0 -205 -150.5 -353.5t-355.5 -148.5q-207 0 -426 172l254 254q156 -229 270 -229q137 0 138 153q0 98 -111 173q-98 66 -205 65 q-16 0 -47 -6t-47 -6z" />
<glyph unicode="4" d="M496 758l-252 -338h258v338h-6zM903 266v-143h82v-123h-588v123h105v137h-426v160l596 797h231v-797l123 18l-35 -172h-88z" />
<glyph unicode="5" d="M289 1217h479l12 43h121l-65 -314h-433l-30 -147q92 31 225 30q147 0 251.5 -106.5t104.5 -255.5q0 -201 -131 -346q-135 -152 -334 -152q-203 0 -409 166l244 275q119 -106 141 -123q92 -68 172 -68q123 0 123 143q0 88 -119 148q-102 51 -197 51q-68 0 -151 -47 l-154 43z" />
<glyph unicode="6" d="M510 618q-82 0 -82 -98q0 -94 78 -217q88 -137 186 -137q82 0 82 98q0 94 -78 217q-88 137 -186 137zM963 1137l-250 -246q-27 33 -84 96q-49 51 -111 51q-145 0 -145 -207q0 -14 6 -114q133 98 293 98q166 0 268 -125q96 -119 96 -287q0 -193 -153 -317 q-145 -117 -342 -117q-225 0 -359 183q-119 162 -119 395q0 287 164 485q174 215 455 215q160 1 281 -110z" />
<glyph unicode="7" d="M113 860l82 418l118 -14v-47h576l98 -187q-170 -123 -260 -477q-61 -246 -61 -467q0 -43 2 -86h-402q2 473 408 946h-279q-70 0 -103.5 -23.5t-55.5 -88.5z" />
<glyph unicode="8" d="M672 186q39 0 68.5 23.5t29.5 60.5q0 86 -350 277q-53 -43 -53 -113q0 -88 110 -170q103 -78 195 -78zM676 762q39 45 39 104q0 76 -67.5 142.5t-143.5 66.5q-98 0 -98 -84q0 -61 112 -133q52 -30 158 -96zM549 -31q-180 0 -299 68q-145 84 -146 252q0 182 199 338 q-82 53 -116.5 110.5t-34.5 149.5q0 156 127 260q119 100 278 100q154 0 270 -76q135 -86 136 -231q0 -82 -37 -145q-20 -35 -99 -119q92 -74 125 -123q43 -66 43 -166q0 -180 -132 -299t-314 -119z" />
<glyph unicode="9" d="M590 598q82 0 82 98q0 94 -78 217q-88 137 -186 138q-82 0 -82 -99q0 -94 77 -217q89 -137 187 -137zM137 80l250 246q27 -33 84 -97q49 -51 111 -51q145 0 145 207q0 14 -6 115q-133 -98 -293 -99q-166 0 -268 125q-96 119 -97 287q0 193 154 317q145 117 342 117 q225 0 359 -182q119 -162 118 -395q0 -287 -164 -486q-174 -215 -454 -215q-160 0 -281 111z" />
<glyph unicode="x" horiz-adv-x="1138" d="M383 0h-352v123h80l258 401l-205 359h-62v123h555v-123h-71l119 -211l120 211h-55v123h313v-123h-65l-221 -365l235 -395h76v-123h-573v123h83l-151 244l-160 -244h76v-123z" />
<glyph unicode="&#x2000;" horiz-adv-x="682" />
<glyph unicode="&#x2001;" horiz-adv-x="1365" />
<glyph unicode="&#x2002;" horiz-adv-x="682" />
<glyph unicode="&#x2003;" horiz-adv-x="1365" />
<glyph unicode="&#x2004;" horiz-adv-x="455" />
<glyph unicode="&#x2005;" horiz-adv-x="341" />
<glyph unicode="&#x2006;" horiz-adv-x="227" />
<glyph unicode="&#x2007;" horiz-adv-x="227" />
<glyph unicode="&#x2008;" horiz-adv-x="170" />
<glyph unicode="&#x2009;" horiz-adv-x="273" />
<glyph unicode="&#x200a;" horiz-adv-x="75" />
<glyph unicode="&#x202f;" horiz-adv-x="273" />
<glyph unicode="&#x205f;" horiz-adv-x="341" />
</font>
</defs>
</svg>
