<?xml version="1.0" standalone="no"?>
<!DOCTYPE svg PUBLIC "-//W3C//DTD SVG 1.1//EN" "http://www.w3.org/Graphics/SVG/1.1/DTD/svg11.dtd" >
<svg>
<metadata>
Created by FontForge 20090622 at Thu Jul 14 12:38:54 2016
 By deploy user
Caraway Bold 2.0 
</metadata>
<defs>
<font id="CarawayBold" horiz-adv-x="670" >
  <font-face 
    font-family="CarawayBold"
    font-weight="5"
    font-stretch="normal"
    units-per-em="1000"
    panose-1="0 0 0 0 0 0 0 0 0 0"
    ascent="800"
    descent="-200"
    x-height="518"
    cap-height="769"
    bbox="-189 -257 1034 792"
    underline-thickness="19"
    underline-position="-118"
    unicode-range="U+0020-U+2122"
  />
<missing-glyph horiz-adv-x="792" 
d="M49 0v792h694v-792h-694zM694 49v694h-596v-694h596z" />
    <glyph glyph-name=".notdef" horiz-adv-x="792" 
d="M49 0v792h694v-792h-694zM694 49v694h-596v-694h596z" />
    <glyph glyph-name=".null" horiz-adv-x="0" 
 />
    <glyph glyph-name="nonmarkingreturn" horiz-adv-x="295" 
 />
    <glyph glyph-name="space" unicode=" " horiz-adv-x="295" 
 />
    <glyph glyph-name="exclam" unicode="!" horiz-adv-x="229" 
d="M50 202l-36 495q4 30 26 50t54 20t54 -24.5t19 -51.5l-32 -489h-85zM39 90q18 27 54 27q31 0 47.5 -21.5t16.5 -45.5q0 -21 -13.5 -43t-52.5 -22q-36 0 -46 15.5t-15 30.5l-3 21q0 18 12 38z" />
    <glyph glyph-name="quotedbl" unicode="&#x22;" horiz-adv-x="346" 
d="M53 542l-11 154l21 60q7 13 31 13l18 -3q11 -1 21.5 -18t10.5 -38l-1 -17l-4 -17l-34 -137zM191 542l-11 154l21 60q7 13 31 13l18 -3q11 -1 23 -18q10 -17 10 -38q0 -17 -6 -34l-34 -137z" />
    <glyph glyph-name="numbersign" unicode="#" horiz-adv-x="700" 
d="M252 232l11 -163l-16 -32q-7 -14 -18 -16q-11 0 -20 17l-11 27l-4 165l-158 -8l-22 12q-10 5 -11 17q0 11 17 20l27 11l146 3l-3 142l-144 -10l-32 15q-15 9 -16 19q0 11 17 20l27 11l148 3l-3 115q0 32 6.5 49.5t30.5 17.5q11 0 14.5 -12.5t4.5 -20.5t1 -27l-3 -64
l-2 -41v-16l151 4l-3 115q0 16 2.5 28.5t7 25t27.5 12.5q11 0 14.5 -12.5t4.5 -20.5t1 -27l-3 -63l-2 -41v-17l138 3q15 0 29 -2.5t23 -6.5q15 -3 15 -28q0 -10 -16 -16l-44 -4l-64 2l-41 3l-40 -1q0 -10 1 -30.5t4 -47.5l5 -72l133 3q15 0 29 -2.5t23 -6.5q15 -3 15 -28
q0 -10 -16 -16l-44 -4l-64 2l-41 3l-33 -1l12 -167l-16 -32q-8 -15 -18 -15q-11 0 -20 17l-11 27l-4 168h-32t-35 -2zM390 439q-15 0 -37.5 -1t-51.5 -4l-59 -4l4 -73l4 -71l143 4z" />
    <glyph glyph-name="dollar" unicode="$" horiz-adv-x="547" 
d="M211 -20q-47 0 -82 13.5t-49.5 31.5t-23 29.5t-15 26.5t-23 19t-17.5 19q0 17 19.5 36.5t35.5 19.5q8 0 14 -7q20 -48 36.5 -77t65.5 -29h22q11 3 16 4l-5 241l-16 -4h-15q-19 0 -42.5 6t-52.5 21.5t-47.5 65.5t-18.5 108q0 73 34.5 127t113.5 72l21 3l19 3q0 44 12 61.5
t36 17.5q13 0 20 -24.5t7 -59.5q14 -3 57.5 -26.5t62.5 -23.5l15 1q11 1 20 -10q7 -14 7 -32q0 -29 -14 -52.5t-40 -23.5q-15 0 -34 9.5t-33 25.5l-25 24l-20 16l-2 -70l3 -84l3 -87l30 11q9 3 27 3q14 0 28.5 -4t26.5 -9t34.5 -16t43.5 -52t21 -92q0 -21 -2 -36t-9 -36
q-10 -38 -28.5 -66t-60.5 -52q-43 -21 -92 -33v-29t2 -27l4 -36q0 -8 -0.5 -18.5t-7.5 -28.5q-6 -23 -38 -23q-26 0 -31.5 15.5t-7.5 28.5l-3 20zM198 649q-19 0 -33.5 -7.5t-29.5 -33.5t-15 -80q0 -57 19.5 -105t50.5 -57l14 -4zM290 93q35 24 54 62.5t19 74.5q0 42 -23 58
l-37 23q-11 6 -25 8q0 -23 3 -68t3 -64z" />
    <glyph glyph-name="percent" unicode="%" horiz-adv-x="755" 
d="M466 286q39 25 84 25q39 0 72 -18.5t49.5 -47t22.5 -50.5t6 -46q0 -41 -18 -78.5t-44 -56t-41.5 -23t-26 -6.5t-22.5 -2q-38 0 -71.5 19t-58 60.5t-24.5 91.5q0 40 17 72.5t55 59.5zM299 679q14 -37 14 -71q0 -41 -17.5 -78.5t-53.5 -62t-81 -24.5q-38 0 -71.5 19.5
t-57.5 61t-24 90.5q0 40 17.5 73t44.5 51t49 25t45 7q34 0 60 -13l20 -7q28 -10 80 -20q47 -6 94 -6q63 0 113 6l85 12l2 -80l-371 -614q0 -18 -29.5 -38.5t-66.5 -20.5q-35 0 -45 9t-16 32l410 607zM492 116q14 -24 35 -40q22 -14 45 -14q17 0 33.5 12.5t16.5 44.5
q0 24 -11 52t-27 39l-30 22q-17 10 -34 10q-12 0 -30.5 -11.5t-18.5 -45.5q0 -14 6 -35zM106 575q13 -22 34.5 -37.5t44.5 -15.5q19 0 34.5 11t15.5 44q0 27 -11 53.5t-28 41t-30 21.5t-32 9q-12 0 -30.5 -11.5t-18.5 -46.5q0 -14 6 -35z" />
    <glyph glyph-name="ampersand" unicode="&#x26;" 
d="M414 283l90 162l69 -105l-83 -130l70 -88l60 -96l-18 -18q-18 -14 -34 -17l-23 -2q-12 0 -23.5 1t-22.5 4l-34 12l-57 112q-35 -43 -75 -83t-83 -40q-123 0 -174 37t-66 81l-15 60l-2 32q0 50 17.5 96t42.5 72l82 82l-18 21l-25 26q-2 2 -10 12t-17.5 28t-9.5 42
q0 22 12 45.5t51.5 58t95.5 34.5q31 0 69 -15.5t61.5 -46.5t23.5 -68l-4 -33q-3 -21 -39 -53t-78 -61q26 -36 74 -79zM142 105l37 -3q87 0 122 36.5t50 57.5l-172 201l-67 -52q-21 -15 -33 -43.5t-12 -61.5q0 -48 21 -89t54 -46zM247 639q-21 32 -57 32q-17 0 -33 -12
t-22 -29l-5 -26q0 -34 20 -58l43 -45q24 18 46 40.5t22 56.5q0 21 -14 41z" />
    <glyph glyph-name="quotesingle" unicode="'" horiz-adv-x="206" 
d="M53 542l-11 154l21 60q7 13 31 13l18 -3q11 -1 21.5 -18t10.5 -38l-1 -17l-4 -17l-34 -137z" />
    <glyph glyph-name="parenleft" unicode="(" horiz-adv-x="283" 
d="M257 685q-55 -105 -77 -160l-37 -103q-19 -52 -25 -88t-8 -58.5t-2 -46.5q0 -93 27 -175.5t51 -127.5l42 -77l-10 5l-71 64q-51 45 -86.5 136t-35.5 190q0 51 6 91.5t9 59t17.5 86t95 171.5t116.5 104q8 0 10 -12q0 -15 -22 -59z" />
    <glyph glyph-name="parenright" unicode=")" horiz-adv-x="284" 
d="M12 -86q29 54 48 94t29 66l37 102q20 56 25.5 90.5t7.5 55.5t2 48q0 89 -26.5 172.5t-52.5 130.5l-41 77l10 -5l65 -58q56 -50 92 -141t36 -190q0 -48 -5 -87t-8.5 -58.5t-18.5 -87.5t-95.5 -174t-116.5 -106q-8 0 -10 12q0 15 22 59z" />
    <glyph glyph-name="asterisk" unicode="*" horiz-adv-x="473" 
d="M231 499l14 -153l-15 -23q-8 -11 -19 -11q-8 0 -17 10l-13 21l-5 144l-117 -83l-27 1q-12 0 -16.5 7t-4.5 14q0 2 2 10l12 22l130 82l-118 63l-19 16q-9 9 -9 21q0 7 4.5 15.5t15.5 10.5q16 0 51 -24l44 -29l49 -25l-3 129l6 30q6 17 31 17q11 0 14.5 -8.5t4.5 -14.5
t1 -20l-3 -45l-2 -28l3 -65l118 72l32 10q16 0 27 -18q9 -18 -29 -40l-63 -32l-47 -30l134 -62l9 -18q3 -7 5 -20l-4 -10q-3 -5 -15 -7q-16 0 -24 -2z" />
    <glyph glyph-name="plus" unicode="+" horiz-adv-x="582" 
d="M233 346l-104 -10l-76 -9l-24 20q-12 11 -12 24q0 12 10 22l23 18l180 7l-5 152l8 33q9 18 40 18q15 0 21 -12t6 -35v-15q0 -10 -2 -24l-4 -42l2 -40l3 -33l165 7l33 -9q18 -9 18 -40q0 -14 -12 -22q-13 -5 -35 -5l-42 3l-38 3l-48 -3l-36 -2l10 -110l11 -83l-20 -24
q-11 -12 -25 -12q-12 0 -22 10l-18 23z" />
    <glyph glyph-name="comma" unicode="," horiz-adv-x="210" 
d="M68 -8l-23 11q-9 4 -17 17t-8 36q0 22 10 36t28 24q10 4 17.5 5.5t17.5 1.5q33 0 52 -22q10 -17 10 -45q0 -15 -8.5 -50.5t-56 -75.5t-72.5 -40q-9 0 -9 8l4 13q4 8 29.5 30.5t25.5 50.5z" />
    <glyph glyph-name="hyphen" unicode="-" horiz-adv-x="566" 
d="M41 411l413 16l34 -9q18 -9 18 -40q0 -14 -12 -22q-13 -5 -35 -5h-17q-7 0 -15 1t-13 1l-36 4q-95 0 -164 -8l-99.5 -11.5t-70.5 -10.5l-24 20q-12 11 -12 24q0 12 10 22z" />
    <glyph glyph-name="period" unicode="." horiz-adv-x="206" 
d="M40 90q9 14 25 21.5t35 7.5q34 0 51 -22.5t17 -46.5q0 -17 -14.5 -42.5t-56.5 -25.5q-39 0 -54.5 22.5t-15.5 46.5q0 22 13 39z" />
    <glyph glyph-name="slash" unicode="/" horiz-adv-x="566" 
d="M13 49l362 660l30 39q20 22 39 22q12 0 23.5 -6.5t11.5 -21.5q0 -28 -37 -86l-69 -106l-108 -208l-96 -193l-70 -143l-34 -24q-18 -12 -34 -12l-10 4q-4 2 -8 14l-2 26v23q0 8 2 12z" />
    <glyph glyph-name="zero" unicode="0" horiz-adv-x="627" 
d="M550 192q-20 -79 -83 -142t-135 -63q-63 0 -127 24t-106 67q-39 44 -65.5 126.5t-26.5 170.5q0 127 51.5 231.5t122.5 129t118 24.5q56 0 106 -26t85.5 -81t49.5 -121t19 -110.5t5 -92.5q0 -39 -3 -71.5t-11 -65.5zM336 688q-23 7 -39 7q-75 0 -111 -96t-36 -213
q0 -53 15 -121.5t60 -126.5t107 -58q17 0 45.5 6.5t55.5 91.5t27 187q0 124 -33.5 213.5t-90.5 109.5z" />
    <glyph glyph-name="one" unicode="1" horiz-adv-x="338" 
d="M174 763q72 0 83 -33l-20 -734l-113 1l3 540l2 48l3 32q0 23 -9 23q-8 0 -22.5 -12.5t-30.5 -32.5t-23 -21q-9 0 -16 20q-6 22 -11 27l109 132l18 6z" />
    <glyph glyph-name="two" unicode="2" horiz-adv-x="708" 
d="M35 113q25 40 161.5 127t207 144t70.5 125q0 27 -15 55.5t-64.5 71t-112.5 42.5q-24 0 -41 -4.5t-30.5 -9t-32.5 -12t-67.5 -39t-59.5 -33.5l-4 3l2 11q15 44 47 71.5t77 48.5t87 32t86 11q77 0 145.5 -37.5t100.5 -93.5t32 -80q0 -53 -40.5 -112.5t-91.5 -101t-184 -117
t-162 -131.5l490 59l-38 -147l-532 1l-12 -1q-17 0 -26.5 12.5t-12.5 26.5l-2 22q0 25 8 37z" />
    <glyph glyph-name="three" unicode="3" horiz-adv-x="639" 
d="M13 91l79 -25q30 -5 72 -5q90 0 148 30.5t77 77.5t19 75q0 76 -45.5 138.5t-142.5 62.5q-37 0 -56.5 -5t-34 -7t-23.5 -3q-24 0 -36 -5l1 69q12 0 41.5 1t47.5 1l54 2q57 10 94.5 29.5t37.5 54.5q-6 63 -55.5 87.5t-138.5 24.5q-47 0 -66 -4.5t-31.5 -8.5t-24.5 -10
l-11 27l-5 31l1 10q5 0 8 -2l59 6q20 0 31 1t41 6q74 0 144.5 -11.5t101.5 -32t48.5 -46.5t17.5 -47q0 -38 -33 -61t-61 -36t-65 -26q11 0 16 -2l65 -17q56 -15 112 -82t56 -147q0 -60 -30.5 -111.5t-75.5 -77t-128 -39.5t-156 -14l-97 8l-59 6z" />
    <glyph glyph-name="four" unicode="4" horiz-adv-x="620" 
d="M36 343l261 409q25 17 60 17q34 0 56 -13t22 -32l-7 -415l112 1q8 0 15.5 -15.5t7.5 -33.5q0 -19 -4.5 -32t-13.5 -14l-121 4l-15 -232l-116 -1l-11 241q-37 0 -74 3t-94.5 8.5t-83.5 5.5q-16 0 -20 22l-4 44zM277 309l-5 350l-208 -349l11 1l26 1l96 -1q12 0 38.5 -1
t41.5 -1z" />
    <glyph glyph-name="five" unicode="5" horiz-adv-x="693" 
d="M35 361l11 377l481 13q19 3 30 -11q12 -12 12 -33q0 -24 -18.5 -43t-56.5 -19q-17 0 -36 3.5t-46 14.5t-67.5 17t-81.5 6l-64 -3l-42 -6l20 -240q35 0 101 6l83 7q34 0 47 -1.5t35 -6.5q39 -6 86 -28t76 -69t29 -105q0 -39 -14.5 -82.5t-43.5 -82t-111 -63.5t-171 -25
q-74 0 -120.5 17.5t-84.5 54.5l-61 62q-12 11 -16.5 19.5t-6.5 23.5q0 18 14 30.5t31 12.5q13 0 36.5 -40t65.5 -75t104 -35q36 0 86.5 15.5t85.5 71t35 114.5q0 60 -36.5 83.5t-63.5 32.5t-44 12t-37 3q-28 0 -120 -13z" />
    <glyph glyph-name="six" unicode="6" horiz-adv-x="660" 
d="M342 445l42 3q60 0 111.5 -30t72 -79.5t26.5 -75.5l5 -45q0 -88 -65.5 -152t-114.5 -70.5t-73.5 -8.5t-46.5 -2q-63 0 -108.5 13.5t-88 59t-70 121.5t-27.5 156q0 123 59 229t140 150.5t142 44.5q35 0 66 -9t61 -27t31 -28q0 -9 -30 -9h-30q-21 3 -33.5 4.5t-23 3
t-32.5 7.5q-113 -12 -158.5 -97t-45.5 -202l3 -65q30 35 80 66.5t108 41.5zM159 292q18 -106 79 -154t149 -48q20 0 35 6t26.5 21t17.5 33t6 41q0 10 -2 20t-9 38q-9 46 -37 81q-26 37 -96 37q-59 0 -98.5 -20t-70.5 -55z" />
    <glyph glyph-name="seven" unicode="7" horiz-adv-x="615" 
d="M550 672l-310 -634q0 -17 -22 -32q-23 -13 -56 -13q-35 0 -58 13.5t-29 32.5l327 628l-364 -14q-12 0 -21.5 15.5t-9.5 40.5q0 23 9 38.5t23 21.5l516 -17l-1 -80h-4z" />
    <glyph glyph-name="eight" unicode="8" horiz-adv-x="592" 
d="M521 197q-14 -119 -77 -162t-154 -43q-105 0 -172 24.5t-93 93.5t-26 108q0 50 17.5 95t33 59.5t23 21t13.5 9.5l39 19l-25 16q-15 11 -29.5 29t-23.5 44q-3 14 -5 27t-2 29q0 40 15.5 78.5t50.5 65.5q32 27 71 40t86 13q33 0 73 -6.5t84.5 -49.5t52 -69.5t10.5 -44
t3 -36.5q0 -48 -20.5 -83.5t-69.5 -47.5q65 -21 96 -74.5t31 -121.5v-17zM303 681q-44 29 -80 29q-57 0 -75.5 -40t-18.5 -61q0 -54 51 -100t129 -46q51 0 73.5 15.5t22.5 44.5q0 38 -35 86.5t-67 71.5zM182 123q11 -6 36.5 -16.5t53 -19t60.5 -8.5q35 0 55 13.5t30.5 37.5
t10.5 49q0 37 -15.5 73.5t-44.5 63.5q-26 27 -63 45.5t-82 18.5q-32 0 -60.5 -10.5t-43 -36t-14.5 -60.5q0 -46 22.5 -89t54.5 -61z" />
    <glyph glyph-name="nine" unicode="9" horiz-adv-x="626" 
d="M421 376q-39 -33 -94 -51.5t-113 -18.5q-75 0 -130 33t-69 97q-11 66 -11 88q0 97 72 167t172 70h15l51 -7q19 0 41.5 -7.5t51.5 -22.5q51 -24 92.5 -67.5t56 -86.5t19.5 -72t5 -64q0 -144 -79.5 -276.5t-152.5 -160.5t-92 -28q-25 0 -30 8l-9 13q110 70 157 174.5
t47 211.5zM228 690q-46 0 -73 -39q-25 -41 -25 -99q0 -79 23.5 -121.5t67.5 -49.5l66 -5q45 0 76.5 10.5t55.5 31.5q0 54 -15.5 101t-55 109t-120.5 62z" />
    <glyph glyph-name="colon" unicode=":" horiz-adv-x="266" 
d="M64 192q20 29 59 29q34 0 51 -23q18 -21 18 -46q0 -17 -14.5 -42.5t-56.5 -25.5q-39 0 -54.5 23t-15.5 46q0 22 13 39zM64 447q9 14 26 21t33 7t28.5 -5t26.5 -23t14 -41q0 -18 -14.5 -42.5t-56.5 -24.5q-39 0 -54.5 21.5t-15.5 46.5q0 23 13 40z" />
    <glyph glyph-name="semicolon" unicode=";" horiz-adv-x="230" 
d="M45 433q20 29 59 29q34 0 51 -23q18 -21 18 -46q0 -17 -14.5 -42.5t-56.5 -25.5q-39 0 -54.5 23t-15.5 46q0 22 13 39zM77 34l-22 12l-14 10q-11 19 -11 42q0 22 10 36t28 24q10 4 17.5 5.5t17.5 1.5q32 0 47 -18t15 -47q0 -17 -9 -53t-56.5 -75.5t-71.5 -39.5q-9 0 -9 8
l4 12q5 10 29.5 31.5t24.5 50.5z" />
    <glyph glyph-name="less" unicode="&#x3c;" horiz-adv-x="446" 
d="M385 524l-215 -181l176 -163l-58 -39l-255 230l255 231z" />
    <glyph glyph-name="equal" unicode="=" horiz-adv-x="553" 
d="M470 250l-413 -15l-33 9q-18 9 -18 40q0 15 12 21t35 6l42 -3l38 -3q95 0 164 8l101 11.5t70 10.5l24 -20q12 -11 12 -25q0 -12 -11 -22zM35 478l414 15q35 -7 43 -15.5t8 -32.5q0 -14 -12 -22q-13 -5 -35 -5h-17q-7 0 -15 1t-13 1l-36 4q-97 0 -180 -9.5t-154 -21.5
l-24 20q-12 11 -12 25q0 12 10 22z" />
    <glyph glyph-name="greater" unicode="&#x3e;" horiz-adv-x="471" 
d="M32 219l215 181l-176 163l59 39l254 -231l-254 -230z" />
    <glyph glyph-name="question" unicode="?" horiz-adv-x="516" 
d="M167 169q-10 13 -10 39q0 43 24.5 93.5t73 89.5t75 69.5t26.5 70.5q0 33 -24 66.5t-56 52.5t-46.5 26l-29.5 14q-22 8 -38 8q-45 0 -69.5 -70t-45.5 -70q-18 0 -27.5 11t-9.5 29q0 30 18 63t73.5 70t134.5 37q43 0 83 -16t71 -44q32 -26 47 -67t15 -85q0 -79 -22 -99.5
t-99 -71.5t-77 -100l1 -24q0 -11 5 -26l4 -26q0 -25 -18 -38.5t-41 -13.5q-26 0 -38 12zM160 79q20 27 57 27q30 0 48 -20.5t18 -45.5q0 -17 -14.5 -40.5t-54.5 -23.5q-36 0 -47 15t-16 30l-3 21q0 17 12 37z" />
    <glyph glyph-name="at" unicode="@" horiz-adv-x="788" 
d="M528 179q52 26 93.5 80t41.5 131q0 23 -2 39.5t-9 38.5q-9 39 -42 96q-29 56 -87.5 85.5t-125.5 29.5l-56 -3l-94 -18q-68 -15 -114.5 -103t-46.5 -202l6 -89q6 -64 52.5 -108t106.5 -69t113 -25q76 0 161 28t134 57t57.5 31.5t16.5 3t15 1.5q6 0 7 -5q0 -9 -28 -24
l-122 -65q-85 -45 -140 -70.5t-128 -25.5q-76 0 -157.5 36t-125.5 119.5t-44 182.5q0 61 18 122t63 123.5t128 106.5t176 44q78 0 146.5 -30.5t110.5 -81t56.5 -91.5t14.5 -85q0 -112 -72.5 -205.5t-170.5 -93.5q-31 0 -57 10l1 14l-47 -10l-43 -5q-46 0 -85 9.5t-57 24.5
q-47 44 -47 128t45.5 161t91.5 87l59 13l29 2q49 0 106 -44q8 19 18 25t35 6q27 0 39 -10.5t11 -26.5zM434 229l30 228q-17 16 -46.5 52.5t-60.5 36.5q-43 0 -71 -75t-28 -135v-12q8 -52 31.5 -78t72.5 -26h18q16 3 25 4z" />
    <glyph glyph-name="A" unicode="A" horiz-adv-x="728" 
d="M274 322l-97 -305q-8 -11 -39 -23q-32 -10 -55 -10l-29 4q-17 3 -32 15q-13 13 -13 31q0 14 4 23t14.5 20.5l27 29.5t55 128.5t86 285.5t63 204.5t32 34.5t32 7t37.5 2q32 0 40 -8q7 -5 25 -41.5t76.5 -228.5t91.5 -287.5t78 -161.5l3 -13l2 -13q0 -18 -13 -22l-17 -3
q-16 0 -28.5 7.5t-23.5 20.5l-114 341zM459 424l-78 233l-77 -243z" />
    <glyph glyph-name="B" unicode="B" horiz-adv-x="775" 
d="M154 7v-17h-127l-13 743q14 19 32 25t45 6h18.5t23 -3.5t34.5 -16.5l50 5l84 8q75 0 146.5 -11t103 -33t50 -47t18.5 -48q0 -39 -44 -71t-119 -55q12 0 19 -2l24 -7q98 -24 154.5 -93t56.5 -152q0 -60 -30.5 -112.5t-76 -79t-130 -41t-161.5 -14.5q-23 0 -47 3t-38 5
q-23 0 -34.5 1.5t-38.5 6.5zM167 396l-10 -311l69 -25q21 -6 84 -6q94 0 152.5 31.5t76 74.5t17.5 61q0 72 -57.5 149t-156.5 77q-26 0 -54 -6t-61 -21zM363 500q61 11 97 29.5t36 50.5q0 67 -52 93.5t-145 26.5q-48 0 -68 -4t-31.5 -8t-25.5 -11l-5 -209q20 7 41.5 12.5
t64.5 12.5t88 7z" />
    <glyph glyph-name="C" unicode="C" horiz-adv-x="755" 
d="M141 43q-62 50 -97 136.5t-35 178.5q0 134 62.5 242.5t126.5 126.5l96 22q17 3 32 5t27 2q62 0 181.5 -57.5t119.5 -86.5q0 -25 -45 -25q-29 0 -71 15q-40 16 -77 43t-66.5 37t-50.5 10q-80 0 -120.5 -103.5t-40.5 -217.5q0 -49 18 -116.5t79.5 -116t155.5 -48.5
q60 0 111 12l103 26q24 0 50 -25q9 -11 9 -21q0 -35 -105 -69t-193 -34q-80 0 -158 19t-112 45z" />
    <glyph glyph-name="D" unicode="D" horiz-adv-x="756" 
d="M179 737q32 12 68.5 18t68.5 6q33 0 45.5 -1.5t33.5 -6.5q19 -3 43 -10.5t78 -28.5t111 -124t57 -229q0 -92 -32 -173t-78 -119.5t-117.5 -60.5t-137.5 -22q-10 0 -26.5 1t-52.5 5t-53 7l-29 5v-14h-128l-12 743q14 19 32 25t45 6q25 0 45 -6t39 -21zM162 103
q20 -9 49 -14.5t65 -5.5q95 0 155 47t77.5 112t17.5 92q0 119 -55 243.5t-150 124.5q-27 0 -56 -11t-63 -38l-25 -19z" />
    <glyph glyph-name="E" unicode="E" horiz-adv-x="640" 
d="M36 -13l-26 737q0 18 22 31.5t56 13.5l27 -3l23 -9l372 7q32 0 32 -50q0 -20 -12 -37q-12 -14 -26 -18l-332 7l-4 -164l269 10l12 -23q5 -11 7 -24q0 -21 -26 -21q-48 0 -68.5 -1.5t-80.5 -8t-117 -17.5l-10 -333l410 15q12 0 21.5 -16.5t9.5 -38.5q0 -24 -9 -39t-23 -21
l-497 2z" />
    <glyph glyph-name="F" unicode="F" horiz-adv-x="622" 
d="M206 659l-5 -150l273 4q0 -11 -1 -22.5t-4 -23.5q-3 -23 -20 -23q-26 0 -56 -1t-63 -4q-36 0 -75.5 -5t-56.5 -7l-13 -441l-115 1l-16 423l-23 -1q-7 0 -12 -4q-10 0 -19 17t-9 28q0 16 11.5 35t21.5 21h26l-7 218q0 18 22 31.5t56 13.5q37 0 60 -17l383 9
q12 0 21.5 -16.5t9.5 -38.5q0 -24 -9.5 -38t-22.5 -18z" />
    <glyph glyph-name="G" unicode="G" horiz-adv-x="762" 
d="M142 43q-62 50 -97 136.5t-35 178.5q0 134 62.5 242.5t126.5 126.5l96 22q17 3 32 5t27 2q62 0 181.5 -57.5t119.5 -86.5q0 -25 -45 -25q-29 0 -71 15q-40 16 -77 43t-66.5 37t-50.5 10q-80 0 -120.5 -103.5t-40.5 -217.5q0 -49 18 -116.5t79.5 -116t155.5 -48.5
q49 0 80 8l50 15q17 3 25 20.5t8 38.5q0 38 -17 77.5t-33 45.5l-28 6l-24 1h-21h-12q-8 0 -16.5 2.5t-18.5 12.5l12 21q36 13 117 13h29t30 -2q24 0 45 -8q20 -4 27 -72q0 -28 1.5 -51t9.5 -115l3 -17q0 -45 -96 -76t-196 -31q-80 0 -158 19t-112 45z" />
    <glyph glyph-name="H" unicode="H" horiz-adv-x="628" 
d="M158 501l263 10l-2 252l115 1l19 -754q0 -16 -15 -21.5t-52 -5.5h-17q-26 0 -33.5 2t-11.5 17l-3 442q-51 0 -72 -1.5t-65.5 -7t-65.5 -8.5t-62 -11l-7 -430l-116 1l-18 734q0 19 18.5 33.5t51.5 14.5t52.5 -13t25.5 -33z" />
    <glyph glyph-name="I" unicode="I" horiz-adv-x="250" 
d="M101 769q36 0 58.5 -13.5t28.5 -32.5l-23 -737l-115 1l-27 737q0 18 22 31.5t56 13.5z" />
    <glyph glyph-name="J" unicode="J" horiz-adv-x="552" 
d="M493 710v-460q0 -34 -6.5 -72.5t-23 -97t-95 -71t-141.5 -12.5q-96 0 -160 24t-64 52q0 9 8 17.5t26 8.5q17 0 117.5 -35t135.5 -35q42 0 66 27t24 94l-16 563q6 22 20 34t46 12q30 0 45 -14.5t18 -34.5z" />
    <glyph glyph-name="K" unicode="K" 
d="M210 337l-61 -74l-12 -277l-107 1l-20 734q0 20 18 34t51 14q29 0 45 -8.5t24 -24.5l5 -347l359 375l31 -37l34 -43.5t21 -45.5q0 -6 -7 -6q-56 0 -138.5 -61t-177.5 -161q54 -66 146.5 -153.5t128.5 -129t70 -117.5q3 -8 -7 -12l-27 -4q-16 0 -31.5 1t-27 3t-22 3.5
t-21.5 5.5z" />
    <glyph glyph-name="L" unicode="L" horiz-adv-x="651" 
d="M149 -3v-11l-116 1l-26 737q0 18 22 31.5t56 13.5t58 -13.5t28 -32.5l-20 -639l424 15q12 0 22 -16.5t10 -38.5q0 -23 -9.5 -39t-23.5 -21z" />
    <glyph glyph-name="M" unicode="M" horiz-adv-x="796" 
d="M148 733l5 -4l236 -258l201 287l15 3l22 1q12 0 17 -0.5t20 -4.5q24 -4 28.5 -23t6 -31t3.5 -24v-259l-4 -46l-1 -40l6 -189l7 -141q-3 -13 -14 -19t-34 -6q-28 0 -45 7l-27 13l15 354l7 235v15v12q0 41 -4 50q-20 -17 -76 -101l-109 -162q-53 -78 -68 -78
q-10 0 -99.5 118.5t-106.5 135.5l-12 -595l-107 1l-20 734q0 20 18 34t51 14q29 0 45 -8.5t24 -24.5z" />
    <glyph glyph-name="N" unicode="N" 
d="M148 736l5 -5l302 -310l-5 311q25 31 72 31l26 -3q16 -3 28 -18t12 -33q0 -14 -2 -19q0 -5 -3 -8v-254q-2 -8 -3 -21t-2 -21l-2 -73q0 -23 1 -75t1 -82l5 -150q-6 -12 -19 -18.5t-35 -6.5q-30 0 -45.5 6.5t-26.5 16.5l2 114l3 99v47q0 33 -14.5 61t-35 48.5t-57 53
l-102 89.5l-104.5 90l-12 -620l-107 1l-20 734q0 20 18 34t51 14q29 0 45 -8.5t24 -24.5z" />
    <glyph glyph-name="O" unicode="O" horiz-adv-x="748" 
d="M668 189q-24 -80 -99.5 -143.5t-163.5 -63.5q-76 0 -156 24t-127 67.5t-79.5 125.5t-32.5 174q0 130 62 233.5t148 128.5t143 25q68 0 129 -26t103.5 -80.5t66.5 -144t24 -182.5q0 -78 -18 -138zM410 687q-28 7 -49 7q-90 0 -134 -97t-44 -213q0 -53 18 -122.5t73 -128
t129 -58.5h14q12 0 43 8q34 6 58.5 70t32.5 109t8 100q0 127 -39.5 216.5t-109.5 108.5z" />
    <glyph glyph-name="P" unicode="P" horiz-adv-x="750" 
d="M159 748q31 10 66.5 15t48.5 5.5t21 0.5q29 0 38.5 -0.5t32.5 -4.5q21 0 46 -7l85 -24t118 -96t58 -172q0 -71 -31.5 -129t-78.5 -87.5t-121.5 -47t-143.5 -17.5h-24l-15 2h-15q-6 0 -14 1t-12 1l-58 7l-6 -205h-127l-13 743q14 19 32 25t45 6q39 0 68 -16zM162 266
l41 -7l54 -3q96 0 158 36t80 84t18 70q0 87 -57.5 182t-153.5 95q-28 0 -48 -6t-34.5 -12t-37.5 -19l-9 -4z" />
    <glyph glyph-name="Q" unicode="Q" horiz-adv-x="750" 
d="M574 56q57 -48 128 -80.5t172 -46.5q-55 0 -132.5 -22t-96.5 -22q-20 0 -48.5 17t-58.5 49l-48 52q-22 -10 -44.5 -15.5t-44.5 -5.5q-76 0 -156 24t-127 67.5t-79.5 125.5t-32.5 174q0 130 62 233.5t148 128.5t143 25q68 0 129 -26t103.5 -80.5t66.5 -144t24 -182.5
q0 -78 -14.5 -126t-37 -82.5t-56.5 -62.5zM402 75q-45 25 -115 44q50 -44 115 -44zM276 129q80 13 92 42q9 29 30 29q24 0 44 -17q21 -15 58 -55q25 38 40 102t15 132q0 127 -39.5 216t-87.5 103l-40 9t-31 4q-92 0 -134.5 -94t-42.5 -215q0 -55 18.5 -127.5t77.5 -128.5z
" />
    <glyph glyph-name="R" unicode="R" horiz-adv-x="726" 
d="M154 747q33 9 68 15q40 5 70 5q44 0 71.5 -5t52 -11t70.5 -20t100 -95t54 -172q0 -64 -25 -116t-78 -87l-9 -8l-10 -3l155 -260l-166 1l-109 228l-55 -5l-91 -2l-58 4l-40 5l-6 -231h-128l-12 743q15 19 32 25t45 6q41 0 69 -17zM156 289q17 -4 42 -7t52 -3
q97 0 158.5 34t79.5 79.5t18 66.5q0 84 -57 174t-153 90q-19 0 -28.5 -1t-33.5 -7.5t-59 -26.5l-8 -4z" />
    <glyph glyph-name="S" unicode="S" horiz-adv-x="680" 
d="M99 368q-30 13 -54.5 67.5t-24.5 116.5q0 78 43.5 136.5t109.5 70.5l86 12l34 2q67 0 123.5 -30.5t85.5 -30.5l20 1q15 3 24 -9.5t9 -34.5q0 -31 -17.5 -57t-50.5 -26q-20 0 -42.5 11t-57 39.5t-76.5 51.5q-40 19 -68 19q-44 0 -66 -37.5t-22 -92.5q0 -61 24 -113
t48.5 -59t37 -9t25.5 -2q24 0 69 14t64 14t43 -5.5t61 -22t63.5 -60t26.5 -99.5q0 -38 -14 -77q-12 -38 -38.5 -75t-111.5 -68t-174 -31q-59 0 -107.5 15.5t-77 44.5t-38.5 47t-30 22.5t-21 20.5q0 17 24 39t45 22q10 0 17 -7q15 -31 25.5 -50t27 -42t76.5 -23l43 3
q13 2 26 4.5t54 13t79.5 62t38.5 101.5q0 44 -28.5 61.5t-55 25.5t-44.5 8q-21 0 -54 -9.5t-55 -9.5q-16 0 -25 1t-34.5 7.5t-65.5 26.5z" />
    <glyph glyph-name="T" unicode="T" horiz-adv-x="640" 
d="M367 652l-13 -666l-119 1l-28 664l-205 -1l28 85l503 28q15 0 32 -15.5t17 -37.5t-8.5 -38t-22.5 -19z" />
    <glyph glyph-name="U" unicode="U" horiz-adv-x="750" 
d="M653 702q17 -105 17 -238q0 -88 -6.5 -151.5t-27.5 -133t-87 -133.5t-152 -64q-76 0 -154 24t-130 69q-49 46 -74.5 117.5t-25.5 156.5q0 38 12 157t12 165l-2 36l-2 38q0 6 13.5 9.5t37.5 3.5q25 0 38 -1t40.5 -6.5t37.5 -29t10 -86.5q0 -28 -3 -67t-11 -102l-14 -134
q0 -24 15 -81.5t70 -116.5t129 -59h22l41 9q29 6 70 93.5t41 184.5q0 40 -0.5 84.5t-1.5 93.5q0 57 -17 100l-9 30t-5 21q0 28 20.5 50t44.5 22q17 0 30 -13.5t21 -47.5z" />
    <glyph glyph-name="V" unicode="V" horiz-adv-x="690" 
d="M20 648l-8 21l-3 27q0 23 12 40t31 23l27 5q13 0 26.5 -4t34 -14t30.5 -27l198 -492l199 490q12 16 22.5 25t24.5 11l19 -4q12 -3 16 -23l7 -40q-71 -112 -133 -276l-105 -290q-45 -127 -77 -127q-30 0 -76 116l-105 269q-61 155 -140 270z" />
    <glyph glyph-name="W" unicode="W" horiz-adv-x="1085" 
d="M520 424l-76 -207q-43 -129 -65 -176.5t-46 -47.5q-30 0 -76 116l-104 268q-60 153 -100.5 212.5t-47.5 74.5l-4 30q0 23 12 41t35 24l33 7q14 0 25 -3t28 -12.5t28 -31.5l198 -492l117 286l-35 65q-8 16 -18.5 33t-25.5 37l-8 20l-4 28q0 22 13 39.5t47 27.5l15 2
q29 0 54.5 -21t34.5 -55q21 62 64 62l14 -2q6 0 15.5 -13t11.5 -30q0 -12 -18 -39.5t-39 -78.5l148 -361l199 490q12 16 22.5 25t25.5 11l18 -4q12 -3 16 -23l7 -40q-71 -112 -133 -276l-105 -290q-45 -127 -77 -127q-23 0 -44 42t-67.5 170t-87.5 219z" />
    <glyph glyph-name="X" unicode="X" horiz-adv-x="742" 
d="M18 674l-8 15l-4 21q0 16 13 29t34 18l29 4q24 0 53 -9.5t39 -23.5l209 -240l213 242q3 4 8 9t16.5 12.5t25.5 7.5q10 0 24 -3.5t14 -25.5q0 -24 2 -32q-90 -78 -146 -135.5t-108 -120.5l88 -131q84 -124 151 -241q-4 -17 -9 -30t-14 -31.5t-38 -18.5q-31 0 -44.5 7
t-21.5 12t-14 11q-60 107 -104 170.5l-61.5 90.5t-28.5 47l-82 -114l-100 -134l-70 -80l-36 8q-20 6 -20 21q0 8 7 18l258 342l-134 137z" />
    <glyph glyph-name="Y" unicode="Y" horiz-adv-x="723" 
d="M7 674l-8 16l-4 22q0 15 13 29q13 11 33 16l29 4q27 0 54 -10q29 -9 39 -23l208 -369l209 367l22 19q11 9 29 9l20 -3q11 -3 16 -18l7 -30q-50 -56 -92 -125t-81 -144l-57 -116q-11 -22 -17.5 -53.5t-6.5 -70.5l-3 -190q-9 -8 -22 -13.5t-23.5 -7.5t-25.5 -2q-38 0 -55 9
l-20 16v33q0 29 -2 81t-2 74q0 33 -8.5 64.5t-24.5 61.5l-77 148q-69 119 -150 206z" />
    <glyph glyph-name="Z" unicode="Z" horiz-adv-x="677" 
d="M31 98l406 535l-392 -24q-31 22 -31 69q0 12 4.5 35t13.5 32.5t16 10.5l156 -11q37 0 111 -2.5t96 -2.5q111 0 194 7q20 0 20 -32q0 -11 -1 -22t-4 -21l-9 -27q-45 -30 -152.5 -139.5t-201 -229t-119.5 -197.5l477 55l-44 -140l-515 -6l-17 -1q-10 0 -18 9l-14 30l-6 28
q0 18 10 27z" />
    <glyph glyph-name="bracketleft" unicode="[" horiz-adv-x="352" 
d="M85 759q25 0 39 -5l25 -9l162 1l-9 -84h-161l-22 -723l182 10l-17 -106l-259 4l-18 877q0 15 21 25t57 10z" />
    <glyph glyph-name="backslash" unicode="\" horiz-adv-x="523" 
d="M444 -27l-10 -3q-15 0 -33 12l-34 24l-59 119l-96 193l-91 176q-15 31 -35 65t-59.5 95t-39.5 88q0 15 11 21t24 7q22 0 39 -23l29 -38l362 -660l2 -20l1 -17q0 -17 -1.5 -26t-9.5 -13z" />
    <glyph glyph-name="bracketright" unicode="]" horiz-adv-x="333" 
d="M211 -149h-15q-7 0 -21 2l-33 4l-163 -1l10 84h161l21 723l-181 -10l17 106l259 -4l18 -877q0 -27 -73 -27z" />
    <glyph glyph-name="asciicircum" unicode="^" horiz-adv-x="603" 
d="M395 527l-152 104l-138 -85l-34 28l196 124l195 -124z" />
    <glyph glyph-name="underscore" unicode="_" horiz-adv-x="739" 
d="M39 -39l571 13q35 -5 42 -6.5t18.5 -5.5t11.5 -32q0 -13 -17.5 -19t-49.5 -6l-58 3l-51 3q-29 0 -93 -3t-101 -3l-168 -11l-100 -10l-31 15q-20 9 -20 26q0 9 15 20z" />
    <glyph glyph-name="grave" unicode="`" horiz-adv-x="446" 
d="M210 522l-92 121l-13 34q-9 23 -9 33q0 18 16.5 25.5t33.5 9.5q24 0 43.5 -13.5t25.5 -34.5l69 -157z" />
    <glyph glyph-name="a" unicode="a" horiz-adv-x="578" 
d="M376 469v10q6 22 20 34t46 12q30 0 47.5 -15t17.5 -35l-1 -482l-119 2l-1 12q-28 -8 -51 -12t-31 -5t-26 -1q-51 0 -103.5 12t-78.5 30q-42 35 -59.5 76.5t-23.5 71.5t-6 64q0 89 42 163t95 87l70 17l43 4q30 0 57 -10t62 -35zM385 89l-6 274l-28 24l-38 38
q-21 23 -46 36q-23 14 -42 14q-43 0 -64.5 -59t-21.5 -134q0 -50 13.5 -94t49.5 -77t95 -33h26q14 3 21 4z" />
    <glyph glyph-name="b" unicode="b" horiz-adv-x="558" 
d="M331 499q76 -18 107 -73.5t42 -95.5t11 -87q0 -33 -5 -61.5t-22 -71.5t-62 -79q-20 -14 -75.5 -28t-106.5 -14q-65 0 -134 22.5t-65 49.5v653q3 22 20.5 35t41.5 13q28 0 45.5 -15.5t21.5 -41.5l-9 -224q30 17 54.5 24.5t46.5 7.5h22q11 -3 16 -4zM201 78q59 0 94 32
t49.5 78.5t14.5 87.5q0 75 -23 131q-21 58 -70 58q-14 0 -33.5 -8.5t-42.5 -26.5l-53 -52l-10 -291l43 -7z" />
    <glyph glyph-name="c" unicode="c" horiz-adv-x="532" 
d="M97 31q-42 35 -59.5 76.5t-23.5 71.5t-6 64q0 89 42 163t95 87l70 17l43 4q35 0 70 -17q20 -8 38 -19.5t51 -38t33 -47.5q0 -26 -38 -26q-21 0 -44.5 9t-53 30.5t-52.5 31t-41 9.5q-42 0 -62.5 -46.5t-20.5 -110.5q0 -26 3 -48.5t14.5 -58.5t47.5 -70t95 -34l65 6l54 7
q19 0 30 -5q12 -3 21.5 -12.5t9.5 -16.5q0 -23 -69.5 -45.5t-129.5 -22.5q-51 0 -103.5 12t-78.5 30z" />
    <glyph glyph-name="d" unicode="d" horiz-adv-x="555" 
d="M358 481l-8 224q0 22 20 39.5t46 17.5q24 0 41 -12.5t21 -35.5v-653q6 -24 -67.5 -48t-131.5 -24q-51 0 -103.5 12t-78.5 30q-42 35 -59.5 76.5t-23.5 71.5t-6 64q0 89 42 163t97 87l73 17l37 3q27 0 48 -8q22 -6 53 -24zM372 87l-10 291q-9 3 -29 26l-33 33
q-11 10 -32 19t-37 9q-44 0 -61.5 -44t-23.5 -76.5t-6 -69.5q0 -20 3 -42t13 -54.5t46.5 -66.5t95.5 -34h12q5 0 19 2z" />
    <glyph glyph-name="e" unicode="e" horiz-adv-x="532" 
d="M140 227l4 -19q21 -64 56.5 -97t94.5 -33l65 6l55 7q19 0 30 -5q12 -3 21.5 -12.5t9.5 -16.5q0 -23 -70 -45.5t-130 -22.5q-51 0 -103.5 12t-78.5 30q-43 34 -60 76.5t-23 74.5t-6 65q0 89 42 162t95 85l71 14l34 3q37 0 78 -15.5t76 -45.5q34 -26 43 -42t11 -30l-3 -13
l-9 -11l-127 -58q-123 -52 -176 -69zM133 281q57 15 135 54l69 50l-26 23q-28 21 -52.5 31.5t-43.5 10.5q-45 0 -63.5 -49t-18.5 -120z" />
    <glyph glyph-name="f" unicode="f" horiz-adv-x="483" 
d="M229 463l15 -425q-6 -22 -19 -34t-47 -12q-30 0 -44 13q-12 14 -12 36v422h-142l-14 7q-6 5 -6 19q0 21 20 31h142v56q0 83 19.5 118.5t69.5 51.5t73 16q52 0 95 -31t43 -56q0 -6 -4 -11q-7 -7 -63.5 26.5t-77.5 33.5q-24 0 -37 -23.5t-13 -79.5v-101h173q10 0 19.5 -6.5
t9.5 -19.5t-8 -22t-21 -9h-171z" />
    <glyph glyph-name="g" unicode="g" horiz-adv-x="600" 
d="M86 136q-35 25 -56 67q-19 43 -19 89q0 47 18 90.5t51 70t82.5 42.5t94.5 16q38 0 61 -6.5t39 -12.5t39 -15.5t37 -11.5q13 0 27 7l24 7q16 0 27 -14q12 -12 12 -31t-14.5 -29t-14.5 -28q0 -10 1 -16t8 -33t7 -43q0 -27 -20.5 -78t-56 -69t-68.5 -25t-72 -7h-89
q-21 -6 -26 -14l3 -3l73 10l66 4l49 -3q22 -3 59 -23q39 -18 61 -49q22 -28 28 -64l6 -43q0 -60 -42.5 -96.5t-85.5 -49t-97 -12.5q-113 0 -205.5 51t-92.5 135q0 30 15 53.5t53 50.5t38 46q0 14 -20 37zM309 439q-38 24 -70 24q-50 0 -71.5 -43.5t-28.5 -69.5t-7 -57
q0 -4 1 -14t5.5 -30.5t31.5 -55.5q27 -32 69 -32q16 0 51.5 10.5t59.5 44t24 75.5q0 47 -22.5 90.5t-42.5 57.5zM169 -155q14 -8 27.5 -12t33.5 -4q60 0 113.5 36.5t53.5 77.5q0 25 -23 42.5t-54 30t-63 12.5q-45 0 -72 -20t-40 -44q-11 -25 -11 -49q0 -50 35 -70z" />
    <glyph glyph-name="h" unicode="h" horiz-adv-x="565" 
d="M146 456q57 54 131 54q81 0 133 -65q41 -57 55.5 -105t19.5 -79.5t5 -69.5v-35l1 -36q0 -60 -9.5 -93t-39.5 -38q-28 -3 -38.5 28.5t-10.5 79.5l1 39l1 36q0 209 -70 244.5t-94 35.5q-36 0 -55.5 -32.5t-30.5 -93.5l-14 -328l-107 2l-2 718q4 18 23 32t51 14
q30 0 47.5 -15t17.5 -35z" />
    <glyph glyph-name="i" unicode="i" horiz-adv-x="242" 
d="M40 0l-18 459q6 22 20 34t46 12q29 0 47 -15q16 -16 16 -35l2 -457zM36 646q18 26 54 26q30 0 46.5 -20t16.5 -44q0 -19 -13 -40t-52 -21q-36 0 -51 21q-13 23 -13 42q0 18 12 36z" />
    <glyph glyph-name="j" unicode="j" horiz-adv-x="394" 
d="M310 457v-459v-14q0 -69 -24.5 -135.5t-97 -78.5t-143.5 -12q-105 0 -168 23q-66 21 -66 50q0 7 7 16t26 9q17 0 122.5 -35t140.5 -35q44 0 69 28t25 93l-1 57l-3 36l-16 461q6 22 20 34t46 12q29 0 47 -15q16 -16 16 -35zM195 648q18 26 54 26q30 0 46.5 -20t16.5 -44
q0 -19 -13 -40t-52 -21q-36 0 -51 21q-13 23 -13 42q0 18 12 36z" />
    <glyph glyph-name="k" unicode="k" horiz-adv-x="541" 
d="M135 388l84 87q41 38 80 38q12 0 48 -9q36 -7 67 -40t31 -71q0 -46 -42 -86t-91.5 -50.5t-50.5 -21.5q0 -15 41.5 -39.5t89 -42.5t71.5 -33.5t24 -30.5q0 -7 -21 -33.5t-21 -50.5l1 -12l-52 15q-51 31 -127.5 89.5t-137.5 112.5l-7 -209l-105 -4v717q6 22 23 35t39 13
q28 0 45.5 -15.5t21.5 -41.5zM132 314q20 0 39 1t35.5 4t33 7t38.5 12.5t36 33t14 46.5q0 18 -9 29.5t-28 11.5q-18 0 -44.5 -11.5t-61.5 -37.5l-51 -38z" />
    <glyph glyph-name="l" unicode="l" horiz-adv-x="239" 
d="M89 764q32 0 50 -14q18 -12 24 -32l-2 -718l-108 -2l-29 716q0 19 16.5 34.5t48.5 15.5z" />
    <glyph glyph-name="m" unicode="m" horiz-adv-x="896" 
d="M144 465q8 20 29 28t41.5 13t45.5 5q30 0 53 -4t50 -16q48 -18 78 -61q21 41 51.5 55.5t51.5 19.5t47 5q53 0 99 -20q48 -18 75 -57.5t45 -91t18 -154.5v-36l1 -36q0 -78 -13 -103.5t-38 -25.5q-33 0 -45 35q-11 38 -11 97v30l1 29q0 112 -15.5 164.5t-58.5 85t-76 32.5
q-37 0 -63.5 -24.5t-36.5 -68.5q5 -10 8.5 -29.5t3.5 -51.5l5 -97v-36l1 -36q0 -61 -9.5 -94t-39.5 -33q-32 0 -44 33q-10 37 -10 93v29l1 28q0 74 -5 119t-18 74q-21 54 -67.5 76.5t-69.5 22.5q-38 0 -61.5 -37t-23.5 -105l-7 -323l-113 1l-8 487q9 30 63 30q29 0 47 -11
t18 -41z" />
    <glyph glyph-name="n" unicode="n" horiz-adv-x="551" 
d="M142 477q59 34 122 34q44 0 81 -17q38 -15 65 -49q41 -57 55.5 -105t19.5 -79.5t5 -69.5v-35l1 -36q0 -60 -9.5 -93t-39.5 -38q-31 -3 -42 21q-10 27 -10 84v40l1 43l1 18v15q0 96 -46 172t-114 76q-16 0 -37 -4.5t-36 -25.5t-15 -79l-1 -351l-119 2l-11 484
q5 18 19.5 27.5t46.5 9.5q33 0 45 -8q14 -6 18 -36z" />
    <glyph glyph-name="o" unicode="o" horiz-adv-x="531" 
d="M275 -11l-31 -3q-23 0 -43 3t-51 13t-64.5 35.5t-50.5 68.5t-23 74t-6 61q0 89 41.5 165.5t97.5 96t89 19.5q54 0 102 -24t77.5 -61t46 -97t16.5 -117q0 -25 -6 -69.5t-63 -98.5t-132 -66zM330 390q-36 35 -66.5 51.5t-52.5 16.5q-42 0 -63 -46t-21 -109q0 -35 9 -78.5
t42.5 -95t77.5 -51.5q9 0 38.5 9t52 58.5t22.5 112.5q0 44 -10 78q-9 37 -29 54z" />
    <glyph glyph-name="p" unicode="p" horiz-adv-x="547" 
d="M131 24l9 -224q-3 -23 -22 -40t-45 -17q-22 0 -40 12.5t-22 34.5v654q-6 24 66 48t133 24q55 0 106.5 -12.5t75.5 -30.5q42 -35 59.5 -76.5t23.5 -71.5t6 -64q0 -89 -42.5 -162t-96.5 -88l-72 -16l-37 -3q-26 0 -48.5 7t-53.5 25zM117 418l11 -291q23 -11 52.5 -33
t47 -28.5t39.5 -6.5q41 0 63 48t22 113q0 46 -20 109t-57.5 99.5t-80.5 36.5h-12q-45 -5 -51 -25.5t-14 -21.5z" />
    <glyph glyph-name="q" unicode="q" horiz-adv-x="562" 
d="M167 6q-75 18 -117.5 90.5t-42.5 165.5q0 63 22 119t67 92q24 17 77.5 30t104.5 13q65 0 134 -22.5t65 -49.5v-654q-3 -20 -21 -33.5t-41 -13.5q-27 0 -45 15t-21 42l8 224q-30 -17 -54.5 -24.5t-46.5 -7.5h-22q-11 3 -16 4zM297 427q-57 0 -93 -32t-50.5 -79t-14.5 -86
q0 -74 23 -132.5t70 -58.5q16 0 34.5 8.5t33.5 20.5l34 33q16 19 27 26l10 291l-40 6z" />
    <glyph glyph-name="r" unicode="r" horiz-adv-x="530" 
d="M144 349l-1 -351l-119 2l-11 484q6 22 20 34t46 12q23 0 39.5 -11.5t22.5 -28.5l11 6q6 6 11 6q56 17 88 17q30 0 81.5 -34.5t84.5 -40.5q33 -3 33 -24t-19.5 -43.5t-47.5 -22.5q-15 0 -33.5 9t-58.5 53t-86 44q-29 0 -45 -29.5t-16 -81.5z" />
    <glyph glyph-name="s" unicode="s" horiz-adv-x="546" 
d="M61 265q-21 12 -36 42t-15 69q0 52 36 94t77.5 48l67.5 9.5t43 3.5q41 0 89.5 -20.5t100.5 -20.5q34 0 34 -27q0 -18 -20.5 -36.5t-52.5 -18.5q-20 0 -36.5 5t-35.5 16t-32 17t-26 11q-25 7 -40 7q-30 0 -46 -20t-16 -51q0 -35 17 -63.5t39.5 -36.5t49 -11.5t68.5 -3.5
q41 0 71.5 -8.5t59 -32.5t28.5 -75q0 -24 -7.5 -46t-31.5 -58.5t-72.5 -57t-105.5 -20.5q-62 0 -112 20.5t-87 42t-53.5 38t-18.5 26.5q0 11 25 11q15 0 29 -3t31 -11l71 -30q22 -8 39.5 -12t36.5 -4l45 4q32 5 55 29.5t23 56.5q0 42 -27.5 56t-46.5 19t-23.5 6t-16.5 1
l-33 -2l-25 -2q-17 0 -25.5 1t-31 7.5t-63.5 30.5z" />
    <glyph glyph-name="t" unicode="t" horiz-adv-x="503" 
d="M138 523v186q0 18 16 30.5t48 12.5q31 0 45.5 -14t14.5 -31l-5 -184h159q12 0 20.5 -9.5t8.5 -22.5q0 -9 -8 -16.5t-21 -8.5h-161l-4 -268l-1 -63q0 -54 12 -78.5t35 -24.5q18 0 72.5 33t64.5 26q3 -3 5 -12q0 -26 -43 -55.5t-104 -29.5l-14 1l-52 6q-44 5 -66 48
t-22 140v66v211h-142q-20 8 -20 31q0 17 20 26h142z" />
    <glyph glyph-name="u" unicode="u" horiz-adv-x="590" 
d="M387 55q-30 -26 -74 -40.5t-87 -14.5q-48 0 -88 16t-68 52q-21 30 -39.5 92t-18.5 155l-1 32v35q0 63 10.5 99.5t43.5 36.5q22 0 31 -23t9 -65l-1 -49v-18q0 -7 -1 -15.5t-1 -13.5q0 -101 38.5 -164.5t83.5 -78.5q49 -13 64 -13q41 0 66.5 31.5t25.5 109.5l-6 265
q6 22 20 34t46 12q31 0 47.5 -15.5t16.5 -34.5v-482l-119 2z" />
    <glyph glyph-name="v" unicode="v" horiz-adv-x="511" 
d="M11 442l-2 10l-1 11q0 20 10.5 37.5t27.5 22.5l24 4q16 0 33.5 -6.5t26.5 -18.5l142 -305l126 304q13 19 37 19q9 0 18.5 -3.5t15.5 -19.5l9 -31q-51 -78 -96 -192l-77 -200q-33 -88 -55 -88q-21 0 -57 81l-80 185q-43 104 -102 190z" />
    <glyph glyph-name="w" unicode="w" horiz-adv-x="866" 
d="M413 364q-28 -62 -73 -181l-60 -156q-18 -41 -37 -41q-21 0 -57 81l-79 184q-43 103 -103 191l-2 11l-1 11q0 25 13.5 40.5t26.5 18.5l21 4q16 0 33.5 -6.5t26.5 -18.5l143 -305l102 246l-2 20q0 27 12 42t26 18l22 4q16 0 33.5 -6.5t26.5 -18.5l143 -305l125 304
q16 19 38 19q9 0 18 -3.5t15 -19.5l9 -31q-49 -78 -95 -193l-77 -199q-33 -88 -55 -88q-19 0 -37 35l-66 152q-46 113 -90 191z" />
    <glyph glyph-name="x" unicode="x" horiz-adv-x="524" 
d="M172 249l-68 69t-49 54t-46 60l-4 15l-1 14q0 18 9 33t26 19l23 5q11 0 17 -1t17 -7q17 -6 23 -18l130 -156l139 155q15 21 37 21q9 0 17 -5q9 -3 12.5 -11.5t5.5 -21.5l-1 -8l-1 -6l-163 -180l161 -195l14 -25q5 -12 7 -29q0 -14 -14.5 -25.5t-35.5 -11.5
q-28 0 -52 20.5t-32.5 42t-38.5 54.5l-81 87l-105 -122q-42 -51 -51 -66l-11 -10q-4 -3 -15 -5q-11 0 -18.5 10.5t-9.5 19.5q0 8 5 23t45 67.5t109 133.5z" />
    <glyph glyph-name="y" unicode="y" horiz-adv-x="576" 
d="M389 43q-29 -26 -69 -39t-78 -13q-52 0 -97.5 19.5t-74.5 57.5q-21 30 -39.5 92t-18.5 155l-1 32v35q0 63 10.5 99.5t43.5 36.5q22 0 31 -23t9 -65l-1 -49v-18q0 -7 -1 -15.5t-1 -13.5q0 -101 39 -165t77 -76l49 -11q41 0 72.5 40.5t43.5 110.5l-9 251q6 22 20 34t46 12
q31 0 47.5 -15.5t16.5 -34.5v-482v-14q0 -70 -24.5 -136t-97.5 -78t-144 -12q-104 0 -169 22t-65 51q0 6 7.5 15.5t25.5 9.5q17 0 122.5 -35t140.5 -35q44 0 69 28t25 93l-1 57l-3 36z" />
    <glyph glyph-name="z" unicode="z" horiz-adv-x="541" 
d="M143 102l98 110l107 118l112 122l2 15q0 11 -3.5 19t-14.5 14l-37 11l-362 7q-14 6 -29 -8t-15 -28l-1 -13q0 -20 11 -26l24 -4l300 -14l-132 -147l-65 -76.5l-72.5 -88.5t-44.5 -63l-5 -21q0 -10 14 -21l19 -9q10 -4 20 -3l358 1q15 -5 37.5 6.5t23.5 21.5t1 18
q0 20 -16 28.5t-37 12.5z" />
    <glyph glyph-name="braceleft" unicode="{" horiz-adv-x="253" 
d="M159 246l4 -27q0 -12 -2 -25t-9 -41l-10 -67q0 -27 11 -45.5t33.5 -30t34.5 -18.5t22.5 -15.5t12.5 -17.5q0 -9 -19 -9q-43 0 -94.5 42.5t-51.5 122.5v44l1 39q0 45 -5 60q-3 18 -19 34l-18 28q-11 17 -50 30q37 19 49 34l16 27q17 19 23 37.5t8 29.5t2 27l-3 43l-4 49
q0 79 53 123.5t99 44.5q18 0 19 -11q0 -18 -48.5 -45.5t-65.5 -52.5t-17 -49q0 -21 15.5 -64.5t15.5 -57.5q0 -11 -3.5 -22t-10 -22.5t-17.5 -26.5l-39 -58l39 -55q19 -29 28 -55z" />
    <glyph glyph-name="bar" unicode="|" horiz-adv-x="184" 
d="M66 -132l-16 797l9 64q9 35 42 35q15 0 21.5 -26t6.5 -64l-4 -87l-3 -69q0 -43 3.5 -139.5t3.5 -147.5q0 -59 7.5 -158t7.5 -102q0 -42 2.5 -63t6.5 -35l-20 -47q-10 -23 -25 -23q-12 0 -24 21z" />
    <glyph glyph-name="braceright" unicode="}" horiz-adv-x="253" 
d="M67 469l-4 26q0 20 7.5 53.5t10.5 51.5t3 28q0 28 -10.5 46.5t-40.5 33t-48 27.5q-14 12 -16 21q0 9 18 9q44 0 95.5 -43.5t51.5 -122.5v-76q0 -49 3 -65t21 -36l25 -35q13 -12 43 -23q-38 -20 -48.5 -34t-16.5 -27q-17 -20 -26 -41q-6 -20 -6 -49l2 -51l3 -45
q0 -79 -52 -123.5t-99 -44.5q-18 0 -19 11q0 17 49 47q50 27 66 52t16 48q0 19 -15.5 63.5t-15.5 59.5q0 11 5.5 27t24.5 45l39 56l-39 57q-19 30 -27 54z" />
    <glyph glyph-name="asciitilde" unicode="~" horiz-adv-x="541" 
d="M399 565l-17 -1q-43 0 -86 38.5t-72 38.5q-12 0 -30 -5t-53 -25l-59 -32q-24 -12 -37 -12v18q16 24 55.5 61t62 48.5t42.5 11.5q28 0 70.5 -36.5t69.5 -36.5q21 0 48 15t50.5 24t34.5 9q15 0 16 -13q0 -20 -35 -60t-60 -43z" />
    <glyph glyph-name="dagger" unicode="&#x2020;" horiz-adv-x="429" 
d="M146 575l-20 70q-8 32 -8 48q0 26 15 38t53 12q24 0 37 -10t13 -39q0 -38 -25 -117l112 4l24 -6q13 -7 13 -26q0 -6 -7 -12.5t-28 -6.5l-31 2l-27 2l-29 -2l-30 -2l35 -363l-62 -100l-67 104l36 356l-127 -13l-18 13q-9 8 -9 17q0 7 8 14l16 12z" />
    <glyph glyph-name="degree" unicode="&#xb0;" horiz-adv-x="515" 
d="M181 719q22 14 52 14q51 0 70.5 -31.5t19.5 -57.5q0 -20 -11 -41.5t-34 -37.5q-23 -13 -47 -13q-49 0 -77 41q-16 29 -16 54q0 21 10 38.5t33 33.5zM197 626q18 -30 48 -30q10 0 20.5 6.5t10.5 24.5q0 17 -8 30q-6 15 -17 22l-19 11q-10 5 -18 5q-7 0 -19 -6
q-10 -7 -10 -25q0 -17 12 -38z" />
    <glyph glyph-name="cent" unicode="&#xa2;" horiz-adv-x="547" 
d="M225 87q-19 0 -32.5 3t-43 13.5t-61.5 34.5q-28 24 -45.5 65.5t-23.5 71.5t-6 64q0 88 42 161.5t85 85.5l55 14l18 4l-1 58l9 54q9 29 37 29q14 0 20 -29l4 -50l-1 -30v-28q27 -3 52 -15.5t44.5 -25t39 -28t29 -28t9.5 -24.5q0 -26 -38 -26q-21 0 -46 9.5t-53 31.5
l-41 26q0 -7 4 -82t4 -108q0 -55 3 -95.5t6 -69.5h9q25 0 63 7l56 7q19 0 30 -5q12 -3 21.5 -12.5t9.5 -15.5q0 -22 -44 -37t-73 -21.5t-65 -10.5l1 -57l4 -24l-18 -39q-9 -18 -23 -19q-12 0 -21 17l-17 36zM215 540q-37 -6 -56 -52q-17 -46 -17 -104q0 -51 11 -85.5
t28.5 -61t40.5 -44.5z" />
    <glyph glyph-name="sterling" unicode="&#xa3;" horiz-adv-x="639" 
d="M107 422q0 87 -24 163t-52 107t-30 39q0 14 26 26t58 12q106 0 139 -4q37 0 37 -13q0 -5 -80 -38l-24 -20q43 -27 55 -90.5t12 -175.5l122 4l19 -5.5t15.5 -6.5t6.5 -30q0 -12 -8 -17t-13 -6t-17 -1l-34 3l-30 3l-39 -2l-29 -2q-12 -96 -26 -146l-21.5 -77.5t-18.5 -60.5
l424 15q12 0 22 -16.5t10 -38.5q0 -23 -9.5 -39t-23.5 -21l-425 13v-11l-116 1l21 60q20 61 32 123.5t16 101t4 84.5l-88 -10l-19 17q-9 9 -10 22q0 12 10 21l16 13z" />
    <glyph glyph-name="bullet" unicode="&#x2022;" horiz-adv-x="475" 
d="M105 447q24 36 63 55.5t82 19.5q37 0 69.5 -14t57 -47t32.5 -59.5t8 -62.5q0 -52 -24.5 -92.5t-65 -61.5t-86.5 -21q-41 0 -79 18t-64 61.5t-26 98.5q0 54 33 105z" />
    <glyph glyph-name="registered" unicode="&#xae;" horiz-adv-x="883" 
d="M110 638q57 57 112 79.5t93 30.5t78 8q79 0 149.5 -28t128 -85t88.5 -131t31 -153t-28 -149t-84 -128t-113.5 -80.5t-95 -30.5t-77.5 -8q-79 0 -150 28t-129 85t-87.5 130t-29.5 153t29 151.5t85 127.5zM140 126q47 -49 112 -76t134 -27q64 0 127 24t111.5 72.5t75.5 112
t27 132.5q0 65 -24.5 127t-72 111.5t-111 76.5t-133.5 27q-65 0 -127 -24.5t-111 -72t-76.5 -112t-27.5 -133.5q0 -63 23.5 -125.5t72.5 -112.5zM284 592q18 6 43 9l42 3q27 0 47 -3.5t60 -14.5t72.5 -60.5t32.5 -105.5q0 -38 -14 -68.5t-35 -45.5l-25 -15l95 -158l-102 1
l-67 138l-45 -3l-44 -1l-36 2l-24 3l-5 -141h-78l-8 452q11 12 20 15l28 4q25 0 43 -11zM285 314q20 -5 58 -5q60 0 96.5 20.5t48.5 47.5q5 14 7.5 22.5t3.5 19.5q0 51 -34 104.5t-94 53.5q-21 0 -37 -3.5t-38 -17.5l-5 -2z" />
    <glyph glyph-name="copyright" unicode="&#xa9;" horiz-adv-x="877" 
d="M110 638q57 57 112 79.5t93 30.5t78 8q79 0 149.5 -28t128 -85t88.5 -131t31 -153t-28 -149t-84 -128t-113.5 -80.5t-95 -30.5t-77.5 -8q-79 0 -150 28t-129 85t-87.5 130t-29.5 153t29 151.5t85 127.5zM140 126q47 -49 112 -76t134 -27q64 0 127 24t111.5 72.5t75.5 112
t27 132.5q0 65 -24.5 127t-72 111.5t-111 76.5t-133.5 27q-65 0 -127 -24.5t-111 -72t-76.5 -112t-27.5 -133.5q0 -63 23.5 -125.5t72.5 -112.5zM244 153q-42 33 -66 88q-22 57 -22 116q0 86 42 155.5t102 85.5t85 16q40 0 120 -38t80 -56q0 -16 -30 -16q-20 0 -46 9
t-62.5 34t-68.5 25q-54 0 -80.5 -66t-26.5 -140q0 -32 12 -75t54 -75t103 -32q44 0 75 7l67 17q17 0 28.5 -11t11.5 -17q0 -23 -69.5 -45.5t-128.5 -22.5q-50 0 -104 12t-76 29z" />
    <glyph glyph-name="trademark" unicode="&#x2122;" horiz-adv-x="571" 
d="M271 751l93 -101l77 111l11 1h14q14 -3 16 -15l2 -17v-100q-3 -11 -3 -33l3 -71l3 -56l-3 -7q-9 -3 -15 -3q-14 0 -18 2l-10 7l4 116l4 116l-1 24l-48 -68q-43 -63 -50 -64q-6 5 -11.5 11.5t-21.5 27.5l-46 59l-4 -229h-40l-9 284q0 18 27 18q20 0 26 -13zM130 722
l-4 -257h-47l-10 257l-79 -1l10 33l194 11q6 0 12 -6t7 -14q0 -19 -12 -22z" />
    <glyph glyph-name="acute" unicode="&#xb4;" horiz-adv-x="530" 
d="M168 545l68 157q5 18 25.5 33t44.5 15q14 0 31 -8q18 -6 18 -28q0 -11 -7 -28l-15 -38l-91 -121z" />
    <glyph glyph-name="dieresis" unicode="&#xa8;" horiz-adv-x="702" 
d="M91 623q9 14 26 21t33 7q31 0 49 -21.5t18 -46.5q0 -17 -14.5 -41.5t-56.5 -24.5q-37 0 -52.5 21.5t-15.5 46.5q0 21 13 38zM325 623q9 14 26 21t33 7q30 0 48 -21.5t18 -46.5q0 -18 -9.5 -33.5t-22.5 -22t-20 -8.5t-18 -2q-37 0 -52.5 21.5t-15.5 46.5q0 21 13 38z" />
    <glyph glyph-name="ellipsis" unicode="&#x2026;" 
d="M40 90q9 14 25 21.5t35 7.5q34 0 51 -22.5t17 -46.5q0 -17 -14.5 -42.5t-56.5 -25.5q-39 0 -54.5 22.5t-15.5 46.5q0 22 13 39zM240 90q9 14 25 21.5t35 7.5q34 0 51 -22.5t17 -46.5q0 -17 -14.5 -42.5t-56.5 -25.5q-39 0 -54.5 22.5t-15.5 46.5q0 22 13 39zM440 90
q9 14 25 21.5t35 7.5q34 0 51 -22.5t17 -46.5q0 -17 -14.5 -42.5t-56.5 -25.5q-39 0 -54.5 22.5t-15.5 46.5q0 22 13 39z" />
    <glyph glyph-name="nonbreakingspace" unicode="&#xa0;" horiz-adv-x="1462" 
 />
    <glyph glyph-name="endash" unicode="&#x2013;" horiz-adv-x="566" 
d="M41 411l413 16l34 -9q18 -9 18 -40q0 -14 -12 -22q-13 -5 -35 -5h-17q-7 0 -15 1t-13 1l-36 4q-95 0 -164 -8l-99.5 -11.5t-70.5 -10.5l-24 20q-12 11 -12 24q0 12 10 22z" />
    <glyph glyph-name="emdash" unicode="&#x2014;" horiz-adv-x="919" 
d="M68 411l737 16l59 -9q32 -9 32 -38q0 -15 -17.5 -19.5t-28.5 -5.5t-38 -1l-76 3l-67 3q-61 0 -153.5 -3t-93.5 -3q-38 0 -118 -6.5t-95 -6.5l-137 -10l-40 15q-25 11 -24 27q0 12 20 21z" />
    <glyph glyph-name="quotedblleft" unicode="&#x201c;" horiz-adv-x="333" 
d="M87 675l20 -10q10 -4 16 -13l8 -19l3 -21q0 -22 -17 -45q-15 -23 -54 -23q-32 0 -48 18t-16 47q0 17 9 53t56 76t72 40q9 0 9 -8l-5.5 -14.5t-27.5 -28t-25 -52.5zM244 675l20 -10q10 -4 16 -13l8 -19l3 -21q0 -22 -17 -45q-15 -23 -54 -23q-32 0 -48 18t-16 47
q0 17 9 53t56 76t72 40q9 0 9 -8l-5.5 -14.5t-27.5 -28t-25 -52.5z" />
    <glyph glyph-name="quotedblright" unicode="&#x201d;" horiz-adv-x="343" 
d="M58 616l-22 12l-14 10q-11 19 -11 42q0 22 10 36t28 24q10 4 17.5 5.5t17.5 1.5q32 0 47 -18t15 -47q0 -17 -8 -52t-56 -76t-72 -41q-9 0 -10 8l4 12q4 9 29 31.5t25 51.5zM213 614l-22 12l-14 10q-11 19 -11 42q0 22 10 36t28 24q10 4 17.5 5.5t17.5 1.5q32 0 47 -18
t15 -47q0 -17 -9 -53t-56.5 -75.5t-71.5 -39.5q-9 0 -9 8l4 12q5 10 29.5 31.5t24.5 50.5z" />
    <glyph glyph-name="quoteleft" unicode="&#x2018;" horiz-adv-x="157" 
d="M87 675l20 -10q10 -4 16 -13l8 -19l3 -21q0 -22 -17 -45q-15 -23 -54 -23q-32 0 -48 18t-16 47q0 17 9 53t56 76t72 40q9 0 9 -8l-5.5 -14.5t-27.5 -28t-25 -52.5z" />
    <glyph glyph-name="quoteright" unicode="&#x2019;" horiz-adv-x="163" 
d="M58 616l-22 12l-14 10q-11 19 -11 42q0 22 10 36t28 24q10 4 17.5 5.5t17.5 1.5q32 0 47 -18t15 -47q0 -17 -8 -52t-56 -76t-72 -41q-9 0 -10 8l4 12q4 9 29 31.5t25 51.5z" />
  </font>
</defs>
</svg>
