<?xml version="1.0" standalone="no"?>
<!DOCTYPE svg PUBLIC "-//W3C//DTD SVG 1.1//EN" "http://www.w3.org/Graphics/SVG/1.1/DTD/svg11.dtd" >
<svg xmlns="http://www.w3.org/2000/svg">
<metadata></metadata>
<defs>
<font id="untitledregular" horiz-adv-x="1024" >
<font-face units-per-em="2048" ascent="1638" descent="-410" />
<missing-glyph horiz-adv-x="512" />
<glyph horiz-adv-x="0" />
<glyph unicode="&#xd;" horiz-adv-x="512" />
<glyph unicode=" "  horiz-adv-x="512" />
<glyph unicode="&#x09;" horiz-adv-x="512" />
<glyph unicode="&#xa0;" horiz-adv-x="512" />
<glyph unicode="$" d="M566 835q239 -151 305 -228q88 -104 88 -245q0 -154 -104 -260.5t-289 -122.5v-117h-87v110q-106 2 -188 17.5t-188 56.5v323h42q20 -110 63 -178t108.5 -102.5t162.5 -42.5v494q-241 151 -320.5 241.5t-79.5 210.5q0 130 100 229.5t300 124.5v47h87v-47 q170 -12 342 -105v-289h-39q-29 98 -69.5 161t-104.5 108q-49 33 -129 55v-441zM479 1279q-73 -6 -117 -40q-70 -53 -70 -128q0 -46 32.5 -93t154.5 -128v389zM566 46q86 20 126 68.5t40 121.5q0 63 -35.5 118t-130.5 125v-433z" />
<glyph unicode="," horiz-adv-x="512" d="M102 -359v44q116 50 168.5 129.5t52.5 162.5q0 17 -7 26q-7 8 -14 8q-6 0 -18 -7q-29 -17 -72 -17q-59 0 -102.5 46t-43.5 108q0 66 50 116t121 50q86 0 147 -66.5t61 -182.5q0 -143 -86.5 -254t-256.5 -163z" />
<glyph unicode="." horiz-adv-x="512" d="M256 308q70 0 118.5 -49t48.5 -118t-49 -117.5t-118 -48.5t-117.5 48.5t-48.5 117.5t48.5 118t117.5 49z" />
<glyph unicode="/" horiz-adv-x="569" d="M575 1387l-445 -1418h-128l447 1418h126z" />
<glyph unicode="0" d="M949 678q0 -203 -57 -379q-34 -108 -91.5 -177t-130.5 -109.5t-159 -40.5q-98 0 -177 50t-140 143q-44 68 -77 181q-43 153 -43 316q0 221 62 406q51 153 155 234.5t220 81.5q118 0 220.5 -80.5t150.5 -216.5q67 -187 67 -409zM641 680q0 356 -4 415q-10 139 -48 188 q-25 32 -81 32q-43 0 -68 -24q-37 -35 -50 -123.5t-13 -617.5q0 -288 20 -386q15 -71 43 -95t74 -24q50 0 75 32q42 56 48 173z" />
<glyph unicode="1" d="M667 1384v-1109q0 -125 11 -159.5t46 -56.5t112 -22h31v-37h-714v37h36q87 0 124 20t50 55t13 163v703q0 94 -9 117.5t-33.5 40t-56.5 16.5q-51 0 -124 -32l-18 36l499 228h33z" />
<glyph unicode="2" d="M848 0h-798v22q367 437 445.5 588t78.5 295q0 105 -65 174.5t-159 69.5q-154 0 -239 -154l-37 13q54 192 164 284t254 92q103 0 188 -48t133 -131.5t48 -156.5q0 -133 -74 -270q-101 -185 -441 -516h293q108 0 140.5 9t53.5 30.5t55 90.5h36z" />
<glyph unicode="3" d="M303 680v35q114 33 158 61.5t76 87t32 118.5q0 83 -60.5 142.5t-150.5 59.5q-140 0 -238 -148l-37 13q72 167 184.5 251t250.5 84q141 0 232.5 -86t91.5 -201q0 -75 -42.5 -144.5t-133.5 -122.5q117 -57 178.5 -140.5t61.5 -209.5q0 -212 -153.5 -360.5t-411.5 -148.5 q-172 0 -251 57q-57 40 -57 103q0 46 33 78.5t76 32.5q33 0 62 -14q16 -8 113.5 -87.5t182.5 -79.5q74 0 127 58.5t53 148.5q0 137 -96 252.5t-281 159.5z" />
<glyph unicode="4" d="M51 511l644 873h122v-873h124v-207h-124v-304h-275v304h-491v207zM148 511h394v535z" />
<glyph unicode="5" d="M312 1356h635l-101 -258h-534l-51 -135q345 -13 531 -172q153 -131 153 -326q0 -125 -71 -244.5t-200 -184t-283 -64.5q-166 0 -255 62q-62 44 -62 100q0 43 32.5 76t75.5 33q39 0 79 -16t137 -84q61 -42 105 -58q31 -12 70 -12q82 0 139.5 60t57.5 144q0 176 -176 286 t-444 110q-27 0 -81 -1z" />
<glyph unicode="6" d="M962 1384v-28q-181 -46 -290.5 -118.5t-173 -176t-98.5 -256.5q44 30 73 39q65 20 131 20q152 0 253.5 -110.5t101.5 -301.5q0 -134 -55 -246t-156 -173t-216 -61q-125 0 -231 68.5t-165.5 200.5t-59.5 287q0 228 109.5 424.5t311 313t465.5 118.5zM387 724 q-8 -138 -8 -202q0 -138 26.5 -267t72.5 -181q33 -37 78 -37q46 0 82 53.5t36 217.5q0 276 -67 381q-43 68 -116 68q-40 0 -104 -33z" />
<glyph unicode="7" d="M363 -28l369 1119h-281q-165 0 -248 -43q-58 -30 -96 -113h-38l98 421h808l-455 -1384h-157z" />
<glyph unicode="8" d="M698 766q143 -105 198.5 -195.5t55.5 -207.5q0 -164 -123.5 -277.5t-335.5 -113.5q-201 0 -311 99t-110 242q0 109 63.5 191t211.5 150q-161 123 -206.5 201t-45.5 181q0 136 115.5 239.5t316.5 103.5q194 0 298.5 -91.5t104.5 -219.5q0 -96 -56.5 -169.5t-175.5 -132.5z M622 817q37 50 55 112t18 136q0 130 -56 199q-42 53 -116 53q-67 0 -114 -48.5t-47 -120.5q0 -73 52.5 -151.5t207.5 -179.5zM422 606q-31 -28 -44 -51q-20 -35 -36 -102t-16 -140q0 -94 24 -157.5t68.5 -91.5t91.5 -28q73 0 123 53.5t50 146.5q0 194 -261 370z" />
<glyph unicode="9" d="M63 -28v28q166 38 281.5 112t183 183t94.5 251q-62 -32 -105.5 -44.5t-91.5 -12.5q-154 0 -256.5 111t-102.5 304q0 134 55.5 245.5t158.5 173t214 61.5q119 0 225 -68t169 -197t63 -294q0 -214 -102.5 -410t-305.5 -314.5t-480 -128.5zM637 630q10 112 10 197 q0 182 -42 339q-24 87 -71 128q-25 22 -65 22q-50 0 -78 -43q-39 -59 -39 -225q0 -277 66 -382q43 -68 116 -68q39 0 103 32z" />
<glyph unicode="F" horiz-adv-x="1251" d="M563 1278v-557h39q90 0 147 27t96.5 91t51.5 173h35v-681h-35q-19 193 -103.5 254.5t-191.5 61.5h-39v-415q0 -104 11.5 -130t45 -45.5t90.5 -19.5h45v-37h-709v37h45q59 0 95 21q26 14 40 48q11 24 11 126v892q0 104 -11 130t-44.5 45.5t-90.5 19.5h-45v37h1144v-389 h-41q-14 137 -71.5 203t-166.5 93q-60 15 -222 15h-126z" />
<glyph unicode="H" horiz-adv-x="1593" d="M560 652v-420q0 -104 11.5 -130t45 -45.5t90.5 -19.5h45v-37h-709v37h45q59 0 95 21q26 14 40 48q11 24 11 126v892q0 104 -11 130t-44.5 45.5t-90.5 19.5h-45v37h709v-37h-45q-59 0 -95 -21q-26 -14 -41 -48q-11 -24 -11 -126v-384h479v384q0 104 -11 130t-45 45.5 t-91 19.5h-44v37h708v-37h-44q-60 0 -95 -21q-26 -14 -41 -48q-11 -24 -11 -126v-892q0 -104 11 -130t45 -45.5t91 -19.5h44v-37h-708v37h44q60 0 95 21q26 14 41 48q11 24 11 126v420h-479z" />
<glyph unicode="K" horiz-adv-x="1593" d="M853 837l477 -597q101 -126 174 -171q53 -32 112 -32v-37h-706v37q67 6 86.5 21t19.5 37q0 42 -92 158l-311 391l-50 -42v-370q0 -106 12 -132t46 -44.5t109 -18.5v-37h-684v37h45q59 0 95 21q26 14 40 48q11 24 11 126v892q0 104 -11 130t-44.5 45.5t-90.5 19.5h-45v37 h675v-37q-69 0 -105 -20q-26 -14 -41 -47q-12 -25 -12 -128v-422l503 407q105 85 105 136q0 38 -43 60q-22 11 -109 14v37h529v-37q-71 -5 -111.5 -25.5t-186.5 -138.5z" />
<glyph unicode="M" horiz-adv-x="1933" d="M976 462l368 894h552v-37h-44q-60 0 -96 -21q-25 -14 -40 -47q-11 -24 -11 -125v-894q0 -104 11 -130t45 -45.5t91 -19.5h44v-37h-708v37h44q60 0 96 21q25 14 40 48q11 24 11 126v1005l-520 -1237h-24l-528 1228v-955q0 -100 5 -123q13 -50 56.5 -81.5t136.5 -31.5v-37 h-464v37h14q45 -1 84 14.5t59 41.5t31 73q2 11 2 102v858q0 103 -11 128.5t-45 45t-91 19.5h-43v37h554z" />
<glyph unicode="N" horiz-adv-x="1479" d="M510 1356l669 -841v583q0 122 -35 165q-48 58 -161 56v37h448v-37q-86 -11 -115.5 -28.5t-46 -57t-16.5 -135.5v-1129h-34l-917 1129v-862q0 -117 53.5 -158t122.5 -41h32v-37h-481v37q112 1 156 46t44 153v957l-29 36q-43 54 -76 71t-95 19v37h481z" />
<glyph unicode="R" horiz-adv-x="1479" d="M544 618v-380q0 -110 13.5 -138.5t47.5 -45.5t127 -17v-37h-694v37q94 0 127.5 17.5t47 45.5t13.5 138v880q0 110 -13.5 138.5t-47.5 45.5t-127 17v37h630q246 0 360 -34t186 -125.5t72 -214.5q0 -150 -108 -248q-69 -62 -193 -93l326 -459q64 -89 91 -111q41 -31 95 -34 v-37h-427l-437 618h-89zM544 1283v-594h57q139 0 208 25.5t108.5 92t39.5 173.5q0 155 -72.5 229t-233.5 74h-107z" />
<glyph unicode="S" horiz-adv-x="1139" d="M962 1387l11 -452h-41q-29 170 -142.5 273.5t-245.5 103.5q-102 0 -161.5 -54.5t-59.5 -125.5q0 -45 21 -80q29 -47 93 -93q47 -33 217 -117q238 -117 321 -221q82 -104 82 -238q0 -170 -132.5 -292.5t-336.5 -122.5q-64 0 -121 13t-143 49q-48 20 -79 20q-26 0 -55 -20 t-47 -61h-37v512h37q44 -216 169.5 -329.5t270.5 -113.5q112 0 178.5 61t66.5 142q0 48 -25.5 93t-77.5 85.5t-184 105.5q-185 91 -266 155t-124.5 143t-43.5 174q0 162 119 276t300 114q66 0 128 -16q47 -12 114.5 -44.5t94.5 -32.5q26 0 41 16t28 77h30z" />
<glyph unicode="T" horiz-adv-x="1366" d="M1292 1356v-367h-36q-32 127 -71 182.5t-107 88.5q-38 18 -133 18h-101v-1046q0 -104 11.5 -130t45 -45.5t91.5 -19.5h45v-37h-710v37h45q59 0 95 21q26 14 41 48q11 24 11 126v1046h-98q-137 0 -199 -58q-87 -81 -110 -231h-38v367h1218z" />
<glyph unicode="c" horiz-adv-x="909" d="M832 241l31 -24q-66 -124 -164.5 -184.5t-209.5 -60.5q-187 0 -299 141t-112 339q0 191 102 336q123 175 339 175q145 0 230.5 -73t85.5 -163q0 -57 -34.5 -91t-90.5 -34q-59 0 -97.5 39t-47.5 139q-6 63 -29 88t-54 25q-48 0 -82 -51q-52 -77 -52 -236q0 -132 42 -252.5 t115 -179.5q55 -43 130 -43q49 0 93 23t104 87z" />
<glyph unicode="k" horiz-adv-x="1139" d="M449 1356v-892l217 213q67 65 83.5 94t16.5 56t-22 45t-86 26v37h419v-37q-60 -3 -105 -28.5t-176 -153.5l-102 -100l220 -322q133 -196 158 -220q34 -34 86 -38v-36h-483v36q32 0 46.5 12t14.5 26q0 23 -42 85l-185 271l-60 -59v-168q0 -107 20 -133.5t82 -33.5v-36 h-483v36q59 6 84 38q17 22 17 129v950q0 106 -19.5 132t-81.5 34v37h381z" />
<glyph unicode="o" d="M510 963q122 0 227 -63t159.5 -179t54.5 -254q0 -199 -101 -333q-122 -162 -337 -162q-211 0 -325 148t-114 343q0 201 116.5 350.5t319.5 149.5zM514 892q-51 0 -87.5 -38.5t-48 -152t-11.5 -315.5q0 -107 14 -200q11 -71 47 -108t82 -37q45 0 75 25q39 34 52 95 q20 95 20 384q0 170 -19 233.5t-56 92.5q-26 21 -68 21z" />
<glyph unicode="p" horiz-adv-x="1139" d="M431 95v-348q0 -72 11.5 -98t35.5 -38t94 -12v-37h-533v37q62 2 92 35q20 23 20 119v987q0 99 -23 126.5t-89 31.5v37h392v-123q49 72 100 104q73 47 159 47q103 0 187.5 -65t128.5 -179.5t44 -246.5q0 -142 -45.5 -259.5t-132 -179t-192.5 -61.5q-77 0 -144 34 q-50 26 -105 89zM431 196q86 -122 184 -122q54 0 89 57q52 84 52 320q0 242 -57 331q-38 59 -102 59q-101 0 -166 -146v-499z" />
<glyph unicode="r" horiz-adv-x="909" d="M457 935v-212q93 145 163 192.5t135 47.5q56 0 89.5 -34.5t33.5 -97.5q0 -67 -32.5 -104t-78.5 -37q-53 0 -92 34t-46 38q-10 6 -23 6q-29 0 -55 -22q-41 -34 -62 -97q-32 -97 -32 -214v-215l1 -56q0 -57 7 -73q12 -27 35.5 -39.5t79.5 -15.5v-36h-505v36q61 5 82.5 33.5 t21.5 150.5v517q0 80 -8 102q-10 28 -29 41t-67 18v37h382z" />
<glyph unicode="t" horiz-adv-x="682" d="M440 1277v-342h222v-99h-222v-577q0 -81 7.5 -104.5t26.5 -38t35 -14.5q65 0 123 99l30 -22q-81 -192 -263 -192q-89 0 -150.5 49.5t-78.5 110.5q-10 34 -10 184v505h-122v35q126 89 214.5 187t154.5 219h33z" />
<glyph unicode="x" d="M622 573l162 -308q84 -161 133 -204q27 -23 74 -25v-36h-521v36q61 5 75.5 16t14.5 30q0 28 -32 88l-81 152l-69 -101q-47 -69 -53 -82q-8 -19 -8 -34q0 -23 9.5 -38.5t26 -23t60.5 -7.5v-36h-366v36q68 0 124.5 37.5t164.5 196.5l77 114l-161 298q-79 146 -118 179 t-87 37v37h518v-37l-27 -1l-52 -18q-8 -7 -8 -23q0 -15 5 -31q3 -7 28 -54l73 -136l38 54q80 110 80 154q0 21 -17.5 35.5t-62.5 19.5v37h331v-37q-61 -2 -114 -37.5t-119 -137.5z" />
<glyph unicode="z" horiz-adv-x="909" d="M835 0h-814v22l514 852h-150q-97 0 -139 -17.5t-68 -56t-54 -137.5h-35v272h787v-27l-510 -844h64q192 0 277 55t128 201h28z" />
<glyph unicode="&#xa3;" d="M534 783h219v-152h-206q2 -51 2 -77q0 -146 -49 -294q53 -12 107.5 -18t110.5 -6q106 0 163 33q40 23 60 76h41q0 -177 -88.5 -275t-219.5 -98q-62 0 -116 23.5t-137 92.5q-43 -58 -84 -83q-56 -33 -120 -33q-80 0 -131 50t-51 116q0 72 56 125.5t155 53.5q22 0 47 -4 t53 -13q-5 62 -16 106l-71 225h-217v152h185q-15 111 -15 171q0 162 93 287q112 151 290 151q130 0 217.5 -77.5t87.5 -169.5q0 -62 -36.5 -100t-94.5 -38q-61 0 -97.5 38t-36.5 100q0 10 2 51q1 19 1 34q0 49 -21 72q-22 23 -60 23q-35 0 -59 -29t-24 -91q0 -73 26 -207 t34 -215zM333 163q-40 29 -65 38.5t-54 9.5q-47 0 -73 -23.5t-26 -56.5q0 -31 25 -54t61 -23q38 0 73 25.5t59 83.5z" />
<glyph unicode="&#xa5;" d="M701 617h321v-76h-348l-13 -40v-136h361v-76h-361v-44q0 -91 8 -118q14 -44 46 -67t108 -23h36v-37h-710v37h34q83 0 120.5 20t51 52.5t13.5 139.5v40h-368v76h368v136l-14 40h-354v76h327l-183 509q-44 121 -80 159q-22 23 -64 27v44h493v-44q-61 -1 -80 -15t-19 -31 q0 -21 29 -101l199 -548l164 475q39 115 39 162q0 29 -17 42.5t-79 15.5v44h293v-44q-46 -13 -77.5 -48t-71.5 -150z" />
<glyph unicode="&#x10d;" horiz-adv-x="909" d="M832 241l31 -24q-66 -124 -164.5 -184.5t-209.5 -60.5q-187 0 -299 141t-112 339q0 191 102 336q123 175 339 175q145 0 230.5 -73t85.5 -163q0 -57 -34.5 -91t-90.5 -34q-59 0 -97.5 39t-47.5 139q-6 63 -29 88t-54 25q-48 0 -82 -51q-52 -77 -52 -236q0 -132 42 -252.5 t115 -179.5q55 -43 130 -43q49 0 93 23t104 87zM400 1045l-202 382h76l239 -206l245 200h82l-214 -376h-226z" />
<glyph unicode="&#x142;" horiz-adv-x="569" d="M431 1356v-520l111 90v-84l-111 -90v-552q0 -105 23 -132.5t88 -31.5v-36h-498v36q62 0 89 32q20 24 20 132v330l-115 -93v84l115 93v538q0 101 -23 128.5t-86 29.5v46h387z" />
<glyph unicode="&#x2c7;" horiz-adv-x="682" d="M223 1045l-202 382h76l239 -206l245 200h82l-214 -376h-226z" />
<glyph unicode="&#x440;" horiz-adv-x="1139" d="M431 95v-348q0 -72 11.5 -98t35.5 -38t94 -12v-37h-533v37q62 2 92 35q20 23 20 119v987q0 99 -23 126.5t-89 31.5v37h392v-123q49 72 100 104q73 47 159 47q103 0 187.5 -65t128.5 -179.5t44 -246.5q0 -142 -45.5 -259.5t-132 -179t-192.5 -61.5q-77 0 -144 34 q-50 26 -105 89zM431 196q86 -122 184 -122q54 0 89 57q52 84 52 320q0 242 -57 331q-38 59 -102 59q-101 0 -166 -146v-499z" />
<glyph unicode="&#x2000;" horiz-adv-x="740" />
<glyph unicode="&#x2001;" horiz-adv-x="1481" />
<glyph unicode="&#x2002;" horiz-adv-x="740" />
<glyph unicode="&#x2003;" horiz-adv-x="1481" />
<glyph unicode="&#x2004;" horiz-adv-x="493" />
<glyph unicode="&#x2005;" horiz-adv-x="370" />
<glyph unicode="&#x2006;" horiz-adv-x="246" />
<glyph unicode="&#x2007;" horiz-adv-x="246" />
<glyph unicode="&#x2008;" horiz-adv-x="185" />
<glyph unicode="&#x2009;" horiz-adv-x="296" />
<glyph unicode="&#x200a;" horiz-adv-x="82" />
<glyph unicode="&#x202f;" horiz-adv-x="296" />
<glyph unicode="&#x205f;" horiz-adv-x="370" />
<glyph unicode="&#x20a1;" horiz-adv-x="1479" d="M1367 917h-39q-43 182 -162 280l-355 -1129q40 -5 74 -5q142 0 258 69q95 57 201 180v-117q-217 -226 -526 -226q-7 0 -38 1l-32 -103h-126l36 115q-68 11 -134 34l-46 -149h-126l62 199q-156 87 -246 248q-87 157 -87 339q0 196 102.5 369.5t275 269.5t364.5 95h6l30 94 h126l-33 -106q67 -12 133 -35l44 141h126l-57 -182q32 -10 44 -10q73 0 86 98h39v-470zM1060 1263q-64 28 -133 33l-349 -1108q52 -58 117 -88zM798 1286q-74 -17 -139 -62q-106 -73 -155 -191q-63 -151 -63 -336q0 -181 46 -331q4 -12 11 -34z" />
<glyph unicode="&#x20ac;" d="M850 737h-465q-3 -42 -3 -83h446l-23 -78h-421q18 -510 255 -510q114 0 190 73q39 37 116 161l46 -35q-80 -142 -140 -196q-106 -97 -272 -97q-237 0 -371 193q-111 160 -130 411h-101l23 78h74v16q0 30 2 67h-99l23 78h84q34 231 178 391q162 178 393 178q109 0 191 -30 q24 -9 119 -58v-299h-39q-11 140 -77 222.5t-174 82.5q-125 0 -202 -159q-61 -127 -82 -328h482z" />
<glyph unicode="&#x25fc;" horiz-adv-x="935" d="M0 935h935v-935h-935v935z" />
</font>
</defs>
</svg>
