<?xml version="1.0" standalone="no"?>
<!DOCTYPE svg PUBLIC "-//W3C//DTD SVG 1.1//EN" "http://www.w3.org/Graphics/SVG/1.1/DTD/svg11.dtd" >
<svg>
<metadata>
Created by FontForge 20090914 at Mon Oct  8 17:16:34 2012
 By www-data
Digitized data copyright The Monotype Corporation 1991-1995. All rights reserved. Arial&#194;&#174; is a trademark of The Monotype Corporation which may be registered in certain jurisdictions.
</metadata>
<defs>
<font id="ArialBlack" horiz-adv-x="1366" >
  <font-face 
    font-family="Arial Black"
    font-weight="400"
    font-stretch="normal"
    units-per-em="2048"
    panose-1="2 11 10 4 2 1 2 2 2 4"
    ascent="1638"
    descent="-410"
    x-height="1062"
    cap-height="1466"
    bbox="-397 -628 3456 2254"
    underline-thickness="123"
    underline-position="-195"
    unicode-range="U+0020-U+F108"
  />
<missing-glyph horiz-adv-x="1024" 
d="M128 0v2254h768v-2254h-768zM256 128h512v1998h-512v-1998z" />
    <glyph glyph-name=".notdef" horiz-adv-x="1024" 
d="M128 0v2254h768v-2254h-768zM256 128h512v1998h-512v-1998z" />
    <glyph glyph-name="space" unicode=" " horiz-adv-x="683" 
 />
    <glyph glyph-name="exclam" unicode="!" horiz-adv-x="682" 
d="M124 1466h435v-334l-84 -671h-269l-82 671v334zM139 359h406v-359h-406v359z" />
    <glyph glyph-name="quotedbl" unicode="&#x22;" horiz-adv-x="1024" 
d="M48 1466h406v-242l-64 -297h-276l-66 297v242zM569 1466h406v-242l-64 -297h-276l-66 297v242z" />
    <glyph glyph-name="numbersign" unicode="#" horiz-adv-x="1352" 
d="M253 604l52 253h-245v276h300l71 358h285l-73 -358h219l72 358h284l-70 -358h137v-276h-193l-51 -253h244v-276h-299l-71 -352h-285l70 352h-218l-72 -352h-283l73 352h-140v276h193zM537 604h219l52 253h-218z" />
    <glyph glyph-name="dollar" unicode="$" 
d="M1250 1121l-371.999 -59.002c-17.333 44 -32.666 74.667 -45.999 92c-16.667 22 -43 42.667 -79 62v-289c203.333 -54 338.666 -111 405.999 -171c90 -80 135 -182.333 135 -307c0 -142 -57.333 -259.333 -172 -352c-92.667 -74.667 -215.667 -115 -369 -121v-189h-146
v189c-177.333 16 -309.333 63.667 -396 143c-82 74.667 -134.333 175.334 -157 302.001l404 47c11.333 -60.667 25.666 -105 42.999 -133c20.667 -34.667 56 -64 106 -88v353c-122.667 34 -202.667 59.333 -240 76c-84 36.667 -148.333 87.667 -193 153
c-41.333 60 -62 133.333 -62 220c0 136.667 50 243 150 319c87.333 66.667 202.333 103.667 345 111v99h146v-99c281.333 -17.333 447 -136.666 497 -357.999zM607.001 1221c-76 -24.667 -114 -66.332 -114 -124.999c0 -60.667 38 -104.334 114 -131.001v256zM753.001 237
c109.333 24.667 164 78 164 160c0 68.667 -54.667 122 -164 160v-320z" />
    <glyph glyph-name="percent" unicode="%" horiz-adv-x="2048" 
d="M1344 1491h211l-847 -1566h-209zM99 1106c0 158.667 60.333 270.667 181 336c60.667 32.667 132.667 49 216 49c120 0 216 -34.333 288 -103s108 -162.667 108 -282c0 -120 -35.833 -214.333 -107.5 -283s-167.834 -103 -288.501 -103
c-173.333 0 -290.666 63.667 -351.999 191c-30 61.333 -45 126.333 -45 195zM380 1104c0 -144.667 38.667 -217 116 -217c32.667 0 57.667 12.333 75 37c26.667 38 40 98 40 180s-13.333 142 -40 180c-16.667 24 -41.667 36 -75 36c-77.333 0 -116 -72 -116 -216zM1156 313
c0 158.667 59.999 270.666 179.999 335.999c61.333 33.333 133.333 50 216 50c120.667 0 217 -34.333 289 -103s108 -163 108 -283s-36 -214.333 -108 -283s-168.333 -103 -289 -103c-173.333 0 -290.666 64 -351.999 192c-29.333 60.667 -44 125.334 -44 194.001z
M1437 310.999c0 -82 13.333 -142 40 -180c16.667 -24 41.667 -36 75 -36c77.333 0 116 72 116 216c0 144.667 -38.667 217 -116 217c-32.667 0 -57.667 -12.333 -75 -37c-26.667 -38 -40 -98 -40 -180z" />
    <glyph glyph-name="ampersand" unicode="&#x26;" horiz-adv-x="1821" 
d="M1307 713l318 -71.001c-26.667 -94 -64.334 -182.667 -113.001 -266l153 -105c12 -8 36 -22.333 72 -43l-219 -252l-240 146c-70.667 -46.667 -141.334 -80.667 -212.001 -102c-97.333 -29.333 -208.666 -44 -333.999 -44c-156 0 -285.667 30 -389 90
c-126.667 73.333 -190 182.666 -190 327.999c0 186.667 119.667 328.334 359 425.001c-93.333 113.333 -140 218 -140 314c0 125.333 51 219 153 281c84.667 51.333 193.667 77 327 77c126.667 0 232.334 -22.333 317.001 -67c108 -56.667 162 -143 162 -259
c0 -101.333 -40.333 -186.666 -121 -255.999c-33.333 -28.667 -93 -71.334 -179 -128.001c71.333 -71.333 145.666 -137.666 222.999 -198.999c20.667 41.333 38.334 85 53.001 131zM839 969.999c110 60 165 123.001 165 189.001c0 36 -14 64 -42 84
c-24.667 18.667 -55.667 28 -93 28s-69.333 -10.667 -96 -32c-29.333 -22.667 -44 -52.334 -44 -89.001c0 -41.333 36.667 -101.333 110 -180zM694 614c-92.667 -65.333 -139.001 -128.667 -139.001 -190c0 -56.667 24.333 -102.667 73 -138c44 -32.667 95.333 -49 154 -49
c72.667 0 154.334 28.333 245.001 85c-86.667 66.667 -197.667 164 -333 292z" />
    <glyph glyph-name="quotesingle" unicode="'" horiz-adv-x="569" 
d="M85 1466h406v-242l-64 -297h-276l-66 297v242z" />
    <glyph glyph-name="parenleft" unicode="(" horiz-adv-x="797" 
d="M463 1491l253.999 0.00195312c-87.333 -194 -150.333 -372.667 -189 -536c-32.667 -138.667 -49 -287.334 -49 -446.001c0 -304.667 79.333 -618 238 -940h-254c-117.333 166 -202.666 317.333 -255.999 454c-63.333 162 -95 332 -95 510
c0 325.333 117 644.666 351 957.999z" />
    <glyph glyph-name="parenright" unicode=")" horiz-adv-x="797" 
d="M334 1491l-254 0.00195312c87.333 -194 150.333 -372.667 189 -536c32.667 -138.667 49 -287.334 49 -446.001c0 -304.667 -79.333 -618 -238 -940h254c116.667 166 202 317.333 256 454c63.333 162 95 332 95 510c0 325.333 -117 644.666 -351 957.999z" />
    <glyph glyph-name="asterisk" unicode="*" horiz-adv-x="1139" 
d="M453 1491h220.998l-18 -151c-4.66699 -39.333 -13 -81 -25 -125l114 59l139 66l69 -211l-154 -32c-25.333 -5.33301 -67 -9 -125 -11c37.333 -29.333 67 -56 89 -80l104 -113l-180 -135l-74 135c-10.667 20 -28 57.667 -52 113
c-23.333 -54.667 -40.666 -92.334 -51.999 -113.001l-75 -135l-185 135l112 113c30 30.667 60.667 57.334 92 80.001c-13.333 1.33301 -53.666 7.33301 -120.999 18l-155 25l72 211l139 -63c14.667 -6.66699 51 -27.334 109 -62.001c-12 52.667 -20 94.334 -24 125.001z" />
    <glyph glyph-name="plus" unicode="+" horiz-adv-x="1352" 
d="M127 894h383v385h323v-385h385v-324h-385v-383h-323v383h-383v324z" />
    <glyph glyph-name="comma" unicode="," horiz-adv-x="682" 
d="M124 404l435.001 -0.000976562v-335c0 -125.333 -27.667 -225.333 -83 -300c-50.667 -67.333 -136.334 -127.666 -257.001 -180.999l-95 178c64 30 111 59.333 141 88c40.667 39.333 63 88 67 146h-208v404z" />
    <glyph glyph-name="hyphen" unicode="-" horiz-adv-x="682" 
d="M45 692h592v-315h-592v315z" />
    <glyph glyph-name="hyphen" unicode="&#x2010;" horiz-adv-x="682" 
d="M45 692h592v-315h-592v315z" />
    <glyph glyph-name="period" unicode="." horiz-adv-x="682" 
d="M124 408h435v-408h-435v408z" />
    <glyph glyph-name="slash" unicode="/" horiz-adv-x="569" 
d="M367 1491h208l-368 -1515h-206z" />
    <glyph glyph-name="zero" unicode="0" 
d="M84 739c0 245.333 39.6689 426 119.002 542c95.333 140 258.666 210 489.999 210c175.333 0 308 -43.667 398 -131c72 -70.667 121.833 -161.5 149.5 -272.5s41.5 -225.5 41.5 -343.5c0 -249.333 -37.333 -432.666 -112 -549.999
c-92.667 -146 -255.334 -219 -488.001 -219c-224 0 -386 77.333 -486 232c-74.667 115.333 -112 292.666 -112 531.999zM488.002 738c0 -130.667 7.00195 -227.668 21.002 -291.001c28 -129.333 85.333 -194 172 -194c88.667 0 147 60.333 175 181
c14 62.667 21 160.334 21 293.001c0 138.667 -6.33301 237.667 -19 297c-28.667 130.667 -88.334 196 -179.001 196c-88.667 0 -146.334 -63.667 -173.001 -191c-12 -57.333 -18 -154.333 -18 -291z" />
    <glyph glyph-name="one" unicode="1" 
d="M1007 1491l0.000976562 -1491h-412v977c-120.667 -92 -263.334 -163 -428.001 -213v334c250 80.667 417.667 211.667 503 393h337z" />
    <glyph glyph-name="two" unicode="2" 
d="M1276 0l-1222 0.00195312c17.333 149.333 78.333 286.666 183 411.999c72 86.667 186.667 188.334 344 305.001c85.333 63.333 143.666 110.666 174.999 141.999c69.333 68.667 104 132.334 104 191.001c0 47.333 -17 86.166 -51 116.499s-75 45.5 -123 45.5
c-109.333 0 -174 -74 -194 -222l-408 33c29.333 211.333 119 350.333 269 417c77.333 34 184.666 51 321.999 51c120 0 216.667 -11.333 290 -34c101.333 -30.667 179 -85.667 233 -165c45.333 -68 68 -144 68 -228c0 -108 -38 -209.333 -114 -304
c-54.667 -68.667 -138 -142 -250 -220c-64 -44.667 -109.333 -77.334 -136 -98.001c-44 -34 -86 -70.667 -126 -110h636v-332z" />
    <glyph glyph-name="three" unicode="3" 
d="M479 1042l-385.003 68.999c66 253.333 256.333 380 571 380c150 0 271.333 -25 364 -75c119.333 -63.333 179 -163.666 179 -300.999c0 -128 -69.667 -230.333 -209 -307c56.667 -14 100 -30.333 130 -49c102.667 -63.333 154 -161.333 154 -294
c0 -90 -23.333 -173.5 -70 -250.5s-110 -135.5 -190 -175.5c-84 -42.667 -194.333 -64 -331 -64c-236 0 -404.333 61.667 -505 185c-50 60 -88.333 135.667 -115 227l407 54c28.667 -145.333 96.334 -218 203.001 -218c60 0 107.333 22.333 142 67
c32.667 40.667 49 91.667 49 153c0 64.667 -16 116 -48 154c-34.667 40 -83.667 60 -147 60c-32 0 -76 -8 -132 -24l21 291c22.667 -3.33301 40.334 -5 53.001 -5c50.667 0 94.5 16.167 131.5 48.5s55.5 73.5 55.5 123.5c0 98 -50 147 -150 147
c-99.333 0 -158.666 -65.333 -177.999 -196z" />
    <glyph glyph-name="four" unicode="4" 
d="M784 274h-742v335l742 882h355v-901h184v-316h-184v-274h-355v274zM784 590v461l-392 -461h392z" />
    <glyph glyph-name="five" unicode="5" 
d="M249 1466l966.999 0.000976562v-325h-655l-35 -220c90.667 42.667 179.334 64 266.001 64c142 0 259 -42.333 351 -127c95.333 -86.667 143 -200.334 143 -341.001c0 -98 -23.667 -189.333 -71 -274c-48.667 -88 -115 -154.333 -199 -199
c-86.667 -46 -197.334 -69 -332.001 -69c-186 0 -327.333 36.667 -424 110c-91.333 68 -155.666 166.333 -192.999 295l412 45c20.667 -134.667 87.667 -202 201 -202c67.333 0 118.333 27 153 81c28.667 46 43 104.667 43 176c0 168.667 -68.333 253 -205 253
c-38.667 0 -76.667 -9.66699 -114 -29c-28 -14.667 -58 -40 -90 -76l-347 50z" />
    <glyph glyph-name="six" unicode="6" 
d="M1263 1136l-404.998 -50c-19.333 103.333 -68 155 -146 155c-66 0 -117.333 -33.333 -154 -100c-26.667 -48 -46.334 -150.667 -59.001 -308c95.333 96.667 204.666 145 327.999 145c136.667 0 249.334 -48.667 338.001 -146c86 -94.667 129 -211 129 -349
c0 -95.333 -22 -182.333 -66 -261c-46 -82 -109.833 -143.667 -191.5 -185s-183.5 -62 -305.5 -62c-138 0 -250 22 -336 66c-96.667 50 -173 133 -229 249c-53.333 109.333 -80 254.333 -80 435c0 510.667 210 766 630 766c205.333 0 353.666 -53 444.999 -159
c44.667 -52 78.667 -117.333 102 -196zM513.002 483c0 -69.333 16.667 -127.666 50 -174.999c38 -52.667 90.333 -79 157 -79c64 0 112.667 25.667 146 77c28 43.333 42 98.666 42 165.999c0 69.333 -14.667 127 -44 173c-34.667 54 -85 81 -151 81
c-65.333 0 -116 -25 -152 -75c-32 -44 -48 -100 -48 -168z" />
    <glyph glyph-name="seven" unicode="7" 
d="M91 1466l1189 -0.000976562v-275c-213.333 -192.667 -366 -440.667 -458 -744c-38.667 -128 -64.667 -277 -78 -447h-406c31.333 236.667 81.666 436.834 150.999 600.501s178 337.5 326 521.5h-724v344z" />
    <glyph glyph-name="eight" unicode="8" 
d="M329 788c-64 34 -110.667 72.001 -140 114.001c-40 57.333 -60 123.333 -60 198c0 123.333 57.667 223.666 173 300.999c89.333 60 208.333 90 357 90c155.333 0 283 -26.667 383 -80c128 -67.333 192 -172 192 -314c0 -122.667 -62.667 -225.667 -188 -309
c157.333 -75.333 236 -195 236 -359c0 -68 -15.333 -133.667 -46 -197c-32 -66 -74.667 -118 -128 -156c-95.333 -67.333 -234.333 -101 -417 -101c-126 0 -227.667 12 -305 36c-106.667 34 -186 94.333 -238 181c-42.667 71.333 -64 151 -64 239c0 174 81.667 293 245 357z
M512 1076c0 -52 16 -93.167 48 -123.5s74 -45.5 126 -45.5c48 0 86.667 15.5 116 46.5s44 70.5 44 118.5c0 50 -15.333 91 -46 123s-71 48 -121 48c-49.333 0 -89.5 -15.5 -120.5 -46.5s-46.5 -71.167 -46.5 -120.5zM490 445.001c0 -58 17.332 -108.334 51.999 -151.001
c38 -46 85.333 -69 142 -69c55.333 0 101.333 23.667 138 71c34 43.333 51 93.333 51 150c0 58.667 -17.333 109.334 -52 152.001c-37.333 46 -84.666 69 -141.999 69c-58 0 -104.667 -23 -140 -69c-32.667 -42 -49 -93 -49 -153z" />
    <glyph glyph-name="nine" unicode="9" 
d="M102 329l404.999 51c19.333 -103.333 68.333 -155 147 -155c65.333 0 116.333 33 153 99c26.667 48 46.667 151 60 309c-94 -96.667 -203.333 -145 -328 -145c-136.667 0 -249.667 48.333 -339 145c-86 94.667 -129 211 -129 349c0 95.333 22 182.333 66 261
c46 82.667 110.333 145 193 187c80.667 40.667 182 61 304 61c138 0 250 -22.333 336 -67c96.667 -49.333 173.334 -132 230.001 -248c52.667 -110 79 -255 79 -435c0 -510.667 -210 -766 -630 -766c-204.667 0 -352.667 53 -444 159c-44.667 52 -79 117 -103 195z
M851.999 983c0 68.667 -16.666 126.666 -49.999 173.999c-38 53.333 -90 80 -156 80c-64.667 0 -113.334 -25.667 -146.001 -77c-28 -43.333 -42 -99 -42 -167c0 -69.333 14.667 -126.666 44 -171.999c34.667 -54 84.667 -81 150 -81c66 0 116.667 25 152 75
c32 44 48 100 48 168z" />
    <glyph glyph-name="colon" unicode=":" horiz-adv-x="682" 
d="M124 1062h435v-408h-435v408zM124 408h435v-408h-435v408z" />
    <glyph glyph-name="semicolon" unicode=";" horiz-adv-x="682" 
d="M124 1062h435v-408h-435v408zM124 404l435.001 -0.000976562v-335c0 -125.333 -27.667 -225.333 -83 -300c-50.667 -67.333 -136.334 -127.666 -257.001 -180.999l-95 178c64 30 111 59.333 141 88c40.667 39.333 63 88 67 146h-208v404z" />
    <glyph glyph-name="less" unicode="&#x3c;" horiz-adv-x="1352" 
d="M1244 112l-1137 473v296l1137 472v-355l-691 -266l691 -267v-353z" />
    <glyph glyph-name="equal" unicode="=" horiz-adv-x="1352" 
d="M126 1141h1092v-325h-1092v325zM126 649h1092v-324h-1092v324z" />
    <glyph glyph-name="greater" unicode="&#x3e;" horiz-adv-x="1352" 
d="M108 112l1137 473v296l-1137 472v-355l691 -266l-691 -267v-353z" />
    <glyph glyph-name="question" unicode="?" horiz-adv-x="1251" 
d="M785 460l-379.998 0.000976562v38c0 111.333 29.333 200.666 88 267.999c30 35.333 95 94 195 176c54 44.667 81 85 81 121c0 77.333 -43.667 116 -131 116c-102.667 0 -161.667 -70.333 -177 -211l-388 48c29.333 316.667 219.666 475 570.999 475
c145.333 0 262.666 -30.333 351.999 -91c121.333 -82 182 -191.333 182 -328c0 -72 -25.333 -140 -76 -204c-32.667 -42 -87 -93 -163 -153c-57.333 -45.333 -95.333 -81.333 -114 -108c-26.667 -38.667 -40 -87.667 -40 -147zM392.002 359.001h407v-359h-407v359z" />
    <glyph glyph-name="at" unicode="@" horiz-adv-x="1516" 
d="M1156 1148l-125.008 -791c-2.66699 -16.667 -4 -28.334 -4 -35.001c0 -25.333 13.333 -38 40 -38c30.667 0 65.334 13.667 104.001 41c131.333 92 197 241.333 197 448c0 174 -49.667 312.5 -149 415.5s-235.666 154.5 -408.999 154.5
c-127.333 0 -241.666 -30 -342.999 -90c-103.333 -61.333 -182.666 -148.666 -237.999 -261.999s-83 -239 -83 -377c0 -204.667 56.667 -371 170 -499c118 -133.333 278 -200 480 -200c186 0 358.667 62.333 518 187h205c-54.667 -64.667 -106.667 -115.334 -156 -152.001
c-164 -122 -351.667 -183 -563 -183c-152.667 0 -289.667 35 -411 105c-124.667 71.333 -221.667 173.333 -291 306s-104 278.334 -104 437.001c0 156.667 32.667 302 98 436c70 144 168.333 254.667 295 332c118.667 72.667 259.334 109 422.001 109
c211.333 0 382.5 -66.5 513.5 -199.5s196.5 -305.5 196.5 -517.5c0 -270.667 -101 -467.667 -303 -591c-76.667 -46.667 -148.667 -70 -216 -70c-79.333 0 -130.666 39 -153.999 117c-81.333 -78.667 -161.666 -118 -240.999 -118c-107.333 0 -190.666 46.667 -249.999 140
c-50 78.667 -75 175 -75 289c0 146.667 34.333 283.667 103 411c82.667 153.333 191 230 325 230c90.667 0 169 -49.333 235 -148l18 113h195zM489.992 493c0 -58.667 9.99902 -109.001 29.999 -151.001c26.667 -55.333 66 -83 118 -83c94.667 0 163.667 90.667 207 272
c26 108.667 39 206.334 39 293.001c0 52 -10.333 96 -31 132c-25.333 44 -62.333 66 -111 66c-103.333 0 -175.666 -87.333 -216.999 -262c-23.333 -97.333 -35 -186.333 -35 -267z" />
    <glyph glyph-name="A" unicode="A" horiz-adv-x="1593" 
d="M1052 242h-516l-71 -242h-463l551 1466h494l551 -1466h-474zM957 559l-162 527l-161 -527h323z" />
    <glyph glyph-name="B" unicode="B" horiz-adv-x="1593" 
d="M151 1466l848 -0.000976562c123.333 0 225 -29.333 305 -88c89.333 -65.333 134 -157.666 134 -276.999c0 -86.667 -27 -161 -81 -223c-36 -41.333 -88.667 -74 -158 -98c204.667 -49.333 307 -170.333 307 -363c0 -156.667 -66 -273 -198 -349
c-38 -22 -95.333 -38 -172 -48c-102 -13.333 -169.667 -20 -203 -20h-782v1466zM608 890.999h197c126 0 189 47.333 189 142c0 90.667 -62 136 -186 136h-200v-278zM608 314.999h231c142 0 213 51 213 153c0 96 -71.333 144 -214 144h-230v-297z" />
    <glyph glyph-name="C" unicode="C" horiz-adv-x="1593" 
d="M1126 599l397 -120.001c-52.667 -221.333 -165.667 -370.666 -339 -447.999c-85.333 -38 -193.666 -57 -324.999 -57c-154 0 -278.667 21 -374 63c-110 48 -202.667 131.667 -278 251c-73.333 116.667 -110 266 -110 448c0 240 63.667 425.833 191 557.5
s310.666 197.5 549.999 197.5c175.333 0 316 -34.333 422 -103c112 -73.333 195 -191 249 -353l-400 -89c-14 44 -28.667 76.667 -44 98c-52.667 72 -124.667 108 -216 108c-102 0 -180.667 -41.333 -236 -124c-41.333 -62 -62 -158.333 -62 -289
c0 -128 15.667 -224.333 47 -289c44 -90.667 122.333 -136 235 -136c154 0 251.667 95 293 285z" />
    <glyph glyph-name="D" unicode="D" horiz-adv-x="1593" 
d="M156 1466h672.999c238.667 0 413.334 -69.667 524.001 -209c101.333 -128 152 -301 152 -519c0 -127.333 -12.333 -232.333 -37 -315c-31.333 -105.333 -86.333 -194 -165 -266c-63.333 -58.667 -131.333 -97.667 -204 -117c-100 -26.667 -190 -40 -270 -40h-673v1466z
M608.999 1134v-801.001h111c80 0 138.667 7 176 21c54 20 94 60.333 120 121c22.667 52 34 136.667 34 254c0 138.667 -20 237.334 -60 296.001c-48.667 72.667 -138 109 -268 109h-113z" />
    <glyph glyph-name="E" unicode="E" horiz-adv-x="1479" 
d="M149 1466h1214v-313h-760v-233h705v-299h-705v-289h782v-332h-1236v1466z" />
    <glyph glyph-name="F" unicode="F" 
d="M152 1466h1120v-315h-665v-256h568v-296h-568v-599h-455v1466z" />
    <glyph glyph-name="G" unicode="G" horiz-adv-x="1706" 
d="M887 531l-0.00292969 305h700v-625c-127.333 -86.667 -241 -147 -341 -181c-108 -36.667 -235 -55 -381 -55c-332 0 -558.667 118 -680 354c-60.667 117.333 -91 252 -91 404c0 334 129.667 563 389 687c98.667 47.333 232.334 71 401.001 71
c130.667 0 232.334 -9 305.001 -27c107.333 -26.667 193.666 -77.667 258.999 -153c52.667 -62 92.334 -140.333 119.001 -235l-437 -78c-37.333 114 -122.666 171 -255.999 171c-217.333 0 -326 -143.667 -326 -431c0 -294.667 113 -442 339 -442
c93.333 0 194.333 32.333 303 97v138h-303z" />
    <glyph glyph-name="H" unicode="H" horiz-adv-x="1706" 
d="M152 1466h453v-513h495v513h455v-1466h-455v593h-495v-593h-453v1466z" />
    <glyph glyph-name="I" unicode="I" horiz-adv-x="797" 
d="M168 1466h454v-1466h-454v1466z" />
    <glyph glyph-name="J" unicode="J" 
d="M760 1466h453.999v-797c0 -152 -10.333 -264.333 -31 -337c-31.333 -112.667 -95.333 -201.667 -192 -267c-90 -60.667 -205 -91 -345 -91c-264.667 0 -442 78.667 -532 236c-44.667 76.667 -71 171.667 -79 285l433 59c1.33301 -112 25 -185.333 71 -220
c16.667 -12.667 41.334 -19 74.001 -19c98 0 147 82.333 147 247v904z" />
    <glyph glyph-name="K" unicode="K" horiz-adv-x="1706" 
d="M152 1466h453v-554l475 554h602l-534 -553l558 -913h-558l-309 603l-234 -245v-358h-453v1466z" />
    <glyph glyph-name="L" unicode="L" 
d="M150 1466h453v-1105h707v-361h-1160v1466z" />
    <glyph glyph-name="M" unicode="M" horiz-adv-x="1933" 
d="M145 1466h596l230 -892l229 892h594v-1466h-370v1118l-287 -1118h-335l-286 1118v-1118h-371v1466z" />
    <glyph glyph-name="N" unicode="N" horiz-adv-x="1706" 
d="M153 1466h423l552 -811v811h427v-1466h-427l-549 805v-805h-426v1466z" />
    <glyph glyph-name="O" unicode="O" horiz-adv-x="1706" 
d="M93 732c0 239.333 66.332 425.667 198.999 559s318.667 200 558 200c240.667 0 427.334 -64 560.001 -192c134.667 -130 202 -315 202 -555c0 -326 -112 -551.667 -336 -677c-109.333 -61.333 -245.333 -92 -408 -92c-320 0 -544.667 109.667 -674 329
c-67.333 114 -101 256.667 -101 428zM545.999 730.001c0 -277.333 102.333 -416 307 -416c120 0 204 45.333 252 136c36 67.333 54 167.333 54 300c0 265.333 -103.333 398 -310 398c-202 0 -303 -139.333 -303 -418z" />
    <glyph glyph-name="P" unicode="P" horiz-adv-x="1479" 
d="M148 1466h753c327.333 0 491 -150 491 -450c0 -314.667 -180.333 -472 -541 -472h-248v-544h-455v1466zM603 841h111c158 0 237 54 237 162c0 110 -73 165 -219 165h-129v-327z" />
    <glyph glyph-name="Q" unicode="Q" horiz-adv-x="1706" 
d="M1452 214c58 -40 95.001 -64.666 111.001 -73.999c24.667 -14 59.667 -31 105 -51l-126 -254c-122.667 59.333 -228.667 127.666 -318 204.999c-100 -43.333 -225.333 -65 -376 -65c-222.667 0 -398.334 58 -527.001 174c-152 137.333 -228 330.333 -228 579
c0 240.667 66.167 428 198.5 562s318.5 201 558.5 201c244 0 432 -65.333 564 -196s198 -317.667 198 -561c0 -216.667 -53.333 -390 -160 -520zM1105 446.001c36 64.667 54.001 161.334 54.001 290.001c0 274.667 -103.333 412 -310 412c-107.333 0 -187 -41.667 -239 -125
c-42.667 -68.667 -64 -160.334 -64 -275.001c0 -289.333 102.333 -434 307 -434c30.667 0 59.667 3 87 9c-38 36.667 -98 71.334 -180 104.001l71 163c44.667 -8 84 -21.333 118 -40c15.333 -8.66699 50.666 -32.334 105.999 -71.001z" />
    <glyph glyph-name="R" unicode="R" horiz-adv-x="1593" 
d="M156 0v1466h755c121.333 0 213 -7.66699 275 -23c99.333 -24.667 174.333 -73.334 225 -146.001c45.333 -65.333 68 -144.666 68 -237.999c0 -157.333 -65 -275.333 -195 -354c-38.667 -23.333 -91.667 -42.666 -159 -57.999c54 -18 93.333 -36 118 -54
c18 -13.333 42.333 -39.166 73 -77.499s51.667 -68.5 63 -90.5l219 -425h-512l-242 448c-32 59.333 -59.333 97 -82 113c-32 22.667 -69 34 -111 34h-40v-595h-455zM611 871.998l191 -0.000976562c18.667 0 58.667 6.66699 120 20c68 14.667 102 58.334 102 131.001
c0 98 -71.333 147 -214 147h-199v-298z" />
    <glyph glyph-name="S" unicode="S" horiz-adv-x="1479" 
d="M71 485l430.999 26.998c9.33301 -70 28.333 -123.333 57 -160c46.667 -59.333 113.334 -89 200.001 -89c52.667 0 97.667 11.667 135 35c44.667 28 67 66.667 67 116c0 56.667 -35 101.667 -105 135c-34 16 -93 33.333 -177 52c-162 36 -285 81.667 -369 137
c-122.667 80 -184 188 -184 324c0 83.333 24.667 158.333 74 225c46 62.667 109 111.667 189 147c87.333 38 207.333 57 360 57c174.667 0 309.667 -29.667 405 -89c112.667 -70 179 -186 199 -348l-427 -25c-21.333 126 -95.333 189 -222 189
c-106 0 -159 -38.333 -159 -115c0 -52 61.667 -91 185 -117c152 -32.667 264.333 -63 337 -91c134 -51.333 226 -118.333 276 -201c38.667 -64.667 58 -137 58 -217c0 -97.333 -26.667 -185.166 -80 -263.499s-125.333 -137.166 -216 -176.499
c-93.333 -41.333 -211 -62 -353 -62c-201.333 0 -356.333 34.667 -465 104c-128 82.667 -200 218 -216 406z" />
    <glyph glyph-name="T" unicode="T" horiz-adv-x="1479" 
d="M47 1466h1377v-362h-462v-1104h-453v1104h-462v362z" />
    <glyph glyph-name="U" unicode="U" horiz-adv-x="1706" 
d="M1104 1466l452.001 -0.000976562v-874c0 -186.667 -55.667 -335.667 -167 -447c-58 -58 -118.667 -98.667 -182 -122c-88 -32.667 -193.667 -49 -317 -49c-202 0 -350.333 25 -445 75c-56.667 29.333 -108.334 71 -155.001 125s-79 110.667 -97 170
c-28 93.333 -42 176 -42 248v874h452v-895c0 -79.333 22 -141.666 66 -186.999s105.667 -68 185 -68s140.833 22.5 184.5 67.5s65.5 107.5 65.5 187.5v895z" />
    <glyph glyph-name="V" unicode="V" horiz-adv-x="1593" 
d="M5 1466h474l330 -1055l325 1055h460l-544 -1466h-491z" />
    <glyph glyph-name="W" unicode="W" horiz-adv-x="2048" 
d="M-1 1466h430l155 -819l226 819h429l227 -819l155 819h428l-323 -1466h-444l-257 923l-256 -923h-444z" />
    <glyph glyph-name="X" unicode="X" horiz-adv-x="1593" 
d="M49 1466h499l260 -451l252 451h494l-456 -710l499 -756h-509l-289 471l-290 -471h-506l506 764z" />
    <glyph glyph-name="Y" unicode="Y" horiz-adv-x="1593" 
d="M2 1466h503l296 -495l296 495h500l-570 -852v-614h-454v614z" />
    <glyph glyph-name="Z" unicode="Z" horiz-adv-x="1479" 
d="M113 1466h1282v-293l-822 -858h852v-315h-1391v304l813 849h-734v313z" />
    <glyph glyph-name="bracketleft" unicode="[" horiz-adv-x="797" 
d="M135 1466h615v-316h-243v-1241h243v-316h-615v1873z" />
    <glyph glyph-name="backslash" unicode="\" horiz-adv-x="569" 
d="M202 1491h-208l368 -1515h206z" />
    <glyph glyph-name="bracketright" unicode="]" horiz-adv-x="797" 
d="M662 1466h-615v-316h243v-1241h-243v-316h615v1873z" />
    <glyph glyph-name="asciicircum" unicode="^" horiz-adv-x="1352" 
d="M533 1491h279l408 -813h-353l-193 491l-195 -491h-354z" />
    <glyph glyph-name="underscore" unicode="_" horiz-adv-x="1024" 
d="M-12 -154h1048v-102h-1048v102z" />
    <glyph glyph-name="grave" unicode="`" horiz-adv-x="682" 
d="M1 1491h347l164 -298h-192z" />
    <glyph glyph-name="a" unicode="a" 
d="M494 718l-389.002 41c26 122 87 209.333 183 262c78.667 43.333 200.667 65 366 65c112.667 0 196.334 -4.33301 251.001 -13c98 -14.667 174 -45.667 228 -93c34.667 -30.667 62.667 -74.334 84 -131.001c18.667 -52 28 -103.333 28 -154v-469
c0 -80.667 17 -156 51 -226h-382c-22 39.333 -36.667 82.666 -44 129.999c-54 -52 -107 -88.667 -159 -110c-71.333 -29.333 -155 -44 -251 -44c-107.333 0 -195.666 23.333 -264.999 70c-81.333 54.667 -122 133 -122 235c0 96.667 32.667 171 98 223
c50.667 40 129 70.667 235 92c112.667 22.667 187 38.334 223 47.001c83.333 19.333 156 41.333 218 66c0 50.667 -10.5 85.834 -31.5 105.501s-57.167 29.5 -108.5 29.5c-66.667 0 -116.667 -10.667 -150 -32c-26 -16.667 -47 -48 -63 -94zM846.998 504
c-51.333 -18 -109.667 -35.665 -175 -52.998c-57.333 -15.333 -98 -29.333 -122 -42c-46 -24.667 -69 -57.334 -69 -98.001c0 -72.667 44 -109 132 -109c41.333 0 81.333 9.66699 120 29c42 21.333 72 49.666 90 84.999c16 31.333 24 72.333 24 123v65z" />
    <glyph glyph-name="b" unicode="b" 
d="M125 1466l411.001 -0.000976562v-508c81.333 85.333 184.666 128 309.999 128c147.333 0 261 -54.667 341 -164c71.333 -97.333 107 -222.666 107 -375.999c0 -243.333 -72.667 -411.333 -218 -504c-68.667 -44 -144.667 -66 -228 -66c-72 0 -137.333 15.333 -196 46
c-44 23.333 -92.667 68.333 -146 135v-157h-381v1466zM533.001 533.999c0 -173.333 60.667 -260 182 -260c114.667 0 172 88 172 264c0 64.667 -11.333 118.667 -34 162c-28.667 54.667 -72.667 82 -132 82c-125.333 0 -188 -82.667 -188 -248z" />
    <glyph glyph-name="c" unicode="c" 
d="M915 415l387 -43.998c-44 -166.667 -141 -282.334 -291 -347.001c-76 -32.667 -172.333 -49 -289 -49c-214.667 0 -373 44.667 -475 134c-115.333 100 -173 239 -173 417c0 177.333 56 316.333 168 417c47.333 42 96 73.333 146 94c79.333 32.667 181 49 305 49
c152.667 0 274.667 -25 366 -75c106.667 -58.667 180.667 -155.334 222 -290.001l-383 -51c-24 91.333 -88.333 137 -193 137c-78.667 0 -137.667 -30.333 -177 -91c-32.667 -50.667 -49 -117.667 -49 -201c0 -76.667 17.333 -138.667 52 -186
c38.667 -54 94.667 -81 168 -81c108.667 0 180.667 55.667 216 167z" />
    <glyph glyph-name="d" unicode="d" 
d="M1241 1466v-1466h-381v157c-53.333 -66.667 -102 -111.667 -146 -135c-58 -30.667 -123.333 -46 -196 -46c-148 0 -262 59.667 -342 179c-69.333 102.667 -104 231.667 -104 387c0 154.667 35.333 280.667 106 378c79.333 110.667 193.333 166 342 166
c126.667 0 230 -42.667 310 -128v508h411zM833 534c0 69.333 -13.666 125.667 -40.999 169c-32.667 52.667 -81.334 79 -146.001 79c-111.333 0 -167 -85.667 -167 -257c0 -167.333 57.333 -251 172 -251c121.333 0 182 86.667 182 260z" />
    <glyph glyph-name="e" unicode="e" 
d="M1302 430l-815.998 0.00195312c7.33301 -64.667 25 -113.334 53 -146.001c40 -46 91.333 -69 154 -69c40.667 0 78.667 10 114 30c21.333 12 45 34.333 71 67l401 -37c-66.667 -116.667 -149.334 -197.334 -248.001 -242.001c-84.667 -38 -200.334 -57 -347.001 -57
c-126 0 -227.667 16 -305 48c-93.333 38 -169 105 -227 201c-53.333 86 -80 187.333 -80 304c0 175.333 56.667 313.333 170 414c108.667 95.333 252 143 430 143c279.333 0 466.333 -89.667 561 -269c46 -87.333 69 -201 69 -341v-46zM888.002 625.002
c-14.667 146.667 -80.999 220.001 -198.999 220.001c-64 0 -115.667 -25.667 -155 -77c-24.667 -32.667 -40.334 -80.334 -47.001 -143.001h401z" />
    <glyph glyph-name="f" unicode="f" horiz-adv-x="797" 
d="M576 1062l194 0.000976562v-298h-194v-764h-408v764h-152v298h152v48c0 123.333 22.333 213.666 67 270.999c56.667 73.333 160.334 110 311.001 110c71.333 0 175 -8.33301 311 -25l-45 -246c-48.667 8 -88 12 -118 12c-62.667 0 -100.334 -25.667 -113.001 -77
c-3.33301 -14 -5 -45 -5 -93z" />
    <glyph glyph-name="g" unicode="g" 
d="M862 1062l381.002 -0.000976562l1 -1050c1.33301 -64 -12.667 -127.667 -42 -191c-56.667 -119.333 -154 -195 -292 -227c-72.667 -16.667 -155.667 -25 -249 -25c-162 0 -286 19.333 -372 58c-124.667 56 -187 154.333 -187 295c0 13.333 0.666992 31.333 2 54l395 -45
c10 -36.667 25.333 -62 46 -76c30 -20.667 67.667 -31 113 -31c116.667 0 175 70.333 175 211v161c-40 -47.333 -80 -81.666 -120 -102.999c-62.667 -33.333 -130.334 -50 -203.001 -50c-142 0 -256.667 62 -344 186c-62 88 -93 204.333 -93 349
c0 148.667 34.333 268 103 358c76.667 100 187 150 331 150c80.667 0 148.167 -13.833 202.5 -41.5s105.166 -74.167 152.499 -139.5v157zM479.002 546.999c0 -150.667 59.333 -226 178 -226c60.667 0 107 24.333 139 73c26.667 40.667 40 93.334 40 158.001
c0 65.333 -14.333 119.666 -43 162.999c-33.333 50.667 -81 76 -143 76c-114 0 -171 -81.333 -171 -244z" />
    <glyph glyph-name="h" unicode="h" 
d="M123 1466h406.999v-540c102.667 106.667 222.334 160 359.001 160c238 0 357 -137 357 -411v-675h-409v584c0 122 -47 183 -141 183c-110.667 0 -166 -85.667 -166 -257v-510h-407v1466z" />
    <glyph glyph-name="i" unicode="i" horiz-adv-x="682" 
d="M138 1466h407v-277h-407v277zM138 1062h407v-1062h-407v1062z" />
    <glyph glyph-name="j" unicode="j" horiz-adv-x="682" 
d="M139 1466h408v-280h-408v280zM139 1062h408v-1030c0 -107.333 -5 -183.333 -15 -228c-18 -82 -57.667 -143.333 -119 -184c-51.333 -34 -124.666 -51 -219.999 -51c-78.667 0 -176.334 11.667 -293.001 35l61 296c32.667 -6.66699 56.667 -10 72 -10
c70.667 0 106 59 106 177v995z" />
    <glyph glyph-name="k" unicode="k" 
d="M123 1466h416v-756l304 352h501l-381 -372l403 -690h-459l-215 426l-153 -150v-276h-416v1466z" />
    <glyph glyph-name="l" unicode="l" horiz-adv-x="682" 
d="M137 1466h408v-1466h-408v1466z" />
    <glyph glyph-name="m" unicode="m" horiz-adv-x="2048" 
d="M126 1062l380.001 -0.00195312v-155c100.667 119.333 223 179 367 179c151.333 0 258.666 -59.667 321.999 -179c60 64.667 114.667 109.667 164 135c56 29.333 124.667 44 206 44c242 0 363 -139.667 363 -419v-667h-408v605c0 46.667 -9.33301 82.334 -28 107.001
c-28 36.667 -62 55 -102 55c-106.667 0 -160 -73 -160 -219v-548h-408v585c0 46.667 -2.66699 78.334 -8 95.001c-19.333 59.333 -59.333 89 -120 89c-106.667 0 -160 -75.667 -160 -227v-542h-408v1062z" />
    <glyph glyph-name="n" unicode="n" 
d="M123 1062h379v-173c55.333 69.333 111 119 167 149c60.667 32 133 48 217 48c240 0 360 -137 360 -411v-675h-409v584c0 122 -47 183 -141 183c-110.667 0 -166 -85.667 -166 -257v-510h-407v1062z" />
    <glyph glyph-name="o" unicode="o" 
d="M73 528c0 172.667 58.666 309.998 175.999 411.998c112 97.333 255.667 146 431 146c212.667 0 373.334 -61.667 482.001 -185c87.333 -99.333 131 -221.666 131 -366.999c0 -176 -59 -314.333 -177 -415c-111.333 -95.333 -256.333 -143 -435 -143
c-171.333 0 -309.333 43.333 -414 130c-129.333 106.667 -194 247.334 -194 422.001zM480.999 528.998c0 -76.667 14.333 -139.332 43 -187.999c34.667 -60 87.667 -90 159 -90c134 0 201 94 201 282c0 74 -14 135.333 -42 184c-34.667 59.333 -86.667 89 -156 89
c-72 0 -125.667 -29.667 -161 -89c-29.333 -48.667 -44 -111.334 -44 -188.001z" />
    <glyph glyph-name="p" unicode="p" 
d="M125 -404v1466h381v-157c52.667 66 101 110.667 145 134c59.333 31.333 125 47 197 47c147.333 0 261.333 -59.667 342 -179c69.333 -103.333 104 -232.333 104 -387s-35.333 -280.667 -106 -378c-79.333 -110.667 -193.333 -166 -342 -166
c-124.667 0 -228 42.333 -310 127v-507h-411zM533 528c0 -69.333 13.333 -125.667 40 -169c32.667 -52.667 81.667 -79 147 -79c111.333 0 167 85.667 167 257c0 66.667 -11.667 122 -35 166c-30 56 -75.667 84 -137 84c-121.333 0 -182 -86.333 -182 -259z" />
    <glyph glyph-name="q" unicode="q" 
d="M1241 -404l-411.001 0.000976562v507c-80.667 -84.667 -184 -127 -310 -127c-147.333 0 -261 54.667 -341 164c-71.333 97.333 -107 222.333 -107 375c0 244 73 412.667 219 506c68.667 43.333 144.334 65 227.001 65c72 0 137.667 -15.667 197 -47
c44 -22.667 92.333 -67.334 145 -134.001v157h381v-1466zM832.999 528.001c0 172.667 -60.667 259 -182 259c-114.667 0 -172 -87.667 -172 -263c0 -162.667 55.667 -244 167 -244c124.667 0 187 82.667 187 248z" />
    <glyph glyph-name="r" unicode="r" horiz-adv-x="909" 
d="M127 1062h381v-174c32 66 64.667 113.667 98 143c42 36.667 95.333 55 160 55c60 0 125.667 -18.667 197 -56l-126 -290c-48 20 -86 30 -114 30c-124.667 0 -187 -138 -187 -414v-356h-409v1062z" />
    <glyph glyph-name="s" unicode="s" horiz-adv-x="1251" 
d="M51 294l404 38c31.333 -89.333 94.666 -134 189.999 -134c39.333 0 74 7 104 21c38.667 18 58 44.333 58 79c0 29.333 -15.333 52 -46 68c-22 11.333 -80.333 25.333 -175 42c-124.667 22 -203.334 38 -236.001 48c-88.667 27.333 -154.334 69.666 -197.001 126.999
c-38 50 -57 107 -57 171c0 142.667 76.333 241 229 295c71.333 24.667 167 37 287 37c100 0 176.667 -5.66699 230 -17c84 -17.333 151.333 -51.333 202 -102c40 -40.667 73.333 -95.667 100 -165l-386 -38c-20.667 71.333 -76 107 -166 107c-88 0 -132 -28 -132 -84
c0 -35.333 29 -60.666 87 -75.999c18 -4.66699 60.333 -11 127 -19c110.667 -12.667 193.334 -27.667 248.001 -45c94.667 -29.333 163.334 -74.666 206.001 -135.999c34.667 -50.667 52 -106.334 52 -167.001c0 -145.333 -76.667 -251 -230 -317
c-80 -34.667 -188.667 -52 -326 -52c-154 0 -272.667 17.667 -356 53c-115.333 49.333 -187.666 138 -216.999 266z" />
    <glyph glyph-name="t" unicode="t" horiz-adv-x="909" 
d="M614 1466v-404.001h224v-297h-224v-377c0 -45.333 4.33301 -75.333 13 -90c13.333 -22.667 36.666 -34 69.999 -34c30 0 72 8.66699 126 26l30 -281c-100.667 -22 -194.667 -33 -282 -33c-83.333 0 -148 8.66699 -194 26c-63.333 24 -108.666 68 -135.999 132
c-23.333 52.667 -35 138.334 -35 257.001v374h-150v297h150v195z" />
    <glyph glyph-name="u" unicode="u" 
d="M1242 0l-380 -0.000976562v172c-55.333 -69.333 -111 -118.666 -167 -147.999c-60 -32 -132.333 -48 -217 -48c-239.333 0 -359 136.667 -359 410v676h409v-584c0 -122.667 47 -184 141 -184c110.667 0 166 85.667 166 257v511h407v-1062z" />
    <glyph glyph-name="v" unicode="v" horiz-adv-x="1251" 
d="M2 1062h424l206 -673l213 673h411l-451 -1062h-361z" />
    <glyph glyph-name="w" unicode="w" horiz-adv-x="1933" 
d="M3 1062h394l171 -669l216 669h367l224 -669l171 669h391l-391 -1062h-362l-215 639l-208 -639h-364z" />
    <glyph glyph-name="x" unicode="x" 
d="M31 1062h483l169 -296l196 296h449l-362 -506l388 -556h-475l-196 342l-231 -342h-441l386 556z" />
    <glyph glyph-name="y" unicode="y" horiz-adv-x="1251" 
d="M5 1062l430.002 -0.000976562l219 -707l203 707h401l-421 -1135c-48 -129.333 -97 -216.666 -147 -261.999c-70.667 -64 -178.334 -96 -323.001 -96c-58.667 0 -149.334 8 -272.001 24l-32 284c58.667 -18.667 124 -28 196 -28c91.333 0 155.333 50.333 192 151z" />
    <glyph glyph-name="z" unicode="z" horiz-adv-x="1139" 
d="M77 1062h985v-238l-536 -546h569v-278h-1058v264l508 520h-468v278z" />
    <glyph glyph-name="braceleft" unicode="{" horiz-adv-x="797" 
d="M774 1491l0.000976562 -328.002h-45c-76 0 -122.333 -36 -139 -108c-8.66699 -36 -13 -98.333 -13 -187c0 -81.333 -7.66699 -144.333 -23 -189c-14 -40 -33 -71.667 -57 -95c-18.667 -18 -49.334 -36.333 -92.001 -55c44.667 -20.667 77.834 -42.334 99.501 -65.001
s40.167 -56.667 55.5 -102s23 -118 23 -218c0 -67.333 1.33301 -109.666 4 -126.999c7.33301 -55.333 26.333 -91 57 -107c21.333 -11.333 64.666 -17 129.999 -17v-324h-126c-100 0 -176 8 -228 24c-80.667 24.667 -136 72 -166 142
c-23.333 54.667 -35 136.334 -35 245.001c0 13.333 0.5 32.833 1.5 58.5s1.5 45.167 1.5 58.5c0 127.333 -27 206 -81 236c-26.667 14.667 -65 22.667 -115 24v343c90 0 148 32.667 174 98c13.333 32.667 20 88.334 20 167.001v34v23c-0.666992 10 -1 17.667 -1 23
c0 191.333 37 317 111 377c56.667 46 159.667 69 309 69h135z" />
    <glyph glyph-name="bar" unicode="|" horiz-adv-x="569" 
d="M160 1466h255v-1870h-255v1870z" />
    <glyph glyph-name="braceright" unicode="}" horiz-adv-x="797" 
d="M23 1491l-0.000976562 -328.002h45c76 0 122.333 -36 139 -108c8.66699 -36 13 -98.333 13 -187c0 -81.333 7.66699 -144.333 23 -189c14 -40 33 -71.667 57 -95c18.667 -18 49.334 -36.333 92.001 -55c-44.667 -20.667 -77.834 -42.334 -99.501 -65.001
s-40.167 -56.667 -55.5 -102s-23 -118 -23 -218c0 -67.333 -1.33301 -109.666 -4 -126.999c-7.33301 -55.333 -26.333 -91 -57 -107c-21.333 -11.333 -64.666 -17 -129.999 -17v-324h126c100 0 176 8 228 24c80.667 24.667 136 72 166 142
c23.333 54.667 35 136.334 35 245.001c0 13.333 -0.5 32.833 -1.5 58.5s-1.5 45.167 -1.5 58.5c0 127.333 27 206 81 236c26.667 14.667 65 22.667 115 24v343c-90 0 -148 32.667 -174 98c-13.333 32.667 -20 88.334 -20 167.001v34v23c0.666992 10 1 17.667 1 23
c0 191.333 -37 317 -111 377c-56.667 46 -159.667 69 -309 69h-135z" />
    <glyph glyph-name="asciitilde" unicode="~" horiz-adv-x="1352" 
d="M1246 972v-326c-128 -102.667 -239 -154 -333 -154c-72 0 -171.667 32.333 -299 97c-83.333 42 -149 63 -197 63c-102.667 0 -208.667 -53.333 -318 -160v329c114 102 231 153 351 153c62 0 149.333 -27.333 262 -82c104.667 -51.333 181.667 -77 231 -77
c89.333 0 190.333 52.333 303 157z" />
    <glyph glyph-name="nonbreakingspace" unicode="&#xa0;" horiz-adv-x="683" 
 />
    <glyph glyph-name="exclamdown" unicode="&#xa1;" horiz-adv-x="682" 
d="M124 -404h435v334l-84 671h-269l-82 -671v-334zM139 703h406v359h-406v-359z" />
    <glyph glyph-name="cent" unicode="&#xa2;" 
d="M932 412l370.001 -40.999c-14 -66 -34 -118.667 -60 -158c-107.333 -163.333 -273.333 -245 -498 -245c-30 0 -89.667 2.66699 -179 8l-129 -366l-131 46l122 352c-116.667 36.667 -205.334 102.667 -266.001 198c-58 89.333 -87 197 -87 323
c0 171.333 53.667 308.333 161 411s247 154 419 154c26 0 75.667 -2.66699 149 -8l129 360l129 -47l-120 -337c122.667 -38.667 214.667 -104.334 276 -197.001c21.333 -32 43 -79.667 65 -143l-364 -49c-14 46.667 -37.667 85 -71 115l-194 -555c24 -3.33301 43 -5 57 -5
c113.333 0 187.333 61.333 222 184zM529.001 299.001l182.001 529c-8.66699 0.666992 -15.334 1 -20.001 1c-82 0 -143 -35.333 -183 -106c-31.333 -56 -47 -128.333 -47 -217c0 -84.667 22.667 -153.667 68 -207z" />
    <glyph glyph-name="sterling" unicode="&#xa3;" 
d="M676 845h303.001v-239h-268c-6 -104 -39.667 -191 -101 -261c37.333 8.66699 69.333 13 96 13c32.667 0 77 -6.66699 133 -20c73.333 -17.333 133 -26 179 -26c62.667 0 130 16.333 202 49l136 -298c-116 -58.667 -227.667 -88 -335 -88c-63.333 0 -135 11 -215 33
c-140.667 38.667 -233.667 58 -279 58c-86 0 -181 -30.333 -285 -91l-129 284c140 100.667 210 201.334 210 302.001c0 5.33301 -0.666992 20.333 -2 45h-208v239h149l-43 153c-4 19.333 -6 45.666 -6 78.999c0 81.333 21.667 155.5 65 222.5s102.333 115.833 177 146.5
c72 30 169.333 45 292 45c101.333 0 182.666 -9.66699 243.999 -29c80.667 -25.333 147 -71 199 -137c46 -60 77.667 -132.333 95 -217l-382 -60c-32 118 -82.667 177 -152 177c-86.667 0 -130 -48.667 -130 -146c0 -41.333 18.333 -119.333 55 -234z" />
    <glyph glyph-name="currency" unicode="&#xa4;" horiz-adv-x="1352" 
d="M305 1147l143.999 -142c74.667 38 148.667 57 222 57c74 0 148.333 -19 223 -57l140 142l211 -209l-141 -143c34.667 -72 52 -144.667 52 -218c0 -72 -17.333 -146.667 -52 -224l141 -140l-211 -213l-140 143c-81.333 -36 -156.666 -54 -225.999 -54
c-70 0 -143 18 -219 54l-137 -143l-214 213l141 140c-36 69.333 -54 141.333 -54 216c0 76 18 151.333 54 226l-141 143zM862.999 574c0 54 -18.499 99.499 -55.499 136.499s-82.5 55.5 -136.5 55.5c-53.333 0 -98.5 -18.667 -135.5 -56s-55.5 -82.666 -55.5 -135.999
s18.5 -98.5 55.5 -135.5s82.167 -55.5 135.5 -55.5s98.666 18.5 135.999 55.5s56 82.167 56 135.5z" />
    <glyph glyph-name="yen" unicode="&#xa5;" 
d="M-2 1466h457l229 -498l226 498h458l-349 -632h297v-221h-421v-121h421v-224h-421v-268h-416v268h-428v224h428v121h-428v221h306z" />
    <glyph glyph-name="brokenbar" unicode="&#xa6;" horiz-adv-x="569" 
d="M160 1466h255v-776h-255v776zM160 373h255v-777h-255v777z" />
    <glyph glyph-name="section" unicode="&#xa7;" 
d="M1211 1159l-382 -44c-23.333 70 -70.666 105 -141.999 105c-86 0 -129 -30.667 -129 -92c0 -22.667 9.33301 -42.667 28 -60c33.333 -30.667 111.333 -68.334 234 -113.001c148.667 -54 252.667 -102.333 312 -145c104 -74.667 156 -170 156 -286
c0 -110.667 -55 -213.334 -165 -308.001c69.333 -76 104 -160 104 -252c0 -156.667 -74 -270.334 -222 -341.001c-76.667 -36 -179.667 -54 -309 -54c-164 0 -290.333 26.333 -379 79c-76 44.667 -130.667 104 -164 178c-13.333 30 -25.333 70.333 -36 121l376 39
c46.667 -94 111.667 -141 195 -141c92 0 138 37 138 111c0 26.667 -13.667 53.667 -41 81c-42.667 42 -147.334 95.333 -314.001 160c-160 62 -267.667 125.333 -323 190s-83 133.334 -83 206.001c0 112 65.667 214.333 197 307c-64.667 71.333 -97 148.333 -97 231
c0 116.667 48.667 207.334 146 272.001c43.333 28.667 87.333 49.334 132 62.001c60.667 17.333 138.667 26 234 26c102 0 181.667 -7 239 -21c84.667 -20.667 151.667 -60.667 201 -120c40 -48 71.333 -111.667 94 -191zM446 764c-34.667 -46 -52 -82.998 -52 -110.998
c0 -17.333 5.66699 -32.333 17 -45c19.333 -22 65.333 -49.333 138 -82l385 -173c30 45.333 45 81.666 45 108.999c0 22 -9 41.667 -27 59c-26.667 26 -105 66.667 -235 122c-156.667 67.333 -247 107.666 -271 120.999z" />
    <glyph glyph-name="dieresis" unicode="&#xa8;" horiz-adv-x="682" 
d="M-2 1446h260v-250h-260v250zM422 1446h263v-250h-263v250z" />
    <glyph glyph-name="copyright" unicode="&#xa9;" horiz-adv-x="1638" 
d="M1585 728c0 -136.667 -33.999 -264 -101.999 -382s-161.167 -211 -279.5 -279s-245.833 -102 -382.5 -102s-263.834 34 -381.501 102s-210.667 161 -279 279s-102.5 245.333 -102.5 382s34.167 264 102.5 382s161.5 211 279.5 279s245 102 381 102
c137.333 0 264.833 -34 382.5 -102s210.667 -161.167 279 -279.5s102.5 -245.5 102.5 -381.5zM1437 728c0 171.333 -59.833 316.833 -179.5 436.5s-265.167 179.5 -436.5 179.5s-316.833 -59.833 -436.5 -179.5s-179.5 -265.167 -179.5 -436.5s59.833 -316.833 179.5 -436.5
s265.167 -179.5 436.5 -179.5s316.833 59.833 436.5 179.5s179.5 265.167 179.5 436.5zM999.001 634l205.999 -48.999c-25.333 -80.667 -60.333 -142.667 -105 -186c-70 -67.333 -161.333 -101 -274 -101c-126 0 -227.333 40.667 -304 122
c-74.667 79.333 -112 182.666 -112 309.999c0 122 39 223.5 117 304.5s178 121.5 300 121.5c91.333 0 170 -23.667 236 -71c70 -50 114.333 -118.333 133 -205l-197 -30c-24 106.667 -84.333 160 -181 160c-66.667 0 -115.667 -31 -147 -93
c-24.667 -48 -37 -108.667 -37 -182c0 -96 12 -164 36 -204c35.333 -58.667 85.333 -88 150 -88c92.667 0 152.334 63.667 179.001 191z" />
    <glyph glyph-name="ordfeminine" unicode="&#xaa;" horiz-adv-x="819" 
d="M761 761l-217.999 0.00195312c-10 20.667 -18 43 -24 67c-30.667 -28.667 -60.667 -48.667 -90 -60c-41.333 -16 -89.333 -24 -144 -24c-74.667 0 -134 16.667 -178 50c-49.333 38 -74 93 -74 165c0 74.667 29 130 87 166c38 23.333 101.333 43 190 59
c71.333 12.667 134.666 29 189.999 49c0 37.333 -7.5 63.166 -22.5 77.499s-41.167 21.5 -78.5 21.5c-61.333 0 -99.666 -26 -114.999 -78l-221 43c23.333 88 71.666 145.667 144.999 173c37.333 14 93 21 167 21c116 0 197.667 -11.333 245 -34
c70.667 -34.667 106 -102.334 106 -203.001v-337c0 -64.667 11.667 -116.667 35 -156zM500.001 1096c-2 -0.666992 -39.333 -10 -112 -28c-52 -13.333 -84.667 -26.333 -98 -39c-16 -14.667 -24 -32 -24 -52c0 -56 32.333 -84 97 -84c91.333 0 137 54.667 137 164v39z" />
    <glyph glyph-name="guillemotleft" unicode="&#xab;" 
d="M932 996h313l-277 -463l277 -462h-313l-318 462zM414 996h312l-277 -463l277 -462h-312l-319 462z" />
    <glyph glyph-name="logicalnot" unicode="&#xac;" horiz-adv-x="1352" 
d="M126 1133h1092v-817h-326v492h-766v325z" />
    <glyph glyph-name="minus" unicode="&#xad;" horiz-adv-x="1352" 
d="M127 895h1091v-324h-1091v324z" />
    <glyph glyph-name="minus" unicode="&#x2212;" horiz-adv-x="1352" 
d="M127 895h1091v-324h-1091v324z" />
    <glyph glyph-name="registered" unicode="&#xae;" horiz-adv-x="1638" 
d="M1585 728c0 -136.667 -33.999 -264 -101.999 -382s-161.167 -211 -279.5 -279s-245.833 -102 -382.5 -102s-263.834 34 -381.501 102s-210.667 161 -279 279s-102.5 245.333 -102.5 382s34.167 264 102.5 382s161.5 211 279.5 279s245 102 381 102
c137.333 0 264.833 -34 382.5 -102s210.667 -161.167 279 -279.5s102.5 -245.5 102.5 -381.5zM1437 728c0 171.333 -59.833 316.833 -179.5 436.5s-265.167 179.5 -436.5 179.5s-316.833 -59.833 -436.5 -179.5s-179.5 -265.167 -179.5 -436.5s59.833 -316.833 179.5 -436.5
s265.167 -179.5 436.5 -179.5s316.833 59.833 436.5 179.5s179.5 265.167 179.5 436.5zM475.001 1136l364.999 0.00195312c196 0 294 -76.667 294 -230c0 -118 -73.333 -194.333 -220 -229c31.333 -12 54.333 -24.667 69 -38c20.667 -18.667 42.334 -46.334 65.001 -83.001
c1.33301 -2.66699 45.333 -81.334 132 -236.001h-240c-59.333 118.667 -90.666 180.667 -93.999 186c-54.667 92 -102.334 138 -143.001 138c-6 0 -14.333 -1 -25 -3v-321h-203v816zM678 790.002h88c106.667 0 160 34 160 102s-50.667 102 -152 102h-96v-204z" />
    <glyph glyph-name="overscore" unicode="&#xaf;" horiz-adv-x="1024" 
d="M-12 1701h1048v-102h-1048v102z" />
    <glyph glyph-name="degree" unicode="&#xb0;" horiz-adv-x="819" 
d="M692 1206c0 -79.333 -28 -146.833 -84 -202.5s-123.667 -83.5 -203 -83.5s-146.833 27.833 -202.5 83.5s-83.5 123.167 -83.5 202.5s27.833 146.833 83.5 202.5s123.167 83.5 202.5 83.5c80 0 147.833 -27.667 203.5 -83s83.5 -123 83.5 -203zM506 1207
c0 28 -9.83301 52 -29.5 72s-43.5 30 -71.5 30s-52 -10 -72 -30s-30 -44 -30 -72s10 -51.833 30 -71.5s44 -29.5 72 -29.5s51.833 9.83301 71.5 29.5s29.5 43.5 29.5 71.5z" />
    <glyph glyph-name="plusminus" unicode="&#xb1;" horiz-adv-x="1352" 
d="M127 1072h383v373h323v-373h385v-315h-385v-356h-323v356h-383v315zM127 307h1091v-307h-1091v307z" />
    <glyph glyph-name="twosuperior" unicode="&#xb2;" horiz-adv-x="819" 
d="M791 741l-769 0.00195312c20.667 76 63.667 144 129 204c32 29.333 98.333 77.666 199 144.999c113.333 75.333 170 133.666 170 174.999c0 45.333 -30.667 68 -92 68c-68 0 -111.333 -37.667 -130 -113l-246 21c12 52.667 28 92.667 48 120c64 86.667 177 130 339 130
c90.667 0 166.667 -14.667 228 -44c80.667 -38.667 121 -98.667 121 -180c0 -90.667 -61.333 -172 -184 -244c-66.667 -38.667 -120.667 -71.667 -162 -99h349v-183z" />
    <glyph glyph-name="threesuperior" unicode="&#xb3;" horiz-adv-x="819" 
d="M301 1258l-258.001 40.001c38 73.333 90 125 156 155c55.333 25.333 129 38 221 38c120.667 0 211.334 -22.333 272.001 -67c43.333 -32 65 -73.333 65 -124c0 -35.333 -12 -68 -36 -98c-16.667 -20.667 -46.667 -41.334 -90 -62.001c104 -34 156 -99 156 -195
c0 -149.333 -125.333 -224 -376 -224c-127.333 0 -225 26 -293 78c-39.333 30 -68.333 74.667 -87 134l254 29c20 -60 60.667 -90 122 -90c31.333 0 58.333 7.33301 81 22c25.333 17.333 38 41 38 71c0 34 -18.667 60.333 -56 79c-21.333 10.667 -71 16.667 -149 18l28 141
c97.333 0 146 25.667 146 77c0 40.667 -27 61 -81 61c-56 0 -93.667 -27.667 -113 -83z" />
    <glyph glyph-name="acute" unicode="&#xb4;" horiz-adv-x="682" 
d="M331 1491h350l-323 -299h-195z" />
    <glyph glyph-name="mu1" unicode="&#xb5;" 
d="M120 1062l408.001 -0.000976562v-534c0 -75.333 10 -127.333 30 -156c30 -43.333 72.333 -65 127 -65c102 0 153 77.333 153 232v523h406v-1062h-382v84c-22 -37.333 -43.333 -62.666 -64 -75.999c-32.667 -21.333 -66.334 -32 -101.001 -32
c-32 0 -65.667 9.66699 -101 29c-23.333 12.667 -46 36.667 -68 72v-479h-408v1464z" />
    <glyph glyph-name="paragraph" unicode="&#xb6;" horiz-adv-x="1741" 
d="M1617 1466v-317h-131v-1556h-297v1556h-167v-1556h-297v1022h-69c-112.667 0 -201 11.333 -265 34c-87.333 30.667 -153.333 87 -198 169c-38.667 68.667 -58 146 -58 232c0 277.333 170 416 510 416h972z" />
    <glyph glyph-name="middot" unicode="&#xb7;" horiz-adv-x="683" 
d="M637 937h435v-408h-435v408z" />
    <glyph glyph-name="cedilla" unicode="&#xb8;" horiz-adv-x="682" 
d="M116 -165l29.999 118c62.667 15.333 121.334 23 176.001 23c200.667 0 301 -65 301 -195c0 -84 -45 -144.333 -135 -181c-50.667 -20.667 -118 -31 -202 -31c-76 0 -165.333 8.66699 -268 26v123c69.333 -13.333 143 -20 221 -20c98 0 147 27.667 147 83
c0 47.333 -34.333 71 -103 71c-47.333 0 -103 -5.66699 -167 -17z" />
    <glyph glyph-name="onesuperior" unicode="&#xb9;" horiz-adv-x="819" 
d="M627 1491v-750h-260v448c-62.667 -36.667 -138 -64 -226 -82v207c122.667 30 218.667 89 288 177h198z" />
    <glyph glyph-name="ordmasculine" unicode="&#xba;" horiz-adv-x="819" 
d="M23 1117c0 150.667 58.665 258.667 175.998 324c60 33.333 131.333 50 214 50c114.667 0 205.834 -34.167 273.501 -102.5s101.5 -159.833 101.5 -274.5c0 -111.333 -34.5 -201 -103.5 -269s-159.167 -102 -270.5 -102c-177.333 0 -294.666 66.333 -351.999 199
c-26 60 -39 118.333 -39 175zM270.998 1117c0 -133.333 46.667 -200 140 -200c87.333 0 131 66.667 131 200c0 135.333 -45 203 -135 203c-90.667 0 -136 -67.667 -136 -203z" />
    <glyph glyph-name="guillemotright" unicode="&#xbb;" 
d="M434 996h-313l277 -463l-277 -462h313l318 462zM952 996h-312l277 -463l-277 -462h312l319 462z" />
    <glyph glyph-name="onequarter" unicode="&#xbc;" horiz-adv-x="2048" 
d="M643 1491v-750h-260v448c-62.667 -36.667 -138 -64 -226 -82v207c122.667 30 218.667 89 288 177h198zM1400 1491h215l-922 -1544h-213zM1648 71h-408v189l418 461h214v-484h99v-166h-99v-121h-224v121zM1648 237v219l-204 -219h204z" />
    <glyph glyph-name="onehalf" unicode="&#xbd;" horiz-adv-x="2048" 
d="M643 1491v-750h-260v448c-62.667 -36.667 -138 -64 -226 -82v207c122.667 30 218.667 89 288 177h198zM1369 1491h215l-922 -1544h-213zM1990 -29l-769 0.00195312c20.667 76 63.667 144 129 204c32 29.333 98.333 77.666 199 144.999
c113.333 75.333 170 133.666 170 174.999c0 45.333 -30.667 68 -92 68c-68 0 -111.333 -37.667 -130 -113l-246 21c12 52.667 28 92.667 48 120c64 86.667 177 130 339 130c90.667 0 166.667 -14.667 228 -44c80.667 -38.667 121 -98.667 121 -180
c0 -90.667 -61.333 -172 -184 -244c-66.667 -38.667 -120.667 -71.667 -162 -99h349v-183z" />
    <glyph glyph-name="threequarters" unicode="&#xbe;" horiz-adv-x="2048" 
d="M340 1258l-258.001 40.001c38 73.333 90 125 156 155c55.333 25.333 129 38 221 38c120.667 0 211.334 -22.333 272.001 -67c43.333 -32 65 -73.333 65 -124c0 -35.333 -12 -68 -36 -98c-16.667 -20.667 -46.667 -41.334 -90 -62.001c104 -34 156 -99 156 -195
c0 -149.333 -125.333 -224 -376 -224c-127.333 0 -225 26 -293 78c-39.333 30 -68.333 74.667 -87 134l254 29c20 -60 60.667 -90 122 -90c31.333 0 58.333 7.33301 81 22c25.333 17.333 38 41 38 71c0 34 -18.667 60.333 -56 79c-21.333 10.667 -71 16.667 -149 18l28 141
c97.333 0 146 25.667 146 77c0 40.667 -27 61 -81 61c-56 0 -93.667 -27.667 -113 -83zM1425 1491h215l-922 -1544h-213zM1648 71.001h-408v189l418 461h214v-484h99v-166h-99v-121h-224v121zM1648 237.001v219l-204 -219h204z" />
    <glyph glyph-name="questiondown" unicode="&#xbf;" horiz-adv-x="1251" 
d="M466 602l379.998 -0.000976562v-38c0 -111.333 -29.333 -200.666 -88 -267.999c-30 -35.333 -95 -94 -195 -176c-54 -44.667 -81 -85 -81 -121c0 -77.333 43.667 -116 131 -116c102.667 0 161.667 70.333 177 211l388 -48c-29.333 -316.667 -219.666 -475 -570.999 -475
c-145.333 0 -262.666 30.333 -351.999 91c-121.333 82 -182 191.333 -182 328c0 72 25.333 140 76 204c32.667 42 87 93 163 153c57.333 45.333 95.333 81.333 114 108c26.667 38.667 40 87.667 40 147zM858.998 702.999h-407v359h407v-359z" />
    <glyph glyph-name="Agrave" unicode="&#xc0;" horiz-adv-x="1593" 
d="M1052 242h-516l-71 -242h-463l551 1466h494l551 -1466h-474zM957 559l-162 527l-161 -527h323zM457 1854h347l164 -298h-192z" />
    <glyph glyph-name="Aacute" unicode="&#xc1;" horiz-adv-x="1593" 
d="M1052 242h-516l-71 -242h-463l551 1466h494l551 -1466h-474zM957 559l-162 527l-161 -527h323zM787 1854h350l-323 -299h-195z" />
    <glyph glyph-name="Acircumflex" unicode="&#xc2;" horiz-adv-x="1593" 
d="M1052 242h-516l-71 -242h-463l551 1466h494l551 -1466h-474zM957 559l-162 527l-161 -527h323zM657 1841h289l222 -286h-248l-122 153l-122 -153h-248z" />
    <glyph glyph-name="Atilde" unicode="&#xc3;" horiz-adv-x="1593" 
d="M1052 242h-516l-71 -242h-463l551 1466h494l551 -1466h-474zM957 559l-162 527l-161 -527h323zM999 1829h158.002c0.666992 -17.333 1 -32.333 1 -45c0 -67.333 -16.333 -122 -49 -164c-35.333 -46 -85.666 -69 -150.999 -69c-42.667 0 -107.334 17.667 -194.001 53
c-52.667 21.333 -89 32 -109 32c-40 0 -60.667 -27.333 -62 -82h-156c-0.666992 16 -1 30 -1 42c0 63.333 17 117 51 161c37.333 48 86.666 72 147.999 72c39.333 0 99.666 -17 180.999 -51c55.333 -23.333 95.666 -35 120.999 -35c38.667 0 59.334 28.667 62.001 86z" />
    <glyph glyph-name="Adieresis" unicode="&#xc4;" horiz-adv-x="1593" 
d="M1052 242h-516l-71 -242h-463l551 1466h494l551 -1466h-474zM957 559l-162 527l-161 -527h323zM454 1809h260v-250h-260v250zM878 1809h263v-250h-263v250z" />
    <glyph glyph-name="Aring" unicode="&#xc5;" horiz-adv-x="1593" 
d="M587 1466c-21.333 37.333 -32.001 77.666 -32.001 120.999c0 66.667 23.333 123.5 70 170.5s103.334 70.5 170.001 70.5c67.333 0 124.333 -23.333 171 -70s70 -103.667 70 -171c0 -43.333 -11 -83.666 -33 -120.999h44l551 -1466h-474l-77 242h-506l-76 -242h-463
l551 1466h34zM691.999 1588c0 -29.333 9.83301 -53.999 29.5 -73.999s44.167 -30 73.5 -30c28.667 0 52.834 10 72.501 30s29.5 44.333 29.5 73s-9.83301 53 -29.5 73s-43.834 30 -72.501 30s-53 -9.83301 -73 -29.5s-30 -43.834 -30 -72.501zM944.999 577.001l-150 485
l-149 -485h299z" />
    <glyph glyph-name="AE" unicode="&#xc6;" horiz-adv-x="2048" 
d="M556 1466h1400v-313h-618v-233h562v-299h-562v-289h637v-332h-1063v263h-435l-97 -263h-456zM811 1169l-211 -572h312v572h-101z" />
    <glyph glyph-name="Ccedilla" unicode="&#xc7;" horiz-adv-x="1593" 
d="M1126 599l397 -120.001c-52.667 -221.333 -165.667 -370.666 -339 -447.999c-85.333 -38 -193.666 -57 -324.999 -57c-154 0 -278.667 21 -374 63c-110 48 -202.667 131.667 -278 251c-73.333 116.667 -110 266 -110 448c0 240 63.667 425.833 191 557.5
s310.666 197.5 549.999 197.5c175.333 0 316 -34.333 422 -103c112 -73.333 195 -191 249 -353l-400 -89c-14 44 -28.667 76.667 -44 98c-52.667 72 -124.667 108 -216 108c-102 0 -180.667 -41.333 -236 -124c-41.333 -62 -62 -158.333 -62 -289
c0 -128 15.667 -224.333 47 -289c44 -90.667 122.333 -136 235 -136c154 0 251.667 95 293 285zM572 -165.001l29.999 118c62.667 15.333 121.334 23 176.001 23c200.667 0 301 -65 301 -195c0 -84 -45 -144.333 -135 -181c-50.667 -20.667 -118 -31 -202 -31
c-76 0 -165.333 8.66699 -268 26v123c69.333 -13.333 143 -20 221 -20c98 0 147 27.667 147 83c0 47.333 -34.333 71 -103 71c-47.333 0 -103 -5.66699 -167 -17z" />
    <glyph glyph-name="Egrave" unicode="&#xc8;" horiz-adv-x="1479" 
d="M149 1466h1214v-313h-760v-233h705v-299h-705v-289h782v-332h-1236v1466zM400 1854h347l164 -298h-192z" />
    <glyph glyph-name="Eacute" unicode="&#xc9;" horiz-adv-x="1479" 
d="M149 1466h1214v-313h-760v-233h705v-299h-705v-289h782v-332h-1236v1466zM730 1854h350l-323 -299h-195z" />
    <glyph glyph-name="Ecircumflex" unicode="&#xca;" horiz-adv-x="1479" 
d="M149 1466h1214v-313h-760v-233h705v-299h-705v-289h782v-332h-1236v1466zM600 1841h289l222 -286h-248l-122 153l-122 -153h-248z" />
    <glyph glyph-name="Edieresis" unicode="&#xcb;" horiz-adv-x="1479" 
d="M149 1466h1214v-313h-760v-233h705v-299h-705v-289h782v-332h-1236v1466zM397 1809h260v-250h-260v250zM821 1809h263v-250h-263v250z" />
    <glyph glyph-name="Igrave" unicode="&#xcc;" horiz-adv-x="797" 
d="M168 1466h454v-1466h-454v1466zM59 1854h347l164 -298h-192z" />
    <glyph glyph-name="Iacute" unicode="&#xcd;" horiz-adv-x="797" 
d="M168 1466h454v-1466h-454v1466zM389 1854h350l-323 -299h-195z" />
    <glyph glyph-name="Icircumflex" unicode="&#xce;" horiz-adv-x="797" 
d="M168 1466h454v-1466h-454v1466zM259 1841h289l222 -286h-248l-122 153l-122 -153h-248z" />
    <glyph glyph-name="Idieresis" unicode="&#xcf;" horiz-adv-x="797" 
d="M168 1466h454v-1466h-454v1466zM56 1809h260v-250h-260v250zM480 1809h263v-250h-263v250z" />
    <glyph glyph-name="Eth" unicode="&#xd0;" horiz-adv-x="1593" 
d="M156 1466l672.999 -0.000976562c238.667 0 413.334 -69.333 524.001 -208c100.667 -126.667 151 -299.667 151 -519c0 -128.667 -12.333 -234.667 -37 -318c-32 -106 -87.667 -195 -167 -267c-62.667 -57.333 -130.667 -95.666 -204 -114.999c-98 -26 -187 -39 -267 -39
h-673v622h-154v221h154v623zM608.999 1134v-291h220v-221h-220v-289h111c80 0 138.667 7 176 21c54 20 94 60.333 120 121c22.667 52 34 136.667 34 254c0 138.667 -20 237.667 -60 297c-49.333 72 -139 108 -269 108h-112z" />
    <glyph glyph-name="Ntilde" unicode="&#xd1;" horiz-adv-x="1706" 
d="M153 1466h423l552 -811v811h427v-1466h-427l-549 805v-805h-426v1466zM1055 1829h158.002c0.666992 -17.333 1 -32.333 1 -45c0 -67.333 -16.333 -122 -49 -164c-35.333 -46 -85.666 -69 -150.999 -69c-42.667 0 -107.334 17.667 -194.001 53
c-52.667 21.333 -89 32 -109 32c-40 0 -60.667 -27.333 -62 -82h-156c-0.666992 16 -1 30 -1 42c0 63.333 17 117 51 161c37.333 48 86.666 72 147.999 72c39.333 0 99.666 -17 180.999 -51c55.333 -23.333 95.666 -35 120.999 -35c38.667 0 59.334 28.667 62.001 86z" />
    <glyph glyph-name="Ograve" unicode="&#xd2;" horiz-adv-x="1706" 
d="M93 732c0 239.333 66.332 425.667 198.999 559s318.667 200 558 200c240.667 0 427.334 -64 560.001 -192c134.667 -130 202 -315 202 -555c0 -326 -112 -551.667 -336 -677c-109.333 -61.333 -245.333 -92 -408 -92c-320 0 -544.667 109.667 -674 329
c-67.333 114 -101 256.667 -101 428zM545.999 730.001c0 -277.333 102.333 -416 307 -416c120 0 204 45.333 252 136c36 67.333 54 167.333 54 300c0 265.333 -103.333 398 -310 398c-202 0 -303 -139.333 -303 -418zM512.999 1854h347l164 -298h-192z" />
    <glyph glyph-name="Oacute" unicode="&#xd3;" horiz-adv-x="1706" 
d="M93 732c0 239.333 66.332 425.667 198.999 559s318.667 200 558 200c240.667 0 427.334 -64 560.001 -192c134.667 -130 202 -315 202 -555c0 -326 -112 -551.667 -336 -677c-109.333 -61.333 -245.333 -92 -408 -92c-320 0 -544.667 109.667 -674 329
c-67.333 114 -101 256.667 -101 428zM545.999 730.001c0 -277.333 102.333 -416 307 -416c120 0 204 45.333 252 136c36 67.333 54 167.333 54 300c0 265.333 -103.333 398 -310 398c-202 0 -303 -139.333 -303 -418zM842.999 1854h350l-323 -299h-195z" />
    <glyph glyph-name="Ocircumflex" unicode="&#xd4;" horiz-adv-x="1706" 
d="M93 732c0 239.333 66.332 425.667 198.999 559s318.667 200 558 200c240.667 0 427.334 -64 560.001 -192c134.667 -130 202 -315 202 -555c0 -326 -112 -551.667 -336 -677c-109.333 -61.333 -245.333 -92 -408 -92c-320 0 -544.667 109.667 -674 329
c-67.333 114 -101 256.667 -101 428zM545.999 730.001c0 -277.333 102.333 -416 307 -416c120 0 204 45.333 252 136c36 67.333 54 167.333 54 300c0 265.333 -103.333 398 -310 398c-202 0 -303 -139.333 -303 -418zM712.999 1841h289l222 -286h-248l-122 153l-122 -153
h-248z" />
    <glyph glyph-name="Otilde" unicode="&#xd5;" horiz-adv-x="1706" 
d="M93 732c0 239.333 66.332 425.667 198.999 559s318.667 200 558 200c240.667 0 427.334 -64 560.001 -192c134.667 -130 202 -315 202 -555c0 -326 -112 -551.667 -336 -677c-109.333 -61.333 -245.333 -92 -408 -92c-320 0 -544.667 109.667 -674 329
c-67.333 114 -101 256.667 -101 428zM545.999 730.001c0 -277.333 102.333 -416 307 -416c120 0 204 45.333 252 136c36 67.333 54 167.333 54 300c0 265.333 -103.333 398 -310 398c-202 0 -303 -139.333 -303 -418zM1055 1829h158.002c0.666992 -17.333 1 -32.333 1 -45
c0 -67.333 -16.333 -122 -49 -164c-35.333 -46 -85.666 -69 -150.999 -69c-42.667 0 -107.334 17.667 -194.001 53c-52.667 21.333 -89 32 -109 32c-40 0 -60.667 -27.333 -62 -82h-156c-0.666992 16 -1 30 -1 42c0 63.333 17 117 51 161c37.333 48 86.666 72 147.999 72
c39.333 0 99.666 -17 180.999 -51c55.333 -23.333 95.666 -35 120.999 -35c38.667 0 59.334 28.667 62.001 86z" />
    <glyph glyph-name="Odieresis" unicode="&#xd6;" horiz-adv-x="1706" 
d="M93 732c0 239.333 66.332 425.667 198.999 559s318.667 200 558 200c240.667 0 427.334 -64 560.001 -192c134.667 -130 202 -315 202 -555c0 -326 -112 -551.667 -336 -677c-109.333 -61.333 -245.333 -92 -408 -92c-320 0 -544.667 109.667 -674 329
c-67.333 114 -101 256.667 -101 428zM545.999 730.001c0 -277.333 102.333 -416 307 -416c120 0 204 45.333 252 136c36 67.333 54 167.333 54 300c0 265.333 -103.333 398 -310 398c-202 0 -303 -139.333 -303 -418zM509.999 1809h260v-250h-260v250zM933.999 1809h263
v-250h-263v250z" />
    <glyph glyph-name="multiply" unicode="&#xd7;" horiz-adv-x="1352" 
d="M355 1280l318 -315l315 315l232 -231l-317 -315l317 -319l-232 -229l-315 319l-318 -319l-230 229l318 319l-318 315z" />
    <glyph glyph-name="Oslash" unicode="&#xd8;" horiz-adv-x="1706" 
d="M1346 1352l174.001 164.003l151 -161l-173 -164c75.333 -114 113 -266 113 -456c0 -326.667 -115.667 -551.334 -347 -674.001c-108.667 -57.333 -245.334 -86 -410.001 -86c-117.333 0 -222.333 15 -315 45c-60 19.333 -119.333 51 -178 95l-175 -167l-151 159l176 168
c-79.333 123.333 -119 274.666 -119 453.999c0 239.333 66 426.166 198 560.499s317.333 201.5 556 201.5c210 0 376.667 -46.333 500 -139zM1054 1075c-50 48.667 -118.667 73 -206 73c-202 0 -303 -136.667 -303 -410c0 -45.333 3.33301 -91 10 -137zM1150 861.003
l-501.001 -474c48.667 -48.667 116.334 -73 203.001 -73c204 0 306 140 306 420c0 42.667 -2.66699 85 -8 127z" />
    <glyph glyph-name="Ugrave" unicode="&#xd9;" horiz-adv-x="1706" 
d="M1104 1466l452.001 -0.000976562v-874c0 -186.667 -55.667 -335.667 -167 -447c-58 -58 -118.667 -98.667 -182 -122c-88 -32.667 -193.667 -49 -317 -49c-202 0 -350.333 25 -445 75c-56.667 29.333 -108.334 71 -155.001 125s-79 110.667 -97 170
c-28 93.333 -42 176 -42 248v874h452v-895c0 -79.333 22 -141.666 66 -186.999s105.667 -68 185 -68s140.833 22.5 184.5 67.5s65.5 107.5 65.5 187.5v895zM513.001 1854h347l164 -298h-192z" />
    <glyph glyph-name="Uacute" unicode="&#xda;" horiz-adv-x="1706" 
d="M1104 1466l452.001 -0.000976562v-874c0 -186.667 -55.667 -335.667 -167 -447c-58 -58 -118.667 -98.667 -182 -122c-88 -32.667 -193.667 -49 -317 -49c-202 0 -350.333 25 -445 75c-56.667 29.333 -108.334 71 -155.001 125s-79 110.667 -97 170
c-28 93.333 -42 176 -42 248v874h452v-895c0 -79.333 22 -141.666 66 -186.999s105.667 -68 185 -68s140.833 22.5 184.5 67.5s65.5 107.5 65.5 187.5v895zM843.001 1854h350l-323 -299h-195z" />
    <glyph glyph-name="Ucircumflex" unicode="&#xdb;" horiz-adv-x="1706" 
d="M1104 1466l452.001 -0.000976562v-874c0 -186.667 -55.667 -335.667 -167 -447c-58 -58 -118.667 -98.667 -182 -122c-88 -32.667 -193.667 -49 -317 -49c-202 0 -350.333 25 -445 75c-56.667 29.333 -108.334 71 -155.001 125s-79 110.667 -97 170
c-28 93.333 -42 176 -42 248v874h452v-895c0 -79.333 22 -141.666 66 -186.999s105.667 -68 185 -68s140.833 22.5 184.5 67.5s65.5 107.5 65.5 187.5v895zM713.001 1841h289l222 -286h-248l-122 153l-122 -153h-248z" />
    <glyph glyph-name="Udieresis" unicode="&#xdc;" horiz-adv-x="1706" 
d="M1104 1466l452.001 -0.000976562v-874c0 -186.667 -55.667 -335.667 -167 -447c-58 -58 -118.667 -98.667 -182 -122c-88 -32.667 -193.667 -49 -317 -49c-202 0 -350.333 25 -445 75c-56.667 29.333 -108.334 71 -155.001 125s-79 110.667 -97 170
c-28 93.333 -42 176 -42 248v874h452v-895c0 -79.333 22 -141.666 66 -186.999s105.667 -68 185 -68s140.833 22.5 184.5 67.5s65.5 107.5 65.5 187.5v895zM510.001 1809h260v-250h-260v250zM934.001 1809h263v-250h-263v250z" />
    <glyph glyph-name="Yacute" unicode="&#xdd;" horiz-adv-x="1593" 
d="M2 1466h503l296 -495l296 495h500l-570 -852v-614h-454v614zM787 1854h350l-323 -299h-195z" />
    <glyph glyph-name="Thorn" unicode="&#xde;" horiz-adv-x="1479" 
d="M148 1466h455v-261l298 -1c327.333 0 491 -150 491 -450c0 -161.333 -51 -282 -153 -362c-92 -72.667 -221.333 -109 -388 -109h-248v-283h-455v1466zM603 580h111c158 0 237 54 237 162c0 110 -73 165 -219 165h-129v-327z" />
    <glyph glyph-name="germandbls" unicode="&#xdf;" 
d="M119 0l-0.000976562 1017c0 201.333 74.667 339.333 224 414c79.333 40 185 60 317 60c122 0 222.333 -19.333 301 -58c104 -50.667 156 -130.667 156 -240c0 -50 -19.5 -116 -58.5 -198s-58.5 -133.333 -58.5 -154c0 -34.667 23.333 -73.334 70 -116.001
c87.333 -80 149.333 -157.667 186 -233c25.333 -52 38 -111.333 38 -178c0 -104 -35 -187 -105 -249c-67.333 -59.333 -153.666 -89 -258.999 -89c-82 0 -152.667 14 -212 42c-44 20.667 -88 56.667 -132 108l233 138c23.333 -29.333 46.333 -44 69 -44
c54 0 81 26.667 81 80c0 32 -28.667 79 -86 141l-121 118c-52 50 -88.333 95 -109 135c-13.333 25.333 -20 54 -20 86c0 38.667 19.667 97.167 59 175.5s59 136.833 59 175.5c0 31.333 -10.5 56.5 -31.5 75.5s-47.5 28.5 -79.5 28.5c-88 0 -132 -70 -132 -210v-1025h-389z
" />
    <glyph glyph-name="agrave" unicode="&#xe0;" 
d="M494 718l-389.002 41c26 122 87 209.333 183 262c78.667 43.333 200.667 65 366 65c112.667 0 196.334 -4.33301 251.001 -13c98 -14.667 174 -45.667 228 -93c34.667 -30.667 62.667 -74.334 84 -131.001c18.667 -52 28 -103.333 28 -154v-469
c0 -80.667 17 -156 51 -226h-382c-22 39.333 -36.667 82.666 -44 129.999c-54 -52 -107 -88.667 -159 -110c-71.333 -29.333 -155 -44 -251 -44c-107.333 0 -195.666 23.333 -264.999 70c-81.333 54.667 -122 133 -122 235c0 96.667 32.667 171 98 223
c50.667 40 129 70.667 235 92c112.667 22.667 187 38.334 223 47.001c83.333 19.333 156 41.333 218 66c0 50.667 -10.5 85.834 -31.5 105.501s-57.167 29.5 -108.5 29.5c-66.667 0 -116.667 -10.667 -150 -32c-26 -16.667 -47 -48 -63 -94zM846.998 504
c-51.333 -18 -109.667 -35.665 -175 -52.998c-57.333 -15.333 -98 -29.333 -122 -42c-46 -24.667 -69 -57.334 -69 -98.001c0 -72.667 44 -109 132 -109c41.333 0 81.333 9.66699 120 29c42 21.333 72 49.666 90 84.999c16 31.333 24 72.333 24 123v65zM342.997 1491h347
l164 -298h-192z" />
    <glyph glyph-name="aacute" unicode="&#xe1;" 
d="M494 718l-389.002 41c26 122 87 209.333 183 262c78.667 43.333 200.667 65 366 65c112.667 0 196.334 -4.33301 251.001 -13c98 -14.667 174 -45.667 228 -93c34.667 -30.667 62.667 -74.334 84 -131.001c18.667 -52 28 -103.333 28 -154v-469
c0 -80.667 17 -156 51 -226h-382c-22 39.333 -36.667 82.666 -44 129.999c-54 -52 -107 -88.667 -159 -110c-71.333 -29.333 -155 -44 -251 -44c-107.333 0 -195.666 23.333 -264.999 70c-81.333 54.667 -122 133 -122 235c0 96.667 32.667 171 98 223
c50.667 40 129 70.667 235 92c112.667 22.667 187 38.334 223 47.001c83.333 19.333 156 41.333 218 66c0 50.667 -10.5 85.834 -31.5 105.501s-57.167 29.5 -108.5 29.5c-66.667 0 -116.667 -10.667 -150 -32c-26 -16.667 -47 -48 -63 -94zM846.998 504
c-51.333 -18 -109.667 -35.665 -175 -52.998c-57.333 -15.333 -98 -29.333 -122 -42c-46 -24.667 -69 -57.334 -69 -98.001c0 -72.667 44 -109 132 -109c41.333 0 81.333 9.66699 120 29c42 21.333 72 49.666 90 84.999c16 31.333 24 72.333 24 123v65zM672.997 1491h350
l-323 -299h-195z" />
    <glyph glyph-name="acircumflex" unicode="&#xe2;" 
d="M494 718l-389.002 41c26 122 87 209.333 183 262c78.667 43.333 200.667 65 366 65c112.667 0 196.334 -4.33301 251.001 -13c98 -14.667 174 -45.667 228 -93c34.667 -30.667 62.667 -74.334 84 -131.001c18.667 -52 28 -103.333 28 -154v-469
c0 -80.667 17 -156 51 -226h-382c-22 39.333 -36.667 82.666 -44 129.999c-54 -52 -107 -88.667 -159 -110c-71.333 -29.333 -155 -44 -251 -44c-107.333 0 -195.666 23.333 -264.999 70c-81.333 54.667 -122 133 -122 235c0 96.667 32.667 171 98 223
c50.667 40 129 70.667 235 92c112.667 22.667 187 38.334 223 47.001c83.333 19.333 156 41.333 218 66c0 50.667 -10.5 85.834 -31.5 105.501s-57.167 29.5 -108.5 29.5c-66.667 0 -116.667 -10.667 -150 -32c-26 -16.667 -47 -48 -63 -94zM846.998 504
c-51.333 -18 -109.667 -35.665 -175 -52.998c-57.333 -15.333 -98 -29.333 -122 -42c-46 -24.667 -69 -57.334 -69 -98.001c0 -72.667 44 -109 132 -109c41.333 0 81.333 9.66699 120 29c42 21.333 72 49.666 90 84.999c16 31.333 24 72.333 24 123v65zM542.997 1478h289
l222 -286h-248l-122 153l-122 -153h-248z" />
    <glyph glyph-name="atilde" unicode="&#xe3;" 
d="M494 718l-389.002 41c26 122 87 209.333 183 262c78.667 43.333 200.667 65 366 65c112.667 0 196.334 -4.33301 251.001 -13c98 -14.667 174 -45.667 228 -93c34.667 -30.667 62.667 -74.334 84 -131.001c18.667 -52 28 -103.333 28 -154v-469
c0 -80.667 17 -156 51 -226h-382c-22 39.333 -36.667 82.666 -44 129.999c-54 -52 -107 -88.667 -159 -110c-71.333 -29.333 -155 -44 -251 -44c-107.333 0 -195.666 23.333 -264.999 70c-81.333 54.667 -122 133 -122 235c0 96.667 32.667 171 98 223
c50.667 40 129 70.667 235 92c112.667 22.667 187 38.334 223 47.001c83.333 19.333 156 41.333 218 66c0 50.667 -10.5 85.834 -31.5 105.501s-57.167 29.5 -108.5 29.5c-66.667 0 -116.667 -10.667 -150 -32c-26 -16.667 -47 -48 -63 -94zM846.998 504
c-51.333 -18 -109.667 -35.665 -175 -52.998c-57.333 -15.333 -98 -29.333 -122 -42c-46 -24.667 -69 -57.334 -69 -98.001c0 -72.667 44 -109 132 -109c41.333 0 81.333 9.66699 120 29c42 21.333 72 49.666 90 84.999c16 31.333 24 72.333 24 123v65zM884.997 1466
h158.002c0.666992 -17.333 1 -32.333 1 -45c0 -67.333 -16.333 -122 -49 -164c-35.333 -46 -85.666 -69 -150.999 -69c-42.667 0 -107.334 17.667 -194.001 53c-52.667 21.333 -89 32 -109 32c-40 0 -60.667 -27.333 -62 -82h-156c-0.666992 16 -1 30 -1 42
c0 63.333 17 117 51 161c37.333 48 86.666 72 147.999 72c39.333 0 99.666 -17 180.999 -51c55.333 -23.333 95.666 -35 120.999 -35c38.667 0 59.334 28.667 62.001 86z" />
    <glyph glyph-name="adieresis" unicode="&#xe4;" 
d="M494 718l-389.002 41c26 122 87 209.333 183 262c78.667 43.333 200.667 65 366 65c112.667 0 196.334 -4.33301 251.001 -13c98 -14.667 174 -45.667 228 -93c34.667 -30.667 62.667 -74.334 84 -131.001c18.667 -52 28 -103.333 28 -154v-469
c0 -80.667 17 -156 51 -226h-382c-22 39.333 -36.667 82.666 -44 129.999c-54 -52 -107 -88.667 -159 -110c-71.333 -29.333 -155 -44 -251 -44c-107.333 0 -195.666 23.333 -264.999 70c-81.333 54.667 -122 133 -122 235c0 96.667 32.667 171 98 223
c50.667 40 129 70.667 235 92c112.667 22.667 187 38.334 223 47.001c83.333 19.333 156 41.333 218 66c0 50.667 -10.5 85.834 -31.5 105.501s-57.167 29.5 -108.5 29.5c-66.667 0 -116.667 -10.667 -150 -32c-26 -16.667 -47 -48 -63 -94zM846.998 504
c-51.333 -18 -109.667 -35.665 -175 -52.998c-57.333 -15.333 -98 -29.333 -122 -42c-46 -24.667 -69 -57.334 -69 -98.001c0 -72.667 44 -109 132 -109c41.333 0 81.333 9.66699 120 29c42 21.333 72 49.666 90 84.999c16 31.333 24 72.333 24 123v65zM339.997 1446h260
v-250h-260v250zM763.997 1446h263v-250h-263v250z" />
    <glyph glyph-name="aring" unicode="&#xe5;" 
d="M494 718l-389.002 41c26 122 87 209.333 183 262c78.667 43.333 200.667 65 366 65c112.667 0 196.334 -4.33301 251.001 -13c98 -14.667 174 -45.667 228 -93c34.667 -30.667 62.667 -74.334 84 -131.001c18.667 -52 28 -103.333 28 -154v-469
c0 -80.667 17 -156 51 -226h-382c-22 39.333 -36.667 82.666 -44 129.999c-54 -52 -107 -88.667 -159 -110c-71.333 -29.333 -155 -44 -251 -44c-107.333 0 -195.666 23.333 -264.999 70c-81.333 54.667 -122 133 -122 235c0 96.667 32.667 171 98 223
c50.667 40 129 70.667 235 92c112.667 22.667 187 38.334 223 47.001c83.333 19.333 156 41.333 218 66c0 50.667 -10.5 85.834 -31.5 105.501s-57.167 29.5 -108.5 29.5c-66.667 0 -116.667 -10.667 -150 -32c-26 -16.667 -47 -48 -63 -94zM846.998 504
c-51.333 -18 -109.667 -35.665 -175 -52.998c-57.333 -15.333 -98 -29.333 -122 -42c-46 -24.667 -69 -57.334 -69 -98.001c0 -72.667 44 -109 132 -109c41.333 0 81.333 9.66699 120 29c42 21.333 72 49.666 90 84.999c16 31.333 24 72.333 24 123v65zM922.997 1403
c0 -66.667 -23.333 -123.332 -70 -169.999s-103.334 -70 -170.001 -70c-67.333 0 -124.333 23.167 -171 69.5s-70 103.166 -70 170.499s23.333 124.333 70 171s103.667 70 171 70c66.667 0 123.334 -23.5 170.001 -70.5s70 -103.833 70 -170.5zM784.997 1404
c0 28.667 -10 53 -30 73s-44.333 30 -73 30s-53 -10 -73 -30s-30 -44.333 -30 -73s10 -53 30 -73s44.333 -30 73 -30s53 10 73 30s30 44.333 30 73z" />
    <glyph glyph-name="ae" unicode="&#xe6;" horiz-adv-x="2048" 
d="M1990 431l-771.001 0.000976562c7.33301 -64 23 -111.667 47 -143c36.667 -47.333 84.667 -71 144 -71c62.667 0 115.334 33.333 158.001 100l397 -35c-59.333 -110 -135.333 -189.333 -228 -238c-86 -45.333 -194.333 -68 -325 -68c-110 0 -204.667 16 -284 48
c-60 24 -117.667 64 -173 120c-153.333 -112 -313 -168 -479 -168c-114.667 0 -207.667 22.333 -279 67c-85.333 53.333 -128 134 -128 242c0 96.667 37.667 172.334 113 227.001c42.667 31.333 89.667 55.666 141 72.999c40.667 14 98 27.333 172 40
c88 15.333 146 26.666 174 33.999c45.333 11.333 97.333 27 156 47c-1.33301 53.333 -12.333 89.666 -33 108.999s-57.667 29 -111 29c-102 0 -164 -42.333 -186 -127l-391 45c19.333 70.667 42 124 68 160c79.333 110 235 165 467 165c105.333 0 192 -9.33301 260 -28
c48.667 -13.333 102.334 -39 161.001 -77c110 69.333 225.333 104 346 104c195.333 0 343.666 -54.333 444.999 -163c46.667 -50.667 80 -101 100 -151c26 -65.333 39 -156.666 39 -273.999v-67zM1584 626.001c-11.333 144.667 -70.668 217 -178.001 217
s-170.666 -72.333 -189.999 -217h368zM824.997 507.001l-124.998 -40.999c-13.333 -4.66699 -27.333 -8.33398 -42 -11.001c-118.667 -22 -178 -67.333 -178 -136c0 -33.333 11.667 -60 35 -80s51.666 -30 84.999 -30c93.333 0 160.666 37.667 201.999 113
c15.333 28 23 64.333 23 109v76z" />
    <glyph glyph-name="ccedilla" unicode="&#xe7;" 
d="M915 415l387 -43.998c-44 -166.667 -141 -282.334 -291 -347.001c-76 -32.667 -172.333 -49 -289 -49c-214.667 0 -373 44.667 -475 134c-115.333 100 -173 239 -173 417c0 177.333 56 316.333 168 417c47.333 42 96 73.333 146 94c79.333 32.667 181 49 305 49
c152.667 0 274.667 -25 366 -75c106.667 -58.667 180.667 -155.334 222 -290.001l-383 -51c-24 91.333 -88.333 137 -193 137c-78.667 0 -137.667 -30.333 -177 -91c-32.667 -50.667 -49 -117.667 -49 -201c0 -76.667 17.333 -138.667 52 -186
c38.667 -54 94.667 -81 168 -81c108.667 0 180.667 55.667 216 167zM458 -164.998l29.999 118c62.667 15.333 121.334 23 176.001 23c200.667 0 301 -65 301 -195c0 -84 -45 -144.333 -135 -181c-50.667 -20.667 -118 -31 -202 -31c-76 0 -165.333 8.66699 -268 26v123
c69.333 -13.333 143 -20 221 -20c98 0 147 27.667 147 83c0 47.333 -34.333 71 -103 71c-47.333 0 -103 -5.66699 -167 -17z" />
    <glyph glyph-name="egrave" unicode="&#xe8;" 
d="M1302 430l-815.998 0.00195312c7.33301 -64.667 25 -113.334 53 -146.001c40 -46 91.333 -69 154 -69c40.667 0 78.667 10 114 30c21.333 12 45 34.333 71 67l401 -37c-66.667 -116.667 -149.334 -197.334 -248.001 -242.001c-84.667 -38 -200.334 -57 -347.001 -57
c-126 0 -227.667 16 -305 48c-93.333 38 -169 105 -227 201c-53.333 86 -80 187.333 -80 304c0 175.333 56.667 313.333 170 414c108.667 95.333 252 143 430 143c279.333 0 466.333 -89.667 561 -269c46 -87.333 69 -201 69 -341v-46zM888.002 625.002
c-14.667 146.667 -80.999 220.001 -198.999 220.001c-64 0 -115.667 -25.667 -155 -77c-24.667 -32.667 -40.334 -80.334 -47.001 -143.001h401zM343.003 1491h347l164 -298h-192z" />
    <glyph glyph-name="eacute" unicode="&#xe9;" 
d="M1302 430l-815.998 0.00195312c7.33301 -64.667 25 -113.334 53 -146.001c40 -46 91.333 -69 154 -69c40.667 0 78.667 10 114 30c21.333 12 45 34.333 71 67l401 -37c-66.667 -116.667 -149.334 -197.334 -248.001 -242.001c-84.667 -38 -200.334 -57 -347.001 -57
c-126 0 -227.667 16 -305 48c-93.333 38 -169 105 -227 201c-53.333 86 -80 187.333 -80 304c0 175.333 56.667 313.333 170 414c108.667 95.333 252 143 430 143c279.333 0 466.333 -89.667 561 -269c46 -87.333 69 -201 69 -341v-46zM888.002 625.002
c-14.667 146.667 -80.999 220.001 -198.999 220.001c-64 0 -115.667 -25.667 -155 -77c-24.667 -32.667 -40.334 -80.334 -47.001 -143.001h401zM673.003 1491h350l-323 -299h-195z" />
    <glyph glyph-name="ecircumflex" unicode="&#xea;" 
d="M1302 430l-815.998 0.00195312c7.33301 -64.667 25 -113.334 53 -146.001c40 -46 91.333 -69 154 -69c40.667 0 78.667 10 114 30c21.333 12 45 34.333 71 67l401 -37c-66.667 -116.667 -149.334 -197.334 -248.001 -242.001c-84.667 -38 -200.334 -57 -347.001 -57
c-126 0 -227.667 16 -305 48c-93.333 38 -169 105 -227 201c-53.333 86 -80 187.333 -80 304c0 175.333 56.667 313.333 170 414c108.667 95.333 252 143 430 143c279.333 0 466.333 -89.667 561 -269c46 -87.333 69 -201 69 -341v-46zM888.002 625.002
c-14.667 146.667 -80.999 220.001 -198.999 220.001c-64 0 -115.667 -25.667 -155 -77c-24.667 -32.667 -40.334 -80.334 -47.001 -143.001h401zM543.003 1478h289l222 -286h-248l-122 153l-122 -153h-248z" />
    <glyph glyph-name="edieresis" unicode="&#xeb;" 
d="M1302 430l-815.998 0.00195312c7.33301 -64.667 25 -113.334 53 -146.001c40 -46 91.333 -69 154 -69c40.667 0 78.667 10 114 30c21.333 12 45 34.333 71 67l401 -37c-66.667 -116.667 -149.334 -197.334 -248.001 -242.001c-84.667 -38 -200.334 -57 -347.001 -57
c-126 0 -227.667 16 -305 48c-93.333 38 -169 105 -227 201c-53.333 86 -80 187.333 -80 304c0 175.333 56.667 313.333 170 414c108.667 95.333 252 143 430 143c279.333 0 466.333 -89.667 561 -269c46 -87.333 69 -201 69 -341v-46zM888.002 625.002
c-14.667 146.667 -80.999 220.001 -198.999 220.001c-64 0 -115.667 -25.667 -155 -77c-24.667 -32.667 -40.334 -80.334 -47.001 -143.001h401zM340.003 1446h260v-250h-260v250zM764.003 1446h263v-250h-263v250z" />
    <glyph glyph-name="igrave" unicode="&#xec;" horiz-adv-x="682" 
d="M138 1062h407v-1062h-407v1062zM1 1491h347l164 -298h-192z" />
    <glyph glyph-name="iacute" unicode="&#xed;" horiz-adv-x="682" 
d="M138 1062h407v-1062h-407v1062zM331 1491h350l-323 -299h-195z" />
    <glyph glyph-name="icircumflex" unicode="&#xee;" horiz-adv-x="682" 
d="M138 1062h407v-1062h-407v1062zM201 1478h289l222 -286h-248l-122 153l-122 -153h-248z" />
    <glyph glyph-name="idieresis" unicode="&#xef;" horiz-adv-x="682" 
d="M138 1062h407v-1062h-407v1062zM-2 1446h260v-250h-260v250zM422 1446h263v-250h-263v250z" />
    <glyph glyph-name="eth" unicode="&#xf0;" 
d="M321 1200l253 89.999c-76.667 75.333 -155 134 -235 176h412c40 -21.333 77.667 -45.333 113 -72l203 72l37 -101l-146 -54c221.333 -224 332 -467 332 -729c0 -189.333 -53.167 -337.666 -159.5 -444.999s-254.166 -161 -443.499 -161c-268.667 0 -450 93.333 -544 280
c-45.333 89.333 -68 181 -68 275c0 96.667 21.333 185.667 64 267c44.667 85.333 107.167 150.666 187.5 195.999s161.166 68 242.499 68c40.667 0 79.667 -5.66699 117 -17c24.667 -7.33301 56 -22.666 94 -45.999c-45.333 79.333 -88.333 146.333 -129 201l-293 -107z
M483 527.999c0 -75.333 13.668 -137.332 41.001 -185.999c34.667 -60.667 86.667 -91 156 -91c73.333 0 128.333 32.667 165 98c28.667 52.667 43 118.667 43 198c0 73.333 -15.333 133 -46 179c-36 54 -89 81 -159 81c-70.667 0 -123.334 -30.333 -158.001 -91
c-28 -48.667 -42 -111.334 -42 -188.001z" />
    <glyph glyph-name="ntilde" unicode="&#xf1;" 
d="M123 1062h379v-173c55.333 69.333 111 119 167 149c60.667 32 133 48 217 48c240 0 360 -137 360 -411v-675h-409v584c0 122 -47 183 -141 183c-110.667 0 -166 -85.667 -166 -257v-510h-407v1062zM885 1466h158.002c0.666992 -17.333 1 -32.333 1 -45
c0 -67.333 -16.333 -122 -49 -164c-35.333 -46 -85.666 -69 -150.999 -69c-42.667 0 -107.334 17.667 -194.001 53c-52.667 21.333 -89 32 -109 32c-40 0 -60.667 -27.333 -62 -82h-156c-0.666992 16 -1 30 -1 42c0 63.333 17 117 51 161c37.333 48 86.666 72 147.999 72
c39.333 0 99.666 -17 180.999 -51c55.333 -23.333 95.666 -35 120.999 -35c38.667 0 59.334 28.667 62.001 86z" />
    <glyph glyph-name="ograve" unicode="&#xf2;" 
d="M73 528c0 172.667 58.666 309.998 175.999 411.998c112 97.333 255.667 146 431 146c212.667 0 373.334 -61.667 482.001 -185c87.333 -99.333 131 -221.666 131 -366.999c0 -176 -59 -314.333 -177 -415c-111.333 -95.333 -256.333 -143 -435 -143
c-171.333 0 -309.333 43.333 -414 130c-129.333 106.667 -194 247.334 -194 422.001zM480.999 528.998c0 -76.667 14.333 -139.332 43 -187.999c34.667 -60 87.667 -90 159 -90c134 0 201 94 201 282c0 74 -14 135.333 -42 184c-34.667 59.333 -86.667 89 -156 89
c-72 0 -125.667 -29.667 -161 -89c-29.333 -48.667 -44 -111.334 -44 -188.001zM342.999 1491h347l164 -298h-192z" />
    <glyph glyph-name="oacute" unicode="&#xf3;" 
d="M73 528c0 172.667 58.666 309.998 175.999 411.998c112 97.333 255.667 146 431 146c212.667 0 373.334 -61.667 482.001 -185c87.333 -99.333 131 -221.666 131 -366.999c0 -176 -59 -314.333 -177 -415c-111.333 -95.333 -256.333 -143 -435 -143
c-171.333 0 -309.333 43.333 -414 130c-129.333 106.667 -194 247.334 -194 422.001zM480.999 528.998c0 -76.667 14.333 -139.332 43 -187.999c34.667 -60 87.667 -90 159 -90c134 0 201 94 201 282c0 74 -14 135.333 -42 184c-34.667 59.333 -86.667 89 -156 89
c-72 0 -125.667 -29.667 -161 -89c-29.333 -48.667 -44 -111.334 -44 -188.001zM672.999 1491h350l-323 -299h-195z" />
    <glyph glyph-name="ocircumflex" unicode="&#xf4;" 
d="M73 528c0 172.667 58.666 309.998 175.999 411.998c112 97.333 255.667 146 431 146c212.667 0 373.334 -61.667 482.001 -185c87.333 -99.333 131 -221.666 131 -366.999c0 -176 -59 -314.333 -177 -415c-111.333 -95.333 -256.333 -143 -435 -143
c-171.333 0 -309.333 43.333 -414 130c-129.333 106.667 -194 247.334 -194 422.001zM480.999 528.998c0 -76.667 14.333 -139.332 43 -187.999c34.667 -60 87.667 -90 159 -90c134 0 201 94 201 282c0 74 -14 135.333 -42 184c-34.667 59.333 -86.667 89 -156 89
c-72 0 -125.667 -29.667 -161 -89c-29.333 -48.667 -44 -111.334 -44 -188.001zM542.999 1478h289l222 -286h-248l-122 153l-122 -153h-248z" />
    <glyph glyph-name="otilde" unicode="&#xf5;" 
d="M73 528c0 172.667 58.666 309.998 175.999 411.998c112 97.333 255.667 146 431 146c212.667 0 373.334 -61.667 482.001 -185c87.333 -99.333 131 -221.666 131 -366.999c0 -176 -59 -314.333 -177 -415c-111.333 -95.333 -256.333 -143 -435 -143
c-171.333 0 -309.333 43.333 -414 130c-129.333 106.667 -194 247.334 -194 422.001zM480.999 528.998c0 -76.667 14.333 -139.332 43 -187.999c34.667 -60 87.667 -90 159 -90c134 0 201 94 201 282c0 74 -14 135.333 -42 184c-34.667 59.333 -86.667 89 -156 89
c-72 0 -125.667 -29.667 -161 -89c-29.333 -48.667 -44 -111.334 -44 -188.001zM884.999 1466h158.002c0.666992 -17.333 1 -32.333 1 -45c0 -67.333 -16.333 -122 -49 -164c-35.333 -46 -85.666 -69 -150.999 -69c-42.667 0 -107.334 17.667 -194.001 53
c-52.667 21.333 -89 32 -109 32c-40 0 -60.667 -27.333 -62 -82h-156c-0.666992 16 -1 30 -1 42c0 63.333 17 117 51 161c37.333 48 86.666 72 147.999 72c39.333 0 99.666 -17 180.999 -51c55.333 -23.333 95.666 -35 120.999 -35c38.667 0 59.334 28.667 62.001 86z" />
    <glyph glyph-name="odieresis" unicode="&#xf6;" 
d="M73 528c0 172.667 58.666 309.998 175.999 411.998c112 97.333 255.667 146 431 146c212.667 0 373.334 -61.667 482.001 -185c87.333 -99.333 131 -221.666 131 -366.999c0 -176 -59 -314.333 -177 -415c-111.333 -95.333 -256.333 -143 -435 -143
c-171.333 0 -309.333 43.333 -414 130c-129.333 106.667 -194 247.334 -194 422.001zM480.999 528.998c0 -76.667 14.333 -139.332 43 -187.999c34.667 -60 87.667 -90 159 -90c134 0 201 94 201 282c0 74 -14 135.333 -42 184c-34.667 59.333 -86.667 89 -156 89
c-72 0 -125.667 -29.667 -161 -89c-29.333 -48.667 -44 -111.334 -44 -188.001zM339.999 1446h260v-250h-260v250zM763.999 1446h263v-250h-263v250z" />
    <glyph glyph-name="divide" unicode="&#xf7;" horiz-adv-x="1352" 
d="M470 1356h401v-369h-401v369zM127 896h1091v-326h-1091v326zM470 478h401v-373h-401v373z" />
    <glyph glyph-name="oslash" unicode="&#xf8;" 
d="M1153 1156l103.996 -94.0029l-124 -136c52 -43.333 92 -103.333 120 -180c26 -68.667 39 -140 39 -214c0 -172.667 -57.333 -309.667 -172 -411c-109.333 -96.667 -251.666 -145 -426.999 -145c-75.333 0 -141.666 6.33301 -198.999 19
c-39.333 8.66699 -89 27.334 -149 56.001l-133 -148l-105 97l127 135c-107.333 114.667 -161 245 -161 391c0 172.667 57.667 310.334 173 413.001c110.667 98 253.334 147 428.001 147c74.667 0 141.334 -7 200.001 -21c39.333 -9.33301 88 -28.666 146 -57.999z
M820.996 784.997c-18.667 18 -34.667 29.667 -48 35c-26 10.667 -55.333 16 -88 16c-81.333 0 -142.333 -33.667 -183 -101c-32.667 -54.667 -49 -125.667 -49 -213c0 -35.333 5.66699 -77.333 17 -126zM544.996 269.997c22.667 -18 40.667 -29.333 54 -34
c26 -9.33301 55.333 -14 88 -14c81.333 0 141.333 35 180 105c30 55.333 45 127.333 45 216c0 34 -5.66699 73 -17 117z" />
    <glyph glyph-name="ugrave" unicode="&#xf9;" 
d="M1242 0l-380 -0.000976562v172c-55.333 -69.333 -111 -118.666 -167 -147.999c-60 -32 -132.333 -48 -217 -48c-239.333 0 -359 136.667 -359 410v676h409v-584c0 -122.667 47 -184 141 -184c110.667 0 166 85.667 166 257v511h407v-1062zM343 1491h347l164 -298h-192z
" />
    <glyph glyph-name="uacute" unicode="&#xfa;" 
d="M1242 0l-380 -0.000976562v172c-55.333 -69.333 -111 -118.666 -167 -147.999c-60 -32 -132.333 -48 -217 -48c-239.333 0 -359 136.667 -359 410v676h409v-584c0 -122.667 47 -184 141 -184c110.667 0 166 85.667 166 257v511h407v-1062zM673 1491h350l-323 -299h-195z
" />
    <glyph glyph-name="ucircumflex" unicode="&#xfb;" 
d="M1242 0l-380 -0.000976562v172c-55.333 -69.333 -111 -118.666 -167 -147.999c-60 -32 -132.333 -48 -217 -48c-239.333 0 -359 136.667 -359 410v676h409v-584c0 -122.667 47 -184 141 -184c110.667 0 166 85.667 166 257v511h407v-1062zM543 1478h289l222 -286h-248
l-122 153l-122 -153h-248z" />
    <glyph glyph-name="udieresis" unicode="&#xfc;" 
d="M1242 0l-380 -0.000976562v172c-55.333 -69.333 -111 -118.666 -167 -147.999c-60 -32 -132.333 -48 -217 -48c-239.333 0 -359 136.667 -359 410v676h409v-584c0 -122.667 47 -184 141 -184c110.667 0 166 85.667 166 257v511h407v-1062zM340 1446h260v-250h-260v250z
M764 1446h263v-250h-263v250z" />
    <glyph glyph-name="yacute" unicode="&#xfd;" horiz-adv-x="1251" 
d="M5 1062l430.002 -0.000976562l219 -707l203 707h401l-421 -1135c-48 -129.333 -97 -216.666 -147 -261.999c-70.667 -64 -178.334 -96 -323.001 -96c-58.667 0 -149.334 8 -272.001 24l-32 284c58.667 -18.667 124 -28 196 -28c91.333 0 155.333 50.333 192 151z
M616.002 1491h350l-323 -299h-195z" />
    <glyph glyph-name="thorn" unicode="&#xfe;" 
d="M125 -404v1870h411v-507c80.667 84.667 181.334 127 302.001 127c151.333 0 267.666 -58.333 348.999 -175c71.333 -102 107 -232.333 107 -391c0 -154.667 -35.333 -280.667 -106 -378c-79.333 -110.667 -193.333 -166 -342 -166c-124.667 0 -228 42.333 -310 127v-507
h-411zM533 528c0 -69.333 13.333 -125.667 40 -169c32.667 -52.667 81.667 -79 147 -79c111.333 0 167 85.667 167 257c0 66.667 -11.667 122 -35 166c-30 56 -75.667 84 -137 84c-121.333 0 -182 -86.333 -182 -259z" />
    <glyph glyph-name="ydieresis" unicode="&#xff;" horiz-adv-x="1251" 
d="M5 1062l430.002 -0.000976562l219 -707l203 707h401l-421 -1135c-48 -129.333 -97 -216.666 -147 -261.999c-70.667 -64 -178.334 -96 -323.001 -96c-58.667 0 -149.334 8 -272.001 24l-32 284c58.667 -18.667 124 -28 196 -28c91.333 0 155.333 50.333 192 151z
M283.002 1446h260v-250h-260v250zM707.002 1446h263v-250h-263v250z" />
    <glyph glyph-name="Amacron" unicode="&#x100;" horiz-adv-x="1593" 
d="M1052 242h-516l-71 -242h-463l551 1466h494l551 -1466h-474zM957 559l-162 527l-161 -527h323zM470 1786h647v-217h-647v217z" />
    <glyph glyph-name="amacron" unicode="&#x101;" 
d="M494 718l-389.002 41c26 122 87 209.333 183 262c78.667 43.333 200.667 65 366 65c112.667 0 196.334 -4.33301 251.001 -13c98 -14.667 174 -45.667 228 -93c34.667 -30.667 62.667 -74.334 84 -131.001c18.667 -52 28 -103.333 28 -154v-469
c0 -80.667 17 -156 51 -226h-382c-22 39.333 -36.667 82.666 -44 129.999c-54 -52 -107 -88.667 -159 -110c-71.333 -29.333 -155 -44 -251 -44c-107.333 0 -195.666 23.333 -264.999 70c-81.333 54.667 -122 133 -122 235c0 96.667 32.667 171 98 223
c50.667 40 129 70.667 235 92c112.667 22.667 187 38.334 223 47.001c83.333 19.333 156 41.333 218 66c0 50.667 -10.5 85.834 -31.5 105.501s-57.167 29.5 -108.5 29.5c-66.667 0 -116.667 -10.667 -150 -32c-26 -16.667 -47 -48 -63 -94zM846.998 504
c-51.333 -18 -109.667 -35.665 -175 -52.998c-57.333 -15.333 -98 -29.333 -122 -42c-46 -24.667 -69 -57.334 -69 -98.001c0 -72.667 44 -109 132 -109c41.333 0 81.333 9.66699 120 29c42 21.333 72 49.666 90 84.999c16 31.333 24 72.333 24 123v65zM361.997 1446h647
v-217h-647v217z" />
    <glyph glyph-name="Abreve" unicode="&#x102;" horiz-adv-x="1593" 
d="M1052 242h-516l-71 -242h-463l551 1466h494l551 -1466h-474zM957 559l-162 527l-161 -527h323zM971 1862h164.999c-8 -125.333 -62.333 -213 -163 -263c-52.667 -26 -109.667 -39 -171 -39c-99.333 0 -179.333 25.667 -240 77c-62.667 52.667 -99 127.667 -109 225h172
c24.667 -71.333 80.667 -107 168 -107c50.667 0 88.334 6 113.001 18c31.333 16 53 45.667 65 89z" />
    <glyph glyph-name="abreve" unicode="&#x103;" 
d="M494 718l-389.002 41c26 122 87 209.333 183 262c78.667 43.333 200.667 65 366 65c112.667 0 196.334 -4.33301 251.001 -13c98 -14.667 174 -45.667 228 -93c34.667 -30.667 62.667 -74.334 84 -131.001c18.667 -52 28 -103.333 28 -154v-469
c0 -80.667 17 -156 51 -226h-382c-22 39.333 -36.667 82.666 -44 129.999c-54 -52 -107 -88.667 -159 -110c-71.333 -29.333 -155 -44 -251 -44c-107.333 0 -195.666 23.333 -264.999 70c-81.333 54.667 -122 133 -122 235c0 96.667 32.667 171 98 223
c50.667 40 129 70.667 235 92c112.667 22.667 187 38.334 223 47.001c83.333 19.333 156 41.333 218 66c0 50.667 -10.5 85.834 -31.5 105.501s-57.167 29.5 -108.5 29.5c-66.667 0 -116.667 -10.667 -150 -32c-26 -16.667 -47 -48 -63 -94zM846.998 504
c-51.333 -18 -109.667 -35.665 -175 -52.998c-57.333 -15.333 -98 -29.333 -122 -42c-46 -24.667 -69 -57.334 -69 -98.001c0 -72.667 44 -109 132 -109c41.333 0 81.333 9.66699 120 29c42 21.333 72 49.666 90 84.999c16 31.333 24 72.333 24 123v65zM860.997 1491
h164.999c-8 -125.333 -62.333 -213 -163 -263c-52.667 -26 -109.667 -39 -171 -39c-99.333 0 -179.333 25.667 -240 77c-62.667 52.667 -99 127.667 -109 225h172c24.667 -71.333 80.667 -107 168 -107c50.667 0 88.334 6 113.001 18c31.333 16 53 45.667 65 89z" />
    <glyph glyph-name="Aogonek" unicode="&#x104;" horiz-adv-x="1593" 
d="M1052 242h-516l-71 -242h-463l551 1466h494l551 -1466h-474zM957 559l-162 527l-161 -527h323zM1223 26h169.001c-13.333 -58 -20 -106 -20 -144c0 -102.667 46.667 -154 140 -154c31.333 0 74 8.66699 128 26v-155c-82.667 -30.667 -153.334 -46 -212.001 -46
c-76 0 -136.667 19.667 -182 59c-47.333 42 -71 100.333 -71 175c0 59.333 16 139 48 239z" />
    <glyph glyph-name="aogonek" unicode="&#x105;" 
d="M494 718l-389.002 41c26 122 87 209.333 183 262c78.667 43.333 200.667 65 366 65c112.667 0 196.334 -4.33301 251.001 -13c98 -14.667 174 -45.667 228 -93c34.667 -30.667 62.667 -74.334 84 -131.001c18.667 -52 28 -103.333 28 -154v-469
c0 -80.667 17 -156 51 -226h-382c-22 39.333 -36.667 82.666 -44 129.999c-54 -52 -107 -88.667 -159 -110c-71.333 -29.333 -155 -44 -251 -44c-107.333 0 -195.666 23.333 -264.999 70c-81.333 54.667 -122 133 -122 235c0 96.667 32.667 171 98 223
c50.667 40 129 70.667 235 92c112.667 22.667 187 38.334 223 47.001c83.333 19.333 156 41.333 218 66c0 50.667 -10.5 85.834 -31.5 105.501s-57.167 29.5 -108.5 29.5c-66.667 0 -116.667 -10.667 -150 -32c-26 -16.667 -47 -48 -63 -94zM846.998 504
c-51.333 -18 -109.667 -35.665 -175 -52.998c-57.333 -15.333 -98 -29.333 -122 -42c-46 -24.667 -69 -57.334 -69 -98.001c0 -72.667 44 -109 132 -109c41.333 0 81.333 9.66699 120 29c42 21.333 72 49.666 90 84.999c16 31.333 24 72.333 24 123v65zM919.997 26.002
h169.001c-13.333 -58 -20 -106 -20 -144c0 -102.667 46.667 -154 140 -154c31.333 0 74 8.66699 128 26v-155c-82.667 -30.667 -153.334 -46 -212.001 -46c-76 0 -136.667 19.667 -182 59c-47.333 42 -71 100.333 -71 175c0 59.333 16 139 48 239z" />
    <glyph glyph-name="Cacute" unicode="&#x106;" horiz-adv-x="1593" 
d="M1126 599l397 -120.001c-52.667 -221.333 -165.667 -370.666 -339 -447.999c-85.333 -38 -193.666 -57 -324.999 -57c-154 0 -278.667 21 -374 63c-110 48 -202.667 131.667 -278 251c-73.333 116.667 -110 266 -110 448c0 240 63.667 425.833 191 557.5
s310.666 197.5 549.999 197.5c175.333 0 316 -34.333 422 -103c112 -73.333 195 -191 249 -353l-400 -89c-14 44 -28.667 76.667 -44 98c-52.667 72 -124.667 108 -216 108c-102 0 -180.667 -41.333 -236 -124c-41.333 -62 -62 -158.333 -62 -289
c0 -128 15.667 -224.333 47 -289c44 -90.667 122.333 -136 235 -136c154 0 251.667 95 293 285zM831 1854h350l-323 -299h-195z" />
    <glyph glyph-name="cacute" unicode="&#x107;" 
d="M915 415l387 -43.998c-44 -166.667 -141 -282.334 -291 -347.001c-76 -32.667 -172.333 -49 -289 -49c-214.667 0 -373 44.667 -475 134c-115.333 100 -173 239 -173 417c0 177.333 56 316.333 168 417c47.333 42 96 73.333 146 94c79.333 32.667 181 49 305 49
c152.667 0 274.667 -25 366 -75c106.667 -58.667 180.667 -155.334 222 -290.001l-383 -51c-24 91.333 -88.333 137 -193 137c-78.667 0 -137.667 -30.333 -177 -91c-32.667 -50.667 -49 -117.667 -49 -201c0 -76.667 17.333 -138.667 52 -186
c38.667 -54 94.667 -81 168 -81c108.667 0 180.667 55.667 216 167zM773 1491h350l-323 -299h-195z" />
    <glyph glyph-name="Ccircumflex" unicode="&#x108;" horiz-adv-x="1593" 
d="M1126 599l397 -120.001c-52.667 -221.333 -165.667 -370.666 -339 -447.999c-85.333 -38 -193.666 -57 -324.999 -57c-154 0 -278.667 21 -374 63c-110 48 -202.667 131.667 -278 251c-73.333 116.667 -110 266 -110 448c0 240 63.667 425.833 191 557.5
s310.666 197.5 549.999 197.5c175.333 0 316 -34.333 422 -103c112 -73.333 195 -191 249 -353l-400 -89c-14 44 -28.667 76.667 -44 98c-52.667 72 -124.667 108 -216 108c-102 0 -180.667 -41.333 -236 -124c-41.333 -62 -62 -158.333 -62 -289
c0 -128 15.667 -224.333 47 -289c44 -90.667 122.333 -136 235 -136c154 0 251.667 95 293 285zM681 1858h289l222 -286h-248l-122 153l-122 -153h-248z" />
    <glyph glyph-name="ccircumflex" unicode="&#x109;" 
d="M915 415l387 -43.998c-44 -166.667 -141 -282.334 -291 -347.001c-76 -32.667 -172.333 -49 -289 -49c-214.667 0 -373 44.667 -475 134c-115.333 100 -173 239 -173 417c0 177.333 56 316.333 168 417c47.333 42 96 73.333 146 94c79.333 32.667 181 49 305 49
c152.667 0 274.667 -25 366 -75c106.667 -58.667 180.667 -155.334 222 -290.001l-383 -51c-24 91.333 -88.333 137 -193 137c-78.667 0 -137.667 -30.333 -177 -91c-32.667 -50.667 -49 -117.667 -49 -201c0 -76.667 17.333 -138.667 52 -186
c38.667 -54 94.667 -81 168 -81c108.667 0 180.667 55.667 216 167zM561 1478h289l222 -286h-248l-122 153l-122 -153h-248z" />
    <glyph glyph-name="Cdot" unicode="&#x10a;" horiz-adv-x="1593" 
d="M1126 599l397 -120.001c-52.667 -221.333 -165.667 -370.666 -339 -447.999c-85.333 -38 -193.666 -57 -324.999 -57c-154 0 -278.667 21 -374 63c-110 48 -202.667 131.667 -278 251c-73.333 116.667 -110 266 -110 448c0 240 63.667 425.833 191 557.5
s310.666 197.5 549.999 197.5c175.333 0 316 -34.333 422 -103c112 -73.333 195 -191 249 -353l-400 -89c-14 44 -28.667 76.667 -44 98c-52.667 72 -124.667 108 -216 108c-102 0 -180.667 -41.333 -236 -124c-41.333 -62 -62 -158.333 -62 -289
c0 -128 15.667 -224.333 47 -289c44 -90.667 122.333 -136 235 -136c154 0 251.667 95 293 285zM660 1868h314v-300h-314v300z" />
    <glyph glyph-name="cdot" unicode="&#x10b;" 
d="M915 415l387 -43.998c-44 -166.667 -141 -282.334 -291 -347.001c-76 -32.667 -172.333 -49 -289 -49c-214.667 0 -373 44.667 -475 134c-115.333 100 -173 239 -173 417c0 177.333 56 316.333 168 417c47.333 42 96 73.333 146 94c79.333 32.667 181 49 305 49
c152.667 0 274.667 -25 366 -75c106.667 -58.667 180.667 -155.334 222 -290.001l-383 -51c-24 91.333 -88.333 137 -193 137c-78.667 0 -137.667 -30.333 -177 -91c-32.667 -50.667 -49 -117.667 -49 -201c0 -76.667 17.333 -138.667 52 -186
c38.667 -54 94.667 -81 168 -81c108.667 0 180.667 55.667 216 167zM536 1496h314v-300h-314v300z" />
    <glyph glyph-name="Ccaron" unicode="&#x10c;" horiz-adv-x="1593" 
d="M1126 599l397 -120.001c-52.667 -221.333 -165.667 -370.666 -339 -447.999c-85.333 -38 -193.666 -57 -324.999 -57c-154 0 -278.667 21 -374 63c-110 48 -202.667 131.667 -278 251c-73.333 116.667 -110 266 -110 448c0 240 63.667 425.833 191 557.5
s310.666 197.5 549.999 197.5c175.333 0 316 -34.333 422 -103c112 -73.333 195 -191 249 -353l-400 -89c-14 44 -28.667 76.667 -44 98c-52.667 72 -124.667 108 -216 108c-102 0 -180.667 -41.333 -236 -124c-41.333 -62 -62 -158.333 -62 -289
c0 -128 15.667 -224.333 47 -289c44 -90.667 122.333 -136 235 -136c154 0 251.667 95 293 285zM982 1555h-288l-222 286h247l122 -153l122 153h249z" />
    <glyph glyph-name="ccaron" unicode="&#x10d;" 
d="M915 415l387 -43.998c-44 -166.667 -141 -282.334 -291 -347.001c-76 -32.667 -172.333 -49 -289 -49c-214.667 0 -373 44.667 -475 134c-115.333 100 -173 239 -173 417c0 177.333 56 316.333 168 417c47.333 42 96 73.333 146 94c79.333 32.667 181 49 305 49
c152.667 0 274.667 -25 366 -75c106.667 -58.667 180.667 -155.334 222 -290.001l-383 -51c-24 91.333 -88.333 137 -193 137c-78.667 0 -137.667 -30.333 -177 -91c-32.667 -50.667 -49 -117.667 -49 -201c0 -76.667 17.333 -138.667 52 -186
c38.667 -54 94.667 -81 168 -81c108.667 0 180.667 55.667 216 167zM844 1192h-288l-222 286h247l122 -153l122 153h249z" />
    <glyph glyph-name="Dcaron" unicode="&#x10e;" horiz-adv-x="1593" 
d="M156 1466h672.999c238.667 0 413.334 -69.667 524.001 -209c101.333 -128 152 -301 152 -519c0 -127.333 -12.333 -232.333 -37 -315c-31.333 -105.333 -86.333 -194 -165 -266c-63.333 -58.667 -131.333 -97.667 -204 -117c-100 -26.667 -190 -40 -270 -40h-673v1466z
M608.999 1134v-801.001h111c80 0 138.667 7 176 21c54 20 94 60.333 120 121c22.667 52 34 136.667 34 254c0 138.667 -20 237.334 -60 296.001c-48.667 72.667 -138 109 -268 109h-113zM915.999 1562h-288l-222 286h247l122 -153l122 153h249z" />
    <glyph glyph-name="dcaron" unicode="&#x10f;" horiz-adv-x="1728" 
d="M1241 1466v-1466h-381v157c-53.333 -66.667 -102 -111.667 -146 -135c-58 -30.667 -123.333 -46 -196 -46c-148 0 -262 59.667 -342 179c-69.333 102.667 -104 231.667 -104 387c0 154.667 35.333 280.667 106 378c79.333 110.667 193.333 166 342 166
c126.667 0 230 -42.667 310 -128v508h411zM833 534c0 69.333 -13.666 125.667 -40.999 169c-32.667 52.667 -81.334 79 -146.001 79c-111.333 0 -167 -85.667 -167 -257c0 -167.333 57.333 -251 172 -251c121.333 0 182 86.667 182 260zM1423 1466h269.999v-196
c0 -74 -16.333 -132.333 -49 -175c-29.333 -40 -79.333 -75.333 -150 -106l-71 104c80.667 36 121.334 81.667 122.001 137h-122v236z" />
    <glyph glyph-name="Dslash" unicode="&#x110;" horiz-adv-x="1593" 
d="M156 1466l672.999 -0.000976562c238.667 0 413.334 -69.333 524.001 -208c100.667 -126.667 151 -299.667 151 -519c0 -128.667 -12.333 -234.667 -37 -318c-32 -106 -87.667 -195 -167 -267c-62.667 -57.333 -130.667 -95.666 -204 -114.999c-98 -26 -187 -39 -267 -39
h-673v622h-154v221h154v623zM608.999 1134v-291h220v-221h-220v-289h111c80 0 138.667 7 176 21c54 20 94 60.333 120 121c22.667 52 34 136.667 34 254c0 138.667 -20 237.667 -60 297c-49.333 72 -139 108 -269 108h-112z" />
    <glyph glyph-name="dcroat" unicode="&#x111;" 
d="M1241 1350h184v-163h-184v-1187h-381v157c-53.333 -66.667 -102 -111.667 -146 -135c-58 -30.667 -123.333 -46 -196 -46c-148 0 -262 59.667 -342 179c-69.333 102.667 -104 231.667 -104 387c0 154.667 35.333 280.667 106 378c79.333 110.667 193.333 166 342 166
c126.667 0 230 -42.667 310 -128v229h-306v163h306v116h411v-116zM833 534c0 69.333 -13.666 125.667 -40.999 169c-32.667 52.667 -81.334 79 -146.001 79c-111.333 0 -167 -85.667 -167 -257c0 -167.333 57.333 -251 172 -251c121.333 0 182 86.667 182 260z" />
    <glyph glyph-name="Emacron" unicode="&#x112;" horiz-adv-x="1479" 
d="M149 1466h1214v-313h-760v-233h705v-299h-705v-289h782v-332h-1236v1466zM450 1786h647v-217h-647v217z" />
    <glyph glyph-name="emacron" unicode="&#x113;" 
d="M1302 430l-815.998 0.00195312c7.33301 -64.667 25 -113.334 53 -146.001c40 -46 91.333 -69 154 -69c40.667 0 78.667 10 114 30c21.333 12 45 34.333 71 67l401 -37c-66.667 -116.667 -149.334 -197.334 -248.001 -242.001c-84.667 -38 -200.334 -57 -347.001 -57
c-126 0 -227.667 16 -305 48c-93.333 38 -169 105 -227 201c-53.333 86 -80 187.333 -80 304c0 175.333 56.667 313.333 170 414c108.667 95.333 252 143 430 143c279.333 0 466.333 -89.667 561 -269c46 -87.333 69 -201 69 -341v-46zM888.002 625.002
c-14.667 146.667 -80.999 220.001 -198.999 220.001c-64 0 -115.667 -25.667 -155 -77c-24.667 -32.667 -40.334 -80.334 -47.001 -143.001h401zM378.003 1446h647v-217h-647v217z" />
    <glyph glyph-name="Ebreve" unicode="&#x114;" horiz-adv-x="1479" 
d="M149 1466h1214v-313h-760v-233h705v-299h-705v-289h782v-332h-1236v1466zM934 1871h164.999c-8 -125.333 -62.333 -213 -163 -263c-52.667 -26 -109.667 -39 -171 -39c-99.333 0 -179.333 25.667 -240 77c-62.667 52.667 -99 127.667 -109 225h172
c24.667 -71.333 80.667 -107 168 -107c50.667 0 88.334 6 113.001 18c31.333 16 53 45.667 65 89z" />
    <glyph glyph-name="ebreve" unicode="&#x115;" 
d="M1302 430l-815.998 0.00195312c7.33301 -64.667 25 -113.334 53 -146.001c40 -46 91.333 -69 154 -69c40.667 0 78.667 10 114 30c21.333 12 45 34.333 71 67l401 -37c-66.667 -116.667 -149.334 -197.334 -248.001 -242.001c-84.667 -38 -200.334 -57 -347.001 -57
c-126 0 -227.667 16 -305 48c-93.333 38 -169 105 -227 201c-53.333 86 -80 187.333 -80 304c0 175.333 56.667 313.333 170 414c108.667 95.333 252 143 430 143c279.333 0 466.333 -89.667 561 -269c46 -87.333 69 -201 69 -341v-46zM888.002 625.002
c-14.667 146.667 -80.999 220.001 -198.999 220.001c-64 0 -115.667 -25.667 -155 -77c-24.667 -32.667 -40.334 -80.334 -47.001 -143.001h401zM846.003 1491h164.999c-8 -125.333 -62.333 -213 -163 -263c-52.667 -26 -109.667 -39 -171 -39
c-99.333 0 -179.333 25.667 -240 77c-62.667 52.667 -99 127.667 -109 225h172c24.667 -71.333 80.667 -107 168 -107c50.667 0 88.334 6 113.001 18c31.333 16 53 45.667 65 89z" />
    <glyph glyph-name="Edot" unicode="&#x116;" horiz-adv-x="1479" 
d="M149 1466h1214v-313h-760v-233h705v-299h-705v-289h782v-332h-1236v1466zM616 1868h314v-300h-314v300z" />
    <glyph glyph-name="edot" unicode="&#x117;" 
d="M1302 430l-815.998 0.00195312c7.33301 -64.667 25 -113.334 53 -146.001c40 -46 91.333 -69 154 -69c40.667 0 78.667 10 114 30c21.333 12 45 34.333 71 67l401 -37c-66.667 -116.667 -149.334 -197.334 -248.001 -242.001c-84.667 -38 -200.334 -57 -347.001 -57
c-126 0 -227.667 16 -305 48c-93.333 38 -169 105 -227 201c-53.333 86 -80 187.333 -80 304c0 175.333 56.667 313.333 170 414c108.667 95.333 252 143 430 143c279.333 0 466.333 -89.667 561 -269c46 -87.333 69 -201 69 -341v-46zM888.002 625.002
c-14.667 146.667 -80.999 220.001 -198.999 220.001c-64 0 -115.667 -25.667 -155 -77c-24.667 -32.667 -40.334 -80.334 -47.001 -143.001h401zM536.003 1496h314v-300h-314v300z" />
    <glyph glyph-name="Eogonek" unicode="&#x118;" horiz-adv-x="1479" 
d="M149 1466h1214v-313h-760v-233h705v-299h-705v-289h782v-332h-1236v1466zM923 26h169.001c-13.333 -58 -20 -106 -20 -144c0 -102.667 46.667 -154 140 -154c31.333 0 74 8.66699 128 26v-155c-82.667 -30.667 -153.334 -46 -212.001 -46c-76 0 -136.667 19.667 -182 59
c-47.333 42 -71 100.333 -71 175c0 59.333 16 139 48 239z" />
    <glyph glyph-name="eogonek" unicode="&#x119;" 
d="M1302 430l-815.998 0.00195312c7.33301 -64.667 25 -113.334 53 -146.001c40 -46 91.333 -69 154 -69c40.667 0 78.667 10 114 30c21.333 12 45 34.333 71 67l401 -37c-66.667 -116.667 -149.334 -197.334 -248.001 -242.001c-84.667 -38 -200.334 -57 -347.001 -57
c-126 0 -227.667 16 -305 48c-93.333 38 -169 105 -227 201c-53.333 86 -80 187.333 -80 304c0 175.333 56.667 313.333 170 414c108.667 95.333 252 143 430 143c279.333 0 466.333 -89.667 561 -269c46 -87.333 69 -201 69 -341v-46zM888.002 625.002
c-14.667 146.667 -80.999 220.001 -198.999 220.001c-64 0 -115.667 -25.667 -155 -77c-24.667 -32.667 -40.334 -80.334 -47.001 -143.001h401zM622.003 26.0029h169.001c-13.333 -58 -20 -106 -20 -144c0 -102.667 46.667 -154 140 -154c31.333 0 74 8.66699 128 26v-155
c-82.667 -30.667 -153.334 -46 -212.001 -46c-76 0 -136.667 19.667 -182 59c-47.333 42 -71 100.333 -71 175c0 59.333 16 139 48 239z" />
    <glyph glyph-name="Ecaron" unicode="&#x11a;" horiz-adv-x="1479" 
d="M149 1466h1214v-313h-760v-233h705v-299h-705v-289h782v-332h-1236v1466zM913 1562h-288l-222 286h247l122 -153l122 153h249z" />
    <glyph glyph-name="ecaron" unicode="&#x11b;" 
d="M1302 430l-815.998 0.00195312c7.33301 -64.667 25 -113.334 53 -146.001c40 -46 91.333 -69 154 -69c40.667 0 78.667 10 114 30c21.333 12 45 34.333 71 67l401 -37c-66.667 -116.667 -149.334 -197.334 -248.001 -242.001c-84.667 -38 -200.334 -57 -347.001 -57
c-126 0 -227.667 16 -305 48c-93.333 38 -169 105 -227 201c-53.333 86 -80 187.333 -80 304c0 175.333 56.667 313.333 170 414c108.667 95.333 252 143 430 143c279.333 0 466.333 -89.667 561 -269c46 -87.333 69 -201 69 -341v-46zM888.002 625.002
c-14.667 146.667 -80.999 220.001 -198.999 220.001c-64 0 -115.667 -25.667 -155 -77c-24.667 -32.667 -40.334 -80.334 -47.001 -143.001h401zM824.003 1192h-288l-222 286h247l122 -153l122 153h249z" />
    <glyph glyph-name="Gcircumflex" unicode="&#x11c;" horiz-adv-x="1706" 
d="M887 531l-0.00292969 305h700v-625c-127.333 -86.667 -241 -147 -341 -181c-108 -36.667 -235 -55 -381 -55c-332 0 -558.667 118 -680 354c-60.667 117.333 -91 252 -91 404c0 334 129.667 563 389 687c98.667 47.333 232.334 71 401.001 71
c130.667 0 232.334 -9 305.001 -27c107.333 -26.667 193.666 -77.667 258.999 -153c52.667 -62 92.334 -140.333 119.001 -235l-437 -78c-37.333 114 -122.666 171 -255.999 171c-217.333 0 -326 -143.667 -326 -431c0 -294.667 113 -442 339 -442
c93.333 0 194.333 32.333 303 97v138h-303zM736.997 1858h289l222 -286h-248l-122 153l-122 -153h-248z" />
    <glyph glyph-name="gcircumflex" unicode="&#x11d;" 
d="M862 1062l381.002 -0.000976562l1 -1050c1.33301 -64 -12.667 -127.667 -42 -191c-56.667 -119.333 -154 -195 -292 -227c-72.667 -16.667 -155.667 -25 -249 -25c-162 0 -286 19.333 -372 58c-124.667 56 -187 154.333 -187 295c0 13.333 0.666992 31.333 2 54l395 -45
c10 -36.667 25.333 -62 46 -76c30 -20.667 67.667 -31 113 -31c116.667 0 175 70.333 175 211v161c-40 -47.333 -80 -81.666 -120 -102.999c-62.667 -33.333 -130.334 -50 -203.001 -50c-142 0 -256.667 62 -344 186c-62 88 -93 204.333 -93 349
c0 148.667 34.333 268 103 358c76.667 100 187 150 331 150c80.667 0 148.167 -13.833 202.5 -41.5s105.166 -74.167 152.499 -139.5v157zM479.002 546.999c0 -150.667 59.333 -226 178 -226c60.667 0 107 24.333 139 73c26.667 40.667 40 93.334 40 158.001
c0 65.333 -14.333 119.666 -43 162.999c-33.333 50.667 -81 76 -143 76c-114 0 -171 -81.333 -171 -244zM541.002 1478h289l222 -286h-248l-122 153l-122 -153h-248z" />
    <glyph glyph-name="Gbreve" unicode="&#x11e;" horiz-adv-x="1706" 
d="M887 531l-0.00292969 305h700v-625c-127.333 -86.667 -241 -147 -341 -181c-108 -36.667 -235 -55 -381 -55c-332 0 -558.667 118 -680 354c-60.667 117.333 -91 252 -91 404c0 334 129.667 563 389 687c98.667 47.333 232.334 71 401.001 71
c130.667 0 232.334 -9 305.001 -27c107.333 -26.667 193.666 -77.667 258.999 -153c52.667 -62 92.334 -140.333 119.001 -235l-437 -78c-37.333 114 -122.666 171 -255.999 171c-217.333 0 -326 -143.667 -326 -431c0 -294.667 113 -442 339 -442
c93.333 0 194.333 32.333 303 97v138h-303zM1030 1854h164.999c-8 -125.333 -62.333 -213 -163 -263c-52.667 -26 -109.667 -39 -171 -39c-99.333 0 -179.333 25.667 -240 77c-62.667 52.667 -99 127.667 -109 225h172c24.667 -71.333 80.667 -107 168 -107
c50.667 0 88.334 6 113.001 18c31.333 16 53 45.667 65 89z" />
    <glyph glyph-name="gbreve" unicode="&#x11f;" 
d="M862 1062l381.002 -0.000976562l1 -1050c1.33301 -64 -12.667 -127.667 -42 -191c-56.667 -119.333 -154 -195 -292 -227c-72.667 -16.667 -155.667 -25 -249 -25c-162 0 -286 19.333 -372 58c-124.667 56 -187 154.333 -187 295c0 13.333 0.666992 31.333 2 54l395 -45
c10 -36.667 25.333 -62 46 -76c30 -20.667 67.667 -31 113 -31c116.667 0 175 70.333 175 211v161c-40 -47.333 -80 -81.666 -120 -102.999c-62.667 -33.333 -130.334 -50 -203.001 -50c-142 0 -256.667 62 -344 186c-62 88 -93 204.333 -93 349
c0 148.667 34.333 268 103 358c76.667 100 187 150 331 150c80.667 0 148.167 -13.833 202.5 -41.5s105.166 -74.167 152.499 -139.5v157zM479.002 546.999c0 -150.667 59.333 -226 178 -226c60.667 0 107 24.333 139 73c26.667 40.667 40 93.334 40 158.001
c0 65.333 -14.333 119.666 -43 162.999c-33.333 50.667 -81 76 -143 76c-114 0 -171 -81.333 -171 -244zM860.002 1491h164.999c-8 -125.333 -62.333 -213 -163 -263c-52.667 -26 -109.667 -39 -171 -39c-99.333 0 -179.333 25.667 -240 77
c-62.667 52.667 -99 127.667 -109 225h172c24.667 -71.333 80.667 -107 168 -107c50.667 0 88.334 6 113.001 18c31.333 16 53 45.667 65 89z" />
    <glyph glyph-name="Gdot" unicode="&#x120;" horiz-adv-x="1706" 
d="M887 531l-0.00292969 305h700v-625c-127.333 -86.667 -241 -147 -341 -181c-108 -36.667 -235 -55 -381 -55c-332 0 -558.667 118 -680 354c-60.667 117.333 -91 252 -91 404c0 334 129.667 563 389 687c98.667 47.333 232.334 71 401.001 71
c130.667 0 232.334 -9 305.001 -27c107.333 -26.667 193.666 -77.667 258.999 -153c52.667 -62 92.334 -140.333 119.001 -235l-437 -78c-37.333 114 -122.666 171 -255.999 171c-217.333 0 -326 -143.667 -326 -431c0 -294.667 113 -442 339 -442
c93.333 0 194.333 32.333 303 97v138h-303zM719.997 1868h314v-300h-314v300z" />
    <glyph glyph-name="gdot" unicode="&#x121;" 
d="M862 1062l381.002 -0.000976562l1 -1050c1.33301 -64 -12.667 -127.667 -42 -191c-56.667 -119.333 -154 -195 -292 -227c-72.667 -16.667 -155.667 -25 -249 -25c-162 0 -286 19.333 -372 58c-124.667 56 -187 154.333 -187 295c0 13.333 0.666992 31.333 2 54l395 -45
c10 -36.667 25.333 -62 46 -76c30 -20.667 67.667 -31 113 -31c116.667 0 175 70.333 175 211v161c-40 -47.333 -80 -81.666 -120 -102.999c-62.667 -33.333 -130.334 -50 -203.001 -50c-142 0 -256.667 62 -344 186c-62 88 -93 204.333 -93 349
c0 148.667 34.333 268 103 358c76.667 100 187 150 331 150c80.667 0 148.167 -13.833 202.5 -41.5s105.166 -74.167 152.499 -139.5v157zM479.002 546.999c0 -150.667 59.333 -226 178 -226c60.667 0 107 24.333 139 73c26.667 40.667 40 93.334 40 158.001
c0 65.333 -14.333 119.666 -43 162.999c-33.333 50.667 -81 76 -143 76c-114 0 -171 -81.333 -171 -244zM524.002 1496h314v-300h-314v300z" />
    <glyph glyph-name="Gcedilla" unicode="&#x122;" horiz-adv-x="1706" 
d="M887 531l-0.00292969 305h700v-625c-127.333 -86.667 -241 -147 -341 -181c-108 -36.667 -235 -55 -381 -55c-332 0 -558.667 118 -680 354c-60.667 117.333 -91 252 -91 404c0 334 129.667 563 389 687c98.667 47.333 232.334 71 401.001 71
c130.667 0 232.334 -9 305.001 -27c107.333 -26.667 193.666 -77.667 258.999 -153c52.667 -62 92.334 -140.333 119.001 -235l-437 -78c-37.333 114 -122.666 171 -255.999 171c-217.333 0 -326 -143.667 -326 -431c0 -294.667 113 -442 339 -442
c93.333 0 194.333 32.333 303 97v138h-303zM707.997 -165l29.999 118c62.667 15.333 121.334 23 176.001 23c200.667 0 301 -65 301 -195c0 -84 -45 -144.333 -135 -181c-50.667 -20.667 -118 -31 -202 -31c-76 0 -165.333 8.66699 -268 26v123
c69.333 -13.333 143 -20 221 -20c98 0 147 27.667 147 83c0 47.333 -34.333 71 -103 71c-47.333 0 -103 -5.66699 -167 -17z" />
    <glyph glyph-name="gcedilla" unicode="&#x123;" 
d="M862 1062l381.002 -0.000976562l1 -1050c1.33301 -64 -12.667 -127.667 -42 -191c-56.667 -119.333 -154 -195 -292 -227c-72.667 -16.667 -155.667 -25 -249 -25c-162 0 -286 19.333 -372 58c-124.667 56 -187 154.333 -187 295c0 13.333 0.666992 31.333 2 54l395 -45
c10 -36.667 25.333 -62 46 -76c30 -20.667 67.667 -31 113 -31c116.667 0 175 70.333 175 211v161c-40 -47.333 -80 -81.666 -120 -102.999c-62.667 -33.333 -130.334 -50 -203.001 -50c-142 0 -256.667 62 -344 186c-62 88 -93 204.333 -93 349
c0 148.667 34.333 268 103 358c76.667 100 187 150 331 150c80.667 0 148.167 -13.833 202.5 -41.5s105.166 -74.167 152.499 -139.5v157zM479.002 546.999c0 -150.667 59.333 -226 178 -226c60.667 0 107 24.333 139 73c26.667 40.667 40 93.334 40 158.001
c0 65.333 -14.333 119.666 -43 162.999c-33.333 50.667 -81 76 -143 76c-114 0 -171 -81.333 -171 -244zM831.002 1193h-269.999v196c0 74 16 132.333 48 175c30 40 80.333 75.333 151 106l71 -104c-80.667 -36 -121.334 -81.667 -122.001 -137h122v-236z" />
    <glyph glyph-name="Hcircumflex" unicode="&#x124;" horiz-adv-x="1706" 
d="M152 1466h453v-513h495v513h455v-1466h-455v593h-495v-593h-453v1466zM713 1858h289l222 -286h-248l-122 153l-122 -153h-248z" />
    <glyph glyph-name="hcircumflex" unicode="&#x125;" 
d="M123 1466h406.999v-540c102.667 106.667 222.334 160 359.001 160c238 0 357 -137 357 -411v-675h-409v584c0 122 -47 183 -141 183c-110.667 0 -166 -85.667 -166 -257v-510h-407v1466zM544.999 1854h289l222 -286h-248l-122 153l-122 -153h-248z" />
    <glyph glyph-name="Hbar" unicode="&#x126;" horiz-adv-x="1706" 
d="M1688 1102h-134v-1102h-452v592h-498v-592h-452v1102h-134v221h134v143h452v-143h498v143h452v-143h134v-221zM1102 952v150h-498v-150h498z" />
    <glyph glyph-name="hbar" unicode="&#x127;" 
d="M1247 0h-407v584c0 122.667 -48 184 -144 184c-110.667 0 -166 -86 -166 -258v-510h-407v1186h-103v186h103v94h407v-94h261v-186h-261v-260c96 106 216.333 159 361 159c237.333 0 356 -136.333 356 -409v-676z" />
    <glyph glyph-name="Itilde" unicode="&#x128;" horiz-adv-x="797" 
d="M168 1466h454v-1466h-454v1466zM607 1846h158.002c0.666992 -17.333 1 -32.333 1 -45c0 -67.333 -16.333 -122 -49 -164c-35.333 -46 -85.666 -69 -150.999 -69c-42.667 0 -107.334 17.667 -194.001 53c-52.667 21.333 -89 32 -109 32c-40 0 -60.667 -27.333 -62 -82
h-156c-0.666992 16 -1 30 -1 42c0 63.333 17 117 51 161c37.333 48 86.666 72 147.999 72c39.333 0 99.666 -17 180.999 -51c55.333 -23.333 95.666 -35 120.999 -35c38.667 0 59.334 28.667 62.001 86z" />
    <glyph glyph-name="itilde" unicode="&#x129;" horiz-adv-x="682" 
d="M138 1062h407v-1062h-407v1062zM555 1466h158.002c0.666992 -17.333 1 -32.333 1 -45c0 -67.333 -16.333 -122 -49 -164c-35.333 -46 -85.666 -69 -150.999 -69c-42.667 0 -107.334 17.667 -194.001 53c-52.667 21.333 -89 32 -109 32c-40 0 -60.667 -27.333 -62 -82
h-156c-0.666992 16 -1 30 -1 42c0 63.333 17 117 51 161c37.333 48 86.666 72 147.999 72c39.333 0 99.666 -17 180.999 -51c55.333 -23.333 95.666 -35 120.999 -35c38.667 0 59.334 28.667 62.001 86z" />
    <glyph glyph-name="Imacron" unicode="&#x12a;" horiz-adv-x="797" 
d="M168 1466h454v-1466h-454v1466zM78 1786h647v-217h-647v217z" />
    <glyph glyph-name="imacron" unicode="&#x12b;" horiz-adv-x="682" 
d="M138 1062h407v-1062h-407v1062zM18 1446h647v-217h-647v217z" />
    <glyph glyph-name="Ibreve" unicode="&#x12c;" horiz-adv-x="797" 
d="M168 1466h454v-1466h-454v1466zM578 1875h164.999c-8 -125.333 -62.333 -213 -163 -263c-52.667 -26 -109.667 -39 -171 -39c-99.333 0 -179.333 25.667 -240 77c-62.667 52.667 -99 127.667 -109 225h172c24.667 -71.333 80.667 -107 168 -107
c50.667 0 88.334 6 113.001 18c31.333 16 53 45.667 65 89z" />
    <glyph glyph-name="ibreve" unicode="&#x12d;" horiz-adv-x="682" 
d="M138 1062h407v-1062h-407v1062zM518 1491h164.999c-8 -125.333 -62.333 -213 -163 -263c-52.667 -26 -109.667 -39 -171 -39c-99.333 0 -179.333 25.667 -240 77c-62.667 52.667 -99 127.667 -109 225h172c24.667 -71.333 80.667 -107 168 -107
c50.667 0 88.334 6 113.001 18c31.333 16 53 45.667 65 89z" />
    <glyph glyph-name="Iogonek" unicode="&#x12e;" horiz-adv-x="797" 
d="M698 -401c-75.333 -30 -145.667 -45 -211 -45c-76 0 -136.667 19.667 -182 59c-48 41.333 -72 99.333 -72 174c0 58 13.667 129 41 213h-102v1466h453v-1466h-181c-8 -43.333 -12 -83 -12 -119c0 -102 46.333 -153 139 -153c30.667 0 73 8.66699 127 26v-155z" />
    <glyph glyph-name="iogonek" unicode="&#x12f;" horiz-adv-x="682" 
d="M616 -401c-75.333 -30 -145.333 -45 -210 -45c-76 0 -136.667 19.667 -182 59c-48 41.333 -72 99.333 -72 174c0 58 13.667 129 41 213h-56v1061h408v-1061h-183c-8 -43.333 -12 -83 -12 -119c0 -102 46.333 -153 139 -153c30.667 0 73 8.66699 127 26v-155zM138 1466
h407v-277h-407v277z" />
    <glyph glyph-name="Idotaccent" unicode="&#x130;" horiz-adv-x="797" 
d="M168 1466h454v-1466h-454v1466zM242 1855h314v-300h-314v300z" />
    <glyph glyph-name="dotlessi" unicode="&#x131;" horiz-adv-x="682" 
d="M138 1062h407v-1062h-407v1062z" />
    <glyph glyph-name="IJ" unicode="&#x132;" horiz-adv-x="2105" 
d="M1952 672c0 -218.667 -30 -376.333 -90 -473c-73.333 -116.667 -180 -187 -320 -211c-53.333 -8.66699 -106 -13 -158 -13c-386 0 -590 173.667 -612 521l432 59c0 -160 49.333 -240 148 -240c98 0 147 82.667 147 248v903h453v-794zM625 0.000976562h-453v1466h453
v-1466z" />
    <glyph glyph-name="ij" unicode="&#x133;" horiz-adv-x="1368" 
d="M1231 1188h-408v278h408v-278zM545 1188h-408v278h408v-278zM1231 33c0 -100.667 -4 -172.333 -12 -215c-15.333 -78 -48.833 -138.833 -100.5 -182.5s-132.167 -65.5 -241.5 -65.5c-88 0 -185.667 11.667 -293 35l61 295c37.333 -7.33301 61.333 -11 72 -11
c70.667 0 106 59.667 106 179v993h408v-1028zM545 0.000976562h-408v1061h408v-1061z" />
    <glyph glyph-name="Jcircumflex" unicode="&#x134;" 
d="M760 1466h453.999v-797c0 -152 -10.333 -264.333 -31 -337c-31.333 -112.667 -95.333 -201.667 -192 -267c-90 -60.667 -205 -91 -345 -91c-264.667 0 -442 78.667 -532 236c-44.667 76.667 -71 171.667 -79 285l433 59c1.33301 -112 25 -185.333 71 -220
c16.667 -12.667 41.334 -19 74.001 -19c98 0 147 82.333 147 247v904zM556.999 1854h289l222 -286h-248l-122 153l-122 -153h-248z" />
    <glyph glyph-name="jcircumflex" unicode="&#x135;" horiz-adv-x="682" 
d="M707 1192h-248l-121 154l-123 -154h-248l230 287h288zM139 1062h408v-1030c0 -107.333 -5 -183.333 -15 -228c-18 -82 -57.667 -143.333 -119 -184c-51.333 -34 -124.666 -51 -219.999 -51c-78.667 0 -176.334 11.667 -293.001 35l61 296
c32.667 -6.66699 56.667 -10 72 -10c70.667 0 106 59 106 177v995z" />
    <glyph glyph-name="Kcedilla" unicode="&#x136;" horiz-adv-x="1706" 
d="M152 1466h453v-554l475 554h602l-534 -553l558 -913h-558l-309 603l-234 -245v-358h-453v1466zM746 -121h269.999v-196c0 -74 -16.333 -132.333 -49 -175c-29.333 -40 -79.333 -75.333 -150 -106l-71 104c80.667 36 121.334 81.667 122.001 137h-122v236z" />
    <glyph glyph-name="kcedilla" unicode="&#x137;" 
d="M123 1466h416v-756l304 352h501l-381 -372l403 -690h-459l-215 426l-153 -150v-276h-416v1466zM574 -121h269.999v-196c0 -74 -16.333 -132.333 -49 -175c-29.333 -40 -79.333 -75.333 -150 -106l-71 104c80.667 36 121.334 81.667 122.001 137h-122v236z" />
    <glyph glyph-name="kgreenlandic" unicode="&#x138;" 
d="M1358 0h-459l-215 426l-154 -150v-276h-407v1061h407v-352l306 352h499l-379 -371z" />
    <glyph glyph-name="Lacute" unicode="&#x139;" 
d="M150 1466h453v-1105h707v-361h-1160v1466zM720 1862h350l-323 -299h-195z" />
    <glyph glyph-name="lacute" unicode="&#x13a;" horiz-adv-x="682" 
d="M137 1466h408v-1466h-408v1466zM348 1862h350l-323 -299h-195z" />
    <glyph glyph-name="Lcedilla" unicode="&#x13b;" 
d="M150 1466h453v-1105h707v-361h-1160v1466zM532 -165l29.999 118c62.667 15.333 121.334 23 176.001 23c200.667 0 301 -65 301 -195c0 -84 -45 -144.333 -135 -181c-50.667 -20.667 -118 -31 -202 -31c-76 0 -165.333 8.66699 -268 26v123
c69.333 -13.333 143 -20 221 -20c98 0 147 27.667 147 83c0 47.333 -34.333 71 -103 71c-47.333 0 -103 -5.66699 -167 -17z" />
    <glyph glyph-name="lcedilla" unicode="&#x13c;" horiz-adv-x="682" 
d="M137 1466h408v-1466h-408v1466zM116 -165l29.999 118c62.667 15.333 121.334 23 176.001 23c200.667 0 301 -65 301 -195c0 -84 -45 -144.333 -135 -181c-50.667 -20.667 -118 -31 -202 -31c-76 0 -165.333 8.66699 -268 26v123c69.333 -13.333 143 -20 221 -20
c98 0 147 27.667 147 83c0 47.333 -34.333 71 -103 71c-47.333 0 -103 -5.66699 -167 -17z" />
    <glyph glyph-name="Lcaron" unicode="&#x13d;" 
d="M150 1466h453v-1105h707v-361h-1160v1466zM956 1466h269.999v-196c0 -74 -16.333 -132.333 -49 -175c-29.333 -40 -79.333 -75.333 -150 -106l-71 104c80.667 36 121.334 81.667 122.001 137h-122v236z" />
    <glyph glyph-name="lcaron" unicode="&#x13e;" horiz-adv-x="1024" 
d="M137 1466h408v-1466h-408v1466zM717 1466h269.999v-196c0 -74 -16.333 -132.333 -49 -175c-29.333 -40 -79.333 -75.333 -150 -106l-71 104c80.667 36 121.334 81.667 122.001 137h-122v236z" />
    <glyph glyph-name="Ldot" unicode="&#x13f;" 
d="M150 1466h453v-1105h707v-361h-1160v1466zM900 1068h314v-300h-314v300z" />
    <glyph glyph-name="ldot" unicode="&#x140;" horiz-adv-x="1094" 
d="M137 1466h408v-1466h-408v1466zM696 1068h314v-300h-314v300z" />
    <glyph glyph-name="Lslash" unicode="&#x141;" 
d="M150 1466h453v-404l318 239v-280l-318 -240v-420h706v-361h-1159v439l-151 -116v280l151 114v749z" />
    <glyph glyph-name="lslash" unicode="&#x142;" horiz-adv-x="682" 
d="M138 1466h409v-469l136 89v-196l-136 -91v-799h-409v528l-138 -92v196l138 93v741z" />
    <glyph glyph-name="Nacute" unicode="&#x143;" horiz-adv-x="1706" 
d="M153 1466h423l552 -811v811h427v-1466h-427l-549 805v-805h-426v1466zM842 1862h350l-323 -299h-195z" />
    <glyph glyph-name="nacute" unicode="&#x144;" 
d="M123 1062h379v-173c55.333 69.333 111 119 167 149c60.667 32 133 48 217 48c240 0 360 -137 360 -411v-675h-409v584c0 122 -47 183 -141 183c-110.667 0 -166 -85.667 -166 -257v-510h-407v1062zM677 1491h350l-323 -299h-195z" />
    <glyph glyph-name="Ncedilla" unicode="&#x145;" horiz-adv-x="1706" 
d="M153 1466h423l552 -811v811h427v-1466h-427l-549 805v-805h-426v1466zM668 -165l29.999 118c62.667 15.333 121.334 23 176.001 23c200.667 0 301 -65 301 -195c0 -84 -45 -144.333 -135 -181c-50.667 -20.667 -118 -31 -202 -31c-76 0 -165.333 8.66699 -268 26v123
c69.333 -13.333 143 -20 221 -20c98 0 147 27.667 147 83c0 47.333 -34.333 71 -103 71c-47.333 0 -103 -5.66699 -167 -17z" />
    <glyph glyph-name="ncedilla" unicode="&#x146;" 
d="M123 1062h379v-173c55.333 69.333 111 119 167 149c60.667 32 133 48 217 48c240 0 360 -137 360 -411v-675h-409v584c0 122 -47 183 -141 183c-110.667 0 -166 -85.667 -166 -257v-510h-407v1062zM524 -165l29.999 118c62.667 15.333 121.334 23 176.001 23
c200.667 0 301 -65 301 -195c0 -84 -45 -144.333 -135 -181c-50.667 -20.667 -118 -31 -202 -31c-76 0 -165.333 8.66699 -268 26v123c69.333 -13.333 143 -20 221 -20c98 0 147 27.667 147 83c0 47.333 -34.333 71 -103 71c-47.333 0 -103 -5.66699 -167 -17z" />
    <glyph glyph-name="Ncaron" unicode="&#x147;" horiz-adv-x="1706" 
d="M153 1466h423l552 -811v811h427v-1466h-427l-549 805v-805h-426v1466zM992 1562h-288l-222 286h247l122 -153l122 153h249z" />
    <glyph glyph-name="ncaron" unicode="&#x148;" 
d="M123 1062h379v-173c55.333 69.333 111 119 167 149c60.667 32 133 48 217 48c240 0 360 -137 360 -411v-675h-409v584c0 122 -47 183 -141 183c-110.667 0 -166 -85.667 -166 -257v-510h-407v1062zM827 1192h-288l-222 286h247l122 -153l122 153h249z" />
    <glyph glyph-name="napostrophe" unicode="&#x149;" horiz-adv-x="1757" 
d="M449 1169c0 -209.333 -99.667 -356 -299 -440l-97 129c122.667 55.333 185.667 136 189 242h-189v366h396v-297zM1638 0h-406.999v584c0 122.667 -48 184 -144 184c-110 0 -165 -86 -165 -258v-510h-408v1061h381v-172h4c91.333 130.667 217.666 196 378.999 196
c240 0 360 -136.333 360 -409v-676z" />
    <glyph glyph-name="Eng" unicode="&#x14a;" horiz-adv-x="1667" 
d="M582 1294c47.333 60.667 118.001 109.667 212.001 147c85.333 33.333 170.333 50 255 50c350.667 0 526 -267 526 -801c0 -300 -27.333 -535 -82 -705c-90 -276.667 -253 -415 -489 -415c-68.667 0 -149.334 11.667 -242.001 35l61 336c36 -7.33301 65.333 -11 88 -11
c140.667 0 211 248 211 744c0 292 -88 438 -264 438c-60 0 -115.667 -16.333 -167 -49c-58 -37.333 -87 -84.333 -87 -141v-922h-452v1466h426v-172h4z" />
    <glyph glyph-name="eng" unicode="&#x14b;" horiz-adv-x="1395" 
d="M555 889c88 130.667 208 196 360 196c159.333 0 267 -79.333 323 -238c33.333 -95.333 50 -242.333 50 -441c0 -224 -17.667 -397 -53 -519c-60.667 -211.333 -175.334 -317 -344.001 -317c-86 0 -173.333 11.667 -262 35l61 295c26 -7.33301 50 -11 72 -11
c56.667 0 93.334 73.333 110.001 220c6 55.333 9 148 9 278c0 114 -4.66699 194.333 -14 241c-22 106.667 -69.333 160 -142 160c-98 0 -147 -83 -147 -249v-539h-426v1061h399v-172h4z" />
    <glyph glyph-name="Omacron" unicode="&#x14c;" horiz-adv-x="1706" 
d="M93 732c0 239.333 66.332 425.667 198.999 559s318.667 200 558 200c240.667 0 427.334 -64 560.001 -192c134.667 -130 202 -315 202 -555c0 -326 -112 -551.667 -336 -677c-109.333 -61.333 -245.333 -92 -408 -92c-320 0 -544.667 109.667 -674 329
c-67.333 114 -101 256.667 -101 428zM545.999 730.001c0 -277.333 102.333 -416 307 -416c120 0 204 45.333 252 136c36 67.333 54 167.333 54 300c0 265.333 -103.333 398 -310 398c-202 0 -303 -139.333 -303 -418zM529.999 1786h647v-217h-647v217z" />
    <glyph glyph-name="omacron" unicode="&#x14d;" 
d="M73 528c0 172.667 58.666 309.998 175.999 411.998c112 97.333 255.667 146 431 146c212.667 0 373.334 -61.667 482.001 -185c87.333 -99.333 131 -221.666 131 -366.999c0 -176 -59 -314.333 -177 -415c-111.333 -95.333 -256.333 -143 -435 -143
c-171.333 0 -309.333 43.333 -414 130c-129.333 106.667 -194 247.334 -194 422.001zM480.999 528.998c0 -76.667 14.333 -139.332 43 -187.999c34.667 -60 87.667 -90 159 -90c134 0 201 94 201 282c0 74 -14 135.333 -42 184c-34.667 59.333 -86.667 89 -156 89
c-72 0 -125.667 -29.667 -161 -89c-29.333 -48.667 -44 -111.334 -44 -188.001zM357.999 1446h647v-217h-647v217z" />
    <glyph glyph-name="Obreve" unicode="&#x14e;" horiz-adv-x="1706" 
d="M93 732c0 239.333 66.332 425.667 198.999 559s318.667 200 558 200c240.667 0 427.334 -64 560.001 -192c134.667 -130 202 -315 202 -555c0 -326 -112 -551.667 -336 -677c-109.333 -61.333 -245.333 -92 -408 -92c-320 0 -544.667 109.667 -674 329
c-67.333 114 -101 256.667 -101 428zM545.999 730.001c0 -277.333 102.333 -416 307 -416c120 0 204 45.333 252 136c36 67.333 54 167.333 54 300c0 265.333 -103.333 398 -310 398c-202 0 -303 -139.333 -303 -418zM1018 1875h164.999c-8 -125.333 -62.333 -213 -163 -263
c-52.667 -26 -109.667 -39 -171 -39c-99.333 0 -179.333 25.667 -240 77c-62.667 52.667 -99 127.667 -109 225h172c24.667 -71.333 80.667 -107 168 -107c50.667 0 88.334 6 113.001 18c31.333 16 53 45.667 65 89z" />
    <glyph glyph-name="obreve" unicode="&#x14f;" 
d="M73 528c0 172.667 58.666 309.998 175.999 411.998c112 97.333 255.667 146 431 146c212.667 0 373.334 -61.667 482.001 -185c87.333 -99.333 131 -221.666 131 -366.999c0 -176 -59 -314.333 -177 -415c-111.333 -95.333 -256.333 -143 -435 -143
c-171.333 0 -309.333 43.333 -414 130c-129.333 106.667 -194 247.334 -194 422.001zM480.999 528.998c0 -76.667 14.333 -139.332 43 -187.999c34.667 -60 87.667 -90 159 -90c134 0 201 94 201 282c0 74 -14 135.333 -42 184c-34.667 59.333 -86.667 89 -156 89
c-72 0 -125.667 -29.667 -161 -89c-29.333 -48.667 -44 -111.334 -44 -188.001zM849.999 1491h164.999c-8 -125.333 -62.333 -213 -163 -263c-52.667 -26 -109.667 -39 -171 -39c-99.333 0 -179.333 25.667 -240 77c-62.667 52.667 -99 127.667 -109 225h172
c24.667 -71.333 80.667 -107 168 -107c50.667 0 88.334 6 113.001 18c31.333 16 53 45.667 65 89z" />
    <glyph glyph-name="Odblacute" unicode="&#x150;" horiz-adv-x="1706" 
d="M93 732c0 239.333 66.332 425.667 198.999 559s318.667 200 558 200c240.667 0 427.334 -64 560.001 -192c134.667 -130 202 -315 202 -555c0 -326 -112 -551.667 -336 -677c-109.333 -61.333 -245.333 -92 -408 -92c-320 0 -544.667 109.667 -674 329
c-67.333 114 -101 256.667 -101 428zM545.999 730.001c0 -277.333 102.333 -416 307 -416c120 0 204 45.333 252 136c36 67.333 54 167.333 54 300c0 265.333 -103.333 398 -310 398c-202 0 -303 -139.333 -303 -418zM633.999 1863h325l-296 -295h-197zM1031 1863h328
l-302 -295h-191z" />
    <glyph glyph-name="odblacute" unicode="&#x151;" 
d="M73 528c0 172.667 58.666 309.998 175.999 411.998c112 97.333 255.667 146 431 146c212.667 0 373.334 -61.667 482.001 -185c87.333 -99.333 131 -221.666 131 -366.999c0 -176 -59 -314.333 -177 -415c-111.333 -95.333 -256.333 -143 -435 -143
c-171.333 0 -309.333 43.333 -414 130c-129.333 106.667 -194 247.334 -194 422.001zM480.999 528.998c0 -76.667 14.333 -139.332 43 -187.999c34.667 -60 87.667 -90 159 -90c134 0 201 94 201 282c0 74 -14 135.333 -42 184c-34.667 59.333 -86.667 89 -156 89
c-72 0 -125.667 -29.667 -161 -89c-29.333 -48.667 -44 -111.334 -44 -188.001zM461.999 1491h325l-296 -295h-197zM858.999 1491h328l-302 -295h-191z" />
    <glyph glyph-name="OE" unicode="&#x152;" horiz-adv-x="2048" 
d="M1013 1466h941.001v-313h-542v-233h486v-299h-486v-289h572v-332h-971v162c-42.667 -62 -88.667 -106.667 -138 -134c-65.333 -36 -144 -54 -236 -54c-166 0 -296.667 56 -392 168c-117.333 138 -176 333.333 -176 586c0 254.667 57.667 451 173 589
c97.333 116 222.666 174 375.999 174c160.667 0 291.667 -60 393 -180v155zM741.001 1155c-51.333 0 -96.832 -16.3311 -136.499 -48.998s-66.834 -74.334 -81.501 -125.001c-16 -52.667 -24 -144.334 -24 -275.001c0 -186.667 41 -306.667 123 -360
c40 -26 79.667 -39 119 -39c47.333 0 91 16 131 48c38 30.667 65.333 69 82 115c18.667 52 28 144.333 28 277c0 189.333 -37.333 311 -112 365c-40 28.667 -83 43 -129 43z" />
    <glyph glyph-name="oe" unicode="&#x153;" horiz-adv-x="2048" 
d="M1990 436l-773 -0.000976562c11.333 -145.333 73.333 -218 186 -218c64 0 118.667 32.667 164 98l392 -36c-91.333 -202.667 -271.333 -304 -540 -304c-162.667 0 -301 39.333 -415 118c-120 -78.667 -241.333 -118 -364 -118c-170 0 -309.333 52.167 -418 156.5
s-163 241.166 -163 410.499c0 182.667 67 326.334 201 431.001c96 74.667 220.667 112 374 112c135.333 0 264.333 -41 387 -123c122 82 254.333 123 397 123c180 0 320.667 -51.667 422 -155s152 -245 152 -425c0 -15.333 -0.666992 -38.666 -2 -69.999zM1583 628.999
c-14.667 143.333 -74.668 215 -180.001 215c-109.333 0 -172.666 -71.667 -189.999 -215h370zM465.999 542.999c0 -180 56.666 -269.999 169.999 -269.999c72.667 0 122.334 31 149.001 93c18 41.333 27 104.666 27 189.999c0 169.333 -53.667 254 -161 254
c-123.333 0 -185 -89 -185 -267z" />
    <glyph glyph-name="Racute" unicode="&#x154;" horiz-adv-x="1593" 
d="M156 0v1466h755c121.333 0 213 -7.66699 275 -23c99.333 -24.667 174.333 -73.334 225 -146.001c45.333 -65.333 68 -144.666 68 -237.999c0 -157.333 -65 -275.333 -195 -354c-38.667 -23.333 -91.667 -42.666 -159 -57.999c54 -18 93.333 -36 118 -54
c18 -13.333 42.333 -39.166 73 -77.499s51.667 -68.5 63 -90.5l219 -425h-512l-242 448c-32 59.333 -59.333 97 -82 113c-32 22.667 -69 34 -111 34h-40v-595h-455zM611 871.998l191 -0.000976562c18.667 0 58.667 6.66699 120 20c68 14.667 102 58.334 102 131.001
c0 98 -71.333 147 -214 147h-199v-298zM823 1858h350l-323 -299h-195z" />
    <glyph glyph-name="racute" unicode="&#x155;" horiz-adv-x="909" 
d="M127 1062h381v-174c32 66 64.667 113.667 98 143c42 36.667 95.333 55 160 55c60 0 125.667 -18.667 197 -56l-126 -290c-48 20 -86 30 -114 30c-124.667 0 -187 -138 -187 -414v-356h-409v1062zM512 1491h350l-323 -299h-195z" />
    <glyph glyph-name="Rcedilla" unicode="&#x156;" horiz-adv-x="1593" 
d="M156 0v1466h755c121.333 0 213 -7.66699 275 -23c99.333 -24.667 174.333 -73.334 225 -146.001c45.333 -65.333 68 -144.666 68 -237.999c0 -157.333 -65 -275.333 -195 -354c-38.667 -23.333 -91.667 -42.666 -159 -57.999c54 -18 93.333 -36 118 -54
c18 -13.333 42.333 -39.166 73 -77.499s51.667 -68.5 63 -90.5l219 -425h-512l-242 448c-32 59.333 -59.333 97 -82 113c-32 22.667 -69 34 -111 34h-40v-595h-455zM611 871.998l191 -0.000976562c18.667 0 58.667 6.66699 120 20c68 14.667 102 58.334 102 131.001
c0 98 -71.333 147 -214 147h-199v-298zM632 -165.003l29.999 118c62.667 15.333 121.334 23 176.001 23c200.667 0 301 -65 301 -195c0 -84 -45 -144.333 -135 -181c-50.667 -20.667 -118 -31 -202 -31c-76 0 -165.333 8.66699 -268 26v123c69.333 -13.333 143 -20 221 -20
c98 0 147 27.667 147 83c0 47.333 -34.333 71 -103 71c-47.333 0 -103 -5.66699 -167 -17z" />
    <glyph glyph-name="rcedilla" unicode="&#x157;" horiz-adv-x="909" 
d="M127 1062h381v-174c32 66 64.667 113.667 98 143c42 36.667 95.333 55 160 55c60 0 125.667 -18.667 197 -56l-126 -290c-48 20 -86 30 -114 30c-124.667 0 -187 -138 -187 -414v-356h-409v1062zM264 -165l29.999 118c62.667 15.333 121.334 23 176.001 23
c200.667 0 301 -65 301 -195c0 -84 -45 -144.333 -135 -181c-50.667 -20.667 -118 -31 -202 -31c-76 0 -165.333 8.66699 -268 26v123c69.333 -13.333 143 -20 221 -20c98 0 147 27.667 147 83c0 47.333 -34.333 71 -103 71c-47.333 0 -103 -5.66699 -167 -17z" />
    <glyph glyph-name="Rcaron" unicode="&#x158;" horiz-adv-x="1593" 
d="M156 0v1466h755c121.333 0 213 -7.66699 275 -23c99.333 -24.667 174.333 -73.334 225 -146.001c45.333 -65.333 68 -144.666 68 -237.999c0 -157.333 -65 -275.333 -195 -354c-38.667 -23.333 -91.667 -42.666 -159 -57.999c54 -18 93.333 -36 118 -54
c18 -13.333 42.333 -39.166 73 -77.499s51.667 -68.5 63 -90.5l219 -425h-512l-242 448c-32 59.333 -59.333 97 -82 113c-32 22.667 -69 34 -111 34h-40v-595h-455zM611 871.998l191 -0.000976562c18.667 0 58.667 6.66699 120 20c68 14.667 102 58.334 102 131.001
c0 98 -71.333 147 -214 147h-199v-298zM973 1562h-288l-222 286h247l122 -153l122 153h249z" />
    <glyph glyph-name="rcaron" unicode="&#x159;" horiz-adv-x="909" 
d="M127 1062h381v-174c32 66 64.667 113.667 98 143c42 36.667 95.333 55 160 55c60 0 125.667 -18.667 197 -56l-126 -290c-48 20 -86 30 -114 30c-124.667 0 -187 -138 -187 -414v-356h-409v1062zM667 1192h-288l-222 286h247l122 -153l122 153h249z" />
    <glyph glyph-name="Sacute" unicode="&#x15a;" horiz-adv-x="1479" 
d="M71 485l430.999 26.998c9.33301 -70 28.333 -123.333 57 -160c46.667 -59.333 113.334 -89 200.001 -89c52.667 0 97.667 11.667 135 35c44.667 28 67 66.667 67 116c0 56.667 -35 101.667 -105 135c-34 16 -93 33.333 -177 52c-162 36 -285 81.667 -369 137
c-122.667 80 -184 188 -184 324c0 83.333 24.667 158.333 74 225c46 62.667 109 111.667 189 147c87.333 38 207.333 57 360 57c174.667 0 309.667 -29.667 405 -89c112.667 -70 179 -186 199 -348l-427 -25c-21.333 126 -95.333 189 -222 189
c-106 0 -159 -38.333 -159 -115c0 -52 61.667 -91 185 -117c152 -32.667 264.333 -63 337 -91c134 -51.333 226 -118.333 276 -201c38.667 -64.667 58 -137 58 -217c0 -97.333 -26.667 -185.166 -80 -263.499s-125.333 -137.166 -216 -176.499
c-93.333 -41.333 -211 -62 -353 -62c-201.333 0 -356.333 34.667 -465 104c-128 82.667 -200 218 -216 406zM731.999 1862h350l-323 -299h-195z" />
    <glyph glyph-name="sacute" unicode="&#x15b;" horiz-adv-x="1251" 
d="M51 294l404 38c31.333 -89.333 94.666 -134 189.999 -134c39.333 0 74 7 104 21c38.667 18 58 44.333 58 79c0 29.333 -15.333 52 -46 68c-22 11.333 -80.333 25.333 -175 42c-124.667 22 -203.334 38 -236.001 48c-88.667 27.333 -154.334 69.666 -197.001 126.999
c-38 50 -57 107 -57 171c0 142.667 76.333 241 229 295c71.333 24.667 167 37 287 37c100 0 176.667 -5.66699 230 -17c84 -17.333 151.333 -51.333 202 -102c40 -40.667 73.333 -95.667 100 -165l-386 -38c-20.667 71.333 -76 107 -166 107c-88 0 -132 -28 -132 -84
c0 -35.333 29 -60.666 87 -75.999c18 -4.66699 60.333 -11 127 -19c110.667 -12.667 193.334 -27.667 248.001 -45c94.667 -29.333 163.334 -74.666 206.001 -135.999c34.667 -50.667 52 -106.334 52 -167.001c0 -145.333 -76.667 -251 -230 -317
c-80 -34.667 -188.667 -52 -326 -52c-154 0 -272.667 17.667 -356 53c-115.333 49.333 -187.666 138 -216.999 266zM600 1491h350l-323 -299h-195z" />
    <glyph glyph-name="Scircumflex" unicode="&#x15c;" horiz-adv-x="1479" 
d="M71 485l430.999 26.998c9.33301 -70 28.333 -123.333 57 -160c46.667 -59.333 113.334 -89 200.001 -89c52.667 0 97.667 11.667 135 35c44.667 28 67 66.667 67 116c0 56.667 -35 101.667 -105 135c-34 16 -93 33.333 -177 52c-162 36 -285 81.667 -369 137
c-122.667 80 -184 188 -184 324c0 83.333 24.667 158.333 74 225c46 62.667 109 111.667 189 147c87.333 38 207.333 57 360 57c174.667 0 309.667 -29.667 405 -89c112.667 -70 179 -186 199 -348l-427 -25c-21.333 126 -95.333 189 -222 189
c-106 0 -159 -38.333 -159 -115c0 -52 61.667 -91 185 -117c152 -32.667 264.333 -63 337 -91c134 -51.333 226 -118.333 276 -201c38.667 -64.667 58 -137 58 -217c0 -97.333 -26.667 -185.166 -80 -263.499s-125.333 -137.166 -216 -176.499
c-93.333 -41.333 -211 -62 -353 -62c-201.333 0 -356.333 34.667 -465 104c-128 82.667 -200 218 -216 406zM596.999 1862h289l222 -286h-248l-122 153l-122 -153h-248z" />
    <glyph glyph-name="scircumflex" unicode="&#x15d;" horiz-adv-x="1251" 
d="M51 294l404 38c31.333 -89.333 94.666 -134 189.999 -134c39.333 0 74 7 104 21c38.667 18 58 44.333 58 79c0 29.333 -15.333 52 -46 68c-22 11.333 -80.333 25.333 -175 42c-124.667 22 -203.334 38 -236.001 48c-88.667 27.333 -154.334 69.666 -197.001 126.999
c-38 50 -57 107 -57 171c0 142.667 76.333 241 229 295c71.333 24.667 167 37 287 37c100 0 176.667 -5.66699 230 -17c84 -17.333 151.333 -51.333 202 -102c40 -40.667 73.333 -95.667 100 -165l-386 -38c-20.667 71.333 -76 107 -166 107c-88 0 -132 -28 -132 -84
c0 -35.333 29 -60.666 87 -75.999c18 -4.66699 60.333 -11 127 -19c110.667 -12.667 193.334 -27.667 248.001 -45c94.667 -29.333 163.334 -74.666 206.001 -135.999c34.667 -50.667 52 -106.334 52 -167.001c0 -145.333 -76.667 -251 -230 -317
c-80 -34.667 -188.667 -52 -326 -52c-154 0 -272.667 17.667 -356 53c-115.333 49.333 -187.666 138 -216.999 266zM465 1478h289l222 -286h-248l-122 153l-122 -153h-248z" />
    <glyph glyph-name="Scedilla" unicode="&#x15e;" horiz-adv-x="1479" 
d="M71 485l430.999 26.998c9.33301 -70 28.333 -123.333 57 -160c46.667 -59.333 113.334 -89 200.001 -89c52.667 0 97.667 11.667 135 35c44.667 28 67 66.667 67 116c0 56.667 -35 101.667 -105 135c-34 16 -93 33.333 -177 52c-162 36 -285 81.667 -369 137
c-122.667 80 -184 188 -184 324c0 83.333 24.667 158.333 74 225c46 62.667 109 111.667 189 147c87.333 38 207.333 57 360 57c174.667 0 309.667 -29.667 405 -89c112.667 -70 179 -186 199 -348l-427 -25c-21.333 126 -95.333 189 -222 189
c-106 0 -159 -38.333 -159 -115c0 -52 61.667 -91 185 -117c152 -32.667 264.333 -63 337 -91c134 -51.333 226 -118.333 276 -201c38.667 -64.667 58 -137 58 -217c0 -97.333 -26.667 -185.166 -80 -263.499s-125.333 -137.166 -216 -176.499
c-93.333 -41.333 -211 -62 -353 -62c-201.333 0 -356.333 34.667 -465 104c-128 82.667 -200 218 -216 406zM514.999 -165.002l29.999 118c62.667 15.333 121.334 23 176.001 23c200.667 0 301 -65 301 -195c0 -84 -45 -144.333 -135 -181
c-50.667 -20.667 -118 -31 -202 -31c-76 0 -165.333 8.66699 -268 26v123c69.333 -13.333 143 -20 221 -20c98 0 147 27.667 147 83c0 47.333 -34.333 71 -103 71c-47.333 0 -103 -5.66699 -167 -17z" />
    <glyph glyph-name="scedilla" unicode="&#x15f;" horiz-adv-x="1251" 
d="M51 294l404 38c31.333 -89.333 94.666 -134 189.999 -134c39.333 0 74 7 104 21c38.667 18 58 44.333 58 79c0 29.333 -15.333 52 -46 68c-22 11.333 -80.333 25.333 -175 42c-124.667 22 -203.334 38 -236.001 48c-88.667 27.333 -154.334 69.666 -197.001 126.999
c-38 50 -57 107 -57 171c0 142.667 76.333 241 229 295c71.333 24.667 167 37 287 37c100 0 176.667 -5.66699 230 -17c84 -17.333 151.333 -51.333 202 -102c40 -40.667 73.333 -95.667 100 -165l-386 -38c-20.667 71.333 -76 107 -166 107c-88 0 -132 -28 -132 -84
c0 -35.333 29 -60.666 87 -75.999c18 -4.66699 60.333 -11 127 -19c110.667 -12.667 193.334 -27.667 248.001 -45c94.667 -29.333 163.334 -74.666 206.001 -135.999c34.667 -50.667 52 -106.334 52 -167.001c0 -145.333 -76.667 -251 -230 -317
c-80 -34.667 -188.667 -52 -326 -52c-154 0 -272.667 17.667 -356 53c-115.333 49.333 -187.666 138 -216.999 266zM401 -165l29.999 118c62.667 15.333 121.334 23 176.001 23c200.667 0 301 -65 301 -195c0 -84 -45 -144.333 -135 -181c-50.667 -20.667 -118 -31 -202 -31
c-76 0 -165.333 8.66699 -268 26v123c69.333 -13.333 143 -20 221 -20c98 0 147 27.667 147 83c0 47.333 -34.333 71 -103 71c-47.333 0 -103 -5.66699 -167 -17z" />
    <glyph glyph-name="Scaron" unicode="&#x160;" horiz-adv-x="1479" 
d="M71 485l430.999 26.998c9.33301 -70 28.333 -123.333 57 -160c46.667 -59.333 113.334 -89 200.001 -89c52.667 0 97.667 11.667 135 35c44.667 28 67 66.667 67 116c0 56.667 -35 101.667 -105 135c-34 16 -93 33.333 -177 52c-162 36 -285 81.667 -369 137
c-122.667 80 -184 188 -184 324c0 83.333 24.667 158.333 74 225c46 62.667 109 111.667 189 147c87.333 38 207.333 57 360 57c174.667 0 309.667 -29.667 405 -89c112.667 -70 179 -186 199 -348l-427 -25c-21.333 126 -95.333 189 -222 189
c-106 0 -159 -38.333 -159 -115c0 -52 61.667 -91 185 -117c152 -32.667 264.333 -63 337 -91c134 -51.333 226 -118.333 276 -201c38.667 -64.667 58 -137 58 -217c0 -97.333 -26.667 -185.166 -80 -263.499s-125.333 -137.166 -216 -176.499
c-93.333 -41.333 -211 -62 -353 -62c-201.333 0 -356.333 34.667 -465 104c-128 82.667 -200 218 -216 406zM880.999 1555h-288l-222 286h247l122 -153l122 153h249z" />
    <glyph glyph-name="scaron" unicode="&#x161;" horiz-adv-x="1251" 
d="M51 294l404 38c31.333 -89.333 94.666 -134 189.999 -134c39.333 0 74 7 104 21c38.667 18 58 44.333 58 79c0 29.333 -15.333 52 -46 68c-22 11.333 -80.333 25.333 -175 42c-124.667 22 -203.334 38 -236.001 48c-88.667 27.333 -154.334 69.666 -197.001 126.999
c-38 50 -57 107 -57 171c0 142.667 76.333 241 229 295c71.333 24.667 167 37 287 37c100 0 176.667 -5.66699 230 -17c84 -17.333 151.333 -51.333 202 -102c40 -40.667 73.333 -95.667 100 -165l-386 -38c-20.667 71.333 -76 107 -166 107c-88 0 -132 -28 -132 -84
c0 -35.333 29 -60.666 87 -75.999c18 -4.66699 60.333 -11 127 -19c110.667 -12.667 193.334 -27.667 248.001 -45c94.667 -29.333 163.334 -74.666 206.001 -135.999c34.667 -50.667 52 -106.334 52 -167.001c0 -145.333 -76.667 -251 -230 -317
c-80 -34.667 -188.667 -52 -326 -52c-154 0 -272.667 17.667 -356 53c-115.333 49.333 -187.666 138 -216.999 266zM767 1192h-288l-222 286h247l122 -153l122 153h249z" />
    <glyph glyph-name="Tcedilla" unicode="&#x162;" horiz-adv-x="1479" 
d="M47 1466h1377v-362h-462v-1104h-453v1104h-462v362zM597 -121h269.999v-196c0 -74 -16.333 -132.333 -49 -175c-29.333 -40 -79.333 -75.333 -150 -106l-71 104c80.667 36 121.334 81.667 122.001 137h-122v236z" />
    <glyph glyph-name="tcedilla" unicode="&#x163;" horiz-adv-x="909" 
d="M614 1466v-404.001h224v-297h-224v-377c0 -45.333 4.33301 -75.333 13 -90c13.333 -22.667 36.666 -34 69.999 -34c30 0 72 8.66699 126 26l30 -281c-100.667 -22 -194.667 -33 -282 -33c-83.333 0 -148 8.66699 -194 26c-63.333 24 -108.666 68 -135.999 132
c-23.333 52.667 -35 138.334 -35 257.001v374h-150v297h150v195zM352 -121.001h269.999v-196c0 -74 -16.333 -132.333 -49 -175c-29.333 -40 -79.333 -75.333 -150 -106l-71 104c80.667 36 121.334 81.667 122.001 137h-122v236z" />
    <glyph glyph-name="Tcaron" unicode="&#x164;" horiz-adv-x="1479" 
d="M47 1466h1377v-362h-462v-1104h-453v1104h-462v362zM884 1562h-288l-222 286h247l122 -153l122 153h249z" />
    <glyph glyph-name="tcaron" unicode="&#x165;" horiz-adv-x="1280" 
d="M614 1466v-404.001h224v-297h-224v-377c0 -45.333 4.33301 -75.333 13 -90c13.333 -22.667 36.666 -34 69.999 -34c30 0 72 8.66699 126 26l30 -281c-100.667 -22 -194.667 -33 -282 -33c-83.333 0 -148 8.66699 -194 26c-63.333 24 -108.666 68 -135.999 132
c-23.333 52.667 -35 138.334 -35 257.001v374h-150v297h150v195zM966 1466h269.999v-196c0 -74 -16.333 -132.333 -49 -175c-29.333 -40 -79.333 -75.333 -150 -106l-71 104c80.667 36 121.334 81.667 122.001 137h-122v236z" />
    <glyph glyph-name="Tbar" unicode="&#x166;" horiz-adv-x="1479" 
d="M1427 1106h-460v-283h192v-262h-192v-561h-453v561h-182v262h182v283h-461v360h1374v-360z" />
    <glyph glyph-name="tbar" unicode="&#x167;" horiz-adv-x="909" 
d="M850 8c-98 -22 -192.333 -33 -283 -33c-186.667 0 -298.667 57.333 -336 172c-18.667 56 -28 137.333 -28 244v31h-150v221h150v121h-150v297h150v196l407 209v-405h224v-297h-224v-121h176v-221h-176v-33c0 -40.667 4 -69.667 12 -87c12.667 -25.333 36.667 -38 72 -38
c34 0 75.667 9 125 27z" />
    <glyph glyph-name="Utilde" unicode="&#x168;" horiz-adv-x="1706" 
d="M1104 1466l452.001 -0.000976562v-874c0 -186.667 -55.667 -335.667 -167 -447c-58 -58 -118.667 -98.667 -182 -122c-88 -32.667 -193.667 -49 -317 -49c-202 0 -350.333 25 -445 75c-56.667 29.333 -108.334 71 -155.001 125s-79 110.667 -97 170
c-28 93.333 -42 176 -42 248v874h452v-895c0 -79.333 22 -141.666 66 -186.999s105.667 -68 185 -68s140.833 22.5 184.5 67.5s65.5 107.5 65.5 187.5v895zM1055 1850h158.002c0.666992 -17.333 1 -32.333 1 -45c0 -67.333 -16.333 -122 -49 -164
c-35.333 -46 -85.666 -69 -150.999 -69c-42.667 0 -107.334 17.667 -194.001 53c-52.667 21.333 -89 32 -109 32c-40 0 -60.667 -27.333 -62 -82h-156c-0.666992 16 -1 30 -1 42c0 63.333 17 117 51 161c37.333 48 86.666 72 147.999 72c39.333 0 99.666 -17 180.999 -51
c55.333 -23.333 95.666 -35 120.999 -35c38.667 0 59.334 28.667 62.001 86z" />
    <glyph glyph-name="utilde" unicode="&#x169;" 
d="M1242 0l-380 -0.000976562v172c-55.333 -69.333 -111 -118.666 -167 -147.999c-60 -32 -132.333 -48 -217 -48c-239.333 0 -359 136.667 -359 410v676h409v-584c0 -122.667 47 -184 141 -184c110.667 0 166 85.667 166 257v511h407v-1062zM887 1466h158.002
c0.666992 -17.333 1 -32.333 1 -45c0 -67.333 -16.333 -122 -49 -164c-35.333 -46 -85.666 -69 -150.999 -69c-42.667 0 -107.334 17.667 -194.001 53c-52.667 21.333 -89 32 -109 32c-40 0 -60.667 -27.333 -62 -82h-156c-0.666992 16 -1 30 -1 42c0 63.333 17 117 51 161
c37.333 48 86.666 72 147.999 72c39.333 0 99.666 -17 180.999 -51c55.333 -23.333 95.666 -35 120.999 -35c38.667 0 59.334 28.667 62.001 86z" />
    <glyph glyph-name="Umacron" unicode="&#x16a;" horiz-adv-x="1706" 
d="M1104 1466l452.001 -0.000976562v-874c0 -186.667 -55.667 -335.667 -167 -447c-58 -58 -118.667 -98.667 -182 -122c-88 -32.667 -193.667 -49 -317 -49c-202 0 -350.333 25 -445 75c-56.667 29.333 -108.334 71 -155.001 125s-79 110.667 -97 170
c-28 93.333 -42 176 -42 248v874h452v-895c0 -79.333 22 -141.666 66 -186.999s105.667 -68 185 -68s140.833 22.5 184.5 67.5s65.5 107.5 65.5 187.5v895zM534.001 1786h647v-217h-647v217z" />
    <glyph glyph-name="umacron" unicode="&#x16b;" 
d="M1242 0l-380 -0.000976562v172c-55.333 -69.333 -111 -118.666 -167 -147.999c-60 -32 -132.333 -48 -217 -48c-239.333 0 -359 136.667 -359 410v676h409v-584c0 -122.667 47 -184 141 -184c110.667 0 166 85.667 166 257v511h407v-1062zM354 1446h647v-217h-647v217z
" />
    <glyph glyph-name="Ubreve" unicode="&#x16c;" horiz-adv-x="1706" 
d="M1104 1466l452.001 -0.000976562v-874c0 -186.667 -55.667 -335.667 -167 -447c-58 -58 -118.667 -98.667 -182 -122c-88 -32.667 -193.667 -49 -317 -49c-202 0 -350.333 25 -445 75c-56.667 29.333 -108.334 71 -155.001 125s-79 110.667 -97 170
c-28 93.333 -42 176 -42 248v874h452v-895c0 -79.333 22 -141.666 66 -186.999s105.667 -68 185 -68s140.833 22.5 184.5 67.5s65.5 107.5 65.5 187.5v895zM1026 1875h164.999c-8 -125.333 -62.333 -213 -163 -263c-52.667 -26 -109.667 -39 -171 -39
c-99.333 0 -179.333 25.667 -240 77c-62.667 52.667 -99 127.667 -109 225h172c24.667 -71.333 80.667 -107 168 -107c50.667 0 88.334 6 113.001 18c31.333 16 53 45.667 65 89z" />
    <glyph glyph-name="ubreve" unicode="&#x16d;" 
d="M1242 0l-380 -0.000976562v172c-55.333 -69.333 -111 -118.666 -167 -147.999c-60 -32 -132.333 -48 -217 -48c-239.333 0 -359 136.667 -359 410v676h409v-584c0 -122.667 47 -184 141 -184c110.667 0 166 85.667 166 257v511h407v-1062zM858 1491h164.999
c-8 -125.333 -62.333 -213 -163 -263c-52.667 -26 -109.667 -39 -171 -39c-99.333 0 -179.333 25.667 -240 77c-62.667 52.667 -99 127.667 -109 225h172c24.667 -71.333 80.667 -107 168 -107c50.667 0 88.334 6 113.001 18c31.333 16 53 45.667 65 89z" />
    <glyph glyph-name="Uring" unicode="&#x16e;" horiz-adv-x="1706" 
d="M1104 1466l452.001 -0.000976562v-874c0 -186.667 -55.667 -335.667 -167 -447c-58 -58 -118.667 -98.667 -182 -122c-88 -32.667 -193.667 -49 -317 -49c-202 0 -350.333 25 -445 75c-56.667 29.333 -108.334 71 -155.001 125s-79 110.667 -97 170
c-28 93.333 -42 176 -42 248v874h452v-895c0 -79.333 22 -141.666 66 -186.999s105.667 -68 185 -68s140.833 22.5 184.5 67.5s65.5 107.5 65.5 187.5v895zM1094 1773c0 -66.667 -23.333 -123.332 -70 -169.999s-103.334 -70 -170.001 -70
c-67.333 0 -124.333 23.167 -171 69.5s-70 103.166 -70 170.499s23.333 124.333 70 171s103.667 70 171 70c66.667 0 123.334 -23.5 170.001 -70.5s70 -103.833 70 -170.5zM956.001 1774c0 28.667 -10 53 -30 73s-44.333 30 -73 30s-53 -10 -73 -30s-30 -44.333 -30 -73
s10 -53 30 -73s44.333 -30 73 -30s53 10 73 30s30 44.333 30 73z" />
    <glyph glyph-name="uring" unicode="&#x16f;" 
d="M1242 0l-380 -0.000976562v172c-55.333 -69.333 -111 -118.666 -167 -147.999c-60 -32 -132.333 -48 -217 -48c-239.333 0 -359 136.667 -359 410v676h409v-584c0 -122.667 47 -184 141 -184c110.667 0 166 85.667 166 257v511h407v-1062zM923 1403
c0 -66.667 -23.333 -123.332 -70 -169.999s-103.334 -70 -170.001 -70c-67.333 0 -124.333 23.167 -171 69.5s-70 103.166 -70 170.499s23.333 124.333 70 171s103.667 70 171 70c66.667 0 123.334 -23.5 170.001 -70.5s70 -103.833 70 -170.5zM785 1404
c0 28.667 -10 53 -30 73s-44.333 30 -73 30s-53 -10 -73 -30s-30 -44.333 -30 -73s10 -53 30 -73s44.333 -30 73 -30s53 10 73 30s30 44.333 30 73z" />
    <glyph glyph-name="Udblacute" unicode="&#x170;" horiz-adv-x="1706" 
d="M1104 1466l452.001 -0.000976562v-874c0 -186.667 -55.667 -335.667 -167 -447c-58 -58 -118.667 -98.667 -182 -122c-88 -32.667 -193.667 -49 -317 -49c-202 0 -350.333 25 -445 75c-56.667 29.333 -108.334 71 -155.001 125s-79 110.667 -97 170
c-28 93.333 -42 176 -42 248v874h452v-895c0 -79.333 22 -141.666 66 -186.999s105.667 -68 185 -68s140.833 22.5 184.5 67.5s65.5 107.5 65.5 187.5v895zM721.001 1861h325l-296 -295h-197zM1118 1861h328l-302 -295h-191z" />
    <glyph glyph-name="udblacute" unicode="&#x171;" 
d="M1242 0l-380 -0.000976562v172c-55.333 -69.333 -111 -118.666 -167 -147.999c-60 -32 -132.333 -48 -217 -48c-239.333 0 -359 136.667 -359 410v676h409v-584c0 -122.667 47 -184 141 -184c110.667 0 166 85.667 166 257v511h407v-1062zM458 1491h325l-296 -295h-197z
M855 1491h328l-302 -295h-191z" />
    <glyph glyph-name="Uogonek" unicode="&#x172;" horiz-adv-x="1706" 
d="M1161 -401c-75.333 -30 -145.666 -45.001 -210.999 -45.001c-76 0 -136.667 19.667 -182 59c-48 41.333 -72 99.333 -72 174c0 52 11.667 117 35 195c-182.667 9.33301 -324.834 67.666 -426.501 174.999s-152.5 252.333 -152.5 435v874h452v-895
c0 -170.667 83.333 -256 250 -256c165.333 0 248 85.333 248 256v895h452v-874c0 -199.333 -59.333 -352.666 -178 -459.999c-113.333 -103.333 -271 -155.666 -473 -156.999c-5.33301 -36.667 -8 -68 -8 -94c0 -102 46.333 -153 139 -153c30.667 0 73 8.66699 127 26v-155z
" />
    <glyph glyph-name="uogonek" unicode="&#x173;" 
d="M1286 -401c-76 -30 -146.334 -45 -211.001 -45c-76 0 -136.667 19.667 -182 59c-48 41.333 -72 99.333 -72 174c0 42 7 88.667 21 140l20 73v172h-4c-91.333 -131.333 -217.666 -197 -378.999 -197c-240 0 -360 136.667 -360 410v676h407v-584
c0 -122.667 48 -184 144 -184c110.667 0 166 86 166 258v510h407v-1061h-211c-8 -43.333 -12 -83 -12 -119c0 -102 46.333 -153 139 -153c30.667 0 73 8.66699 127 26v-155z" />
    <glyph glyph-name="Wcircumflex" unicode="&#x174;" horiz-adv-x="2048" 
d="M-1 1466h430l155 -819l226 819h429l227 -819l155 819h428l-323 -1466h-444l-257 923l-256 -923h-444zM885 1854h289l222 -286h-248l-122 153l-122 -153h-248z" />
    <glyph glyph-name="wcircumflex" unicode="&#x175;" horiz-adv-x="1933" 
d="M3 1062h394l171 -669l216 669h367l224 -669l171 669h391l-391 -1062h-362l-215 639l-208 -639h-364zM817 1478h289l222 -286h-248l-122 153l-122 -153h-248z" />
    <glyph glyph-name="Ycircumflex" unicode="&#x176;" horiz-adv-x="1593" 
d="M2 1466h503l296 -495l296 495h500l-570 -852v-614h-454v614zM657 1854h289l222 -286h-248l-122 153l-122 -153h-248z" />
    <glyph glyph-name="ycircumflex" unicode="&#x177;" horiz-adv-x="1251" 
d="M5 1062l430.002 -0.000976562l219 -707l203 707h401l-421 -1135c-48 -129.333 -97 -216.666 -147 -261.999c-70.667 -64 -178.334 -96 -323.001 -96c-58.667 0 -149.334 8 -272.001 24l-32 284c58.667 -18.667 124 -28 196 -28c91.333 0 155.333 50.333 192 151z
M505.002 1478h289l222 -286h-248l-122 153l-122 -153h-248z" />
    <glyph glyph-name="Ydieresis" unicode="&#x178;" horiz-adv-x="1593" 
d="M2 1466h503l296 -495l296 495h500l-570 -852v-614h-454v614zM454 1809h260v-250h-260v250zM878 1809h263v-250h-263v250z" />
    <glyph glyph-name="Zacute" unicode="&#x179;" horiz-adv-x="1479" 
d="M113 1466h1282v-293l-822 -858h852v-315h-1391v304l813 849h-734v313zM726 1862h350l-323 -299h-195z" />
    <glyph glyph-name="zacute" unicode="&#x17a;" horiz-adv-x="1139" 
d="M77 1062h985v-238l-536 -546h569v-278h-1058v264l508 520h-468v278zM564 1491h350l-323 -299h-195z" />
    <glyph glyph-name="Zdot" unicode="&#x17b;" horiz-adv-x="1479" 
d="M113 1466h1282v-293l-822 -858h852v-315h-1391v304l813 849h-734v313zM609 1855h314v-300h-314v300z" />
    <glyph glyph-name="zdot" unicode="&#x17c;" horiz-adv-x="1139" 
d="M77 1062h985v-238l-536 -546h569v-278h-1058v264l508 520h-468v278zM416 1496h314v-300h-314v300z" />
    <glyph glyph-name="Zcaron" unicode="&#x17d;" horiz-adv-x="1479" 
d="M113 1466h1282v-293l-822 -858h852v-315h-1391v304l813 849h-734v313zM881 1555h-288l-222 286h247l122 -153l122 153h249z" />
    <glyph glyph-name="zcaron" unicode="&#x17e;" horiz-adv-x="1139" 
d="M77 1062h985v-238l-536 -546h569v-278h-1058v264l508 520h-468v278zM711 1192h-288l-222 286h247l122 -153l122 153h249z" />
    <glyph glyph-name="longs" unicode="&#x17f;" horiz-adv-x="799" 
d="M784 1473l-59.001 -250c-30.667 8 -58.667 12 -84 12c-87.333 0 -131 -69.667 -131 -209v-1026h-391v1016c0 316.667 181 475 543 475c40.667 0 81.334 -6 122.001 -18z" />
    <glyph glyph-name="florin" unicode="&#x192;" 
d="M986 999h198.003l-63 -290h-195l-188 -882c-36.667 -172 -156.334 -258 -359.001 -258c-98.667 0 -212.667 19.667 -342 59l73 260c68.667 -24 120 -36 154 -36c33.333 0 57.666 13 72.999 39c9.33301 14.667 18.333 43 27 85l156 733h-191l59 290h195l45 213
c26 123.333 84.333 205 175 245c51.333 22.667 113.666 34 186.999 34c110.667 0 225.667 -20.667 345 -62l-73 -262c-62 26 -113 39 -153 39c-34 0 -59.333 -15 -76 -45c-9.33301 -16 -19.333 -46.333 -30 -91z" />
    <glyph glyph-name="Aringacute" unicode="&#x1fa;" horiz-adv-x="1593" 
d="M587 1466c-21.333 37.333 -32.001 77.666 -32.001 120.999c0 66.667 23.333 123.5 70 170.5s103.334 70.5 170.001 70.5c67.333 0 124.333 -23.333 171 -70s70 -103.667 70 -171c0 -43.333 -11 -83.666 -33 -120.999h44l551 -1466h-474l-77 242h-506l-76 -242h-463
l551 1466h34zM691.999 1588c0 -29.333 9.83301 -53.999 29.5 -73.999s44.167 -30 73.5 -30c28.667 0 52.834 10 72.501 30s29.5 44.333 29.5 73s-9.83301 53 -29.5 73s-43.834 30 -72.501 30s-53 -9.83301 -73 -29.5s-30 -43.834 -30 -72.501zM944.999 577.001l-150 485
l-149 -485h299zM746.999 2219h350l-323 -299h-195z" />
    <glyph glyph-name="aringacute" unicode="&#x1fb;" 
d="M494 718l-389.002 41c26 122 87 209.333 183 262c78.667 43.333 200.667 65 366 65c112.667 0 196.334 -4.33301 251.001 -13c98 -14.667 174 -45.667 228 -93c34.667 -30.667 62.667 -74.334 84 -131.001c18.667 -52 28 -103.333 28 -154v-469
c0 -80.667 17 -156 51 -226h-382c-22 39.333 -36.667 82.666 -44 129.999c-54 -52 -107 -88.667 -159 -110c-71.333 -29.333 -155 -44 -251 -44c-107.333 0 -195.666 23.333 -264.999 70c-81.333 54.667 -122 133 -122 235c0 96.667 32.667 171 98 223
c50.667 40 129 70.667 235 92c112.667 22.667 187 38.334 223 47.001c83.333 19.333 156 41.333 218 66c0 50.667 -10.5 85.834 -31.5 105.501s-57.167 29.5 -108.5 29.5c-66.667 0 -116.667 -10.667 -150 -32c-26 -16.667 -47 -48 -63 -94zM846.998 504
c-51.333 -18 -109.667 -35.665 -175 -52.998c-57.333 -15.333 -98 -29.333 -122 -42c-46 -24.667 -69 -57.334 -69 -98.001c0 -72.667 44 -109 132 -109c41.333 0 81.333 9.66699 120 29c42 21.333 72 49.666 90 84.999c16 31.333 24 72.333 24 123v65zM922.997 1403
c0 -66.667 -23.333 -123.332 -70 -169.999s-103.334 -70 -170.001 -70c-67.333 0 -124.333 23.167 -171 69.5s-70 103.166 -70 170.499s23.333 124.333 70 171s103.667 70 171 70c66.667 0 123.334 -23.5 170.001 -70.5s70 -103.833 70 -170.5zM784.997 1404
c0 28.667 -10 53 -30 73s-44.333 30 -73 30s-53 -10 -73 -30s-30 -44.333 -30 -73s10 -53 30 -73s44.333 -30 73 -30s53 10 73 30s30 44.333 30 73zM618.997 2031h350l-323 -299h-195z" />
    <glyph glyph-name="AEacute" unicode="&#x1fc;" horiz-adv-x="2048" 
d="M556 1466h1400v-313h-618v-233h562v-299h-562v-289h637v-332h-1063v263h-435l-97 -263h-456zM811 1169l-211 -572h312v572h-101zM1167 1871h350l-323 -299h-195z" />
    <glyph glyph-name="aeacute" unicode="&#x1fd;" horiz-adv-x="2048" 
d="M1990 431l-771.001 0.000976562c7.33301 -64 23 -111.667 47 -143c36.667 -47.333 84.667 -71 144 -71c62.667 0 115.334 33.333 158.001 100l397 -35c-59.333 -110 -135.333 -189.333 -228 -238c-86 -45.333 -194.333 -68 -325 -68c-110 0 -204.667 16 -284 48
c-60 24 -117.667 64 -173 120c-153.333 -112 -313 -168 -479 -168c-114.667 0 -207.667 22.333 -279 67c-85.333 53.333 -128 134 -128 242c0 96.667 37.667 172.334 113 227.001c42.667 31.333 89.667 55.666 141 72.999c40.667 14 98 27.333 172 40
c88 15.333 146 26.666 174 33.999c45.333 11.333 97.333 27 156 47c-1.33301 53.333 -12.333 89.666 -33 108.999s-57.667 29 -111 29c-102 0 -164 -42.333 -186 -127l-391 45c19.333 70.667 42 124 68 160c79.333 110 235 165 467 165c105.333 0 192 -9.33301 260 -28
c48.667 -13.333 102.334 -39 161.001 -77c110 69.333 225.333 104 346 104c195.333 0 343.666 -54.333 444.999 -163c46.667 -50.667 80 -101 100 -151c26 -65.333 39 -156.666 39 -273.999v-67zM1584 626.001c-11.333 144.667 -70.668 217 -178.001 217
s-170.666 -72.333 -189.999 -217h368zM824.997 507.001l-124.998 -40.999c-13.333 -4.66699 -27.333 -8.33398 -42 -11.001c-118.667 -22 -178 -67.333 -178 -136c0 -33.333 11.667 -60 35 -80s51.666 -30 84.999 -30c93.333 0 160.666 37.667 201.999 113
c15.333 28 23 64.333 23 109v76zM994.999 1491h350l-323 -299h-195z" />
    <glyph glyph-name="Oslashacute" unicode="&#x1fe;" horiz-adv-x="1706" 
d="M1346 1352l174.001 164.003l151 -161l-173 -164c75.333 -114 113 -266 113 -456c0 -326.667 -115.667 -551.334 -347 -674.001c-108.667 -57.333 -245.334 -86 -410.001 -86c-117.333 0 -222.333 15 -315 45c-60 19.333 -119.333 51 -178 95l-175 -167l-151 159l176 168
c-79.333 123.333 -119 274.666 -119 453.999c0 239.333 66 426.166 198 560.499s317.333 201.5 556 201.5c210 0 376.667 -46.333 500 -139zM1054 1075c-50 48.667 -118.667 73 -206 73c-202 0 -303 -136.667 -303 -410c0 -45.333 3.33301 -91 10 -137zM1150 861.003
l-501.001 -474c48.667 -48.667 116.334 -73 203.001 -73c204 0 306 140 306 420c0 42.667 -2.66699 85 -8 127zM831 1871h350l-323 -299h-195z" />
    <glyph glyph-name="oslashacute" unicode="&#x1ff;" 
d="M1153 1156l103.996 -94.0029l-124 -136c52 -43.333 92 -103.333 120 -180c26 -68.667 39 -140 39 -214c0 -172.667 -57.333 -309.667 -172 -411c-109.333 -96.667 -251.666 -145 -426.999 -145c-75.333 0 -141.666 6.33301 -198.999 19
c-39.333 8.66699 -89 27.334 -149 56.001l-133 -148l-105 97l127 135c-107.333 114.667 -161 245 -161 391c0 172.667 57.667 310.334 173 413.001c110.667 98 253.334 147 428.001 147c74.667 0 141.334 -7 200.001 -21c39.333 -9.33301 88 -28.666 146 -57.999z
M820.996 784.997c-18.667 18 -34.667 29.667 -48 35c-26 10.667 -55.333 16 -88 16c-81.333 0 -142.333 -33.667 -183 -101c-32.667 -54.667 -49 -125.667 -49 -213c0 -35.333 5.66699 -77.333 17 -126zM544.996 269.997c22.667 -18 40.667 -29.333 54 -34
c26 -9.33301 55.333 -14 88 -14c81.333 0 141.333 35 180 105c30 55.333 45 127.333 45 216c0 34 -5.66699 73 -17 117zM670.996 1491h350l-323 -299h-195z" />
    <glyph glyph-name="circumflex" unicode="&#x2c6;" horiz-adv-x="682" 
d="M201 1478h289l222 -286h-248l-122 153l-122 -153h-248z" />
    <glyph glyph-name="caron" unicode="&#x2c7;" horiz-adv-x="682" 
d="M482 1192h-288l-222 286h247l122 -153l122 153h249z" />
    <glyph glyph-name="macron" unicode="&#x2c9;" horiz-adv-x="682" 
d="M18 1446h647v-217h-647v217z" />
    <glyph glyph-name="breve" unicode="&#x2d8;" horiz-adv-x="682" 
d="M518 1491h164.999c-8 -125.333 -62.333 -213 -163 -263c-52.667 -26 -109.667 -39 -171 -39c-99.333 0 -179.333 25.667 -240 77c-62.667 52.667 -99 127.667 -109 225h172c24.667 -71.333 80.667 -107 168 -107c50.667 0 88.334 6 113.001 18c31.333 16 53 45.667 65 89
z" />
    <glyph glyph-name="dotaccent" unicode="&#x2d9;" horiz-adv-x="683" 
d="M184 1496h314v-300h-314v300z" />
    <glyph glyph-name="ring" unicode="&#x2da;" horiz-adv-x="682" 
d="M581 1403c0 -66.667 -23.333 -123.332 -70 -169.999s-103.334 -70 -170.001 -70c-67.333 0 -124.333 23.167 -171 69.5s-70 103.166 -70 170.499s23.333 124.333 70 171s103.667 70 171 70c66.667 0 123.334 -23.5 170.001 -70.5s70 -103.833 70 -170.5zM443 1404
c0 28.667 -10 53 -30 73s-44.333 30 -73 30s-53 -10 -73 -30s-30 -44.333 -30 -73s10 -53 30 -73s44.333 -30 73 -30s53 10 73 30s30 44.333 30 73z" />
    <glyph glyph-name="ogonek" unicode="&#x2db;" horiz-adv-x="682" 
d="M200 26h169.001c-13.333 -58 -20 -106 -20 -144c0 -102.667 46.667 -154 140 -154c31.333 0 74 8.66699 128 26v-155c-82.667 -30.667 -153.334 -46 -212.001 -46c-76 0 -136.667 19.667 -182 59c-47.333 42 -71 100.333 -71 175c0 59.333 16 139 48 239z" />
    <glyph glyph-name="tilde" unicode="&#x2dc;" horiz-adv-x="682" 
d="M543 1466h158.002c0.666992 -17.333 1 -32.333 1 -45c0 -67.333 -16.333 -122 -49 -164c-35.333 -46 -85.666 -69 -150.999 -69c-42.667 0 -107.334 17.667 -194.001 53c-52.667 21.333 -89 32 -109 32c-40 0 -60.667 -27.333 -62 -82h-156c-0.666992 16 -1 30 -1 42
c0 63.333 17 117 51 161c37.333 48 86.666 72 147.999 72c39.333 0 99.666 -17 180.999 -51c55.333 -23.333 95.666 -35 120.999 -35c38.667 0 59.334 28.667 62.001 86z" />
    <glyph glyph-name="hungarumlaut" unicode="&#x2dd;" horiz-adv-x="682" 
d="M214 1491h325l-296 -295h-197zM611 1491h328l-302 -295h-191z" />
    <glyph glyph-name="tonos" unicode="&#x384;" horiz-adv-x="389" 
d="M381 1466l-180 -299h-195l66 299h309z" />
    <glyph glyph-name="dieresistonos" unicode="&#x385;" horiz-adv-x="682" 
d="M557 1819l-180 -299h-195l66 299h309zM684 1196h-262v250h262v-250zM260 1196h-262v250h262v-250z" />
    <glyph glyph-name="Alphatonos" unicode="&#x386;" horiz-adv-x="1593" 
d="M1052 242h-516l-71 -242h-463l551 1466h494l551 -1466h-474zM957 559l-162 527l-161 -527h323zM381 1466l-180 -299h-195l66 299h309z" />
    <glyph glyph-name="anoteleia" unicode="&#x387;" horiz-adv-x="1024" 
d="M184 932h314v-300h-314v300z" />
    <glyph glyph-name="Epsilontonos" unicode="&#x388;" horiz-adv-x="1733" 
d="M405 1466h1214v-313h-760v-233h705v-299h-705v-289h782v-332h-1236v1466zM381 1466l-180 -299h-195l66 299h309z" />
    <glyph glyph-name="Etatonos" unicode="&#x389;" horiz-adv-x="1960" 
d="M404 1466h453v-513h495v513h455v-1466h-455v593h-495v-593h-453v1466zM381 1466l-180 -299h-195l66 299h309z" />
    <glyph glyph-name="Iotatonos" unicode="&#x38a;" horiz-adv-x="1026" 
d="M400 1466h454v-1466h-454v1466zM381 1466l-180 -299h-195l66 299h309z" />
    <glyph glyph-name="Omicrontonos" unicode="&#x38c;" horiz-adv-x="1815" 
d="M201 732c0 239.333 66.332 425.667 198.999 559s318.667 200 558 200c240.667 0 427.334 -64 560.001 -192c134.667 -130 202 -315 202 -555c0 -326 -112 -551.667 -336 -677c-109.333 -61.333 -245.333 -92 -408 -92c-320 0 -544.667 109.667 -674 329
c-67.333 114 -101 256.667 -101 428zM653.999 730.001c0 -277.333 102.333 -416 307 -416c120 0 204 45.333 252 136c36 67.333 54 167.333 54 300c0 265.333 -103.333 398 -310 398c-202 0 -303 -139.333 -303 -418zM380.999 1466l-180 -299h-195l66 299h309z" />
    <glyph glyph-name="Upsilontonos" unicode="&#x38e;" horiz-adv-x="1985" 
d="M390 1466h503l296 -495l296 495h500l-570 -852v-614h-454v614zM381 1466l-180 -299h-195l66 299h309z" />
    <glyph glyph-name="Omegatonos" unicode="&#x38f;" horiz-adv-x="1829" 
d="M448 319c-66 48.667 -121.333 124.334 -166 227.001c-42.667 96.667 -64 188.334 -64 275.001c0 220.667 72.333 389.667 217 507c133.333 108.667 313 163 539 163c235.333 0 418 -52 548 -156c142.667 -113.333 214 -284.666 214 -513.999
c0 -86.667 -21.333 -178.334 -64 -275.001c-44.667 -102.667 -100 -178.334 -166 -227.001h217v-319h-661v319c147.333 103.333 221 260.666 221 471.999c0 240 -103 360 -309 360c-103.333 0 -181.333 -35 -234 -105c-46 -62.667 -69 -147.667 -69 -255
c0 -198 73.667 -355.333 221 -472v-319h-662v319h218zM381 1466l-180 -299h-195l66 299h309z" />
    <glyph glyph-name="iotadieresistonos" unicode="&#x390;" horiz-adv-x="797" 
d="M138 1062h407v-1062h-407v1062zM557 1819l-180 -299h-195l66 299h309zM684 1196h-262v250h262v-250zM260 1196h-262v250h262v-250z" />
    <glyph glyph-name="Alpha" unicode="&#x391;" horiz-adv-x="1593" 
d="M1052 242h-516l-71 -242h-463l551 1466h494l551 -1466h-474zM957 559l-162 527l-161 -527h323z" />
    <glyph glyph-name="Beta" unicode="&#x392;" horiz-adv-x="1593" 
d="M151 1466l848 -0.000976562c123.333 0 225 -29.333 305 -88c89.333 -65.333 134 -157.666 134 -276.999c0 -86.667 -27 -161 -81 -223c-36 -41.333 -88.667 -74 -158 -98c204.667 -49.333 307 -170.333 307 -363c0 -156.667 -66 -273 -198 -349
c-38 -22 -95.333 -38 -172 -48c-102 -13.333 -169.667 -20 -203 -20h-782v1466zM608 890.999h197c126 0 189 47.333 189 142c0 90.667 -62 136 -186 136h-200v-278zM608 314.999h231c142 0 213 51 213 153c0 96 -71.333 144 -214 144h-230v-297z" />
    <glyph glyph-name="Gamma" unicode="&#x393;" 
d="M1311 1106h-709v-1106h-452v1466h1161v-360z" />
    <glyph glyph-name="Delta" unicode="&#x394;" horiz-adv-x="1593" 
d="M1595 0h-1597l551 1466h495zM1030 315l-235 770l-242 -770h477z" />
    <glyph glyph-name="Epsilon" unicode="&#x395;" horiz-adv-x="1479" 
d="M149 1466h1214v-313h-760v-233h705v-299h-705v-289h782v-332h-1236v1466z" />
    <glyph glyph-name="Zeta" unicode="&#x396;" horiz-adv-x="1479" 
d="M113 1466h1282v-293l-822 -858h852v-315h-1391v304l813 849h-734v313z" />
    <glyph glyph-name="Eta" unicode="&#x397;" horiz-adv-x="1706" 
d="M152 1466h453v-513h495v513h455v-1466h-455v593h-495v-593h-453v1466z" />
    <glyph glyph-name="Theta" unicode="&#x398;" horiz-adv-x="1706" 
d="M850 1491c242 0 429 -64.001 561 -192.001c134 -130 201 -315.333 201 -556c0 -242.667 -63 -430.667 -189 -564c-129.333 -136 -314.333 -204 -555 -204c-246 0 -436 64.333 -570 193c-136 130.667 -204 318.334 -204 563.001c0 240 66 426.667 198 560s318 200 558 200
zM852 314.999c120.667 0 205 45 253 135c36 66.667 54 166.667 54 300c0 267.333 -103 401 -309 401c-202 0 -303 -140.667 -303 -422c0 -276 101.667 -414 305 -414zM1057 603.999h-400v277h400v-277z" />
    <glyph glyph-name="Theta" unicode="&#x472;" horiz-adv-x="1706" 
d="M850 1491c242 0 429 -64.001 561 -192.001c134 -130 201 -315.333 201 -556c0 -242.667 -63 -430.667 -189 -564c-129.333 -136 -314.333 -204 -555 -204c-246 0 -436 64.333 -570 193c-136 130.667 -204 318.334 -204 563.001c0 240 66 426.667 198 560s318 200 558 200
zM852 314.999c120.667 0 205 45 253 135c36 66.667 54 166.667 54 300c0 267.333 -103 401 -309 401c-202 0 -303 -140.667 -303 -422c0 -276 101.667 -414 305 -414zM1057 603.999h-400v277h400v-277z" />
    <glyph glyph-name="Iota" unicode="&#x399;" horiz-adv-x="797" 
d="M168 1466h454v-1466h-454v1466z" />
    <glyph glyph-name="Kappa" unicode="&#x39a;" horiz-adv-x="1706" 
d="M152 1466h453v-554l475 554h602l-534 -553l558 -913h-558l-309 603l-234 -245v-358h-453v1466z" />
    <glyph glyph-name="Lambda" unicode="&#x39b;" horiz-adv-x="1593" 
d="M1591 0h-473l-332 1057l-323 -1057h-461l545 1466h491z" />
    <glyph glyph-name="Mu" unicode="&#x39c;" horiz-adv-x="1933" 
d="M145 1466h596l230 -892l229 892h594v-1466h-370v1118l-287 -1118h-335l-286 1118v-1118h-371v1466z" />
    <glyph glyph-name="Nu" unicode="&#x39d;" horiz-adv-x="1706" 
d="M153 1466h423l552 -811v811h427v-1466h-427l-549 805v-805h-426v1466z" />
    <glyph glyph-name="Xi" unicode="&#x39e;" horiz-adv-x="1479" 
d="M1335 1151h-1194v315h1194v-315zM1174 621h-865v297h865v-297zM1358 0h-1237v332h1237v-332z" />
    <glyph glyph-name="Omicron" unicode="&#x39f;" horiz-adv-x="1706" 
d="M93 732c0 239.333 66.332 425.667 198.999 559s318.667 200 558 200c240.667 0 427.334 -64 560.001 -192c134.667 -130 202 -315 202 -555c0 -326 -112 -551.667 -336 -677c-109.333 -61.333 -245.333 -92 -408 -92c-320 0 -544.667 109.667 -674 329
c-67.333 114 -101 256.667 -101 428zM545.999 730.001c0 -277.333 102.333 -416 307 -416c120 0 204 45.333 252 136c36 67.333 54 167.333 54 300c0 265.333 -103.333 398 -310 398c-202 0 -303 -139.333 -303 -418z" />
    <glyph glyph-name="Pi" unicode="&#x3a0;" horiz-adv-x="1706" 
d="M1554 0h-452v1106h-498v-1106h-452v1466h1402v-1466z" />
    <glyph glyph-name="Rho" unicode="&#x3a1;" horiz-adv-x="1479" 
d="M148 1466h753c327.333 0 491 -150 491 -450c0 -314.667 -180.333 -472 -541 -472h-248v-544h-455v1466zM603 841h111c158 0 237 54 237 162c0 110 -73 165 -219 165h-129v-327z" />
    <glyph glyph-name="Sigma" unicode="&#x3a3;" horiz-adv-x="1479" 
d="M1389 0h-1237v317l434 441l-434 405v303h1214v-315h-725l430 -393l-430 -426h748v-332z" />
    <glyph glyph-name="Tau" unicode="&#x3a4;" horiz-adv-x="1479" 
d="M47 1466h1377v-362h-462v-1104h-453v1104h-462v362z" />
    <glyph glyph-name="Upsilon" unicode="&#x3a5;" horiz-adv-x="1593" 
d="M2 1466h503l296 -495l296 495h500l-570 -852v-614h-454v614z" />
    <glyph glyph-name="Phi" unicode="&#x3a6;" horiz-adv-x="1892" 
d="M1153 1354c445.333 -46.667 668 -246.666 668 -599.999c0 -360.667 -222.667 -561.334 -668 -602.001v-172h-412v176c-444.667 38 -667 237.333 -667 598c0 354 222.333 554 667 600v133h412v-133zM1153 459.001c150 43.333 225.001 143.666 225.001 300.999
c0 72 -20.333 135.833 -61 191.5s-95.334 94.834 -164.001 117.501v-610zM741.001 455.001l0.00195312 605.998c-68.667 -19.333 -123.334 -57.666 -164.001 -114.999s-61 -122 -61 -194c0 -69.333 20.667 -130.666 62 -183.999s95.666 -91 162.999 -113z" />
    <glyph glyph-name="Chi" unicode="&#x3a7;" horiz-adv-x="1593" 
d="M49 1466h499l260 -451l252 451h494l-456 -710l499 -756h-509l-289 471l-290 -471h-506l506 764z" />
    <glyph glyph-name="Psi" unicode="&#x3a8;" horiz-adv-x="1937" 
d="M1853 1001c0 -201.333 -60.333 -355.333 -181 -462c-114.667 -102.667 -274 -154 -478 -154v-385h-453v381c-204 0 -363.333 51.333 -478 154c-120.667 106.667 -181 260.667 -181 462v465h453v-485c0 -108 22 -180.667 66 -218c30 -25.333 76.667 -38 140 -38v745h453
v-741c113.333 0 179 42.333 197 127c6.66699 33.333 10 76.333 10 129v485h452v-465z" />
    <glyph glyph-name="Psi" unicode="&#x470;" horiz-adv-x="1937" 
d="M1853 1001c0 -201.333 -60.333 -355.333 -181 -462c-114.667 -102.667 -274 -154 -478 -154v-385h-453v381c-204 0 -363.333 51.333 -478 154c-120.667 106.667 -181 260.667 -181 462v465h453v-485c0 -108 22 -180.667 66 -218c30 -25.333 76.667 -38 140 -38v745h453
v-741c113.333 0 179 42.333 197 127c6.66699 33.333 10 76.333 10 129v485h452v-465z" />
    <glyph glyph-name="Omega" unicode="&#x3a9;" horiz-adv-x="1706" 
d="M324 319c-66 48.667 -121.333 124.334 -166 227.001c-42.667 96.667 -64 188.334 -64 275.001c0 220.667 72.333 389.667 217 507c133.333 108.667 313 163 539 163c235.333 0 418 -52 548 -156c142.667 -113.333 214 -284.666 214 -513.999
c0 -86.667 -21.333 -178.334 -64 -275.001c-44.667 -102.667 -100 -178.334 -166 -227.001h217v-319h-661v319c147.333 103.333 221 260.666 221 471.999c0 240 -103 360 -309 360c-103.333 0 -181.333 -35 -234 -105c-46 -62.667 -69 -147.667 -69 -255
c0 -198 73.667 -355.333 221 -472v-319h-662v319h218z" />
    <glyph glyph-name="Iotadieresis" unicode="&#x3aa;" horiz-adv-x="797" 
d="M168 1466h454v-1466h-454v1466zM56 1809h260v-250h-260v250zM480 1809h263v-250h-263v250z" />
    <glyph glyph-name="Upsilondieresis" unicode="&#x3ab;" horiz-adv-x="1593" 
d="M2 1466h503l296 -495l296 495h500l-570 -852v-614h-454v614zM454 1809h260v-250h-260v250zM878 1809h263v-250h-263v250z" />
    <glyph glyph-name="alphatonos" unicode="&#x3ac;" horiz-adv-x="1389" 
d="M1352 1063c-92 -161.333 -137.999 -343 -137.999 -545c0 -172 41 -344.667 123 -518h-372c-17.333 34.667 -33 74.334 -47 119.001c-66 -96 -172 -144 -318 -144c-154.667 0 -281.667 57.667 -381 173c-94 110 -141 243.667 -141 401s48.333 286 145 386
s223.667 150 381 150c128.667 0 236.667 -45.667 324 -137c7.33301 35.333 21.666 73.666 42.999 114.999h381zM653.001 240c104 0 156 96 156 288c0 195.333 -53.333 293 -160 293s-160 -97.667 -160 -293c0 -192 54.667 -288 164 -288zM909.001 1466l-180 -299h-195
l66 299h309z" />
    <glyph glyph-name="epsilontonos" unicode="&#x3ad;" horiz-adv-x="1122" 
d="M1114 104c-109.333 -86 -260.003 -129 -452.003 -129c-145.333 0 -269.666 20.667 -372.999 62c-143.333 58 -215 149.333 -215 274c0 105.333 62.667 185.333 188 240c-98 47.333 -147 125 -147 233c0 114 68 196.667 204 248c94.667 35.333 210.334 53 347.001 53
c168 0 303 -25.667 405 -77l-153 -222c-74 38.667 -154.667 58 -242 58c-105.333 0 -158 -26.667 -158 -80c0 -68 82 -102 246 -102v-228c-186 0 -279 -41 -279 -123c0 -62.667 64.333 -94 193 -94c96.667 0 179.334 27.333 248.001 82zM836.997 1466l-180 -299h-195l66 299
h309z" />
    <glyph glyph-name="etatonos" unicode="&#x3ae;" 
d="M1247 -406h-406.999v990c0 122.667 -48 184 -144 184c-110.667 0 -166 -86 -166 -258v-510h-407v1061h381v-172h4c91.333 130.667 217.666 196 378.999 196c240 0 360 -136.333 360 -409v-1082zM917.001 1466l-180 -299h-195l66 299h309z" />
    <glyph glyph-name="iotatonos" unicode="&#x3af;" horiz-adv-x="682" 
d="M138 1062h407v-1062h-407v1062zM561 1466l-180 -299h-195l66 299h309z" />
    <glyph glyph-name="upsilondieresistonos" unicode="&#x3b0;" 
d="M1243 430c0 -154 -58 -271 -174 -351c-100.667 -69.333 -231.667 -104 -393 -104c-160.667 0 -290 35 -388 105c-112.667 79.333 -169 196 -169 350v631h407v-572c0 -130.667 51.333 -196 154 -196c104 0 156 65.333 156 196v572h407v-631zM901 1819l-180 -299h-195
l66 299h309zM1028 1196h-262v250h262v-250zM604 1196h-262v250h262v-250z" />
    <glyph glyph-name="alpha" unicode="&#x3b1;" horiz-adv-x="1389" 
d="M1352 1063c-92 -161.333 -137.999 -343 -137.999 -545c0 -172 41 -344.667 123 -518h-372c-17.333 34.667 -33 74.334 -47 119.001c-66 -96 -172 -144 -318 -144c-154.667 0 -281.667 57.667 -381 173c-94 110 -141 243.667 -141 401s48.333 286 145 386
s223.667 150 381 150c128.667 0 236.667 -45.667 324 -137c7.33301 35.333 21.666 73.666 42.999 114.999h381zM653.001 240c104 0 156 96 156 288c0 195.333 -53.333 293 -160 293s-160 -97.667 -160 -293c0 -192 54.667 -288 164 -288z" />
    <glyph glyph-name="beta" unicode="&#x3b2;" horiz-adv-x="1319" 
d="M942 838c90.667 -20.667 163.999 -72.668 219.999 -156.001c52.667 -78 79 -165.333 79 -262c0 -138 -35.667 -246 -107 -324c-73.333 -80.667 -178.333 -121 -315 -121c-135.333 0 -238.333 41 -309 123v-504h-391v1422c0 157.333 47.667 277 143 359
c90 77.333 215 116 375 116c140.667 0 254.334 -26.667 341.001 -80c104.667 -65.333 157 -163.666 157 -294.999c0 -127.333 -64.333 -220 -193 -278zM591.999 890.999c51.333 8.66699 93.5 30.499 126.5 65.499s49.5 77.833 49.5 128.5c0 100 -42.333 150 -127 150
c-87.333 0 -131 -66.333 -131 -199v-639c45.333 -103.333 112.333 -155 201 -155c107.333 0 161 58 161 174c0 156.667 -93.333 243.334 -280 260.001v215z" />
    <glyph glyph-name="gamma" unicode="&#x3b3;" horiz-adv-x="1251" 
d="M1253 1061l-428 -1008v-459h-407v459l-420 1008h424l203 -672l217 672h411z" />
    <glyph glyph-name="delta" unicode="&#x3b4;" 
d="M655 1182l303 -166c222.667 -122 334 -288 334 -498c0 -174 -59.667 -309.667 -179 -407c-110.667 -90.667 -255 -136 -433 -136c-174 0 -316.333 45.333 -427 136c-119.333 97.333 -179 231 -179 401c0 122 32.333 227.333 97 316s155 152 271 190l-274 162v284h981
v-282h-494zM682 254c135.333 0 203 87.333 203 262c0 172 -66.333 258 -199 258c-136.667 0 -205 -87.333 -205 -262c0 -172 67 -258 201 -258zM680 1086z" />
    <glyph glyph-name="epsilon" unicode="&#x3b5;" horiz-adv-x="1122" 
d="M1114 104c-109.333 -86 -260.003 -129 -452.003 -129c-145.333 0 -269.666 20.667 -372.999 62c-143.333 58 -215 149.333 -215 274c0 105.333 62.667 185.333 188 240c-98 47.333 -147 125 -147 233c0 114 68 196.667 204 248c94.667 35.333 210.334 53 347.001 53
c168 0 303 -25.667 405 -77l-153 -222c-74 38.667 -154.667 58 -242 58c-105.333 0 -158 -26.667 -158 -80c0 -68 82 -102 246 -102v-228c-186 0 -279 -41 -279 -123c0 -62.667 64.333 -94 193 -94c96.667 0 179.334 27.333 248.001 82z" />
    <glyph glyph-name="zeta" unicode="&#x3b6;" horiz-adv-x="942" 
d="M924 1229c-140 -152 -235.334 -263.335 -286.001 -334.002c-110 -152 -165 -283.667 -165 -395c0 -88.667 54 -158 162 -208c64.667 -30 108.334 -52.667 131.001 -68c42.667 -28.667 75.167 -64.167 97.5 -106.5s33.5 -97.166 33.5 -164.499
c0 -117.333 -42.333 -211.666 -127 -282.999c-80 -66.667 -179.667 -100 -299 -100h-113l70 264c113.333 0 170 25.333 170 76c0 32 -19.667 58.333 -59 79c-15.333 8.66699 -48.333 20.667 -99 36c-79.333 24 -138.333 47.667 -177 71c-53.333 32 -97 76.667 -131 134
c-36 61.333 -54 145 -54 251c0 204.667 152.333 439 457 703h-412v282h801v-237z" />
    <glyph glyph-name="eta" unicode="&#x3b7;" 
d="M1247 -406h-406.999v990c0 122.667 -48 184 -144 184c-110.667 0 -166 -86 -166 -258v-510h-407v1061h381v-172h4c91.333 130.667 217.666 196 378.999 196c240 0 360 -136.333 360 -409v-1082z" />
    <glyph glyph-name="theta" unicode="&#x3b8;" 
d="M692 1491c203.333 0 356.333 -76.668 459 -230.001c87.333 -131.333 131 -304 131 -518c0 -227.333 -42.333 -405.666 -127 -534.999c-101.333 -155.333 -259 -233 -473 -233c-210 0 -366.333 78 -469 234c-86 131.333 -129 308 -129 530c0 501.333 202.667 752 608 752z
M870 890.999c-5.33301 92 -17.333 161 -36 207c-30.667 76 -82 114 -154 114c-114 0 -175.333 -107 -184 -321h374zM872 593.999h-376c10 -226.667 72 -340 186 -340c118 0 181.333 113.333 190 340z" />
    <glyph glyph-name="theta" unicode="&#x473;" 
d="M692 1491c203.333 0 356.333 -76.668 459 -230.001c87.333 -131.333 131 -304 131 -518c0 -227.333 -42.333 -405.666 -127 -534.999c-101.333 -155.333 -259 -233 -473 -233c-210 0 -366.333 78 -469 234c-86 131.333 -129 308 -129 530c0 501.333 202.667 752 608 752z
M870 890.999c-5.33301 92 -17.333 161 -36 207c-30.667 76 -82 114 -154 114c-114 0 -175.333 -107 -184 -321h374zM872 593.999h-376c10 -226.667 72 -340 186 -340c118 0 181.333 113.333 190 340z" />
    <glyph glyph-name="iota" unicode="&#x3b9;" horiz-adv-x="682" 
d="M138 1062h407v-1062h-407v1062z" />
    <glyph glyph-name="kappa" unicode="&#x3ba;" 
d="M1358 0h-459l-215 426l-154 -150v-276h-407v1061h407v-352l306 352h499l-379 -371z" />
    <glyph glyph-name="lambda" unicode="&#x3bb;" horiz-adv-x="1251" 
d="M1249 0h-399l-221 662l-203 -662h-430l473 1083l-164 383h393z" />
    <glyph glyph-name="mu" unicode="&#x3bc;" 
d="M1243 0l-383 0.000976562v84c-43.333 -72.667 -98 -109 -164 -109c-80.667 0 -137.334 33.667 -170.001 101v-477h-407v1462h407v-533c0 -96.667 17.333 -162.334 52 -197.001c22.667 -24 58 -36 106 -36c64.667 0 108.334 26.333 131.001 79c14 33.333 21 88.333 21 165
v522h407v-1061z" />
    <glyph glyph-name="nu" unicode="&#x3bd;" horiz-adv-x="1251" 
d="M2 1062h424l206 -673l213 673h411l-451 -1062h-361z" />
    <glyph glyph-name="xi" unicode="&#x3be;" horiz-adv-x="942" 
d="M829 745c-100 -6 -181.334 -30.9971 -244.001 -74.9971c-74.667 -52 -112 -125 -112 -219c0 -73.333 52.333 -132.333 157 -177c64 -28 108 -49.667 132 -65c43.333 -27.333 76.666 -62 99.999 -104s35 -96.667 35 -164c0 -116.667 -42.667 -209 -128 -277
c-78.667 -62.667 -178 -94 -298 -94h-113l70 264c109.333 0 164 25.333 164 76c0 30 -19.667 54.667 -59 74c-15.333 7.33301 -48 18 -98 32c-77.333 21.333 -134.666 41.666 -171.999 60.999c-54.667 29.333 -98.667 70.333 -132 123c-35.333 55.333 -53 131.333 -53 228
c0 107.333 32.333 197.666 97 270.999c62.667 69.333 147.667 115.666 255 138.999c-192.667 42.667 -289 146.334 -289 311.001c0 123.333 60.333 213.666 181 270.999c90 42 204.667 63 344 63h161v-271c-52.667 3.33301 -97 5 -133 5c-134.667 0 -202 -37 -202 -111
c0 -42.667 29.667 -74 89 -94c40.667 -14 87.334 -21 140.001 -21h108v-246z" />
    <glyph glyph-name="omicron" unicode="&#x3bf;" 
d="M73 528c0 172.667 58.666 309.998 175.999 411.998c112 97.333 255.667 146 431 146c212.667 0 373.334 -61.667 482.001 -185c87.333 -99.333 131 -221.666 131 -366.999c0 -176 -59 -314.333 -177 -415c-111.333 -95.333 -256.333 -143 -435 -143
c-171.333 0 -309.333 43.333 -414 130c-129.333 106.667 -194 247.334 -194 422.001zM480.999 528.998c0 -76.667 14.333 -139.332 43 -187.999c34.667 -60 87.667 -90 159 -90c134 0 201 94 201 282c0 74 -14 135.333 -42 184c-34.667 59.333 -86.667 89 -156 89
c-72 0 -125.667 -29.667 -161 -89c-29.333 -48.667 -44 -111.334 -44 -188.001z" />
    <glyph glyph-name="pi" unicode="&#x3c0;" horiz-adv-x="1448" 
d="M1430 764h-134v-764h-407v764h-309v-764h-408v764h-152v297h1410v-297z" />
    <glyph glyph-name="rho" unicode="&#x3c1;" 
d="M125 -406v918.001c0 177.333 52.5 317.166 157.5 419.499s246.5 153.5 424.5 153.5c177.333 0 318.833 -51 424.5 -153s158.5 -241.333 158.5 -418c0 -152.667 -35.667 -277.667 -107 -375c-80 -109.333 -193.667 -164 -341 -164c-136 0 -239.333 39 -310 117v-498h-407z
M717 276.001c110.667 0 166 82.001 166 246.001c0 174.667 -57.333 262 -172 262c-122 0 -183 -86 -183 -258c0 -68.667 14 -125.334 42 -170.001c33.333 -53.333 82.333 -80 147 -80z" />
    <glyph glyph-name="sigma1" unicode="&#x3c2;" horiz-adv-x="1081" 
d="M1069 1044l-85.998 -294c-95.333 22.667 -169.666 34 -222.999 34c-79.333 0 -147 -26.333 -203 -79s-84 -118.334 -84 -197.001c0 -50.667 35.667 -100 107 -148c25.333 -17.333 82.333 -47.666 171 -90.999c93.333 -46 160.666 -86.333 201.999 -121
c70.667 -59.333 106 -125.666 106 -198.999c0 -132.667 -54.333 -232 -163 -298c-89.333 -54 -205 -81 -347 -81c-54.667 0 -126.334 2.66699 -215.001 8l51 266c64 -6.66699 114 -10 150 -10c108.667 0 163 22.667 163 68c0 47.333 -68 98 -204 152
c-90.667 35.333 -155.667 64 -195 86c-68 38.667 -121.833 84.167 -161.5 136.5s-59.5 117.833 -59.5 196.5c0 189.333 69 340.666 207 453.999c128.667 105.333 289.667 158 483 158c113.333 0 213.666 -13.667 300.999 -41z" />
    <glyph glyph-name="sigma" unicode="&#x3c3;" horiz-adv-x="1532" 
d="M1487 764l-240.002 0.00195312c30 -72 45 -148.333 45 -229c0 -176.667 -58.667 -315.334 -176 -416.001c-111.333 -96 -256.666 -144 -435.999 -144c-174.667 0 -317.667 48 -429 144c-118 101.333 -177 237.666 -177 408.999c0 174 58.333 311.667 175 413
c110.667 96 254.334 144 431.001 144c54 0 102.667 -4 146 -12l65 -12h596v-297zM681.998 254.002c135.333 0 203 92.667 203 278c0 75.333 -14 137.333 -42 186c-34.667 59.333 -87 89 -157 89c-72 0 -125.667 -30 -161 -90c-29.333 -48.667 -44 -111.667 -44 -189
c0 -182.667 67 -274 201 -274z" />
    <glyph glyph-name="tau" unicode="&#x3c4;" horiz-adv-x="1040" 
d="M1018 764h-295v-764h-408v764h-295v297h998v-297z" />
    <glyph glyph-name="upsilon" unicode="&#x3c5;" 
d="M1243 430c0 -154 -58 -271 -174 -351c-100.667 -69.333 -231.667 -104 -393 -104c-160.667 0 -290 35 -388 105c-112.667 79.333 -169 196 -169 350v631h407v-572c0 -130.667 51.333 -196 154 -196c104 0 156 65.333 156 196v572h407v-631z" />
    <glyph glyph-name="phi" unicode="&#x3c6;" horiz-adv-x="1819" 
d="M700 281l0.000976562 346c0 164.667 34.667 282.167 104 352.5s186.333 105.5 351 105.5c184 0 326 -47 426 -141c102.667 -96 154 -235.333 154 -418c0 -170 -66.667 -305 -200 -405c-117.333 -88.667 -265 -136.667 -443 -144v-383h-392v386
c-172.667 8 -317 57 -433 147c-130 100.667 -195 233.667 -195 399c0 188 54.333 327.667 163 419c97.333 81.333 243.666 128 438.999 140l-64 -301c-48 -10.667 -85.333 -40 -112 -88c-23.333 -42 -35 -89.667 -35 -143c0 -73.333 21.5 -135 64.5 -185
s100.5 -79 172.5 -87zM1092 276c72 9.33301 130.667 35 176 77c50 45.333 75 103 75 173c0 59.333 -10 113 -30 161c-26.667 64.667 -65.667 97 -117 97c-69.333 0 -104 -61.333 -104 -184v-324z" />
    <glyph glyph-name="chi" unicode="&#x3c7;" horiz-adv-x="1327" 
d="M1313 -406h-445l-200 523l-244 -523h-410l379 766l-358 701h448l181 -488l202 488h420l-354 -701z" />
    <glyph glyph-name="psi" unicode="&#x3c8;" horiz-adv-x="1876" 
d="M1757 596c0 -200.667 -52.167 -353.5 -156.5 -458.5s-256.833 -157.5 -457.5 -157.5v-386h-408v383c-202 0 -355.167 52.667 -459.5 158s-156.5 259 -156.5 461v465h407v-486c0 -188 69.667 -282 209 -282v768h408v-768c138 0 207 94 207 282v486h407v-465z" />
    <glyph glyph-name="psi" unicode="&#x471;" horiz-adv-x="1876" 
d="M1757 596c0 -200.667 -52.167 -353.5 -156.5 -458.5s-256.833 -157.5 -457.5 -157.5v-386h-408v383c-202 0 -355.167 52.667 -459.5 158s-156.5 259 -156.5 461v465h407v-486c0 -188 69.667 -282 209 -282v768h408v-768c138 0 207 94 207 282v486h407v-465z" />
    <glyph glyph-name="omega" unicode="&#x3c9;" horiz-adv-x="1937" 
d="M1743 1061c82 -149.333 123 -318.002 123 -506.002c0 -170 -42.667 -307 -128 -411c-92.667 -112.667 -222 -169 -388 -169c-81.333 0 -157 20.333 -227 61c-76 43.333 -128 101 -156 173c-27.333 -74.667 -78 -133 -152 -175c-68 -39.333 -143.667 -59 -227 -59
c-166 0 -295.333 56.333 -388 169c-85.333 104 -128 241 -128 411c0 188 41 356.667 123 506h409c-27.333 -70 -50.666 -154.333 -69.999 -253c-20 -101.333 -30 -188.333 -30 -261c0 -168 48.333 -252 145 -252c38 0 68 26 90 78c18 40.667 27 82.334 27 125.001v336h408
v-336c0 -42.667 8.66699 -84.334 26 -125.001c21.333 -52 50.666 -78 87.999 -78c97.333 0 146 84 146 252c0 72.667 -10 159.334 -30 260.001s-43.667 185.334 -71 254.001h410z" />
    <glyph glyph-name="iotadieresis" unicode="&#x3ca;" horiz-adv-x="682" 
d="M138 1062h407v-1062h-407v1062zM-2 1446h260v-250h-260v250zM422 1446h263v-250h-263v250z" />
    <glyph glyph-name="upsilondieresis" unicode="&#x3cb;" 
d="M1243 430c0 -154 -58 -271 -174 -351c-100.667 -69.333 -231.667 -104 -393 -104c-160.667 0 -290 35 -388 105c-112.667 79.333 -169 196 -169 350v631h407v-572c0 -130.667 51.333 -196 154 -196c104 0 156 65.333 156 196v572h407v-631zM342 1446h260v-250h-260v250z
M766 1446h263v-250h-263v250z" />
    <glyph glyph-name="omicrontonos" unicode="&#x3cc;" 
d="M73 528c0 172.667 58.666 309.998 175.999 411.998c112 97.333 255.667 146 431 146c212.667 0 373.334 -61.667 482.001 -185c87.333 -99.333 131 -221.666 131 -366.999c0 -176 -59 -314.333 -177 -415c-111.333 -95.333 -256.333 -143 -435 -143
c-171.333 0 -309.333 43.333 -414 130c-129.333 106.667 -194 247.334 -194 422.001zM480.999 528.998c0 -76.667 14.333 -139.332 43 -187.999c34.667 -60 87.667 -90 159 -90c134 0 201 94 201 282c0 74 -14 135.333 -42 184c-34.667 59.333 -86.667 89 -156 89
c-72 0 -125.667 -29.667 -161 -89c-29.333 -48.667 -44 -111.334 -44 -188.001zM920.999 1466l-180 -299h-195l66 299h309z" />
    <glyph glyph-name="upsilontonos" unicode="&#x3cd;" 
d="M1243 430c0 -154 -58 -271 -174 -351c-100.667 -69.333 -231.667 -104 -393 -104c-160.667 0 -290 35 -388 105c-112.667 79.333 -169 196 -169 350v631h407v-572c0 -130.667 51.333 -196 154 -196c104 0 156 65.333 156 196v572h407v-631zM925 1466l-180 -299h-195
l66 299h309z" />
    <glyph glyph-name="omegatonos" unicode="&#x3ce;" horiz-adv-x="1937" 
d="M1743 1061c82 -149.333 123 -318.002 123 -506.002c0 -170 -42.667 -307 -128 -411c-92.667 -112.667 -222 -169 -388 -169c-81.333 0 -157 20.333 -227 61c-76 43.333 -128 101 -156 173c-27.333 -74.667 -78 -133 -152 -175c-68 -39.333 -143.667 -59 -227 -59
c-166 0 -295.333 56.333 -388 169c-85.333 104 -128 241 -128 411c0 188 41 356.667 123 506h409c-27.333 -70 -50.666 -154.333 -69.999 -253c-20 -101.333 -30 -188.333 -30 -261c0 -168 48.333 -252 145 -252c38 0 68 26 90 78c18 40.667 27 82.334 27 125.001v336h408
v-336c0 -42.667 8.66699 -84.334 26 -125.001c21.333 -52 50.666 -78 87.999 -78c97.333 0 146 84 146 252c0 72.667 -10 159.334 -30 260.001s-43.667 185.334 -71 254.001h410zM1193 1466l-180 -299h-195l66 299h309z" />
    <glyph glyph-name="afii10023" unicode="&#x401;" horiz-adv-x="1479" 
d="M149 1466h1214v-313h-760v-233h705v-299h-705v-289h782v-332h-1236v1466zM397 1809h260v-250h-260v250zM821 1809h263v-250h-263v250z" />
    <glyph glyph-name="afii10051" unicode="&#x402;" horiz-adv-x="2056" 
d="M967 901c133.333 48 254.666 72.001 363.999 72.001c189.333 0 339 -36.333 449 -109c130.667 -86 196 -218.333 196 -397c0 -172.667 -65.333 -299.334 -196 -380.001c-107.333 -66 -253 -99 -437 -99c-38 0 -95.333 5.33301 -172 16l62 309
c48 -9.33301 84.667 -14 110 -14c50 0 92 12.667 126 38c38 28 57 66 57 114c0 103.333 -76 155 -228 155c-101.333 0 -211.666 -24.667 -330.999 -74v-532h-453v1106h-461v360h1374v-360h-460v-205z" />
    <glyph glyph-name="afii10052" unicode="&#x403;" 
d="M1311 1106h-709v-1106h-452v1466h1161v-360zM663 1875h350l-323 -299h-195z" />
    <glyph glyph-name="afii10053" unicode="&#x404;" horiz-adv-x="1630" 
d="M1565 426c-102 -300.667 -344.332 -451 -726.999 -451c-240.667 0 -425.667 68 -555 204c-126 133.333 -189 321.333 -189 564c0 240.667 67 426 201 556c132 128 319 192 561 192c329.333 0 554.666 -123 675.999 -369l-408 -155c-44.667 122.667 -134 184 -268 184
c-172 0 -272.333 -94.333 -301 -283h444v-272h-442c24.667 -187.333 123.667 -281 297 -281c148.667 0 243.667 75.333 285 226z" />
    <glyph glyph-name="afii10054" unicode="&#x405;" horiz-adv-x="1479" 
d="M71 485l430.999 26.998c9.33301 -70 28.333 -123.333 57 -160c46.667 -59.333 113.334 -89 200.001 -89c52.667 0 97.667 11.667 135 35c44.667 28 67 66.667 67 116c0 56.667 -35 101.667 -105 135c-34 16 -93 33.333 -177 52c-162 36 -285 81.667 -369 137
c-122.667 80 -184 188 -184 324c0 83.333 24.667 158.333 74 225c46 62.667 109 111.667 189 147c87.333 38 207.333 57 360 57c174.667 0 309.667 -29.667 405 -89c112.667 -70 179 -186 199 -348l-427 -25c-21.333 126 -95.333 189 -222 189
c-106 0 -159 -38.333 -159 -115c0 -52 61.667 -91 185 -117c152 -32.667 264.333 -63 337 -91c134 -51.333 226 -118.333 276 -201c38.667 -64.667 58 -137 58 -217c0 -97.333 -26.667 -185.166 -80 -263.499s-125.333 -137.166 -216 -176.499
c-93.333 -41.333 -211 -62 -353 -62c-201.333 0 -356.333 34.667 -465 104c-128 82.667 -200 218 -216 406z" />
    <glyph glyph-name="afii10055" unicode="&#x406;" horiz-adv-x="797" 
d="M168 1466h454v-1466h-454v1466z" />
    <glyph glyph-name="afii10056" unicode="&#x407;" horiz-adv-x="797" 
d="M168 1466h454v-1466h-454v1466zM56 1809h260v-250h-260v250zM480 1809h263v-250h-263v250z" />
    <glyph glyph-name="afii10057" unicode="&#x408;" 
d="M760 1466h453.999v-797c0 -152 -10.333 -264.333 -31 -337c-31.333 -112.667 -95.333 -201.667 -192 -267c-90 -60.667 -205 -91 -345 -91c-264.667 0 -442 78.667 -532 236c-44.667 76.667 -71 171.667 -79 285l433 59c1.33301 -112 25 -185.333 71 -220
c16.667 -12.667 41.334 -19 74.001 -19c98 0 147 82.333 147 247v904z" />
    <glyph glyph-name="afii10058" unicode="&#x409;" horiz-adv-x="2478" 
d="M1497 901l241.999 0.00292969c436.667 0 655 -161 655 -483c0 -108.667 -33 -198.834 -99 -270.501s-153.333 -113.834 -262 -126.501c-116.667 -14 -186.667 -21 -210 -21h-779v1106h-354v-451c0 -166 -4.33301 -275.667 -13 -329
c-21.333 -134.667 -72.666 -225 -153.999 -271c-72.667 -40.667 -189.667 -61 -351 -61c-49.333 0 -106 5.33301 -170 16v297h68c64.667 0 109.667 15.667 135 47c22 27.333 33 74.666 33 141.999v970h1259v-565zM1497 315.003h232c142 0 213 51.333 213 154
c0 90 -71 135 -213 135h-232v-289z" />
    <glyph glyph-name="afii10059" unicode="&#x40a;" horiz-adv-x="2478" 
d="M1497 901l242 0.00195312c436.667 0 655 -161 655 -483c0 -108.667 -33 -198.834 -99 -270.501s-153.333 -113.834 -262 -126.501c-116.667 -14 -186.667 -21 -210 -21h-779v592h-440v-592h-452v1466h452v-514h440v514h453v-565zM1497 315.002h232
c142 0 213 51.333 213 154c0 90 -71 135 -213 135h-232v-289z" />
    <glyph glyph-name="afii10060" unicode="&#x40b;" horiz-adv-x="1999" 
d="M1878 0h-453v389c0 148.667 -66 223 -198 223c-98 0 -184.667 -35.333 -260 -106v-506h-453v1106h-461v360h1374v-360h-460v-246c132.667 76.667 265 115 397 115c152.667 0 276 -44.333 370 -133c96 -90.667 144 -211.667 144 -363v-479z" />
    <glyph glyph-name="afii10061" unicode="&#x40c;" horiz-adv-x="1495" 
d="M1483 0h-510l-176 379c-33.333 72 -56.666 116.667 -69.999 134c-32.667 44.667 -74.334 67 -125.001 67v-580h-452v1466h452v-563c52 2.66699 95.333 36.334 130 101.001c6 10 27.667 65 65 165c55.333 148 138.666 240.667 249.999 278c59.333 20 189 30 389 30v-310
h-23c-73.333 0 -129.333 -13.833 -168 -41.5s-70.667 -75.834 -96 -144.501c-42 -116 -105.667 -191 -191 -225c74.667 -24.667 140.667 -72 198 -142c38.667 -47.333 81.334 -118.333 128.001 -213zM735 1871h350l-323 -299h-195z" />
    <glyph glyph-name="afii10062" unicode="&#x40e;" horiz-adv-x="1376" 
d="M12 1466h491.998l203 -604l200 604h461l-481 -1132c-37.333 -88 -66.666 -148.333 -87.999 -181c-38.667 -60 -87 -104.667 -145 -134s-137.333 -44 -238 -44c-53.333 0 -145 7.66699 -275 23v303c76.667 -8 132.667 -12 168 -12c104.667 0 168.334 39 191.001 117z
M1030 1872c-1.33301 -93.333 -34.332 -167.667 -98.999 -223c-62 -52 -140.333 -78 -235 -78c-100.667 0 -181 25 -241 75c-62.667 52 -98.334 127.333 -107.001 226h172c20 -71.333 76 -107 168 -107c102 0 161.333 35.667 178 107h164z" />
    <glyph glyph-name="afii10145" unicode="&#x40f;" horiz-adv-x="1706" 
d="M1554 0h-520v-319h-364v319h-518v1466h452v-1106h498v1106h452v-1466z" />
    <glyph glyph-name="afii10017" unicode="&#x410;" horiz-adv-x="1593" 
d="M1052 242h-516l-71 -242h-463l551 1466h494l551 -1466h-474zM957 559l-162 527l-161 -527h323z" />
    <glyph glyph-name="afii10018" unicode="&#x411;" horiz-adv-x="1593" 
d="M604 901h242c436.667 0 655 -161 655 -483c0 -151.333 -60.333 -262.333 -181 -333c-97.333 -56.667 -227.333 -85 -390 -85h-778v1466h1234v-297h-782v-268zM604 315h232c142 0 213 51.333 213 154c0 90 -71 135 -213 135h-232v-289z" />
    <glyph glyph-name="afii10019" unicode="&#x412;" horiz-adv-x="1593" 
d="M151 1466l848 -0.000976562c123.333 0 225 -29.333 305 -88c89.333 -65.333 134 -157.666 134 -276.999c0 -86.667 -27 -161 -81 -223c-36 -41.333 -88.667 -74 -158 -98c204.667 -49.333 307 -170.333 307 -363c0 -156.667 -66 -273 -198 -349
c-38 -22 -95.333 -38 -172 -48c-102 -13.333 -169.667 -20 -203 -20h-782v1466zM608 890.999h197c126 0 189 47.333 189 142c0 90.667 -62 136 -186 136h-200v-278zM608 314.999h231c142 0 213 51 213 153c0 96 -71.333 144 -214 144h-230v-297z" />
    <glyph glyph-name="afii10020" unicode="&#x413;" 
d="M1311 1106h-709v-1106h-452v1466h1161v-360z" />
    <glyph glyph-name="afii10021" unicode="&#x414;" horiz-adv-x="1716" 
d="M1688 -319h-365v319h-936v-319h-364v657h151c84.667 236.667 127 503.667 127 801v327h1229v-1128h158v-657zM1077 338v768.001h-364v-19c0 -202.667 -34.333 -452.334 -103 -749.001h467z" />
    <glyph glyph-name="afii10022" unicode="&#x415;" horiz-adv-x="1479" 
d="M149 1466h1214v-313h-760v-233h705v-299h-705v-289h782v-332h-1236v1466z" />
    <glyph glyph-name="afii10024" unicode="&#x416;" horiz-adv-x="2224" 
d="M2210 0l-510.005 0.000976562l-176 379c-33.333 72 -56.666 116.667 -69.999 134c-32.667 44.667 -74.334 67 -125.001 67v-580h-452v580c-51.333 0 -93.333 -22 -126 -66c-12 -16.667 -35 -61.667 -69 -135l-176 -379h-510l199 401
c46.667 94.667 89.334 165.667 128.001 213c56.667 70.667 122.334 118 197.001 142c-86 34.667 -149.333 109.667 -190 225c-25.333 68.667 -57.333 116.834 -96 144.501s-94.667 41.5 -168 41.5h-23v310c126.667 0 220.334 -3.66699 281.001 -11
c126 -16 211 -49.333 255 -100c34.667 -40.667 69 -106.334 103 -197.001c38.667 -102.667 60 -158 64 -166c34.667 -64 78.334 -97.333 131.001 -100v563h452v-563c52 2.66699 95.333 36.334 130 101.001c6 10 27.667 65 65 165c55.333 148 138.666 240.667 249.999 278
c59.333 20 189 30 389 30v-310h-23c-73.333 0 -129.333 -13.833 -168 -41.5s-70.667 -75.834 -96 -144.501c-42 -115.333 -105.333 -190.333 -190 -225c74.667 -24.667 140.334 -72.334 197.001 -143.001c38.667 -47.333 81.334 -118 128.001 -212z" />
    <glyph glyph-name="afii10025" unicode="&#x417;" horiz-adv-x="1409" 
d="M1069 797c176 -47.333 264.001 -157.999 264.001 -331.999c0 -164.667 -67 -290.667 -201 -378c-114 -74.667 -258 -112 -432 -112c-344 0 -557.667 144.333 -641 433l428 32c24 -102 92.333 -153 205 -153c127.333 0 191 59.333 191 178c0 60 -23.667 106.333 -71 139
c-41.333 28.667 -93.666 43 -156.999 43h-123v262h97c124 0 186 57.333 186 172c0 79.333 -49.667 119 -149 119c-102.667 0 -162.334 -45.667 -179.001 -137l-405 47c66 254 263.333 381 592 381c153.333 0 281.666 -26.667 384.999 -80
c132 -68.667 198 -172.334 198 -311.001c0 -144 -62.667 -245 -188 -303z" />
    <glyph glyph-name="afii10026" unicode="&#x418;" horiz-adv-x="1706" 
d="M1553 1466v-1466h-426v805l-549 -805h-427v1466h427v-811l552 811h423z" />
    <glyph glyph-name="afii10027" unicode="&#x419;" horiz-adv-x="1706" 
d="M1553 1466v-1466h-426v805l-549 -805h-427v1466h427v-811l552 811h423zM1221 1827c-14.667 -86.667 -56.667 -156 -126 -208c-66.667 -48.667 -145 -73 -235 -73c-89.333 0 -167.333 24.667 -234 74c-70 52 -112 121 -126 207h174c28 -83.333 88.667 -125 182 -125
c100 0 163.667 41.667 191 125h174z" />
    <glyph glyph-name="afii10028" unicode="&#x41a;" horiz-adv-x="1495" 
d="M1483 0h-510l-176 379c-33.333 72 -56.666 116.667 -69.999 134c-32.667 44.667 -74.334 67 -125.001 67v-580h-452v1466h452v-563c52 2.66699 95.333 36.334 130 101.001c6 10 27.667 65 65 165c55.333 148 138.666 240.667 249.999 278c59.333 20 189 30 389 30v-310
h-23c-73.333 0 -129.333 -13.833 -168 -41.5s-70.667 -75.834 -96 -144.501c-42 -116 -105.667 -191 -191 -225c74.667 -24.667 140.667 -72 198 -142c38.667 -47.333 81.334 -118.333 128.001 -213z" />
    <glyph glyph-name="afii10029" unicode="&#x41b;" horiz-adv-x="1647" 
d="M1497 0l-453.001 0.000976562v1106h-354v-451c0 -166 -4.33301 -275.667 -13 -329c-21.333 -134.667 -72.666 -225 -153.999 -271c-72.667 -40.667 -189.667 -61 -351 -61c-49.333 0 -106 5.33301 -170 16v297h68c64.667 0 109.667 15.667 135 47
c22 27.333 33 74.666 33 141.999v970h1259v-1466z" />
    <glyph glyph-name="afii10030" unicode="&#x41c;" horiz-adv-x="1933" 
d="M145 1466h596l230 -892l229 892h594v-1466h-370v1118l-287 -1118h-335l-286 1118v-1118h-371v1466z" />
    <glyph glyph-name="afii10031" unicode="&#x41d;" horiz-adv-x="1706" 
d="M152 1466h453v-513h495v513h455v-1466h-455v593h-495v-593h-453v1466z" />
    <glyph glyph-name="afii10032" unicode="&#x41e;" horiz-adv-x="1706" 
d="M93 732c0 239.333 66.332 425.667 198.999 559s318.667 200 558 200c240.667 0 427.334 -64 560.001 -192c134.667 -130 202 -315 202 -555c0 -326 -112 -551.667 -336 -677c-109.333 -61.333 -245.333 -92 -408 -92c-320 0 -544.667 109.667 -674 329
c-67.333 114 -101 256.667 -101 428zM545.999 730.001c0 -277.333 102.333 -416 307 -416c120 0 204 45.333 252 136c36 67.333 54 167.333 54 300c0 265.333 -103.333 398 -310 398c-202 0 -303 -139.333 -303 -418z" />
    <glyph glyph-name="afii10033" unicode="&#x41f;" horiz-adv-x="1706" 
d="M1554 0h-452v1106h-498v-1106h-452v1466h1402v-1466z" />
    <glyph glyph-name="afii10034" unicode="&#x420;" horiz-adv-x="1479" 
d="M148 1466h753c327.333 0 491 -150 491 -450c0 -314.667 -180.333 -472 -541 -472h-248v-544h-455v1466zM603 841h111c158 0 237 54 237 162c0 110 -73 165 -219 165h-129v-327z" />
    <glyph glyph-name="afii10035" unicode="&#x421;" horiz-adv-x="1593" 
d="M1126 599l397 -120.001c-52.667 -221.333 -165.667 -370.666 -339 -447.999c-85.333 -38 -193.666 -57 -324.999 -57c-154 0 -278.667 21 -374 63c-110 48 -202.667 131.667 -278 251c-73.333 116.667 -110 266 -110 448c0 240 63.667 425.833 191 557.5
s310.666 197.5 549.999 197.5c175.333 0 316 -34.333 422 -103c112 -73.333 195 -191 249 -353l-400 -89c-14 44 -28.667 76.667 -44 98c-52.667 72 -124.667 108 -216 108c-102 0 -180.667 -41.333 -236 -124c-41.333 -62 -62 -158.333 -62 -289
c0 -128 15.667 -224.333 47 -289c44 -90.667 122.333 -136 235 -136c154 0 251.667 95 293 285z" />
    <glyph glyph-name="afii10036" unicode="&#x422;" horiz-adv-x="1479" 
d="M47 1466h1377v-362h-462v-1104h-453v1104h-462v362z" />
    <glyph glyph-name="afii10037" unicode="&#x423;" horiz-adv-x="1376" 
d="M12 1466h491.998l203 -604l200 604h461l-481 -1132c-37.333 -88 -66.666 -148.333 -87.999 -181c-38.667 -60 -87 -104.667 -145 -134s-137.333 -44 -238 -44c-53.333 0 -145 7.66699 -275 23v303c76.667 -8 132.667 -12 168 -12c104.667 0 168.334 39 191.001 117z" />
    <glyph glyph-name="afii10038" unicode="&#x424;" horiz-adv-x="1892" 
d="M1153 1354c445.333 -46.667 668 -246.666 668 -599.999c0 -360.667 -222.667 -561.334 -668 -602.001v-152h-412v156c-444.667 38 -667 237.333 -667 598c0 354 222.333 554 667 600v112h412v-112zM1153 459.001c150 43.333 225.001 143.666 225.001 300.999
c0 72 -20.333 135.833 -61 191.5s-95.334 94.834 -164.001 117.501v-610zM741.001 455.001l0.00195312 605.998c-68.667 -19.333 -123.334 -57.666 -164.001 -114.999s-61 -122 -61 -194c0 -69.333 20.667 -130.666 62 -183.999s95.666 -91 162.999 -113z" />
    <glyph glyph-name="afii10039" unicode="&#x425;" horiz-adv-x="1593" 
d="M49 1466h499l260 -451l252 451h494l-456 -710l499 -756h-509l-289 471l-290 -471h-506l506 764z" />
    <glyph glyph-name="afii10040" unicode="&#x426;" horiz-adv-x="1761" 
d="M1712 -319h-364v319h-1196v1466h452v-1106h498v1106h452v-1128h158v-657z" />
    <glyph glyph-name="afii10041" unicode="&#x427;" horiz-adv-x="1647" 
d="M1497 0h-452.999v545c-138.667 -76.667 -270.334 -115 -395.001 -115c-152.667 0 -276 44.333 -370 133c-96 90 -144 211 -144 363v540h453v-450c0 -148.667 66 -223 198 -223c118.667 0 204.667 35.333 258 106v567h453v-1466z" />
    <glyph glyph-name="afii10042" unicode="&#x428;" horiz-adv-x="2273" 
d="M2124 0h-1972v1466h452v-1106h305v1106h453v-1106h309v1106h453v-1466z" />
    <glyph glyph-name="afii10043" unicode="&#x429;" horiz-adv-x="2331" 
d="M2281 -319h-364v319h-1765v1466h452v-1106h305v1106h453v-1106h309v1106h453v-1128h157v-657z" />
    <glyph glyph-name="afii10044" unicode="&#x42a;" horiz-adv-x="2052" 
d="M1071 891l242 0.00195312c436.667 0 655 -157.667 655 -473c0 -108.667 -33 -198.834 -99 -270.501s-153.333 -113.834 -262 -126.501c-116.667 -14 -186.667 -21 -210 -21h-779v1169h-567v297h1020v-575zM1071 315.002h232c142 0 213 51.333 213 154
c0 96.667 -71 145 -213 145h-232v-299z" />
    <glyph glyph-name="afii10045" unicode="&#x42b;" horiz-adv-x="2216" 
d="M604 901h242c436.667 0 655 -161 655 -483c0 -151.333 -60.333 -262.333 -181 -333c-97.333 -56.667 -227.333 -85 -390 -85h-778v1466h452v-565zM604 315h232c142 0 213 51.333 213 154c0 90 -71 135 -213 135h-232v-289zM1612 1466h454v-1466h-454v1466z" />
    <glyph glyph-name="afii10046" unicode="&#x42c;" horiz-adv-x="1585" 
d="M604 901h242c436.667 0 655 -161 655 -483c0 -151.333 -60.333 -262.333 -181 -333c-97.333 -56.667 -227.333 -85 -390 -85h-778v1466h452v-565zM604 315h232c142 0 213 51.333 213 154c0 90 -71 135 -213 135h-232v-289z" />
    <glyph glyph-name="afii10047" unicode="&#x42d;" horiz-adv-x="1630" 
d="M96 1122c121.333 246 346.668 369 676.001 369c242 0 429 -64 561 -192c134 -130 201 -315.333 201 -556c0 -242.667 -63 -430.667 -189 -564c-128.667 -136 -313.334 -204 -554.001 -204c-383.333 0 -626 150.333 -728 451l426 115
c41.333 -150.667 136.333 -226 285 -226c173.333 0 272.333 93.667 297 281h-442v272h444c-28.667 188.667 -129 283 -301 283c-134 0 -223.333 -61.333 -268 -184z" />
    <glyph glyph-name="afii10048" unicode="&#x42e;" horiz-adv-x="2372" 
d="M780 952c40.667 181.333 127.002 318 259.002 410c124 86 282 129 474 129c242 0 429 -64 561 -192c134 -130 201 -315.333 201 -556c0 -242.667 -63 -430.667 -189 -564c-128.667 -136 -313.334 -204 -554.001 -204c-214.667 0 -387.334 49.333 -518.001 148
c-141.333 106 -224 262.333 -248 469h-162v-592h-452v1466h452v-514h176zM1516 315c120 0 204.333 45 253 135c36 67.333 54 167.333 54 300c0 267.333 -103.333 401 -310 401c-202 0 -303 -140.667 -303 -422c0 -276 102 -414 306 -414z" />
    <glyph glyph-name="afii10049" unicode="&#x42f;" horiz-adv-x="1597" 
d="M1446 0v1466h-755c-121.333 0 -213 -7.66699 -275 -23c-99.333 -24.667 -174.333 -73.334 -225 -146.001c-45.333 -65.333 -68 -144.666 -68 -237.999c0 -157.333 65 -275.333 195 -354c38.667 -23.333 91.667 -42.666 159 -57.999c-54 -18 -93.333 -36 -118 -54
c-18 -13.333 -42.333 -39.166 -73 -77.499s-51.667 -68.5 -63 -90.5l-219 -425h512l242 448c32 59.333 59.333 97 82 113c32 22.667 69 34 111 34h40v-595h455zM991 871.998l-191 -0.000976562c-18.667 0 -58.667 6.66699 -120 20c-68 14.667 -102 58.334 -102 131.001
c0 98 71.333 147 214 147h199v-298z" />
    <glyph glyph-name="afii10065" unicode="&#x430;" 
d="M494 718l-389.002 41c26 122 87 209.333 183 262c78.667 43.333 200.667 65 366 65c112.667 0 196.334 -4.33301 251.001 -13c98 -14.667 174 -45.667 228 -93c34.667 -30.667 62.667 -74.334 84 -131.001c18.667 -52 28 -103.333 28 -154v-469
c0 -80.667 17 -156 51 -226h-382c-22 39.333 -36.667 82.666 -44 129.999c-54 -52 -107 -88.667 -159 -110c-71.333 -29.333 -155 -44 -251 -44c-107.333 0 -195.666 23.333 -264.999 70c-81.333 54.667 -122 133 -122 235c0 96.667 32.667 171 98 223
c50.667 40 129 70.667 235 92c112.667 22.667 187 38.334 223 47.001c83.333 19.333 156 41.333 218 66c0 50.667 -10.5 85.834 -31.5 105.501s-57.167 29.5 -108.5 29.5c-66.667 0 -116.667 -10.667 -150 -32c-26 -16.667 -47 -48 -63 -94zM846.998 504
c-51.333 -18 -109.667 -35.665 -175 -52.998c-57.333 -15.333 -98 -29.333 -122 -42c-46 -24.667 -69 -57.334 -69 -98.001c0 -72.667 44 -109 132 -109c41.333 0 81.333 9.66699 120 29c42 21.333 72 49.666 90 84.999c16 31.333 24 72.333 24 123v65z" />
    <glyph glyph-name="afii10066" unicode="&#x431;" 
d="M479 1030c48.667 36.667 115.666 55.0039 200.999 55.0039c179.333 0 324.333 -46 435 -138c118 -98.667 177 -236 177 -412c0 -176.667 -58.667 -315.334 -176 -416.001c-111.333 -96 -256.666 -144 -435.999 -144c-218.667 0 -377 63.667 -475 191
c-87.333 113.333 -131 283.333 -131 510c0 203.333 34.667 372.666 104 507.999c88.667 172.667 224.667 262 408 268l123 4c109.333 3.33301 170 17.666 182 42.999h323c0 -194 -109 -295 -327 -303c-116.667 -4 -195.667 -11.667 -237 -23
c-90 -22.667 -147 -70.334 -171 -143.001zM681.999 254.004c135.333 0 203 92.667 203 278c0 75.333 -14 137.333 -42 186c-34.667 59.333 -87 89 -157 89c-72 0 -125.667 -30 -161 -90c-29.333 -48.667 -44 -111.667 -44 -189c0 -182.667 67 -274 201 -274z" />
    <glyph glyph-name="afii10067" unicode="&#x432;" horiz-adv-x="1260" 
d="M924 565c79.333 -8 142.333 -33.333 189 -76c50 -46.667 75 -108.667 75 -186c0 -122.667 -49 -207.334 -147 -254.001c-68 -32.667 -172 -49 -312 -49h-606v1061h655c243.333 0 365 -86 365 -258c0 -60 -22 -111.667 -66 -155c-40 -39.333 -91 -65.666 -153 -78.999v-4z
M530 657h103c68 0 102 31 102 93c0 50 -36 75 -108 75h-97v-168zM530 250h134c74.667 0 112 30 112 90c0 64 -37.333 96 -112 96h-134v-186z" />
    <glyph glyph-name="afii10068" unicode="&#x433;" horiz-adv-x="1040" 
d="M997 764h-452v-764h-408v1061h860v-297z" />
    </font>
</defs>
</svg>
